  0
SECTION
  2
HEADER
  9
$ACADVER
  1
AC1009
  9
$INSBASE
 10
0.0
 20
0.0
 30
0.0
  9
$EXTMIN
 10
2440.002383138985
 20
-527.8627648839227
 30
0.0
  9
$EXTMAX
 10
3010.002383138985
 20
-132.862764883923
 30
0.0
  9
$LIMMIN
 10
0.0
 20
0.0
  9
$LIMMAX
 10
3000.0
 20
2500.0
  9
$ORTHOMODE
 70
     0
  9
$REGENMODE
 70
     1
  9
$FILLMODE
 70
     1
  9
$QTEXTMODE
 70
     0
  9
$MIRRTEXT
 70
     1
  9
$DRAGMODE
 70
     2
  9
$LTSCALE
 40
10.0
  9
$OSMODE
 70
    37
  9
$ATTMODE
 70
     1
  9
$TEXTSIZE
 40
3.0
  9
$TRACEWID
 40
1.0
  9
$TEXTSTYLE
  7
STANDARD
  9
$CLAYER
  8
回04-下接
  9
$CELTYPE
  6
CONTINUOUS
  9
$CECOLOR
 62
     7
  9
$DIMSCALE
 40
1.0
  9
$DIMASZ
 40
1.5
  9
$DIMEXO
 40
0.0
  9
$DIMDLI
 40
0.0
  9
$DIMRND
 40
0.0
  9
$DIMDLE
 40
0.0
  9
$DIMEXE
 40
1.0
  9
$DIMTP
 40
0.2
  9
$DIMTM
 40
0.2
  9
$DIMTXT
 40
3.0
  9
$DIMCEN
 40
1.5
  9
$DIMTSZ
 40
0.0
  9
$DIMTOL
 70
     0
  9
$DIMLIM
 70
     0
  9
$DIMTIH
 70
     0
  9
$DIMTOH
 70
     0
  9
$DIMSE1
 70
     0
  9
$DIMSE2
 70
     0
  9
$DIMTAD
 70
     3
  9
$DIMZIN
 70
     8
  9
$DIMBLK
  1
OPEN
  9
$DIMASO
 70
     1
  9
$DIMSHO
 70
     1
  9
$DIMPOST
  1

  9
$DIMAPOST
  1

  9
$DIMALT
 70
     0
  9
$DIMALTD
 70
     3
  9
$DIMALTF
 40
0.03937007874016
  9
$DIMLFAC
 40
1.0
  9
$DIMTOFL
 70
     1
  9
$DIMTVP
 40
0.0
  9
$DIMTIX
 70
     0
  9
$DIMSOXD
 70
     0
  9
$DIMSAH
 70
     0
  9
$DIMBLK1
  1

  9
$DIMBLK2
  1

  9
$DIMSTYLE
  2
DMC
  9
$DIMCLRD
 70
     5
  9
$DIMCLRE
 70
     5
  9
$DIMCLRT
 70
     5
  9
$DIMTFAC
 40
0.7
  9
$DIMGAP
 40
0.5
  9
$LUNITS
 70
     2
  9
$LUPREC
 70
     4
  9
$SKETCHINC
 40
1.0
  9
$FILLETRAD
 40
0.5
  9
$AUNITS
 70
     0
  9
$AUPREC
 70
     0
  9
$MENU
  1
.
  9
$ELEVATION
 40
0.0
  9
$PELEVATION
 40
0.0
  9
$THICKNESS
 40
0.0
  9
$LIMCHECK
 70
     0
  9
$BLIPMODE
 70
     0
  9
$CHAMFERA
 40
10.0
  9
$CHAMFERB
 40
10.0
  9
$SKPOLY
 70
     0
  9
$TDCREATE
 40
2451810.404221065
  9
$TDUPDATE
 40
2460230.385698958
  9
$TDINDWG
 40
3.162238079
  9
$TDUSRTIMER
 40
3.162236424
  9
$USRTIMER
 70
     1
  9
$ANGBASE
 50
0.0
  9
$ANGDIR
 70
     0
  9
$PDMODE
 70
     0
  9
$PDSIZE
 40
0.0
  9
$PLINEWID
 40
0.125
  9
$COORDS
 70
     0
  9
$SPLFRAME
 70
     0
  9
$SPLINETYPE
 70
     6
  9
$SPLINESEGS
 70
     8
  9
$ATTDIA
 70
     1
  9
$ATTREQ
 70
     1
  9
$HANDLING
 70
     1
  9
$HANDSEED
  5
B83
  9
$SURFTAB1
 70
     6
  9
$SURFTAB2
 70
     6
  9
$SURFTYPE
 70
     6
  9
$SURFU
 70
     6
  9
$SURFV
 70
     6
  9
$UCSNAME
  2

  9
$UCSORG
 10
0.0
 20
0.0
 30
0.0
  9
$UCSXDIR
 10
1.0
 20
0.0
 30
0.0
  9
$UCSYDIR
 10
0.0
 20
1.0
 30
0.0
  9
$PUCSNAME
  2

  9
$PUCSORG
 10
0.0
 20
0.0
 30
0.0
  9
$PUCSXDIR
 10
1.0
 20
0.0
 30
0.0
  9
$PUCSYDIR
 10
0.0
 20
1.0
 30
0.0
  9
$USERI1
 70
     0
  9
$USERI2
 70
     0
  9
$USERI3
 70
     0
  9
$USERI4
 70
     0
  9
$USERI5
 70
     0
  9
$USERR1
 40
0.0
  9
$USERR2
 40
0.0
  9
$USERR3
 40
0.0
  9
$USERR4
 40
0.0
  9
$USERR5
 40
0.0
  9
$WORLDVIEW
 70
     1
  9
$SHADEDGE
 70
     3
  9
$SHADEDIF
 70
    70
  9
$TILEMODE
 70
     1
  9
$MAXACTVP
 70
    64
  9
$PLIMCHECK
 70
     0
  9
$PEXTMIN
 10
1.000000000000000E+20
 20
1.000000000000000E+20
 30
1.000000000000000E+20
  9
$PEXTMAX
 10
-1.000000000000000E+20
 20
-1.000000000000000E+20
 30
-1.000000000000000E+20
  9
$PLIMMIN
 10
0.0
 20
0.0
  9
$PLIMMAX
 10
420.0
 20
297.0
  9
$UNITMODE
 70
     0
  9
$VISRETAIN
 70
     1
  9
$PLINEGEN
 70
     0
  9
$PSLTSCALE
 70
     1
  0
ENDSEC
  0
SECTION
  2
TABLES
  0
TABLE
  2
VPORT
 70
     1
  0
VPORT
  2
*ACTIVE
 70
     0
 10
0.0
 20
0.0
 11
1.0
 21
1.0
 12
2867.046207951045
 22
-371.2372293605047
 13
0.0
 23
0.0
 14
10.0
 24
10.0
 15
10.0
 25
10.0
 16
0.0
 26
0.0
 36
1.0
 17
0.0
 27
0.0
 37
0.0
 40
563.3162427779474
 41
1.853689567430025
 42
50.0
 43
0.0
 44
0.0
 50
0.0
 51
0.0
 71
     0
 72
   500
 73
     1
 74
     1
 75
     0
 76
     0
 77
     0
 78
     0
  0
ENDTAB
  0
TABLE
  2
LTYPE
 70
     3
  0
LTYPE
  2
CONTINUOUS
 70
     0
  3
Solid line
 72
    65
 73
     0
 40
0.0
  0
LTYPE
  2
CENTER2
 70
     0
  3
Center (.5x) ___ _ ___ _ ___ _ ___ _ ___ _ ___
 72
    65
 73
     4
 40
28.575
 49
19.05
 49
-3.174999999999998
 49
3.174999999999998
 49
-3.174999999999998
  0
LTYPE
  2
PHANTOM2
 70
     0
  3
___ _ _ ___ _ _ ___ _ _ ___ _ _ ___ _ _ ___ _ _
 72
    65
 73
     6
 40
1.25
 49
0.625
 49
-0.125
 49
0.125
 49
-0.125
 49
0.125
 49
-0.125
  0
ENDTAB
  0
TABLE
  2
LAYER
 70
    11
  0
LAYER
  2
0
 70
     0
 62
     7
  6
CONTINUOUS
  0
LAYER
  2
DEFPOINTS
 70
     0
 62
     7
  6
CONTINUOUS
  0
LAYER
  2
回05-ﾃｰﾙ
 70
     0
 62
     7
  6
CONTINUOUS
  0
LAYER
  2
回07-寸法
 70
     0
 62
     7
  6
CONTINUOUS
  0
LAYER
  2
回03-下ER
 70
     0
 62
     7
  6
CONTINUOUS
  0
LAYER
  2
回90-枠2
 70
     0
 62
     7
  6
CONTINUOUS
  0
LAYER
  2
回04-下接
 70
     0
 62
     7
  6
CONTINUOUS
  0
LAYER
  2
回01-上ER
 70
     0
 62
     7
  6
CONTINUOUS
  0
LAYER
  2
回08-記事
 70
     0
 62
     7
  6
CONTINUOUS
  0
LAYER
  2
回04-図面枠
 70
     0
 62
     7
  6
CONTINUOUS
  0
LAYER
  2
回03-記事
 70
     0
 62
     7
  6
CONTINUOUS
  0
ENDTAB
  0
TABLE
  2
STYLE
 70
     2
  0
STYLE
  2
STANDARD
 70
     0
 40
3.0
 41
1.0
 50
0.0
 71
     0
 42
3.0
  3
isocp.shx
  4
bigfont.shx
  0
STYLE
  2
ANNOTATIVE
 70
     0
 40
0.0
 41
1.0
 50
0.0
 71
     0
 42
0.2
  3
txt.shx
  4

  0
ENDTAB
  0
TABLE
  2
VIEW
 70
     0
  0
ENDTAB
  0
TABLE
  2
UCS
 70
     0
  0
ENDTAB
  0
TABLE
  2
APPID
 70
     8
  0
APPID
  2
ACAD
 70
     0
  0
APPID
  2
ACADANNOTATIVE
 70
     0
  0
APPID
  2
ACAECLAYERSTANDARD
 70
     0
  0
APPID
  2
ACAD_PSEXT
 70
     0
  0
APPID
  2
GRADIENTCOLOR1ACI
 70
     0
  0
APPID
  2
GRADIENTCOLOR2ACI
 70
     0
  0
APPID
  2
ACADSTRINGINFO
 70
     0
  0
APPID
  2
ACAD_NAV_VCDISPLAY
 70
     0
  0
ENDTAB
  0
TABLE
  2
DIMSTYLE
 70
     2
  0
DIMSTYLE
  2
DMC
 70
     0
  3

  4

  5
OPEN
  6

  7

 40
1.0
 41
2.0
 42
0.0
 43
0.0
 44
1.0
 45
0.0
 46
0.0
 47
0.0
 48
0.0
140
3.0
141
2.0
142
0.0
143
0.03937007874016
144
1.0
145
0.0
146
0.7
147
0.5
 71
     0
 72
     0
 73
     0
 74
     0
 75
     0
 76
     0
 77
     3
 78
     8
170
     0
171
     3
172
     1
173
     0
174
     0
175
     0
176
     5
177
     5
178
     5
  0
DIMSTYLE
  2
STANDARD
 70
     0
  3

  4

  5

  6

  7

 40
1.0
 41
0.18
 42
0.0625
 43
0.38
 44
0.18
 45
0.0
 46
0.0
 47
0.0
 48
0.0
140
0.18
141
0.09
142
0.0
143
25.4
144
1.0
145
0.0
146
1.0
147
0.09
 71
     0
 72
     0
 73
     1
 74
     1
 75
     0
 76
     0
 77
     0
 78
     0
170
     0
171
     2
172
     0
173
     0
174
     0
175
     0
176
     0
177
     0
178
     0
  0
ENDTAB
  0
ENDSEC
  0
SECTION
  2
BLOCKS
  0
BLOCK
  8
0
  2
$MODEL_SPACE
 70
     0
 10
0.0
 20
0.0
 30
0.0
  3
$MODEL_SPACE
  1

  0
ENDBLK
  8
0
  5
21
  0
BLOCK
 67
     1
  8
0
  2
$PAPER_SPACE
 70
     0
 10
0.0
 20
0.0
 30
0.0
  3
$PAPER_SPACE
  1

  0
ENDBLK
  5
27
 67
     1
  8
0
  0
BLOCK
  8
0
  2
_OPEN
 70
     0
 10
0.0
 20
0.0
 30
0.0
  3
_OPEN
  1

  0
LINE
  5
8C3
  8
0
  6
BYBLOCK
 62
     0
 10
-1.0
 20
0.166667
 30
0.0
 11
0.0
 21
0.0
 31
0.0
  0
LINE
  5
8C4
  8
0
  6
BYBLOCK
 62
     0
 10
-1.0
 20
-0.166667
 30
0.0
 11
0.0
 21
0.0
 31
0.0
  0
LINE
  5
8C5
  8
0
  6
BYBLOCK
 62
     0
 10
0.0
 20
0.0
 30
0.0
 11
-1.0
 21
0.0
 31
0.0
  0
LINE
  5
15
  8
0
  6
CONTINUOUS
 62
     0
 10
-1.0
 20
0.1666666666666666
 30
0.0
 11
0.0
 21
0.0
 31
0.0
  0
LINE
  5
16
  8
0
  6
CONTINUOUS
 62
     0
 10
-1.0
 20
-0.1666666666666666
 30
0.0
 11
0.0
 21
0.0
 31
0.0
  0
LINE
  5
17
  8
0
  6
CONTINUOUS
 62
     0
 10
0.0
 20
0.0
 30
0.0
 11
-1.0
 21
0.0
 31
0.0
  0
ENDBLK
  5
18
  8
0
  0
BLOCK
  8
0
  2
*D11
 70
     1
 10
0.0
 20
0.0
 30
0.0
  3
*D11
  1

  0
LINE
  5
3EC
  8
回07-寸法
  6
CONTINUOUS
 62
     5
 10
2524.093777946705
 20
-116.9796719838534
 30
0.0
 11
2524.093777946705
 21
-76.97875166973336
 31
0.0
  0
LINE
  5
3ED
  8
回07-寸法
  6
CONTINUOUS
 62
     5
 10
2802.013777946705
 20
-116.9796719838534
 30
0.0
 11
2802.013777946705
 21
-76.97875166973336
 31
0.0
  0
LINE
  5
3EE
  8
回07-寸法
  6
CONTINUOUS
 62
     5
 10
2525.593777946705
 20
-77.97875166973334
 30
0.0
 11
2800.513777946705
 21
-77.97875166973334
 31
0.0
  0
INSERT
  5
3EF
  8
回07-寸法
  6
CONTINUOUS
 62
     5
  2
_OPEN
 10
2524.093777946705
 20
-77.97875166973334
 30
0.0
 41
1.5
 42
1.5
 43
1.5
 50
180.0
  0
INSERT
  5
3F0
  8
回07-寸法
  6
CONTINUOUS
 62
     5
  2
_OPEN
 10
2802.013777946705
 20
-77.97875166973334
 30
0.0
 41
1.5
 42
1.5
 43
1.5
  0
INSERT
  5
3F1
  8
回07-寸法
  6
CONTINUOUS
 62
     5
 66
     1
  2
*X8585
 10
0.0
 20
0.0
 30
0.0
  0
SEQEND
  5
7F4
  8
回04-下接
  6
CONTINUOUS
 62
     7
  0
POINT
  5
3F2
  8
DEFPOINTS
  6
CONTINUOUS
 62
     0
 10
2524.093777946705
 20
-116.9796719838534
 30
0.0
  0
POINT
  5
3F3
  8
DEFPOINTS
  6
CONTINUOUS
 62
     0
 10
2802.013777946705
 20
-116.9796719838534
 30
0.0
  0
POINT
  5
3F4
  8
DEFPOINTS
  6
CONTINUOUS
 62
     0
 10
2802.013777946705
 20
-77.97875166973334
 30
0.0
  0
ENDBLK
  5
3F5
  8
0
 62
     7
  0
BLOCK
  8
0
  2
*D22
 70
     1
 10
0.0
 20
0.0
 30
0.0
  3
*D22
  1

  0
LINE
  5
3DF
  8
回07-寸法
  6
CONTINUOUS
 62
     5
 10
2530.243777946705
 20
-122.9797048073374
 30
0.0
 11
2530.243777946705
 21
-94.47540645379197
 31
0.0
  0
LINE
  5
3E0
  8
回07-寸法
  6
CONTINUOUS
 62
     5
 10
2795.863777946705
 20
-122.9797048073374
 30
0.0
 11
2795.863777946705
 21
-94.47540645379197
 31
0.0
  0
LINE
  5
3E1
  8
回07-寸法
  6
CONTINUOUS
 62
     5
 10
2531.743777946705
 20
-95.47540645379196
 30
0.0
 11
2794.363777946705
 21
-95.47540645379196
 31
0.0
  0
INSERT
  5
3E2
  8
回07-寸法
  6
CONTINUOUS
 62
     5
  2
_OPEN
 10
2530.243777946705
 20
-95.47540645379196
 30
0.0
 41
1.5
 42
1.5
 43
1.5
 50
180.0
  0
INSERT
  5
3E3
  8
回07-寸法
  6
CONTINUOUS
 62
     5
  2
_OPEN
 10
2795.863777946705
 20
-95.47540645379196
 30
0.0
 41
1.5
 42
1.5
 43
1.5
  0
TEXT
  5
3E4
  8
回07-寸法
  6
CONTINUOUS
 62
     5
 10
2644.454368497886
 20
-94.17104092373049
 30
0.0
 40
3.0
  1
265.62(Viewing area)
1001
ACAD
1000
MTEXTBEGIN
1070
    73
1070
     1
1070
    44
1040
1.0
1070
    74
1070
     0
1000
MTEXTEND
  0
POINT
  5
3E5
  8
DEFPOINTS
  6
CONTINUOUS
 62
     0
 10
2530.243777946705
 20
-122.9797048073374
 30
0.0
  0
POINT
  5
3E6
  8
DEFPOINTS
  6
CONTINUOUS
 62
     0
 10
2795.863777946705
 20
-122.9797048073374
 30
0.0
  0
POINT
  5
3E7
  8
DEFPOINTS
  6
CONTINUOUS
 62
     0
 10
2795.863777946705
 20
-95.47540645379196
 30
0.0
  0
ENDBLK
  5
3E8
  8
0
 62
     7
  0
BLOCK
  8
0
  2
*D33
 70
     1
 10
0.0
 20
0.0
 30
0.0
  3
*D33
  1

  0
LINE
  5
3D2
  8
回07-寸法
  6
CONTINUOUS
 62
     5
 10
2529.743777946705
 20
-122.4797048073374
 30
0.0
 11
2529.743777946705
 21
-85.97947670826291
 31
0.0
  0
LINE
  5
3D3
  8
回07-寸法
  6
CONTINUOUS
 62
     5
 10
2796.363777946705
 20
-122.4797048073374
 30
0.0
 11
2796.363777946705
 21
-85.97947670826291
 31
0.0
  0
LINE
  5
3D4
  8
回07-寸法
  6
CONTINUOUS
 62
     5
 10
2531.243777946705
 20
-86.97947670826287
 30
0.0
 11
2794.863777946705
 21
-86.97947670826287
 31
0.0
  0
INSERT
  5
3D5
  8
回07-寸法
  6
CONTINUOUS
 62
     5
  2
_OPEN
 10
2529.743777946705
 20
-86.97947670826287
 30
0.0
 41
1.5
 42
1.5
 43
1.5
 50
180.0
  0
INSERT
  5
3D6
  8
回07-寸法
  6
CONTINUOUS
 62
     5
  2
_OPEN
 10
2796.363777946705
 20
-86.97947670826287
 30
0.0
 41
1.5
 42
1.5
 43
1.5
  0
TEXT
  5
3D7
  8
回07-寸法
  6
CONTINUOUS
 62
     5
 10
2657.353446261365
 20
-86.47918143267235
 30
0.0
 40
3.0
  1
266.62
1001
ACAD
1000
MTEXTBEGIN
1070
    73
1070
     1
1070
    44
1040
1.0
1070
    74
1070
     0
1000
MTEXTEND
  0
POINT
  5
3D8
  8
DEFPOINTS
  6
CONTINUOUS
 62
     0
 10
2529.743777946705
 20
-122.4797048073374
 30
0.0
  0
POINT
  5
3D9
  8
DEFPOINTS
  6
CONTINUOUS
 62
     0
 10
2796.363777946705
 20
-122.4797048073374
 30
0.0
  0
POINT
  5
3DA
  8
DEFPOINTS
  6
CONTINUOUS
 62
     0
 10
2796.363777946705
 20
-86.97947670826287
 30
0.0
  0
ENDBLK
  5
3DB
  8
0
 62
     7
  0
BLOCK
  8
0
  2
*D44
 70
     1
 10
0.0
 20
0.0
 30
0.0
  3
*D44
  1

  0
LINE
  5
3C5
  8
回07-寸法
  6
CONTINUOUS
 62
     5
 10
2532.243777946705
 20
-124.9797048073365
 30
0.0
 11
2532.243777946705
 21
-103.8297719838534
 31
0.0
  0
LINE
  5
3C6
  8
回07-寸法
  6
CONTINUOUS
 62
     5
 10
2793.863777946705
 20
-124.9797048073374
 30
0.0
 11
2793.863777946705
 21
-103.8297719838534
 31
0.0
  0
LINE
  5
3C7
  8
回07-寸法
  6
CONTINUOUS
 62
     5
 10
2533.743777946706
 20
-104.8297719838534
 30
0.0
 11
2792.363777946705
 21
-104.8297719838534
 31
0.0
  0
INSERT
  5
3C8
  8
回07-寸法
  6
CONTINUOUS
 62
     5
  2
_OPEN
 10
2532.243777946705
 20
-104.8297719838534
 30
0.0
 41
1.5
 42
1.5
 43
1.5
 50
180.0
  0
INSERT
  5
3C9
  8
回07-寸法
  6
CONTINUOUS
 62
     5
  2
_OPEN
 10
2793.863777946705
 20
-104.8297719838534
 30
0.0
 41
1.5
 42
1.5
 43
1.5
  0
TEXT
  5
3CA
  8
回07-寸法
  6
CONTINUOUS
 62
     5
 10
2645.804368497886
 20
-104.1797719838534
 30
0.0
 40
3.0
  1
261.62(Active area)
1001
ACAD
1000
MTEXTBEGIN
1070
    73
1070
     1
1070
    44
1040
1.0
1070
    74
1070
     0
1000
MTEXTEND
  0
POINT
  5
3CB
  8
DEFPOINTS
  6
CONTINUOUS
 62
     0
 10
2532.243777946705
 20
-124.9797048073365
 30
0.0
  0
POINT
  5
3CC
  8
DEFPOINTS
  6
CONTINUOUS
 62
     0
 10
2793.863777946705
 20
-124.9797048073374
 30
0.0
  0
POINT
  5
3CD
  8
DEFPOINTS
  6
CONTINUOUS
 62
     0
 10
2793.863777946705
 20
-104.8297719838534
 30
0.0
  0
ENDBLK
  5
3CE
  8
0
 62
     7
  0
BLOCK
  8
0
  2
*D55
 70
     1
 10
0.0
 20
0.0
 30
0.0
  3
*D55
  1

  0
LINE
  5
3B8
  8
回07-寸法
  6
CONTINUOUS
 62
     5
 10
2524.093777946706
 20
-116.9796719838535
 30
0.0
 11
2476.126277946716
 21
-116.9796719838535
 31
0.0
  0
LINE
  5
3B9
  8
回07-寸法
  6
CONTINUOUS
 62
     5
 10
2524.093777946706
 20
-301.3797048073375
 30
0.0
 11
2476.126277946716
 21
-301.3797048073375
 31
0.0
  0
LINE
  5
3BA
  8
回07-寸法
  6
CONTINUOUS
 62
     5
 10
2477.126277946716
 20
-118.4796719838535
 30
0.0
 11
2477.126277946716
 21
-299.8797048073375
 31
0.0
  0
INSERT
  5
3BB
  8
回07-寸法
  6
CONTINUOUS
 62
     5
  2
_OPEN
 10
2477.126277946716
 20
-116.9796719838535
 30
0.0
 41
1.5
 42
1.5
 43
1.5
 50
90.0
  0
INSERT
  5
3BC
  8
回07-寸法
  6
CONTINUOUS
 62
     5
  2
_OPEN
 10
2477.126277946716
 20
-301.3797048073375
 30
0.0
 41
1.5
 42
1.5
 43
1.5
 50
270.0
  0
INSERT
  5
3BD
  8
回07-寸法
  6
CONTINUOUS
 62
     5
 66
     1
  2
*X8686
 10
0.0
 20
0.0
 30
0.0
  0
SEQEND
  5
7FA
  8
回04-下接
  6
CONTINUOUS
 62
     7
  0
POINT
  5
3BE
  8
DEFPOINTS
  6
CONTINUOUS
 62
     0
 10
2524.093777946706
 20
-116.9796719838535
 30
0.0
  0
POINT
  5
3BF
  8
DEFPOINTS
  6
CONTINUOUS
 62
     0
 10
2524.093777946706
 20
-301.3797048073375
 30
0.0
  0
POINT
  5
3C0
  8
DEFPOINTS
  6
CONTINUOUS
 62
     0
 10
2477.126277946716
 20
-301.3797048073375
 30
0.0
  0
ENDBLK
  5
3C1
  8
0
 62
     7
  0
BLOCK
  8
0
  2
*D66
 70
     1
 10
0.0
 20
0.0
 30
0.0
  3
*D66
  1

  0
LINE
  5
3AB
  8
回07-寸法
  6
CONTINUOUS
 62
     5
 10
2532.243777946706
 20
-124.9797048073366
 30
0.0
 11
2503.126277946715
 21
-124.9797048073366
 31
0.0
  0
LINE
  5
3AC
  8
回07-寸法
  6
CONTINUOUS
 62
     5
 10
2532.243777946706
 20
-288.6797048073376
 30
0.0
 11
2503.126277946715
 21
-288.6797048073376
 31
0.0
  0
LINE
  5
3AD
  8
回07-寸法
  6
CONTINUOUS
 62
     5
 10
2504.126277946716
 20
-126.4797048073366
 30
0.0
 11
2504.126277946716
 21
-287.1797048073375
 31
0.0
  0
INSERT
  5
3AE
  8
回07-寸法
  6
CONTINUOUS
 62
     5
  2
_OPEN
 10
2504.126277946716
 20
-124.9797048073366
 30
0.0
 41
1.5
 42
1.5
 43
1.5
 50
90.0
  0
INSERT
  5
3AF
  8
回07-寸法
  6
CONTINUOUS
 62
     5
  2
_OPEN
 10
2504.126277946716
 20
-288.6797048073376
 30
0.0
 41
1.5
 42
1.5
 43
1.5
 50
270.0
  0
TEXT
  5
3B0
  8
回07-寸法
  6
CONTINUOUS
 62
     5
 10
2503.476277946715
 20
-223.0291142561564
 30
0.0
 40
3.0
  1
163.7(Active area)
 50
90.0
1001
ACAD
1000
MTEXTBEGIN
1070
    73
1070
     1
1070
    44
1040
1.0
1070
    74
1070
     0
1000
MTEXTEND
  0
POINT
  5
3B1
  8
DEFPOINTS
  6
CONTINUOUS
 62
     0
 10
2532.243777946706
 20
-124.9797048073366
 30
0.0
  0
POINT
  5
3B2
  8
DEFPOINTS
  6
CONTINUOUS
 62
     0
 10
2532.243777946706
 20
-288.6797048073376
 30
0.0
  0
POINT
  5
3B3
  8
DEFPOINTS
  6
CONTINUOUS
 62
     0
 10
2504.126277946716
 20
-288.6797048073376
 30
0.0
  0
ENDBLK
  5
3B4
  8
0
 62
     7
  0
BLOCK
  8
0
  2
*D77
 70
     1
 10
0.0
 20
0.0
 30
0.0
  3
*D77
  1

  0
LINE
  5
39E
  8
回07-寸法
  6
CONTINUOUS
 62
     5
 10
2530.243777946706
 20
-122.9797048073375
 30
0.0
 11
2494.126277946715
 21
-122.9797048073375
 31
0.0
  0
LINE
  5
39F
  8
回07-寸法
  6
CONTINUOUS
 62
     5
 10
2530.243777946706
 20
-290.6797048073375
 30
0.0
 11
2494.126277946715
 21
-290.6797048073375
 31
0.0
  0
LINE
  5
3A0
  8
回07-寸法
  6
CONTINUOUS
 62
     5
 10
2495.126277946715
 20
-124.4797048073375
 30
0.0
 11
2495.126277946715
 21
-289.1797048073375
 31
0.0
  0
INSERT
  5
3A1
  8
回07-寸法
  6
CONTINUOUS
 62
     5
  2
_OPEN
 10
2495.126277946715
 20
-122.9797048073375
 30
0.0
 41
1.5
 42
1.5
 43
1.5
 50
90.0
  0
INSERT
  5
3A2
  8
回07-寸法
  6
CONTINUOUS
 62
     5
  2
_OPEN
 10
2495.126277946715
 20
-290.6797048073375
 30
0.0
 41
1.5
 42
1.5
 43
1.5
 50
270.0
  0
TEXT
  5
3A3
  8
回07-寸法
  6
CONTINUOUS
 62
     5
 10
2493.821912416653
 20
-224.079114256157
 30
0.0
 40
3.0
  1
167.7(Viewing area)
 50
90.0
1001
ACAD
1000
MTEXTBEGIN
1070
    73
1070
     1
1070
    44
1040
1.0
1070
    74
1070
     0
1000
MTEXTEND
  0
POINT
  5
3A4
  8
DEFPOINTS
  6
CONTINUOUS
 62
     0
 10
2530.243777946706
 20
-122.9797048073375
 30
0.0
  0
POINT
  5
3A5
  8
DEFPOINTS
  6
CONTINUOUS
 62
     0
 10
2530.243777946706
 20
-290.6797048073375
 30
0.0
  0
POINT
  5
3A6
  8
DEFPOINTS
  6
CONTINUOUS
 62
     0
 10
2495.126277946715
 20
-290.6797048073375
 30
0.0
  0
ENDBLK
  5
3A7
  8
0
 62
     7
  0
BLOCK
  8
0
  2
*D88
 70
     1
 10
0.0
 20
0.0
 30
0.0
  3
*D88
  1

  0
LINE
  5
391
  8
回07-寸法
  6
CONTINUOUS
 62
     5
 10
2529.743777946706
 20
-122.4797048073375
 30
0.0
 11
2485.126277946716
 21
-122.4797048073375
 31
0.0
  0
LINE
  5
392
  8
回07-寸法
  6
CONTINUOUS
 62
     5
 10
2529.743777946706
 20
-291.1797048073376
 30
0.0
 11
2485.126277946716
 21
-291.1797048073376
 31
0.0
  0
LINE
  5
393
  8
回07-寸法
  6
CONTINUOUS
 62
     5
 10
2486.126277946715
 20
-123.9797048073375
 30
0.0
 11
2486.126277946715
 21
-289.6797048073375
 31
0.0
  0
INSERT
  5
394
  8
回07-寸法
  6
CONTINUOUS
 62
     5
  2
_OPEN
 10
2486.126277946715
 20
-122.4797048073375
 30
0.0
 41
1.5
 42
1.5
 43
1.5
 50
90.0
  0
INSERT
  5
395
  8
回07-寸法
  6
CONTINUOUS
 62
     5
  2
_OPEN
 10
2486.126277946715
 20
-291.1797048073376
 30
0.0
 41
1.5
 42
1.5
 43
1.5
 50
270.0
  0
TEXT
  5
396
  8
回07-寸法
  6
CONTINUOUS
 62
     5
 10
2485.626277946714
 20
-211.1797048073381
 30
0.0
 40
3.0
  1
168.7
 50
90.0
1001
ACAD
1000
MTEXTBEGIN
1070
    73
1070
     1
1070
    44
1040
1.0
1070
    74
1070
     0
1000
MTEXTEND
  0
POINT
  5
397
  8
DEFPOINTS
  6
CONTINUOUS
 62
     0
 10
2529.743777946706
 20
-122.4797048073375
 30
0.0
  0
POINT
  5
398
  8
DEFPOINTS
  6
CONTINUOUS
 62
     0
 10
2529.743777946706
 20
-291.1797048073376
 30
0.0
  0
POINT
  5
399
  8
DEFPOINTS
  6
CONTINUOUS
 62
     0
 10
2486.126277946715
 20
-291.1797048073376
 30
0.0
  0
ENDBLK
  5
39A
  8
0
 62
     7
  0
BLOCK
  8
0
  2
*D99
 70
     1
 10
0.0
 20
0.0
 30
0.0
  3
*D99
  1

  0
LINE
  5
382
  8
回07-寸法
  6
CONTINUOUS
 62
     5
 10
2529.743777946705
 20
-122.4797048073374
 30
0.0
 11
2529.743777946705
 21
-85.97947670826291
 31
0.0
  0
LINE
  5
383
  8
回07-寸法
  6
CONTINUOUS
 62
     5
 10
2524.093777946705
 20
-116.9796719838534
 30
0.0
 11
2524.093777946705
 21
-85.97947670826291
 31
0.0
  0
LINE
  5
384
  8
回07-寸法
  6
CONTINUOUS
 62
     5
 10
2531.243777946705
 20
-86.97947670826287
 30
0.0
 11
2532.743777946705
 21
-86.97947670826287
 31
0.0
  0
LINE
  5
385
  8
回07-寸法
  6
CONTINUOUS
 62
     5
 10
2522.593777946705
 20
-86.97947670826287
 30
0.0
 11
2513.669513877993
 21
-86.97947670826287
 31
0.0
  0
LINE
  5
386
  8
回07-寸法
  6
CONTINUOUS
 62
     5
 10
2529.743777946705
 20
-86.97947670826287
 30
0.0
 11
2524.093777946705
 21
-86.97947670826287
 31
0.0
  0
INSERT
  5
387
  8
回07-寸法
  6
CONTINUOUS
 62
     5
  2
_OPEN
 10
2529.743777946705
 20
-86.97947670826287
 30
0.0
 41
1.5
 42
1.5
 43
1.5
 50
180.0
  0
INSERT
  5
388
  8
回07-寸法
  6
CONTINUOUS
 62
     5
  2
_OPEN
 10
2524.093777946705
 20
-86.97947670826287
 30
0.0
 41
1.5
 42
1.5
 43
1.5
  0
TEXT
  5
389
  8
回07-寸法
  6
CONTINUOUS
 62
     5
 10
2513.781645912349
 20
-86.47947670826289
 30
0.0
 40
3.0
  1
5.65
1001
ACAD
1000
MTEXTBEGIN
1070
    73
1070
     1
1070
    44
1040
1.0
1070
    74
1070
     0
1000
MTEXTEND
  0
POINT
  5
38A
  8
DEFPOINTS
  6
CONTINUOUS
 62
     0
 10
2529.743777946705
 20
-122.4797048073374
 30
0.0
  0
POINT
  5
38B
  8
DEFPOINTS
  6
CONTINUOUS
 62
     0
 10
2524.093777946705
 20
-116.9796719838534
 30
0.0
  0
POINT
  5
38C
  8
DEFPOINTS
  6
CONTINUOUS
 62
     0
 10
2524.093777946705
 20
-86.97947670826287
 30
0.0
  0
ENDBLK
  5
38D
  8
0
 62
     7
  0
BLOCK
  8
0
  2
*D1010
 70
     1
 10
0.0
 20
0.0
 30
0.0
  3
*D1010
  1

  0
LINE
  5
373
  8
回07-寸法
  6
CONTINUOUS
 62
     5
 10
2532.243777946705
 20
-124.9797048073374
 30
0.0
 11
2532.243777946705
 21
-103.8297719838534
 31
0.0
  0
LINE
  5
374
  8
回07-寸法
  6
CONTINUOUS
 62
     5
 10
2524.093777946705
 20
-116.9796719838534
 30
0.0
 11
2524.093777946705
 21
-103.8297719838534
 31
0.0
  0
LINE
  5
375
  8
回07-寸法
  6
CONTINUOUS
 62
     5
 10
2533.743777946706
 20
-104.8297719838534
 30
0.0
 11
2535.243777946705
 21
-104.8297719838534
 31
0.0
  0
LINE
  5
376
  8
回07-寸法
  6
CONTINUOUS
 62
     5
 10
2522.593777946705
 20
-104.8297719838534
 30
0.0
 11
2512.874027802113
 21
-104.8297719838534
 31
0.0
  0
LINE
  5
377
  8
回07-寸法
  6
CONTINUOUS
 62
     5
 10
2532.243777946705
 20
-104.8297719838534
 30
0.0
 11
2524.093777946705
 21
-104.8297719838534
 31
0.0
  0
INSERT
  5
378
  8
回07-寸法
  6
CONTINUOUS
 62
     5
  2
_OPEN
 10
2532.243777946705
 20
-104.8297719838534
 30
0.0
 41
1.5
 42
1.5
 43
1.5
 50
180.0
  0
INSERT
  5
379
  8
回07-寸法
  6
CONTINUOUS
 62
     5
  2
_OPEN
 10
2524.093777946705
 20
-104.8297719838534
 30
0.0
 41
1.5
 42
1.5
 43
1.5
  0
TEXT
  5
37A
  8
回07-寸法
  6
CONTINUOUS
 62
     5
 10
2512.986159836469
 20
-104.3297719838534
 30
0.0
 40
3.0
  1
8.15
1001
ACAD
1000
MTEXTBEGIN
1070
    73
1070
     1
1070
    44
1040
1.0
1070
    74
1070
     0
1000
MTEXTEND
  0
POINT
  5
37B
  8
DEFPOINTS
  6
CONTINUOUS
 62
     0
 10
2532.243777946705
 20
-124.9797048073374
 30
0.0
  0
POINT
  5
37C
  8
DEFPOINTS
  6
CONTINUOUS
 62
     0
 10
2524.093777946705
 20
-116.9796719838534
 30
0.0
  0
POINT
  5
37D
  8
DEFPOINTS
  6
CONTINUOUS
 62
     0
 10
2524.093777946705
 20
-104.8297719838534
 30
0.0
  0
ENDBLK
  5
37E
  8
0
 62
     7
  0
BLOCK
  8
0
  2
*D1111
 70
     1
 10
0.0
 20
0.0
 30
0.0
  3
*D1111
  1

  0
LINE
  5
364
  8
回07-寸法
  6
CONTINUOUS
 62
     5
 10
2530.243777946705
 20
-122.9797048073374
 30
0.0
 11
2530.243777946705
 21
-94.47540645379197
 31
0.0
  0
LINE
  5
365
  8
回07-寸法
  6
CONTINUOUS
 62
     5
 10
2524.093777946705
 20
-116.9796719838534
 30
0.0
 11
2524.093777946705
 21
-94.47540645379197
 31
0.0
  0
LINE
  5
366
  8
回07-寸法
  6
CONTINUOUS
 62
     5
 10
2531.743777946705
 20
-95.47540645379196
 30
0.0
 11
2533.243777946705
 21
-95.47540645379196
 31
0.0
  0
LINE
  5
367
  8
回07-寸法
  6
CONTINUOUS
 62
     5
 10
2522.593777946705
 20
-95.47540645379196
 30
0.0
 11
2514.014618353293
 21
-95.47540645379196
 31
0.0
  0
LINE
  5
368
  8
回07-寸法
  6
CONTINUOUS
 62
     5
 10
2530.243777946705
 20
-95.47540645379196
 30
0.0
 11
2524.093777946705
 21
-95.47540645379196
 31
0.0
  0
INSERT
  5
369
  8
回07-寸法
  6
CONTINUOUS
 62
     5
  2
_OPEN
 10
2530.243777946705
 20
-95.47540645379196
 30
0.0
 41
1.5
 42
1.5
 43
1.5
 50
180.0
  0
INSERT
  5
36A
  8
回07-寸法
  6
CONTINUOUS
 62
     5
  2
_OPEN
 10
2524.093777946705
 20
-95.47540645379196
 30
0.0
 41
1.5
 42
1.5
 43
1.5
  0
TEXT
  5
36B
  8
回07-寸法
  6
CONTINUOUS
 62
     5
 10
2514.216514167177
 20
-94.97540645379194
 30
0.0
 40
3.0
  1
6.15
1001
ACAD
1000
MTEXTBEGIN
1070
    73
1070
     1
1070
    44
1040
1.0
1070
    74
1070
     0
1000
MTEXTEND
  0
POINT
  5
36C
  8
DEFPOINTS
  6
CONTINUOUS
 62
     0
 10
2530.243777946705
 20
-122.9797048073374
 30
0.0
  0
POINT
  5
36D
  8
DEFPOINTS
  6
CONTINUOUS
 62
     0
 10
2524.093777946705
 20
-116.9796719838534
 30
0.0
  0
POINT
  5
36E
  8
DEFPOINTS
  6
CONTINUOUS
 62
     0
 10
2524.093777946705
 20
-95.47540645379196
 30
0.0
  0
ENDBLK
  5
36F
  8
0
 62
     7
  0
BLOCK
  8
0
  2
*D1212
 70
     1
 10
0.0
 20
0.0
 30
0.0
  3
*D1212
  1

  0
LINE
  5
355
  8
回07-寸法
  6
CONTINUOUS
 62
     5
 10
2529.743777946706
 20
-122.4797048073375
 30
0.0
 11
2485.126277946717
 21
-122.4797048073375
 31
0.0
  0
LINE
  5
356
  8
回07-寸法
  6
CONTINUOUS
 62
     5
 10
2524.093777946706
 20
-116.9796719838535
 30
0.0
 11
2485.126277946717
 21
-116.9796719838535
 31
0.0
  0
LINE
  5
357
  8
回07-寸法
  6
CONTINUOUS
 62
     5
 10
2486.126277946719
 20
-123.9797048073375
 30
0.0
 11
2486.126277946719
 21
-125.4797048073375
 31
0.0
  0
LINE
  5
358
  8
回07-寸法
  6
CONTINUOUS
 62
     5
 10
2486.126277946719
 20
-115.4796719838535
 30
0.0
 11
2486.126277946719
 21
-106.3820341885779
 31
0.0
  0
LINE
  5
359
  8
回07-寸法
  6
CONTINUOUS
 62
     5
 10
2486.126277946719
 20
-122.4797048073375
 30
0.0
 11
2486.126277946719
 21
-116.9796719838535
 31
0.0
  0
INSERT
  5
35A
  8
回07-寸法
  6
CONTINUOUS
 62
     5
  2
_OPEN
 10
2486.126277946719
 20
-122.4797048073375
 30
0.0
 41
1.5
 42
1.5
 43
1.5
 50
90.0
  0
INSERT
  5
35B
  8
回07-寸法
  6
CONTINUOUS
 62
     5
  2
_OPEN
 10
2486.126277946719
 20
-116.9796719838535
 30
0.0
 41
1.5
 42
1.5
 43
1.5
 50
270.0
  0
TEXT
  5
35C
  8
回07-寸法
  6
CONTINUOUS
 62
     5
 10
2485.476277946717
 20
-113.9308530862163
 30
0.0
 40
3.0
  1
(5.5)
 50
90.0
1001
ACAD
1000
MTEXTBEGIN
1070
    73
1070
     1
1070
    44
1040
1.0
1070
    74
1070
     0
1000
MTEXTEND
  0
POINT
  5
35D
  8
DEFPOINTS
  6
CONTINUOUS
 62
     0
 10
2529.743777946706
 20
-122.4797048073375
 30
0.0
  0
POINT
  5
35E
  8
DEFPOINTS
  6
CONTINUOUS
 62
     0
 10
2524.093777946706
 20
-116.9796719838535
 30
0.0
  0
POINT
  5
35F
  8
DEFPOINTS
  6
CONTINUOUS
 62
     0
 10
2486.126277946719
 20
-116.9796719838535
 30
0.0
  0
ENDBLK
  5
360
  8
0
 62
     7
  0
BLOCK
  8
0
  2
*D1313
 70
     1
 10
0.0
 20
0.0
 30
0.0
  3
*D1313
  1

  0
LINE
  5
346
  8
回07-寸法
  6
CONTINUOUS
 62
     5
 10
2530.243777946706
 20
-122.9797048073375
 30
0.0
 11
2494.126277946711
 21
-122.9797048073375
 31
0.0
  0
LINE
  5
347
  8
回07-寸法
  6
CONTINUOUS
 62
     5
 10
2524.093777946706
 20
-116.9796719838535
 30
0.0
 11
2494.126277946711
 21
-116.9796719838535
 31
0.0
  0
LINE
  5
348
  8
回07-寸法
  6
CONTINUOUS
 62
     5
 10
2495.12627794671
 20
-124.4797048073375
 30
0.0
 11
2495.12627794671
 21
-125.9797048073375
 31
0.0
  0
LINE
  5
349
  8
回07-寸法
  6
CONTINUOUS
 62
     5
 10
2495.12627794671
 20
-115.4796719838535
 30
0.0
 11
2495.12627794671
 21
-109.3820341885776
 31
0.0
  0
LINE
  5
34A
  8
回07-寸法
  6
CONTINUOUS
 62
     5
 10
2495.12627794671
 20
-122.9797048073375
 30
0.0
 11
2495.12627794671
 21
-116.9796719838535
 31
0.0
  0
INSERT
  5
34B
  8
回07-寸法
  6
CONTINUOUS
 62
     5
  2
_OPEN
 10
2495.12627794671
 20
-122.9797048073375
 30
0.0
 41
1.5
 42
1.5
 43
1.5
 50
90.0
  0
INSERT
  5
34C
  8
回07-寸法
  6
CONTINUOUS
 62
     5
  2
_OPEN
 10
2495.12627794671
 20
-116.9796719838535
 30
0.0
 41
1.5
 42
1.5
 43
1.5
 50
270.0
  0
TEXT
  5
34D
  8
回07-寸法
  6
CONTINUOUS
 62
     5
 10
2494.476277946709
 20
-113.9308530862163
 30
0.0
 40
3.0
  1
(6)
 50
90.0
1001
ACAD
1000
MTEXTBEGIN
1070
    73
1070
     1
1070
    44
1040
1.0
1070
    74
1070
     0
1000
MTEXTEND
  0
POINT
  5
34E
  8
DEFPOINTS
  6
CONTINUOUS
 62
     0
 10
2530.243777946706
 20
-122.9797048073375
 30
0.0
  0
POINT
  5
34F
  8
DEFPOINTS
  6
CONTINUOUS
 62
     0
 10
2524.093777946706
 20
-116.9796719838535
 30
0.0
  0
POINT
  5
350
  8
DEFPOINTS
  6
CONTINUOUS
 62
     0
 10
2495.12627794671
 20
-116.9796719838535
 30
0.0
  0
ENDBLK
  5
351
  8
0
 62
     7
  0
BLOCK
  8
0
  2
*D1414
 70
     1
 10
0.0
 20
0.0
 30
0.0
  3
*D1414
  1

  0
LINE
  5
337
  8
回07-寸法
  6
CONTINUOUS
 62
     5
 10
2532.243777946706
 20
-124.9797048073366
 30
0.0
 11
2503.126277946706
 21
-124.9797048073366
 31
0.0
  0
LINE
  5
338
  8
回07-寸法
  6
CONTINUOUS
 62
     5
 10
2524.093777946706
 20
-116.9796719838535
 30
0.0
 11
2503.126277946706
 21
-116.9796719838535
 31
0.0
  0
LINE
  5
339
  8
回07-寸法
  6
CONTINUOUS
 62
     5
 10
2504.126277946705
 20
-126.4797048073366
 30
0.0
 11
2504.126277946705
 21
-127.9797048073366
 31
0.0
  0
LINE
  5
33A
  8
回07-寸法
  6
CONTINUOUS
 62
     5
 10
2504.126277946705
 20
-115.4796719838535
 30
0.0
 11
2504.126277946705
 21
-106.132134188577
 31
0.0
  0
LINE
  5
33B
  8
回07-寸法
  6
CONTINUOUS
 62
     5
 10
2504.126277946705
 20
-124.9797048073366
 30
0.0
 11
2504.126277946705
 21
-116.9796719838535
 31
0.0
  0
INSERT
  5
33C
  8
回07-寸法
  6
CONTINUOUS
 62
     5
  2
_OPEN
 10
2504.126277946705
 20
-124.9797048073366
 30
0.0
 41
1.5
 42
1.5
 43
1.5
 50
90.0
  0
INSERT
  5
33D
  8
回07-寸法
  6
CONTINUOUS
 62
     5
  2
_OPEN
 10
2504.126277946705
 20
-116.9796719838535
 30
0.0
 41
1.5
 42
1.5
 43
1.5
 50
270.0
  0
TEXT
  5
33E
  8
回07-寸法
  6
CONTINUOUS
 62
     5
 10
2503.476277946705
 20
-110.6809530862156
 30
0.0
 40
3.0
  1
(8)
 50
90.0
1001
ACAD
1000
MTEXTBEGIN
1070
    73
1070
     1
1070
    44
1040
1.0
1070
    74
1070
     0
1000
MTEXTEND
  0
POINT
  5
33F
  8
DEFPOINTS
  6
CONTINUOUS
 62
     0
 10
2532.243777946706
 20
-124.9797048073366
 30
0.0
  0
POINT
  5
340
  8
DEFPOINTS
  6
CONTINUOUS
 62
     0
 10
2524.093777946706
 20
-116.9796719838535
 30
0.0
  0
POINT
  5
341
  8
DEFPOINTS
  6
CONTINUOUS
 62
     0
 10
2504.126277946705
 20
-116.9796719838535
 30
0.0
  0
ENDBLK
  5
342
  8
0
 62
     7
  0
BLOCK
  8
0
  2
*D1515
 70
     1
 10
0.0
 20
0.0
 30
0.0
  3
*D1515
  1

  0
LINE
  5
328
  8
回07-寸法
  6
CONTINUOUS
 62
     5
 10
2796.363777946705
 20
-122.4797048073374
 30
0.0
 11
2796.363777946705
 21
-85.97947670826291
 31
0.0
  0
LINE
  5
329
  8
回07-寸法
  6
CONTINUOUS
 62
     5
 10
2802.013777946705
 20
-116.9796719838534
 30
0.0
 11
2802.013777946705
 21
-85.97947670826291
 31
0.0
  0
LINE
  5
32A
  8
回07-寸法
  6
CONTINUOUS
 62
     5
 10
2794.863777946705
 20
-86.97947670826287
 30
0.0
 11
2793.363777946705
 21
-86.97947670826287
 31
0.0
  0
LINE
  5
32B
  8
回07-寸法
  6
CONTINUOUS
 62
     5
 10
2803.513777946705
 20
-86.97947670826287
 30
0.0
 11
2814.71141574198
 21
-86.97947670826287
 31
0.0
  0
LINE
  5
32C
  8
回07-寸法
  6
CONTINUOUS
 62
     5
 10
2796.363777946705
 20
-86.97947670826287
 30
0.0
 11
2802.013777946705
 21
-86.97947670826287
 31
0.0
  0
INSERT
  5
32D
  8
回07-寸法
  6
CONTINUOUS
 62
     5
  2
_OPEN
 10
2796.363777946705
 20
-86.97947670826287
 30
0.0
 41
1.5
 42
1.5
 43
1.5
  0
INSERT
  5
32E
  8
回07-寸法
  6
CONTINUOUS
 62
     5
  2
_OPEN
 10
2802.013777946705
 20
-86.97947670826287
 30
0.0
 41
1.5
 42
1.5
 43
1.5
 50
180.0
  0
TEXT
  5
32F
  8
回07-寸法
  6
CONTINUOUS
 62
     5
 10
2805.062596844342
 20
-86.32947670826288
 30
0.0
 40
3.0
  1
(5.65)
1001
ACAD
1000
MTEXTBEGIN
1070
    73
1070
     1
1070
    44
1040
1.0
1070
    74
1070
     0
1000
MTEXTEND
  0
POINT
  5
330
  8
DEFPOINTS
  6
CONTINUOUS
 62
     0
 10
2796.363777946705
 20
-122.4797048073374
 30
0.0
  0
POINT
  5
331
  8
DEFPOINTS
  6
CONTINUOUS
 62
     0
 10
2802.013777946705
 20
-116.9796719838534
 30
0.0
  0
POINT
  5
332
  8
DEFPOINTS
  6
CONTINUOUS
 62
     0
 10
2802.013777946705
 20
-86.97947670826287
 30
0.0
  0
ENDBLK
  5
333
  8
0
 62
     7
  0
BLOCK
  8
0
  2
*D1616
 70
     1
 10
0.0
 20
0.0
 30
0.0
  3
*D1616
  1

  0
LINE
  5
319
  8
回07-寸法
  6
CONTINUOUS
 62
     5
 10
2793.863777946705
 20
-124.9797048073374
 30
0.0
 11
2793.863777946705
 21
-103.8297719838534
 31
0.0
  0
LINE
  5
31A
  8
回07-寸法
  6
CONTINUOUS
 62
     5
 10
2802.013777946705
 20
-116.9796719838534
 30
0.0
 11
2802.013777946705
 21
-103.8297719838534
 31
0.0
  0
LINE
  5
31B
  8
回07-寸法
  6
CONTINUOUS
 62
     5
 10
2792.363777946705
 20
-104.8297719838534
 30
0.0
 11
2790.863777946705
 21
-104.8297719838534
 31
0.0
  0
LINE
  5
31C
  8
回07-寸法
  6
CONTINUOUS
 62
     5
 10
2803.513777946705
 20
-104.8297719838534
 30
0.0
 11
2815.498522041193
 21
-104.8297719838534
 31
0.0
  0
LINE
  5
31D
  8
回07-寸法
  6
CONTINUOUS
 62
     5
 10
2793.863777946705
 20
-104.8297719838534
 30
0.0
 11
2802.013777946705
 21
-104.8297719838534
 31
0.0
  0
INSERT
  5
31E
  8
回07-寸法
  6
CONTINUOUS
 62
     5
  2
_OPEN
 10
2793.863777946705
 20
-104.8297719838534
 30
0.0
 41
1.5
 42
1.5
 43
1.5
  0
INSERT
  5
31F
  8
回07-寸法
  6
CONTINUOUS
 62
     5
  2
_OPEN
 10
2802.013777946705
 20
-104.8297719838534
 30
0.0
 41
1.5
 42
1.5
 43
1.5
 50
180.0
  0
TEXT
  5
320
  8
回07-寸法
  6
CONTINUOUS
 62
     5
 10
2806.449703143556
 20
-104.1797719838534
 30
0.0
 40
3.0
  1
(8.15)
1001
ACAD
1000
MTEXTBEGIN
1070
    73
1070
     1
1070
    44
1040
1.0
1070
    74
1070
     0
1000
MTEXTEND
  0
POINT
  5
321
  8
DEFPOINTS
  6
CONTINUOUS
 62
     0
 10
2793.863777946705
 20
-124.9797048073374
 30
0.0
  0
POINT
  5
322
  8
DEFPOINTS
  6
CONTINUOUS
 62
     0
 10
2802.013777946705
 20
-116.9796719838534
 30
0.0
  0
POINT
  5
323
  8
DEFPOINTS
  6
CONTINUOUS
 62
     0
 10
2802.013777946705
 20
-104.8297719838534
 30
0.0
  0
ENDBLK
  5
324
  8
0
 62
     7
  0
BLOCK
  8
0
  2
*D1717
 70
     1
 10
0.0
 20
0.0
 30
0.0
  3
*D1717
  1

  0
LINE
  5
30A
  8
回07-寸法
  6
CONTINUOUS
 62
     5
 10
2795.863777946705
 20
-122.9797048073374
 30
0.0
 11
2795.863777946705
 21
-94.47540645379197
 31
0.0
  0
LINE
  5
30B
  8
回07-寸法
  6
CONTINUOUS
 62
     5
 10
2802.013777946705
 20
-116.9796719838534
 30
0.0
 11
2802.013777946705
 21
-94.47540645379197
 31
0.0
  0
LINE
  5
30C
  8
回07-寸法
  6
CONTINUOUS
 62
     5
 10
2794.363777946705
 20
-95.47540645379196
 30
0.0
 11
2792.863777946705
 21
-95.47540645379196
 31
0.0
  0
LINE
  5
30D
  8
回07-寸法
  6
CONTINUOUS
 62
     5
 10
2803.513777946705
 20
-95.47540645379196
 30
0.0
 11
2814.11141574198
 21
-95.47540645379196
 31
0.0
  0
LINE
  5
30E
  8
回07-寸法
  6
CONTINUOUS
 62
     5
 10
2795.863777946705
 20
-95.47540645379196
 30
0.0
 11
2802.013777946705
 21
-95.47540645379196
 31
0.0
  0
INSERT
  5
30F
  8
回07-寸法
  6
CONTINUOUS
 62
     5
  2
_OPEN
 10
2795.863777946705
 20
-95.47540645379196
 30
0.0
 41
1.5
 42
1.5
 43
1.5
  0
INSERT
  5
310
  8
回07-寸法
  6
CONTINUOUS
 62
     5
  2
_OPEN
 10
2802.013777946705
 20
-95.47540645379196
 30
0.0
 41
1.5
 42
1.5
 43
1.5
 50
180.0
  0
TEXT
  5
311
  8
回07-寸法
  6
CONTINUOUS
 62
     5
 10
2805.062596844342
 20
-94.82540645379193
 30
0.0
 40
3.0
  1
(6.15)
1001
ACAD
1000
MTEXTBEGIN
1070
    73
1070
     1
1070
    44
1040
1.0
1070
    74
1070
     0
1000
MTEXTEND
  0
POINT
  5
312
  8
DEFPOINTS
  6
CONTINUOUS
 62
     0
 10
2795.863777946705
 20
-122.9797048073374
 30
0.0
  0
POINT
  5
313
  8
DEFPOINTS
  6
CONTINUOUS
 62
     0
 10
2802.013777946705
 20
-116.9796719838534
 30
0.0
  0
POINT
  5
314
  8
DEFPOINTS
  6
CONTINUOUS
 62
     0
 10
2802.013777946705
 20
-95.47540645379196
 30
0.0
  0
ENDBLK
  5
315
  8
0
 62
     7
  0
BLOCK
  8
0
  2
*D1818
 70
     1
 10
0.0
 20
0.0
 30
0.0
  3
*D1818
  1

  0
LINE
  5
2FB
  8
回07-寸法
  6
CONTINUOUS
 62
     5
 10
2530.243777946706
 20
-290.6797048073375
 30
0.0
 11
2494.113777946706
 21
-290.6797048073375
 31
0.0
  0
LINE
  5
2FC
  8
回07-寸法
  6
CONTINUOUS
 62
     5
 10
2524.093777946706
 20
-301.3797048073374
 30
0.0
 11
2494.113777946706
 21
-301.3797048073374
 31
0.0
  0
LINE
  5
2FD
  8
回07-寸法
  6
CONTINUOUS
 62
     5
 10
2495.113777946706
 20
-289.1797048073375
 30
0.0
 11
2495.113777946706
 21
-287.6797048073375
 31
0.0
  0
LINE
  5
2FE
  8
回07-寸法
  6
CONTINUOUS
 62
     5
 10
2495.113777946706
 20
-302.8797048073374
 30
0.0
 11
2495.113777946706
 21
-312.0797048073366
 31
0.0
  0
LINE
  5
2FF
  8
回07-寸法
  6
CONTINUOUS
 62
     5
 10
2495.113777946706
 20
-290.6797048073375
 30
0.0
 11
2495.113777946706
 21
-301.3797048073374
 31
0.0
  0
INSERT
  5
300
  8
回07-寸法
  6
CONTINUOUS
 62
     5
  2
_OPEN
 10
2495.113777946706
 20
-290.6797048073375
 30
0.0
 41
1.5
 42
1.5
 43
1.5
 50
270.0
  0
INSERT
  5
301
  8
回07-寸法
  6
CONTINUOUS
 62
     5
  2
_OPEN
 10
2495.113777946706
 20
-301.3797048073374
 30
0.0
 41
1.5
 42
1.5
 43
1.5
 50
90.0
  0
TEXT
  5
302
  8
回07-寸法
  6
CONTINUOUS
 62
     5
 10
2494.613777946705
 20
-312.0297048073371
 30
0.0
 40
3.0
  1
10.7
 50
90.0
1001
ACAD
1000
MTEXTBEGIN
1070
    73
1070
     1
1070
    44
1040
1.0
1070
    74
1070
     0
1000
MTEXTEND
  0
POINT
  5
303
  8
DEFPOINTS
  6
CONTINUOUS
 62
     0
 10
2530.243777946706
 20
-290.6797048073375
 30
0.0
  0
POINT
  5
304
  8
DEFPOINTS
  6
CONTINUOUS
 62
     0
 10
2524.093777946706
 20
-301.3797048073374
 30
0.0
  0
POINT
  5
305
  8
DEFPOINTS
  6
CONTINUOUS
 62
     0
 10
2495.113777946706
 20
-301.3797048073374
 30
0.0
  0
ENDBLK
  5
306
  8
0
 62
     7
  0
BLOCK
  8
0
  2
*D1919
 70
     1
 10
0.0
 20
0.0
 30
0.0
  3
*D1919
  1

  0
LINE
  5
2EC
  8
回07-寸法
  6
CONTINUOUS
 62
     5
 10
2529.743777946706
 20
-291.1797048073374
 30
0.0
 11
2485.126277946714
 21
-291.1797048073374
 31
0.0
  0
LINE
  5
2ED
  8
回07-寸法
  6
CONTINUOUS
 62
     5
 10
2524.093777946706
 20
-301.3797048073374
 30
0.0
 11
2485.126277946714
 21
-301.3797048073374
 31
0.0
  0
LINE
  5
2EE
  8
回07-寸法
  6
CONTINUOUS
 62
     5
 10
2486.126277946713
 20
-289.6797048073374
 30
0.0
 11
2486.126277946713
 21
-288.1797048073374
 31
0.0
  0
LINE
  5
2EF
  8
回07-寸法
  6
CONTINUOUS
 62
     5
 10
2486.126277946713
 20
-302.8797048073374
 30
0.0
 11
2486.126277946713
 21
-311.2598819726918
 31
0.0
  0
LINE
  5
2F0
  8
回07-寸法
  6
CONTINUOUS
 62
     5
 10
2486.126277946713
 20
-291.1797048073374
 30
0.0
 11
2486.126277946713
 21
-301.3797048073374
 31
0.0
  0
INSERT
  5
2F1
  8
回07-寸法
  6
CONTINUOUS
 62
     5
  2
_OPEN
 10
2486.126277946713
 20
-291.1797048073374
 30
0.0
 41
1.5
 42
1.5
 43
1.5
 50
270.0
  0
INSERT
  5
2F2
  8
回07-寸法
  6
CONTINUOUS
 62
     5
  2
_OPEN
 10
2486.126277946713
 20
-301.3797048073374
 30
0.0
 41
1.5
 42
1.5
 43
1.5
 50
90.0
  0
TEXT
  5
2F3
  8
回07-寸法
  6
CONTINUOUS
 62
     5
 10
2485.625982671123
 20
-311.1201250753552
 30
0.0
 40
3.0
  1
10.2
 50
90.0
1001
ACAD
1000
MTEXTBEGIN
1070
    73
1070
     1
1070
    44
1040
1.0
1070
    74
1070
     0
1000
MTEXTEND
  0
POINT
  5
2F4
  8
DEFPOINTS
  6
CONTINUOUS
 62
     0
 10
2529.743777946706
 20
-291.1797048073374
 30
0.0
  0
POINT
  5
2F5
  8
DEFPOINTS
  6
CONTINUOUS
 62
     0
 10
2524.093777946706
 20
-301.3797048073374
 30
0.0
  0
POINT
  5
2F6
  8
DEFPOINTS
  6
CONTINUOUS
 62
     0
 10
2486.126277946713
 20
-301.3797048073374
 30
0.0
  0
ENDBLK
  5
2F7
  8
0
 62
     7
  0
BLOCK
  8
0
  2
*D2020
 70
     1
 10
0.0
 20
0.0
 30
0.0
  3
*D2020
  1

  0
LINE
  5
2DD
  8
回07-寸法
  6
CONTINUOUS
 62
     5
 10
2532.243777946706
 20
-288.6797048073376
 30
0.0
 11
2503.113777946706
 21
-288.6797048073376
 31
0.0
  0
LINE
  5
2DE
  8
回07-寸法
  6
CONTINUOUS
 62
     5
 10
2524.093777946706
 20
-301.3797048073374
 30
0.0
 11
2503.113777946706
 21
-301.3797048073374
 31
0.0
  0
LINE
  5
2DF
  8
回07-寸法
  6
CONTINUOUS
 62
     5
 10
2504.113777946705
 20
-287.1797048073375
 30
0.0
 11
2504.113777946705
 21
-285.6797048073375
 31
0.0
  0
LINE
  5
2E0
  8
回07-寸法
  6
CONTINUOUS
 62
     5
 10
2504.113777946705
 20
-302.8797048073374
 30
0.0
 11
2504.113777946705
 21
-312.0797048073366
 31
0.0
  0
LINE
  5
2E1
  8
回07-寸法
  6
CONTINUOUS
 62
     5
 10
2504.113777946705
 20
-288.6797048073376
 30
0.0
 11
2504.113777946705
 21
-301.3797048073374
 31
0.0
  0
INSERT
  5
2E2
  8
回07-寸法
  6
CONTINUOUS
 62
     5
  2
_OPEN
 10
2504.113777946705
 20
-288.6797048073376
 30
0.0
 41
1.5
 42
1.5
 43
1.5
 50
270.0
  0
INSERT
  5
2E3
  8
回07-寸法
  6
CONTINUOUS
 62
     5
  2
_OPEN
 10
2504.113777946705
 20
-301.3797048073374
 30
0.0
 41
1.5
 42
1.5
 43
1.5
 50
90.0
  0
TEXT
  5
2E4
  8
回07-寸法
  6
CONTINUOUS
 62
     5
 10
2503.613482671115
 20
-312.0297048073371
 30
0.0
 40
3.0
  1
12.7
 50
90.0
1001
ACAD
1000
MTEXTBEGIN
1070
    73
1070
     1
1070
    44
1040
1.0
1070
    74
1070
     0
1000
MTEXTEND
  0
POINT
  5
2E5
  8
DEFPOINTS
  6
CONTINUOUS
 62
     0
 10
2532.243777946706
 20
-288.6797048073376
 30
0.0
  0
POINT
  5
2E6
  8
DEFPOINTS
  6
CONTINUOUS
 62
     0
 10
2524.093777946706
 20
-301.3797048073374
 30
0.0
  0
POINT
  5
2E7
  8
DEFPOINTS
  6
CONTINUOUS
 62
     0
 10
2504.113777946705
 20
-301.3797048073374
 30
0.0
  0
ENDBLK
  5
2E8
  8
0
 62
     7
  0
BLOCK
  8
0
  2
*D2121
 70
     1
 10
0.0
 20
0.0
 30
0.0
  3
*D2121
  1

  0
LINE
  5
2CE
  8
回07-寸法
  6
CONTINUOUS
 62
     5
 10
2647.20957084285
 20
-401.3756564365261
 30
0.0
 11
2594.568936321215
 21
-401.3756564365261
 31
0.0
  0
LINE
  5
2CF
  8
回07-寸法
  6
CONTINUOUS
 62
     5
 10
2632.960696158299
 20
-301.3797048073374
 30
0.0
 11
2594.568936321215
 21
-301.3797048073374
 31
0.0
  0
LINE
  5
2D0
  8
回07-寸法
  6
CONTINUOUS
 62
     5
 10
2595.568936321216
 20
-399.8756564365264
 30
0.0
 11
2595.568936321216
 21
-302.8797048073374
 31
0.0
  0
INSERT
  5
2D1
  8
回07-寸法
  6
CONTINUOUS
 62
     5
  2
_OPEN
 10
2595.568936321216
 20
-401.3756564365261
 30
0.0
 41
1.5
 42
1.5
 43
1.5
 50
270.0
  0
INSERT
  5
2D2
  8
回07-寸法
  6
CONTINUOUS
 62
     5
  2
_OPEN
 10
2595.568936321216
 20
-301.3797048073374
 30
0.0
 41
1.5
 42
1.5
 43
1.5
 50
90.0
  0
INSERT
  5
2D3
  8
回07-寸法
  6
CONTINUOUS
 62
     5
 66
     1
  2
*X8787
 10
0.0
 20
0.0
 30
0.0
  0
SEQEND
  5
800
  8
回04-下接
  6
CONTINUOUS
 62
     7
  0
POINT
  5
2D4
  8
DEFPOINTS
  6
CONTINUOUS
 62
     0
 10
2647.20957084285
 20
-401.3756564365261
 30
0.0
  0
POINT
  5
2D5
  8
DEFPOINTS
  6
CONTINUOUS
 62
     0
 10
2632.960696158299
 20
-301.3797048073374
 30
0.0
  0
POINT
  5
2D6
  8
DEFPOINTS
  6
CONTINUOUS
 62
     0
 10
2595.568936321216
 20
-301.3797048073374
 30
0.0
  0
ENDBLK
  5
2D7
  8
0
 62
     7
  0
BLOCK
  8
0
  2
*D2222
 70
     1
 10
0.0
 20
0.0
 30
0.0
  3
*D2222
  1

  0
LINE
  5
2C1
  8
回07-寸法
  6
CONTINUOUS
 62
     5
 10
2695.960696158299
 20
-301.3796564365255
 30
0.0
 11
2734.425104767073
 21
-301.3796564365255
 31
0.0
  0
LINE
  5
2C2
  8
回07-寸法
  6
CONTINUOUS
 62
     5
 10
2688.709570842851
 20
-401.375656436527
 30
0.0
 11
2734.425104767073
 21
-401.375656436527
 31
0.0
  0
LINE
  5
2C3
  8
回07-寸法
  6
CONTINUOUS
 62
     5
 10
2733.425104767072
 20
-302.8796564365255
 30
0.0
 11
2733.425104767072
 21
-399.8756564365272
 31
0.0
  0
INSERT
  5
2C4
  8
回07-寸法
  6
CONTINUOUS
 62
     5
  2
_OPEN
 10
2733.425104767072
 20
-301.3796564365255
 30
0.0
 41
1.5
 42
1.5
 43
1.5
 50
90.0
  0
INSERT
  5
2C5
  8
回07-寸法
  6
CONTINUOUS
 62
     5
  2
_OPEN
 10
2733.425104767072
 20
-401.375656436527
 30
0.0
 41
1.5
 42
1.5
 43
1.5
 50
270.0
  0
INSERT
  5
2C6
  8
回07-寸法
  6
CONTINUOUS
 62
     5
 66
     1
  2
*X8888
 10
0.0
 20
0.0
 30
0.0
  0
SEQEND
  5
806
  8
回04-下接
  6
CONTINUOUS
 62
     7
  0
POINT
  5
2C7
  8
DEFPOINTS
  6
CONTINUOUS
 62
     0
 10
2695.960696158299
 20
-301.3796564365255
 30
0.0
  0
POINT
  5
2C8
  8
DEFPOINTS
  6
CONTINUOUS
 62
     0
 10
2688.709570842851
 20
-401.375656436527
 30
0.0
  0
POINT
  5
2C9
  8
DEFPOINTS
  6
CONTINUOUS
 62
     0
 10
2733.425104767072
 20
-401.375656436527
 30
0.0
  0
ENDBLK
  5
2CA
  8
0
 62
     7
  0
BLOCK
  8
0
  2
*D2323
 70
     1
 10
0.0
 20
0.0
 30
0.0
  3
*D2323
  1

  0
LINE
  5
2B2
  8
回07-寸法
  6
CONTINUOUS
 62
     5
 10
2632.960696158299
 20
-301.3797048073374
 30
0.0
 11
2629.647369038774
 21
-301.3797048073374
 31
0.0
  0
LINE
  5
2B3
  8
回07-寸法
  6
CONTINUOUS
 62
     5
 10
2632.960696158299
 20
-305.0073457704934
 30
0.0
 11
2629.647369038774
 21
-305.0073457704934
 31
0.0
  0
LINE
  5
2B4
  8
回07-寸法
  6
CONTINUOUS
 62
     5
 10
2630.647369038774
 20
-299.8797048073374
 30
0.0
 11
2630.647369038774
 21
-298.3797048073374
 31
0.0
  0
LINE
  5
2B5
  8
回07-寸法
  6
CONTINUOUS
 62
     5
 10
2630.647369038774
 20
-306.5073457704934
 30
0.0
 11
2630.647369038774
 21
-313.3561646681311
 31
0.0
  0
LINE
  5
2B6
  8
回07-寸法
  6
CONTINUOUS
 62
     5
 10
2630.647369038774
 20
-301.3797048073374
 30
0.0
 11
2630.647369038774
 21
-305.0073457704934
 31
0.0
  0
INSERT
  5
2B7
  8
回07-寸法
  6
CONTINUOUS
 62
     5
  2
_OPEN
 10
2630.647369038774
 20
-301.3797048073374
 30
0.0
 41
1.5
 42
1.5
 43
1.5
 50
270.0
  0
INSERT
  5
2B8
  8
回07-寸法
  6
CONTINUOUS
 62
     5
  2
_OPEN
 10
2630.647369038774
 20
-305.0073457704934
 30
0.0
 41
1.5
 42
1.5
 43
1.5
 50
90.0
  0
TEXT
  5
2B9
  8
回07-寸法
  6
CONTINUOUS
 62
     5
 10
2630.147369038775
 20
-313.2330077619636
 30
0.0
 40
3.0
  1
3.6
 50
90.0
1001
ACAD
1000
MTEXTBEGIN
1070
    73
1070
     1
1070
    44
1040
1.0
1070
    74
1070
     0
1000
MTEXTEND
  0
POINT
  5
2BA
  8
DEFPOINTS
  6
CONTINUOUS
 62
     0
 10
2632.960696158299
 20
-301.3797048073374
 30
0.0
  0
POINT
  5
2BB
  8
DEFPOINTS
  6
CONTINUOUS
 62
     0
 10
2632.960696158299
 20
-305.0073457704934
 30
0.0
  0
POINT
  5
2BC
  8
DEFPOINTS
  6
CONTINUOUS
 62
     0
 10
2630.647369038774
 20
-305.0073457704934
 30
0.0
  0
ENDBLK
  5
2BD
  8
0
 62
     7
  0
BLOCK
  8
0
  2
*D2424
 70
     1
 10
0.0
 20
0.0
 30
0.0
  3
*D2424
  1

  0
LINE
  5
2A5
  8
回07-寸法
  6
CONTINUOUS
 62
     5
 10
2632.960696158299
 20
-301.3797048073374
 30
0.0
 11
2622.456497688738
 21
-301.3797048073374
 31
0.0
  0
LINE
  5
2A6
  8
回07-寸法
  6
CONTINUOUS
 62
     5
 10
2646.709570842851
 20
-318.756220455045
 30
0.0
 11
2622.456497688738
 21
-318.756220455045
 31
0.0
  0
LINE
  5
2A7
  8
回07-寸法
  6
CONTINUOUS
 62
     5
 10
2623.456497688739
 20
-302.8797048073374
 30
0.0
 11
2623.456497688739
 21
-317.256220455045
 31
0.0
  0
INSERT
  5
2A8
  8
回07-寸法
  6
CONTINUOUS
 62
     5
  2
_OPEN
 10
2623.456497688739
 20
-301.3797048073374
 30
0.0
 41
1.5
 42
1.5
 43
1.5
 50
90.0
  0
INSERT
  5
2A9
  8
回07-寸法
  6
CONTINUOUS
 62
     5
  2
_OPEN
 10
2623.456497688739
 20
-318.756220455045
 30
0.0
 41
1.5
 42
1.5
 43
1.5
 50
270.0
  0
TEXT
  5
2AA
  8
回07-寸法
  6
CONTINUOUS
 62
     5
 10
2622.956497688738
 20
-313.5179626311915
 30
0.0
 40
3.0
  1
17.4
 50
90.0
1001
ACAD
1000
MTEXTBEGIN
1070
    73
1070
     1
1070
    44
1040
1.0
1070
    74
1070
     0
1000
MTEXTEND
  0
POINT
  5
2AB
  8
DEFPOINTS
  6
CONTINUOUS
 62
     0
 10
2632.960696158299
 20
-301.3797048073374
 30
0.0
  0
POINT
  5
2AC
  8
DEFPOINTS
  6
CONTINUOUS
 62
     0
 10
2646.709570842851
 20
-318.756220455045
 30
0.0
  0
POINT
  5
2AD
  8
DEFPOINTS
  6
CONTINUOUS
 62
     0
 10
2623.456497688739
 20
-318.756220455045
 30
0.0
  0
ENDBLK
  5
2AE
  8
0
 62
     7
  0
BLOCK
  8
0
  2
*D2525
 70
     1
 10
0.0
 20
0.0
 30
0.0
  3
*D2525
  1

  0
LINE
  5
296
  8
回07-寸法
  6
CONTINUOUS
 62
     5
 10
2667.960696158298
 20
-304.5931322081198
 30
0.0
 11
2667.960696158298
 21
-327.3520160252357
 31
0.0
  0
LINE
  5
297
  8
回07-寸法
  6
CONTINUOUS
 62
     5
 10
2632.960696158298
 20
-304.5931322081198
 30
0.0
 11
2632.960696158298
 21
-327.3520160252357
 31
0.0
  0
LINE
  5
298
  8
回07-寸法
  6
CONTINUOUS
 62
     5
 10
2669.460696158298
 20
-326.3520160252357
 30
0.0
 11
2670.960696158298
 21
-326.3520160252357
 31
0.0
  0
LINE
  5
299
  8
回07-寸法
  6
CONTINUOUS
 62
     5
 10
2631.460696158298
 20
-326.3520160252357
 30
0.0
 11
2623.965721411467
 21
-326.3520160252357
 31
0.0
  0
LINE
  5
29A
  8
回07-寸法
  6
CONTINUOUS
 62
     5
 10
2667.960696158298
 20
-326.3520160252357
 30
0.0
 11
2632.960696158298
 21
-326.3520160252357
 31
0.0
  0
INSERT
  5
29B
  8
回07-寸法
  6
CONTINUOUS
 62
     5
  2
_OPEN
 10
2667.960696158298
 20
-326.3520160252357
 30
0.0
 41
1.5
 42
1.5
 43
1.5
 50
180.0
  0
INSERT
  5
29C
  8
回07-寸法
  6
CONTINUOUS
 62
     5
  2
_OPEN
 10
2632.960696158298
 20
-326.3520160252357
 30
0.0
 41
1.5
 42
1.5
 43
1.5
  0
TEXT
  5
29D
  8
回07-寸法
  6
CONTINUOUS
 62
     5
 10
2624.077853445824
 20
-325.8520160252357
 30
0.0
 40
3.0
  1
35
1001
ACAD
1000
MTEXTBEGIN
1070
    73
1070
     1
1070
    44
1040
1.0
1070
    74
1070
     0
1000
MTEXTEND
  0
POINT
  5
29E
  8
DEFPOINTS
  6
CONTINUOUS
 62
     0
 10
2667.960696158298
 20
-304.5931322081198
 30
0.0
  0
POINT
  5
29F
  8
DEFPOINTS
  6
CONTINUOUS
 62
     0
 10
2632.960696158298
 20
-304.5931322081198
 30
0.0
  0
POINT
  5
2A0
  8
DEFPOINTS
  6
CONTINUOUS
 62
     0
 10
2632.960696158298
 20
-326.3520160252357
 30
0.0
  0
ENDBLK
  5
2A1
  8
0
 62
     7
  0
BLOCK
  8
0
  2
*D2626
 70
     1
 10
0.0
 20
0.0
 30
0.0
  3
*D2626
  1

  0
LINE
  5
287
  8
回07-寸法
  6
CONTINUOUS
 62
     5
 10
2695.960696158299
 20
-301.3797048073374
 30
0.0
 11
2709.655786898146
 21
-301.3797048073374
 31
0.0
  0
LINE
  5
288
  8
回07-寸法
  6
CONTINUOUS
 62
     5
 10
2689.209570842851
 20
-311.6864650413968
 30
0.0
 11
2709.655786898146
 21
-311.6864650413968
 31
0.0
  0
LINE
  5
289
  8
回07-寸法
  6
CONTINUOUS
 62
     5
 10
2708.655786898146
 20
-299.8797048073374
 30
0.0
 11
2708.655786898146
 21
-298.3797048073374
 31
0.0
  0
LINE
  5
28A
  8
回07-寸法
  6
CONTINUOUS
 62
     5
 10
2708.655786898146
 20
-313.1864650413969
 30
0.0
 11
2708.655786898146
 21
-323.4814397882265
 31
0.0
  0
LINE
  5
28B
  8
回07-寸法
  6
CONTINUOUS
 62
     5
 10
2708.655786898146
 20
-301.3797048073374
 30
0.0
 11
2708.655786898146
 21
-311.6864650413968
 31
0.0
  0
INSERT
  5
28C
  8
回07-寸法
  6
CONTINUOUS
 62
     5
  2
_OPEN
 10
2708.655786898146
 20
-301.3797048073374
 30
0.0
 41
1.5
 42
1.5
 43
1.5
 50
270.0
  0
INSERT
  5
28D
  8
回07-寸法
  6
CONTINUOUS
 62
     5
  2
_OPEN
 10
2708.655786898146
 20
-311.6864650413968
 30
0.0
 41
1.5
 42
1.5
 43
1.5
 50
90.0
  0
TEXT
  5
28E
  8
回07-寸法
  6
CONTINUOUS
 62
     5
 10
2708.155786898146
 20
-323.369307753871
 30
0.0
 40
3.0
  1
10.3
 50
90.0
1001
ACAD
1000
MTEXTBEGIN
1070
    73
1070
     1
1070
    44
1040
1.0
1070
    74
1070
     0
1000
MTEXTEND
  0
POINT
  5
28F
  8
DEFPOINTS
  6
CONTINUOUS
 62
     0
 10
2695.960696158299
 20
-301.3797048073374
 30
0.0
  0
POINT
  5
290
  8
DEFPOINTS
  6
CONTINUOUS
 62
     0
 10
2689.209570842851
 20
-311.6864650413968
 30
0.0
  0
POINT
  5
291
  8
DEFPOINTS
  6
CONTINUOUS
 62
     0
 10
2708.655786898146
 20
-311.6864650413968
 30
0.0
  0
ENDBLK
  5
292
  8
0
 62
     7
  0
BLOCK
  8
0
  2
*D2727
 70
     1
 10
0.0
 20
0.0
 30
0.0
  3
*D2727
  1

  0
LINE
  5
27A
  8
回07-寸法
  6
CONTINUOUS
 62
     5
 10
2524.093777946705
 20
-301.3797048073374
 30
0.0
 11
2524.093777946705
 21
-409.8767373548553
 31
0.0
  0
LINE
  5
27B
  8
回07-寸法
  6
CONTINUOUS
 62
     5
 10
2646.70957084285
 20
-400.8756564365261
 30
0.0
 11
2646.70957084285
 21
-409.8767373548553
 31
0.0
  0
LINE
  5
27C
  8
回07-寸法
  6
CONTINUOUS
 62
     5
 10
2525.593777946705
 20
-408.8767373548553
 30
0.0
 11
2645.20957084285
 21
-408.8767373548553
 31
0.0
  0
INSERT
  5
27D
  8
回07-寸法
  6
CONTINUOUS
 62
     5
  2
_OPEN
 10
2524.093777946705
 20
-408.8767373548553
 30
0.0
 41
1.5
 42
1.5
 43
1.5
 50
180.0
  0
INSERT
  5
27E
  8
回07-寸法
  6
CONTINUOUS
 62
     5
  2
_OPEN
 10
2646.70957084285
 20
-408.8767373548553
 30
0.0
 41
1.5
 42
1.5
 43
1.5
  0
TEXT
  5
27F
  8
回07-寸法
  6
CONTINUOUS
 62
     5
 10
2578.801674394779
 20
-408.2267373548553
 30
0.0
 40
3.0
  1
(122.62)
1001
ACAD
1000
MTEXTBEGIN
1070
    73
1070
     1
1070
    44
1040
1.0
1070
    74
1070
     0
1000
MTEXTEND
  0
POINT
  5
280
  8
DEFPOINTS
  6
CONTINUOUS
 62
     0
 10
2524.093777946705
 20
-301.3797048073374
 30
0.0
  0
POINT
  5
281
  8
DEFPOINTS
  6
CONTINUOUS
 62
     0
 10
2646.70957084285
 20
-400.8756564365261
 30
0.0
  0
POINT
  5
282
  8
DEFPOINTS
  6
CONTINUOUS
 62
     0
 10
2646.70957084285
 20
-408.8767373548553
 30
0.0
  0
ENDBLK
  5
283
  8
0
 62
     7
  0
BLOCK
  8
0
  2
*D2828
 70
     1
 10
0.0
 20
0.0
 30
0.0
  3
*D2828
  1

  0
LINE
  5
26D
  8
回07-寸法
  6
CONTINUOUS
 62
     5
 10
2646.70957084285
 20
-400.8756564365261
 30
0.0
 11
2646.70957084285
 21
-410.0267373548553
 31
0.0
  0
LINE
  5
26E
  8
回07-寸法
  6
CONTINUOUS
 62
     5
 10
2664.20957084285
 20
-400.8756564365261
 30
0.0
 11
2664.20957084285
 21
-410.0267373548553
 31
0.0
  0
LINE
  5
26F
  8
回07-寸法
  6
CONTINUOUS
 62
     5
 10
2648.20957084285
 20
-409.0267373548553
 30
0.0
 11
2662.70957084285
 21
-409.0267373548553
 31
0.0
  0
INSERT
  5
270
  8
回07-寸法
  6
CONTINUOUS
 62
     5
  2
_OPEN
 10
2646.70957084285
 20
-409.0267373548553
 30
0.0
 41
1.5
 42
1.5
 43
1.5
 50
180.0
  0
INSERT
  5
271
  8
回07-寸法
  6
CONTINUOUS
 62
     5
  2
_OPEN
 10
2664.20957084285
 20
-409.0267373548553
 30
0.0
 41
1.5
 42
1.5
 43
1.5
  0
INSERT
  5
272
  8
回07-寸法
  6
CONTINUOUS
 62
     5
 66
     1
  2
*X8989
 10
0.0
 20
0.0
 30
0.0
  0
SEQEND
  5
80C
  8
回04-下接
  6
CONTINUOUS
 62
     7
  0
POINT
  5
273
  8
DEFPOINTS
  6
CONTINUOUS
 62
     0
 10
2646.70957084285
 20
-400.8756564365261
 30
0.0
  0
POINT
  5
274
  8
DEFPOINTS
  6
CONTINUOUS
 62
     0
 10
2664.20957084285
 20
-400.8756564365261
 30
0.0
  0
POINT
  5
275
  8
DEFPOINTS
  6
CONTINUOUS
 62
     0
 10
2664.20957084285
 20
-409.0267373548553
 30
0.0
  0
ENDBLK
  5
276
  8
0
 62
     7
  0
BLOCK
  8
0
  2
*D2929
 70
     1
 10
0.0
 20
0.0
 30
0.0
  3
*D2929
  1

  0
LINE
  5
260
  8
回07-寸法
  6
CONTINUOUS
 62
     5
 10
2524.093777946705
 20
-301.3797048073374
 30
0.0
 11
2524.093777946705
 21
-416.6409178846357
 31
0.0
  0
LINE
  5
261
  8
回07-寸法
  6
CONTINUOUS
 62
     5
 10
2675.70957084285
 20
-400.8756564365261
 30
0.0
 11
2675.70957084285
 21
-416.6409178846357
 31
0.0
  0
LINE
  5
262
  8
回07-寸法
  6
CONTINUOUS
 62
     5
 10
2525.593777946705
 20
-415.6409178846358
 30
0.0
 11
2674.20957084285
 21
-415.6409178846358
 31
0.0
  0
INSERT
  5
263
  8
回07-寸法
  6
CONTINUOUS
 62
     5
  2
_OPEN
 10
2524.093777946705
 20
-415.6409178846358
 30
0.0
 41
1.5
 42
1.5
 43
1.5
 50
180.0
  0
INSERT
  5
264
  8
回07-寸法
  6
CONTINUOUS
 62
     5
  2
_OPEN
 10
2675.70957084285
 20
-415.6409178846358
 30
0.0
 41
1.5
 42
1.5
 43
1.5
  0
TEXT
  5
265
  8
回07-寸法
  6
CONTINUOUS
 62
     5
 10
2593.601674394777
 20
-414.9909178846358
 30
0.0
 40
3.0
  1
(151.62)
1001
ACAD
1000
MTEXTBEGIN
1070
    73
1070
     1
1070
    44
1040
1.0
1070
    74
1070
     0
1000
MTEXTEND
  0
POINT
  5
266
  8
DEFPOINTS
  6
CONTINUOUS
 62
     0
 10
2524.093777946705
 20
-301.3797048073374
 30
0.0
  0
POINT
  5
267
  8
DEFPOINTS
  6
CONTINUOUS
 62
     0
 10
2675.70957084285
 20
-400.8756564365261
 30
0.0
  0
POINT
  5
268
  8
DEFPOINTS
  6
CONTINUOUS
 62
     0
 10
2675.70957084285
 20
-415.6409178846358
 30
0.0
  0
ENDBLK
  5
269
  8
0
 62
     7
  0
BLOCK
  8
0
  2
*D3030
 70
     1
 10
0.0
 20
0.0
 30
0.0
  3
*D3030
  1

  0
LINE
  5
253
  8
回07-寸法
  6
CONTINUOUS
 62
     5
 10
2675.70957084285
 20
-400.8756564365261
 30
0.0
 11
2675.70957084285
 21
-416.7909178846358
 31
0.0
  0
LINE
  5
254
  8
回07-寸法
  6
CONTINUOUS
 62
     5
 10
2689.20957084285
 20
-400.875656436527
 30
0.0
 11
2689.20957084285
 21
-416.7909178846358
 31
0.0
  0
LINE
  5
255
  8
回07-寸法
  6
CONTINUOUS
 62
     5
 10
2677.20957084285
 20
-415.7909178846358
 30
0.0
 11
2687.70957084285
 21
-415.7909178846358
 31
0.0
  0
INSERT
  5
256
  8
回07-寸法
  6
CONTINUOUS
 62
     5
  2
_OPEN
 10
2675.70957084285
 20
-415.7909178846358
 30
0.0
 41
1.5
 42
1.5
 43
1.5
 50
180.0
  0
INSERT
  5
257
  8
回07-寸法
  6
CONTINUOUS
 62
     5
  2
_OPEN
 10
2689.20957084285
 20
-415.7909178846358
 30
0.0
 41
1.5
 42
1.5
 43
1.5
  0
INSERT
  5
258
  8
回07-寸法
  6
CONTINUOUS
 62
     5
 66
     1
  2
*X9090
 10
0.0
 20
0.0
 30
0.0
  0
SEQEND
  5
812
  8
回04-下接
  6
CONTINUOUS
 62
     7
  0
POINT
  5
259
  8
DEFPOINTS
  6
CONTINUOUS
 62
     0
 10
2675.70957084285
 20
-400.8756564365261
 30
0.0
  0
POINT
  5
25A
  8
DEFPOINTS
  6
CONTINUOUS
 62
     0
 10
2689.20957084285
 20
-400.875656436527
 30
0.0
  0
POINT
  5
25B
  8
DEFPOINTS
  6
CONTINUOUS
 62
     0
 10
2689.20957084285
 20
-415.7909178846358
 30
0.0
  0
ENDBLK
  5
25C
  8
0
 62
     7
  0
BLOCK
  8
0
  2
*D3131
 70
     1
 10
0.0
 20
0.0
 30
0.0
  3
*D3131
  1

  0
LINE
  5
240
  8
回07-寸法
  6
CONTINUOUS
 62
     5
 10
2842.870693973415
 20
-401.3756564365264
 30
0.0
 11
2834.004975991794
 21
-401.3756564365264
 31
0.0
  0
LINE
  5
241
  8
回07-寸法
  6
CONTINUOUS
 62
     5
 10
2842.170693973415
 20
-396.3756564365264
 30
0.0
 11
2834.004975991794
 21
-396.3756564365264
 31
0.0
  0
LINE
  5
242
  8
回07-寸法
  6
CONTINUOUS
 62
     5
 10
2835.004975991795
 20
-399.8756564365264
 30
0.0
 11
2835.004975991795
 21
-397.8756564365264
 31
0.0
  0
INSERT
  5
243
  8
回07-寸法
  6
CONTINUOUS
 62
     5
 66
     1
  2
_OPEN
 10
2835.004975991795
 20
-401.3756564365264
 30
0.0
 41
1.5
 42
1.5
 43
1.5
 50
270.0
  0
SEQEND
  5
244
  8
回04-下接
  6
CONTINUOUS
 62
     7
  0
INSERT
  5
245
  8
回07-寸法
  6
CONTINUOUS
 62
     5
 66
     1
  2
_OPEN
 10
2835.004975991795
 20
-396.3756564365264
 30
0.0
 41
1.5
 42
1.5
 43
1.5
 50
90.0
  0
SEQEND
  5
246
  8
回04-下接
  6
CONTINUOUS
 62
     7
  0
TEXT
  5
247
  8
回07-寸法
  6
CONTINUOUS
 62
     5
 10
2834.504975991794
 20
-399.9256564365269
 30
0.0
 40
3.0
  1
5
 50
90.0
1001
ACAD
1000
MTEXTBEGIN
1070
    73
1070
     1
1070
    44
1040
1.0
1070
    74
1070
     0
1000
MTEXTEND
  0
POINT
  5
248
  8
DEFPOINTS
  6
CONTINUOUS
 62
     0
 10
2842.870693973415
 20
-401.3756564365264
 30
0.0
  0
POINT
  5
249
  8
DEFPOINTS
  6
CONTINUOUS
 62
     0
 10
2842.170693973415
 20
-396.3756564365264
 30
0.0
  0
POINT
  5
24A
  8
DEFPOINTS
  6
CONTINUOUS
 62
     0
 10
2835.004975991795
 20
-396.3756564365264
 30
0.0
  0
ENDBLK
  5
24B
  8
0
 62
     7
  0
BLOCK
  8
0
  2
*D3232
 70
     1
 10
0.0
 20
0.0
 30
0.0
  3
*D3232
  1

  0
LINE
  5
231
  8
回07-寸法
  6
CONTINUOUS
 62
     5
 10
2852.763878192386
 20
-401.3756564365264
 30
0.0
 11
2862.879516783079
 21
-401.3756564365264
 31
0.0
  0
LINE
  5
232
  8
回07-寸法
  6
CONTINUOUS
 62
     5
 10
2853.463878192386
 20
-396.3756564365264
 30
0.0
 11
2862.879516783079
 21
-396.3756564365264
 31
0.0
  0
LINE
  5
233
  8
回07-寸法
  6
CONTINUOUS
 62
     5
 10
2861.879516783079
 20
-399.8756564365264
 30
0.0
 11
2861.879516783079
 21
-397.8756564365264
 31
0.0
  0
INSERT
  5
234
  8
回07-寸法
  6
CONTINUOUS
 62
     5
 66
     1
  2
_OPEN
 10
2861.879516783079
 20
-401.3756564365264
 30
0.0
 41
1.5
 42
1.5
 43
1.5
 50
270.0
  0
SEQEND
  5
235
  8
回04-下接
  6
CONTINUOUS
 62
     7
  0
INSERT
  5
236
  8
回07-寸法
  6
CONTINUOUS
 62
     5
 66
     1
  2
_OPEN
 10
2861.879516783079
 20
-396.3756564365264
 30
0.0
 41
1.5
 42
1.5
 43
1.5
 50
90.0
  0
SEQEND
  5
237
  8
回04-下接
  6
CONTINUOUS
 62
     7
  0
TEXT
  5
238
  8
回07-寸法
  6
CONTINUOUS
 62
     5
 10
2861.379516783079
 20
-399.9256564365269
 30
0.0
 40
3.0
  1
5
 50
90.0
1001
ACAD
1000
MTEXTBEGIN
1070
    73
1070
     1
1070
    44
1040
1.0
1070
    74
1070
     0
1000
MTEXTEND
  0
POINT
  5
239
  8
DEFPOINTS
  6
CONTINUOUS
 62
     0
 10
2852.763878192386
 20
-401.3756564365264
 30
0.0
  0
POINT
  5
23A
  8
DEFPOINTS
  6
CONTINUOUS
 62
     0
 10
2853.463878192386
 20
-396.3756564365264
 30
0.0
  0
POINT
  5
23B
  8
DEFPOINTS
  6
CONTINUOUS
 62
     0
 10
2861.879516783079
 20
-396.3756564365264
 30
0.0
  0
ENDBLK
  5
23C
  8
0
 62
     7
  0
BLOCK
  8
0
  2
*D3333
 70
     1
 10
0.0
 20
0.0
 30
0.0
  3
*D3333
  1

  0
LINE
  5
220
  8
回07-寸法
  6
CONTINUOUS
 62
     5
 10
2850.263878192386
 20
-401.3756564365261
 30
0.0
 11
2850.263878192386
 21
-408.0868487997931
 31
0.0
  0
LINE
  5
221
  8
回07-寸法
  6
CONTINUOUS
 62
     5
 10
2852.763878192385
 20
-401.3756564365261
 30
0.0
 11
2852.763878192385
 21
-408.0868487997931
 31
0.0
  0
LINE
  5
222
  8
回07-寸法
  6
CONTINUOUS
 62
     5
 10
2848.763878192385
 20
-407.0868487997931
 30
0.0
 11
2847.263878192385
 21
-407.0868487997931
 31
0.0
  0
LINE
  5
223
  8
回07-寸法
  6
CONTINUOUS
 62
     5
 10
2854.263878192385
 20
-407.0868487997931
 30
0.0
 11
2867.399113023797
 21
-407.0868487997931
 31
0.0
  0
LINE
  5
224
  8
回07-寸法
  6
CONTINUOUS
 62
     5
 10
2850.263878192386
 20
-407.0868487997931
 30
0.0
 11
2852.763878192385
 21
-407.0868487997931
 31
0.0
  0
INSERT
  5
225
  8
回07-寸法
  6
CONTINUOUS
 62
     5
 66
     1
  2
_OPEN
 10
2850.263878192386
 20
-407.0868487997931
 30
0.0
 41
1.5
 42
1.5
 43
1.5
  0
SEQEND
  5
226
  8
回04-下接
  6
CONTINUOUS
 62
     7
  0
INSERT
  5
227
  8
回07-寸法
  6
CONTINUOUS
 62
     5
 66
     1
  2
_OPEN
 10
2852.763878192385
 20
-407.0868487997931
 30
0.0
 41
1.5
 42
1.5
 43
1.5
 50
180.0
  0
SEQEND
  5
228
  8
回04-下接
  6
CONTINUOUS
 62
     7
  0
INSERT
  5
229
  8
回07-寸法
  6
CONTINUOUS
 62
     5
 66
     1
  2
*X9191
 10
0.0
 20
0.0
 30
0.0
  0
SEQEND
  5
818
  8
回04-下接
  6
CONTINUOUS
 62
     7
  0
POINT
  5
22A
  8
DEFPOINTS
  6
CONTINUOUS
 62
     0
 10
2850.263878192386
 20
-401.3756564365261
 30
0.0
  0
POINT
  5
22B
  8
DEFPOINTS
  6
CONTINUOUS
 62
     0
 10
2852.763878192385
 20
-401.3756564365261
 30
0.0
  0
POINT
  5
22C
  8
DEFPOINTS
  6
CONTINUOUS
 62
     0
 10
2852.763878192385
 20
-407.0868487997931
 30
0.0
  0
ENDBLK
  5
22D
  8
0
 62
     7
  0
BLOCK
  8
0
  2
*D3434
 70
     1
 10
0.0
 20
0.0
 30
0.0
  3
*D3434
  1

  0
LINE
  5
1F3
  8
回07-寸法
  6
CONTINUOUS
 62
     5
 10
2838.870693973414
 20
-117.4796719838535
 30
0.0
 11
2838.870693973414
 21
-105.4742966274041
 31
0.0
  0
LINE
  5
1F4
  8
回07-寸法
  6
CONTINUOUS
 62
     5
 10
2859.763878192385
 20
-116.9796719838534
 30
0.0
 11
2859.763878192385
 21
-105.4742966274041
 31
0.0
  0
LINE
  5
1F5
  8
回07-寸法
  6
CONTINUOUS
 62
     5
 10
2840.370693973414
 20
-106.4742966274041
 30
0.0
 11
2858.263878192385
 21
-106.4742966274041
 31
0.0
  0
INSERT
  5
1F6
  8
回07-寸法
  6
CONTINUOUS
 62
     5
  2
_OPEN
 10
2838.870693973414
 20
-106.4742966274041
 30
0.0
 41
1.5
 42
1.5
 43
1.5
 50
180.0
  0
INSERT
  5
1F7
  8
回07-寸法
  6
CONTINUOUS
 62
     5
  2
_OPEN
 10
2859.763878192385
 20
-106.4742966274041
 30
0.0
 41
1.5
 42
1.5
 43
1.5
  0
INSERT
  5
1F8
  8
回07-寸法
  6
CONTINUOUS
 62
     5
 66
     1
  2
*X9292
 10
0.0
 20
0.0
 30
0.0
  0
SEQEND
  5
81E
  8
回04-下接
  6
CONTINUOUS
 62
     7
  0
POINT
  5
1F9
  8
DEFPOINTS
  6
CONTINUOUS
 62
     0
 10
2838.870693973414
 20
-117.4796719838535
 30
0.0
  0
POINT
  5
1FA
  8
DEFPOINTS
  6
CONTINUOUS
 62
     0
 10
2859.763878192385
 20
-116.9796719838534
 30
0.0
  0
POINT
  5
1FB
  8
DEFPOINTS
  6
CONTINUOUS
 62
     0
 10
2859.763878192385
 20
-106.4742966274041
 30
0.0
  0
ENDBLK
  5
1FC
  8
0
 62
     7
  0
BLOCK
  8
0
  2
*D3535
 70
     1
 10
0.0
 20
0.0
 30
0.0
  3
*D3535
  1

  0
LINE
  5
1DE
  8
回07-寸法
  6
CONTINUOUS
 62
     5
 10
2845.370693973416
 20
-391.3756564365264
 30
0.0
 11
2850.125754442306
 21
-391.3756564365264
 31
0.0
  0
LINE
  5
1DF
  8
回07-寸法
  6
CONTINUOUS
 62
     5
 10
2845.370693973416
 20
-401.3756564365264
 30
0.0
 11
2850.125754442306
 21
-401.3756564365264
 31
0.0
  0
LINE
  5
1E0
  8
回07-寸法
  6
CONTINUOUS
 62
     5
 10
2849.125754442306
 20
-392.8756564365264
 30
0.0
 11
2849.125754442306
 21
-399.8756564365264
 31
0.0
  0
INSERT
  5
1E1
  8
回07-寸法
  6
CONTINUOUS
 62
     5
 66
     1
  2
_OPEN
 10
2849.125754442306
 20
-391.3756564365264
 30
0.0
 41
1.5
 42
1.5
 43
1.5
 50
90.0
  0
SEQEND
  5
1E2
  8
回04-下接
  6
CONTINUOUS
 62
     7
  0
INSERT
  5
1E3
  8
回07-寸法
  6
CONTINUOUS
 62
     5
 66
     1
  2
_OPEN
 10
2849.125754442306
 20
-401.3756564365264
 30
0.0
 41
1.5
 42
1.5
 43
1.5
 50
270.0
  0
SEQEND
  5
1E4
  8
回04-下接
  6
CONTINUOUS
 62
     7
  0
TEXT
  5
1E5
  8
回07-寸法
  6
CONTINUOUS
 62
     5
 10
2848.525753942306
 20
-398.3756664365273
 30
0.0
 40
2.00001
  1
(10)
 50
90.0
1001
ACAD
1000
MTEXTBEGIN
1070
    73
1070
     1
1070
    44
1040
1.0
1070
    74
1070
     0
1000
MTEXTEND
  0
POINT
  5
1E6
  8
DEFPOINTS
  6
CONTINUOUS
 62
     0
 10
2845.370693973416
 20
-391.3756564365264
 30
0.0
  0
POINT
  5
1E7
  8
DEFPOINTS
  6
CONTINUOUS
 62
     0
 10
2845.370693973416
 20
-401.3756564365264
 30
0.0
  0
POINT
  5
1E8
  8
DEFPOINTS
  6
CONTINUOUS
 62
     0
 10
2849.125754442306
 20
-401.3756564365264
 30
0.0
  0
ENDBLK
  5
1E9
  8
0
 62
     7
  0
BLOCK
  8
0
  2
*D3636
 70
     1
 10
0.0
 20
0.0
 30
0.0
  3
*D3636
  1

  0
LINE
  5
1CC
  8
回07-寸法
  6
CONTINUOUS
 62
     5
 10
2845.370693973415
 20
-401.3756564365261
 30
0.0
 11
2845.370693973415
 21
-408.0868487997931
 31
0.0
  0
LINE
  5
1CD
  8
回07-寸法
  6
CONTINUOUS
 62
     5
 10
2842.870693973415
 20
-401.3756564365261
 30
0.0
 11
2842.870693973415
 21
-408.0868487997931
 31
0.0
  0
LINE
  5
1CE
  8
回07-寸法
  6
CONTINUOUS
 62
     5
 10
2846.870693973415
 20
-407.0868487997931
 30
0.0
 11
2848.370693973415
 21
-407.0868487997931
 31
0.0
  0
LINE
  5
1CF
  8
回07-寸法
  6
CONTINUOUS
 62
     5
 10
2841.370693973415
 20
-407.0868487997931
 30
0.0
 11
2828.235459142002
 21
-407.0868487997931
 31
0.0
  0
LINE
  5
1D0
  8
回07-寸法
  6
CONTINUOUS
 62
     5
 10
2845.370693973415
 20
-407.0868487997931
 30
0.0
 11
2842.870693973415
 21
-407.0868487997931
 31
0.0
  0
INSERT
  5
1D1
  8
回07-寸法
  6
CONTINUOUS
 62
     5
 66
     1
  2
_OPEN
 10
2845.370693973415
 20
-407.0868487997931
 30
0.0
 41
1.5
 42
1.5
 43
1.5
 50
180.0
  0
SEQEND
  5
1D2
  8
回04-下接
  6
CONTINUOUS
 62
     7
  0
INSERT
  5
1D3
  8
回07-寸法
  6
CONTINUOUS
 62
     5
 66
     1
  2
_OPEN
 10
2842.870693973415
 20
-407.0868487997931
 30
0.0
 41
1.5
 42
1.5
 43
1.5
  0
SEQEND
  5
1D4
  8
回04-下接
  6
CONTINUOUS
 62
     7
  0
INSERT
  5
1D5
  8
回07-寸法
  6
CONTINUOUS
 62
     5
 66
     1
  2
*X9393
 10
0.0
 20
0.0
 30
0.0
  0
SEQEND
  5
824
  8
回04-下接
  6
CONTINUOUS
 62
     7
  0
POINT
  5
1D6
  8
DEFPOINTS
  6
CONTINUOUS
 62
     0
 10
2845.370693973415
 20
-401.3756564365261
 30
0.0
  0
POINT
  5
1D8
  8
DEFPOINTS
  6
CONTINUOUS
 62
     0
 10
2842.870693973415
 20
-401.3756564365261
 30
0.0
  0
POINT
  5
1D9
  8
DEFPOINTS
  6
CONTINUOUS
 62
     0
 10
2842.870693973415
 20
-407.0868487997931
 30
0.0
  0
ENDBLK
  5
1DA
  8
0
 62
     7
  0
BLOCK
  8
0
  2
*D3737
 70
     1
 10
0.0
 20
0.0
 30
0.0
  3
*D3737
  1

  0
LINE
  5
43C
  8
回07-寸法
  6
CONTINUOUS
 62
     5
 10
2668.960696158298
 20
-304.5211261635753
 30
0.0
 11
2668.960696158298
 21
-332.1551539838893
 31
0.0
  0
LINE
  5
43D
  8
回07-寸法
  6
CONTINUOUS
 62
     5
 10
2695.960696158298
 20
-304.5211261635753
 30
0.0
 11
2695.960696158298
 21
-332.1551539838893
 31
0.0
  0
LINE
  5
43E
  8
回07-寸法
  6
CONTINUOUS
 62
     5
 10
2667.460696158298
 20
-331.1551539838894
 30
0.0
 11
2665.960696158298
 21
-331.1551539838894
 31
0.0
  0
LINE
  5
43F
  8
回07-寸法
  6
CONTINUOUS
 62
     5
 10
2697.460696158298
 20
-331.1551539838894
 30
0.0
 11
2704.899574111055
 21
-331.1551539838894
 31
0.0
  0
LINE
  5
440
  8
回07-寸法
  6
CONTINUOUS
 62
     5
 10
2668.960696158298
 20
-331.1551539838894
 30
0.0
 11
2695.960696158298
 21
-331.1551539838894
 31
0.0
  0
INSERT
  5
441
  8
回07-寸法
  6
CONTINUOUS
 62
     5
  2
_OPEN
 10
2668.960696158298
 20
-331.1551539838894
 30
0.0
 41
1.5
 42
1.5
 43
1.5
  0
INSERT
  5
442
  8
回07-寸法
  6
CONTINUOUS
 62
     5
  2
_OPEN
 10
2695.960696158298
 20
-331.1551539838894
 30
0.0
 41
1.5
 42
1.5
 43
1.5
 50
180.0
  0
TEXT
  5
443
  8
回07-寸法
  6
CONTINUOUS
 62
     5
 10
2700.611483559873
 20
-330.6548587082988
 30
0.0
 40
3.0
  1
27
1001
ACAD
1000
MTEXTBEGIN
1070
    73
1070
     1
1070
    44
1040
1.0
1070
    74
1070
     0
1000
MTEXTEND
  0
POINT
  5
444
  8
DEFPOINTS
  6
CONTINUOUS
 62
     0
 10
2668.960696158298
 20
-304.5211261635753
 30
0.0
  0
POINT
  5
445
  8
DEFPOINTS
  6
CONTINUOUS
 62
     0
 10
2695.960696158298
 20
-304.5211261635753
 30
0.0
  0
POINT
  5
446
  8
DEFPOINTS
  6
CONTINUOUS
 62
     0
 10
2695.960696158298
 20
-331.1551539838894
 30
0.0
  0
ENDBLK
  5
447
  8
0
 62
     7
  0
BLOCK
  8
0
  2
*D3838
 70
     1
 10
0.0
 20
0.0
 30
0.0
  3
*D3838
  1

  0
LINE
  5
42D
  8
回07-寸法
  6
CONTINUOUS
 62
     5
 10
2695.960696158299
 20
-301.3797048073375
 30
0.0
 11
2703.571133118307
 21
-301.3797048073375
 31
0.0
  0
LINE
  5
42E
  8
回07-寸法
  6
CONTINUOUS
 62
     5
 10
2695.960696158299
 20
-304.9353397259488
 30
0.0
 11
2703.571133118307
 21
-304.9353397259488
 31
0.0
  0
LINE
  5
42F
  8
回07-寸法
  6
CONTINUOUS
 62
     5
 10
2702.571133118307
 20
-299.8797048073375
 30
0.0
 11
2702.571133118307
 21
-298.3797048073375
 31
0.0
  0
LINE
  5
430
  8
回07-寸法
  6
CONTINUOUS
 62
     5
 10
2702.571133118307
 20
-306.4353397259488
 30
0.0
 11
2702.571133118307
 21
-320.3433932489927
 31
0.0
  0
LINE
  5
431
  8
回07-寸法
  6
CONTINUOUS
 62
     5
 10
2702.571133118307
 20
-301.3797048073375
 30
0.0
 11
2702.571133118307
 21
-304.9353397259488
 31
0.0
  0
INSERT
  5
432
  8
回07-寸法
  6
CONTINUOUS
 62
     5
  2
_OPEN
 10
2702.571133118307
 20
-301.3797048073375
 30
0.0
 41
1.5
 42
1.5
 43
1.5
 50
270.0
  0
INSERT
  5
433
  8
回07-寸法
  6
CONTINUOUS
 62
     5
  2
_OPEN
 10
2702.571133118307
 20
-304.9353397259488
 30
0.0
 41
1.5
 42
1.5
 43
1.5
 50
90.0
  0
TEXT
  5
434
  8
回07-寸法
  6
CONTINUOUS
 62
     5
 10
2702.071133118307
 20
-320.2202363428255
 30
0.0
 40
3.0
  1
3.6
 50
90.0
1001
ACAD
1000
MTEXTBEGIN
1070
    73
1070
     1
1070
    44
1040
1.0
1070
    74
1070
     0
1000
MTEXTEND
  0
POINT
  5
435
  8
DEFPOINTS
  6
CONTINUOUS
 62
     0
 10
2695.960696158299
 20
-301.3797048073375
 30
0.0
  0
POINT
  5
436
  8
DEFPOINTS
  6
CONTINUOUS
 62
     0
 10
2695.960696158299
 20
-304.9353397259488
 30
0.0
  0
POINT
  5
437
  8
DEFPOINTS
  6
CONTINUOUS
 62
     0
 10
2702.571133118307
 20
-304.9353397259488
 30
0.0
  0
ENDBLK
  5
438
  8
0
 62
     7
  0
BLOCK
  8
回04-下接
  2
*D3939
 70
     1
 10
0.0
 20
0.0
 30
0.0
  3
*D3939
  1

  0
LINE
  5
4A7
  8
回07-寸法
  6
CONTINUOUS
 62
     5
 10
2835.643833047153
 20
-470.5269658054191
 30
0.0
 11
2835.643833047153
 21
-477.2381581686862
 31
0.0
  0
LINE
  5
4A9
  8
回07-寸法
  6
CONTINUOUS
 62
     5
 10
2833.143833047153
 20
-470.5269658054191
 30
0.0
 11
2833.143833047153
 21
-477.2381581686862
 31
0.0
  0
LINE
  5
4AA
  8
回07-寸法
  6
CONTINUOUS
 62
     5
 10
2831.643833047153
 20
-476.2381581686861
 30
0.0
 11
2818.591441342429
 21
-476.2381581686861
 31
0.0
  0
LINE
  5
4AB
  8
回07-寸法
  6
CONTINUOUS
 62
     5
 10
2835.643833047153
 20
-476.2381581686861
 30
0.0
 11
2833.143833047153
 21
-476.2381581686861
 31
0.0
  0
LINE
  5
4AC
  8
回07-寸法
  6
CONTINUOUS
 62
     5
 10
2837.143833047153
 20
-476.2381581686861
 30
0.0
 11
2838.643833047153
 21
-476.2381581686861
 31
0.0
  0
INSERT
  5
4AD
  8
回07-寸法
  6
CONTINUOUS
 62
     5
  2
_OPEN
 10
2835.643833047153
 20
-476.2381581686861
 30
0.0
 41
1.5
 42
1.5
 43
1.5
 50
180.0
  0
INSERT
  5
4AE
  8
回07-寸法
  6
CONTINUOUS
 62
     5
  2
_OPEN
 10
2833.143833047153
 20
-476.2381581686861
 30
0.0
 41
1.5
 42
1.5
 43
1.5
  0
INSERT
  5
4AF
  8
回07-寸法
  6
CONTINUOUS
 62
     5
 66
     1
  2
*X9494
 10
0.0
 20
0.0
 30
0.0
  0
SEQEND
  5
82A
  8
回04-下接
  6
CONTINUOUS
 62
     7
  0
POINT
  5
4B0
  8
DEFPOINTS
  6
CONTINUOUS
 62
     0
 10
2835.643833047153
 20
-470.5269658054191
 30
0.0
  0
POINT
  5
4B1
  8
DEFPOINTS
  6
CONTINUOUS
 62
     0
 10
2833.143833047153
 20
-470.5269658054191
 30
0.0
  0
POINT
  5
4B2
  8
DEFPOINTS
  6
CONTINUOUS
 62
     0
 10
2833.143833047153
 20
-476.2381581686861
 30
0.0
  0
ENDBLK
  5
4B4
  8
回04-下接
  6
CONTINUOUS
 62
     7
  0
BLOCK
  8
回04-下接
  2
*D4040
 70
     1
 10
0.0
 20
0.0
 30
0.0
  3
*D4040
  1

  0
LINE
  5
4B6
  8
回07-寸法
  6
CONTINUOUS
 62
     5
 10
2835.643833047153
 20
-460.5269658054191
 30
0.0
 11
2840.398893516044
 21
-460.5269658054191
 31
0.0
  0
LINE
  5
4B7
  8
回07-寸法
  6
CONTINUOUS
 62
     5
 10
2835.643833047153
 20
-470.5269658054191
 30
0.0
 11
2840.398893516044
 21
-470.5269658054191
 31
0.0
  0
LINE
  5
4B8
  8
回07-寸法
  6
CONTINUOUS
 62
     5
 10
2839.398893516044
 20
-462.0269658054191
 30
0.0
 11
2839.398893516044
 21
-469.0269658054191
 31
0.0
  0
INSERT
  5
4B9
  8
回07-寸法
  6
CONTINUOUS
 62
     5
  2
_OPEN
 10
2839.398893516044
 20
-460.5269658054191
 30
0.0
 41
1.5
 42
1.5
 43
1.5
 50
90.0
  0
INSERT
  5
4BA
  8
回07-寸法
  6
CONTINUOUS
 62
     5
  2
_OPEN
 10
2839.398893516044
 20
-470.5269658054191
 30
0.0
 41
1.5
 42
1.5
 43
1.5
 50
270.0
  0
TEXT
  5
4BB
  8
回07-寸法
  6
CONTINUOUS
 62
     5
 10
2838.798893016045
 20
-467.5269758054191
 30
0.0
 40
2.00001
  1
(10)
 50
90.0
  0
POINT
  5
4BC
  8
DEFPOINTS
  6
CONTINUOUS
 62
     0
 10
2835.643833047153
 20
-460.5269658054191
 30
0.0
  0
POINT
  5
4BD
  8
DEFPOINTS
  6
CONTINUOUS
 62
     0
 10
2835.643833047153
 20
-470.5269658054191
 30
0.0
  0
POINT
  5
4BE
  8
DEFPOINTS
  6
CONTINUOUS
 62
     0
 10
2839.398893516044
 20
-470.5269658054191
 30
0.0
  0
ENDBLK
  5
4C0
  8
回04-下接
  6
CONTINUOUS
 62
     7
  0
BLOCK
  8
回04-下接
  2
*D4141
 70
     1
 10
0.0
 20
0.0
 30
0.0
  3
*D4141
  1

  0
LINE
  5
4C2
  8
回07-寸法
  6
CONTINUOUS
 62
     5
 10
2829.143833047153
 20
-186.6309813527466
 30
0.0
 11
2829.143833047153
 21
-174.6256059962971
 31
0.0
  0
LINE
  5
4C4
  8
回07-寸法
  6
CONTINUOUS
 62
     5
 10
2850.037017266124
 20
-186.1309813527464
 30
0.0
 11
2850.037017266124
 21
-174.6256059962971
 31
0.0
  0
LINE
  5
4C5
  8
回07-寸法
  6
CONTINUOUS
 62
     5
 10
2830.643833047153
 20
-175.6256059962971
 30
0.0
 11
2848.537017266123
 21
-175.6256059962971
 31
0.0
  0
INSERT
  5
4C6
  8
回07-寸法
  6
CONTINUOUS
 62
     5
  2
_OPEN
 10
2829.143833047153
 20
-175.6256059962971
 30
0.0
 41
1.5
 42
1.5
 43
1.5
 50
180.0
  0
INSERT
  5
4C7
  8
回07-寸法
  6
CONTINUOUS
 62
     5
  2
_OPEN
 10
2850.037017266124
 20
-175.6256059962971
 30
0.0
 41
1.5
 42
1.5
 43
1.5
  0
INSERT
  5
4C8
  8
回07-寸法
  6
CONTINUOUS
 62
     5
 66
     1
  2
*X9595
 10
0.0
 20
0.0
 30
0.0
  0
SEQEND
  5
830
  8
回04-下接
  6
CONTINUOUS
 62
     7
  0
POINT
  5
4C9
  8
DEFPOINTS
  6
CONTINUOUS
 62
     0
 10
2829.143833047153
 20
-186.6309813527466
 30
0.0
  0
POINT
  5
4CA
  8
DEFPOINTS
  6
CONTINUOUS
 62
     0
 10
2850.037017266124
 20
-186.1309813527464
 30
0.0
  0
POINT
  5
4CB
  8
DEFPOINTS
  6
CONTINUOUS
 62
     0
 10
2850.037017266124
 20
-175.6256059962971
 30
0.0
  0
ENDBLK
  5
4CD
  8
回04-下接
  6
CONTINUOUS
 62
     7
  0
BLOCK
  8
回04-下接
  2
*D4242
 70
     1
 10
0.0
 20
0.0
 30
0.0
  3
*D4242
  1

  0
LINE
  5
4CF
  8
回07-寸法
  6
CONTINUOUS
 62
     5
 10
2840.537017266123
 20
-470.5269658054191
 30
0.0
 11
2840.537017266123
 21
-477.2381581686862
 31
0.0
  0
LINE
  5
4D0
  8
回07-寸法
  6
CONTINUOUS
 62
     5
 10
2843.037017266123
 20
-470.5269658054191
 30
0.0
 11
2843.037017266123
 21
-477.2381581686862
 31
0.0
  0
LINE
  5
4D1
  8
回07-寸法
  6
CONTINUOUS
 62
     5
 10
2844.537017266123
 20
-476.2381581686861
 30
0.0
 11
2857.589408970847
 21
-476.2381581686861
 31
0.0
  0
LINE
  5
4D2
  8
回07-寸法
  6
CONTINUOUS
 62
     5
 10
2840.537017266123
 20
-476.2381581686861
 30
0.0
 11
2843.037017266123
 21
-476.2381581686861
 31
0.0
  0
LINE
  5
4D3
  8
回07-寸法
  6
CONTINUOUS
 62
     5
 10
2839.037017266123
 20
-476.2381581686861
 30
0.0
 11
2837.537017266124
 21
-476.2381581686861
 31
0.0
  0
INSERT
  5
4D4
  8
回07-寸法
  6
CONTINUOUS
 62
     5
  2
_OPEN
 10
2840.537017266123
 20
-476.2381581686861
 30
0.0
 41
1.5
 42
1.5
 43
1.5
  0
INSERT
  5
4D5
  8
回07-寸法
  6
CONTINUOUS
 62
     5
  2
_OPEN
 10
2843.037017266123
 20
-476.2381581686861
 30
0.0
 41
1.5
 42
1.5
 43
1.5
 50
180.0
  0
INSERT
  5
4D6
  8
回07-寸法
  6
CONTINUOUS
 62
     5
 66
     1
  2
*X9696
 10
0.0
 20
0.0
 30
0.0
  0
SEQEND
  5
836
  8
回04-下接
  6
CONTINUOUS
 62
     7
  0
POINT
  5
4D7
  8
DEFPOINTS
  6
CONTINUOUS
 62
     0
 10
2840.537017266123
 20
-470.5269658054191
 30
0.0
  0
POINT
  5
4D8
  8
DEFPOINTS
  6
CONTINUOUS
 62
     0
 10
2843.037017266123
 20
-470.5269658054191
 30
0.0
  0
POINT
  5
4D9
  8
DEFPOINTS
  6
CONTINUOUS
 62
     0
 10
2843.037017266123
 20
-476.2381581686861
 30
0.0
  0
ENDBLK
  5
4DB
  8
回04-下接
  6
CONTINUOUS
 62
     7
  0
BLOCK
  8
回04-下接
  2
*D4343
 70
     1
 10
0.0
 20
0.0
 30
0.0
  3
*D4343
  1

  0
LINE
  5
4DD
  8
回07-寸法
  6
CONTINUOUS
 62
     5
 10
2843.037017266123
 20
-470.5269658054191
 30
0.0
 11
2853.152655856817
 21
-470.5269658054191
 31
0.0
  0
LINE
  5
4DE
  8
回07-寸法
  6
CONTINUOUS
 62
     5
 10
2843.737017266123
 20
-465.5269658054191
 30
0.0
 11
2853.152655856817
 21
-465.5269658054191
 31
0.0
  0
LINE
  5
4DF
  8
回07-寸法
  6
CONTINUOUS
 62
     5
 10
2852.152655856818
 20
-469.0269658054191
 30
0.0
 11
2852.152655856818
 21
-467.0269658054191
 31
0.0
  0
INSERT
  5
4E0
  8
回07-寸法
  6
CONTINUOUS
 62
     5
  2
_OPEN
 10
2852.152655856818
 20
-470.5269658054191
 30
0.0
 41
1.5
 42
1.5
 43
1.5
 50
270.0
  0
INSERT
  5
4E1
  8
回07-寸法
  6
CONTINUOUS
 62
     5
  2
_OPEN
 10
2852.152655856818
 20
-465.5269658054191
 30
0.0
 41
1.5
 42
1.5
 43
1.5
 50
90.0
  0
TEXT
  5
4E2
  8
回07-寸法
  6
CONTINUOUS
 62
     5
 10
2851.652655856819
 20
-469.0769658054191
 30
0.0
 40
3.0
  1
5
 50
90.0
  0
POINT
  5
4E3
  8
DEFPOINTS
  6
CONTINUOUS
 62
     0
 10
2843.037017266123
 20
-470.5269658054191
 30
0.0
  0
POINT
  5
4E4
  8
DEFPOINTS
  6
CONTINUOUS
 62
     0
 10
2843.737017266123
 20
-465.5269658054191
 30
0.0
  0
POINT
  5
4E5
  8
DEFPOINTS
  6
CONTINUOUS
 62
     0
 10
2852.152655856818
 20
-465.5269658054191
 30
0.0
  0
ENDBLK
  5
4E7
  8
回04-下接
  6
CONTINUOUS
 62
     7
  0
BLOCK
  8
回04-下接
  2
*D4444
 70
     1
 10
0.0
 20
0.0
 30
0.0
  3
*D4444
  1

  0
LINE
  5
4E9
  8
回07-寸法
  6
CONTINUOUS
 62
     5
 10
2833.143833047153
 20
-470.5269658054191
 30
0.0
 11
2824.278115065533
 21
-470.5269658054191
 31
0.0
  0
LINE
  5
4EA
  8
回07-寸法
  6
CONTINUOUS
 62
     5
 10
2832.443833047152
 20
-465.5269658054191
 30
0.0
 11
2824.278115065533
 21
-465.5269658054191
 31
0.0
  0
LINE
  5
4EB
  8
回07-寸法
  6
CONTINUOUS
 62
     5
 10
2825.278115065533
 20
-469.0269658054191
 30
0.0
 11
2825.278115065533
 21
-467.0269658054191
 31
0.0
  0
INSERT
  5
4EC
  8
回07-寸法
  6
CONTINUOUS
 62
     5
  2
_OPEN
 10
2825.278115065533
 20
-470.5269658054191
 30
0.0
 41
1.5
 42
1.5
 43
1.5
 50
270.0
  0
INSERT
  5
4ED
  8
回07-寸法
  6
CONTINUOUS
 62
     5
  2
_OPEN
 10
2825.278115065533
 20
-465.5269658054191
 30
0.0
 41
1.5
 42
1.5
 43
1.5
 50
90.0
  0
TEXT
  5
4EE
  8
回07-寸法
  6
CONTINUOUS
 62
     5
 10
2824.778115065533
 20
-469.0769658054191
 30
0.0
 40
3.0
  1
5
 50
90.0
  0
POINT
  5
4EF
  8
DEFPOINTS
  6
CONTINUOUS
 62
     0
 10
2833.143833047153
 20
-470.5269658054191
 30
0.0
  0
POINT
  5
4F0
  8
DEFPOINTS
  6
CONTINUOUS
 62
     0
 10
2832.443833047152
 20
-465.5269658054191
 30
0.0
  0
POINT
  5
4F1
  8
DEFPOINTS
  6
CONTINUOUS
 62
     0
 10
2825.278115065533
 20
-465.5269658054191
 30
0.0
  0
ENDBLK
  5
4F3
  8
回04-下接
  6
CONTINUOUS
 62
     7
  0
BLOCK
  8
回04-下接
  2
*D4545
 70
     1
 10
0.0
 20
0.0
 30
0.0
  3
*D4545
  1

  0
LINE
  5
4F5
  8
回07-寸法
  6
CONTINUOUS
 62
     5
 10
2665.982709916589
 20
-470.0269658054191
 30
0.0
 11
2665.982709916589
 21
-485.9422272535288
 31
0.0
  0
LINE
  5
4F6
  8
回07-寸法
  6
CONTINUOUS
 62
     5
 10
2679.48270991659
 20
-470.02696580542
 30
0.0
 11
2679.48270991659
 21
-485.9422272535288
 31
0.0
  0
LINE
  5
4F7
  8
回07-寸法
  6
CONTINUOUS
 62
     5
 10
2667.482709916589
 20
-484.9422272535288
 30
0.0
 11
2677.98270991659
 21
-484.9422272535288
 31
0.0
  0
INSERT
  5
4F8
  8
回07-寸法
  6
CONTINUOUS
 62
     5
  2
_OPEN
 10
2665.982709916589
 20
-484.9422272535288
 30
0.0
 41
1.5
 42
1.5
 43
1.5
 50
180.0
  0
INSERT
  5
4F9
  8
回07-寸法
  6
CONTINUOUS
 62
     5
  2
_OPEN
 10
2679.48270991659
 20
-484.9422272535288
 30
0.0
 41
1.5
 42
1.5
 43
1.5
  0
INSERT
  5
4FA
  8
回07-寸法
  6
CONTINUOUS
 62
     5
 66
     1
  2
*X9797
 10
0.0
 20
0.0
 30
0.0
  0
SEQEND
  5
83C
  8
回04-下接
  6
CONTINUOUS
 62
     7
  0
POINT
  5
4FB
  8
DEFPOINTS
  6
CONTINUOUS
 62
     0
 10
2665.982709916589
 20
-470.0269658054191
 30
0.0
  0
POINT
  5
4FC
  8
DEFPOINTS
  6
CONTINUOUS
 62
     0
 10
2679.48270991659
 20
-470.02696580542
 30
0.0
  0
POINT
  5
4FD
  8
DEFPOINTS
  6
CONTINUOUS
 62
     0
 10
2679.48270991659
 20
-484.9422272535288
 30
0.0
  0
ENDBLK
  5
4FF
  8
回04-下接
  6
CONTINUOUS
 62
     7
  0
BLOCK
  8
回04-下接
  2
*D4646
 70
     1
 10
0.0
 20
0.0
 30
0.0
  3
*D4646
  1

  0
LINE
  5
501
  8
回07-寸法
  6
CONTINUOUS
 62
     5
 10
2514.366917020444
 20
-370.5310141762304
 30
0.0
 11
2514.366917020444
 21
-485.7922272535287
 31
0.0
  0
LINE
  5
502
  8
回07-寸法
  6
CONTINUOUS
 62
     5
 10
2665.982709916589
 20
-470.0269658054191
 30
0.0
 11
2665.982709916589
 21
-485.7922272535287
 31
0.0
  0
LINE
  5
503
  8
回07-寸法
  6
CONTINUOUS
 62
     5
 10
2515.866917020444
 20
-484.7922272535288
 30
0.0
 11
2664.482709916589
 21
-484.7922272535288
 31
0.0
  0
INSERT
  5
504
  8
回07-寸法
  6
CONTINUOUS
 62
     5
  2
_OPEN
 10
2514.366917020444
 20
-484.7922272535288
 30
0.0
 41
1.5
 42
1.5
 43
1.5
 50
180.0
  0
INSERT
  5
505
  8
回07-寸法
  6
CONTINUOUS
 62
     5
  2
_OPEN
 10
2665.982709916589
 20
-484.7922272535288
 30
0.0
 41
1.5
 42
1.5
 43
1.5
  0
TEXT
  5
506
  8
回07-寸法
  6
CONTINUOUS
 62
     5
 10
2583.874813468516
 20
-484.1422272535288
 30
0.0
 40
3.0
  1
(151.62)
  0
POINT
  5
507
  8
DEFPOINTS
  6
CONTINUOUS
 62
     0
 10
2514.366917020444
 20
-370.5310141762304
 30
0.0
  0
POINT
  5
508
  8
DEFPOINTS
  6
CONTINUOUS
 62
     0
 10
2665.982709916589
 20
-470.0269658054191
 30
0.0
  0
POINT
  5
509
  8
DEFPOINTS
  6
CONTINUOUS
 62
     0
 10
2665.982709916589
 20
-484.7922272535288
 30
0.0
  0
ENDBLK
  5
50B
  8
回04-下接
  6
CONTINUOUS
 62
     7
  0
BLOCK
  8
回04-下接
  2
*D4747
 70
     1
 10
0.0
 20
0.0
 30
0.0
  3
*D4747
  1

  0
LINE
  5
50D
  8
回07-寸法
  6
CONTINUOUS
 62
     5
 10
2636.982709916589
 20
-470.0269658054191
 30
0.0
 11
2636.982709916589
 21
-479.1780467237485
 31
0.0
  0
LINE
  5
50E
  8
回07-寸法
  6
CONTINUOUS
 62
     5
 10
2654.482709916589
 20
-470.0269658054191
 30
0.0
 11
2654.482709916589
 21
-479.1780467237485
 31
0.0
  0
LINE
  5
50F
  8
回07-寸法
  6
CONTINUOUS
 62
     5
 10
2638.482709916589
 20
-478.1780467237484
 30
0.0
 11
2652.982709916589
 21
-478.1780467237484
 31
0.0
  0
INSERT
  5
510
  8
回07-寸法
  6
CONTINUOUS
 62
     5
  2
_OPEN
 10
2636.982709916589
 20
-478.1780467237484
 30
0.0
 41
1.5
 42
1.5
 43
1.5
 50
180.0
  0
INSERT
  5
511
  8
回07-寸法
  6
CONTINUOUS
 62
     5
  2
_OPEN
 10
2654.482709916589
 20
-478.1780467237484
 30
0.0
 41
1.5
 42
1.5
 43
1.5
  0
INSERT
  5
512
  8
回07-寸法
  6
CONTINUOUS
 62
     5
 66
     1
  2
*X9898
 10
0.0
 20
0.0
 30
0.0
  0
SEQEND
  5
842
  8
回04-下接
  6
CONTINUOUS
 62
     7
  0
POINT
  5
513
  8
DEFPOINTS
  6
CONTINUOUS
 62
     0
 10
2636.982709916589
 20
-470.0269658054191
 30
0.0
  0
POINT
  5
514
  8
DEFPOINTS
  6
CONTINUOUS
 62
     0
 10
2654.482709916589
 20
-470.0269658054191
 30
0.0
  0
POINT
  5
515
  8
DEFPOINTS
  6
CONTINUOUS
 62
     0
 10
2654.482709916589
 20
-478.1780467237484
 30
0.0
  0
ENDBLK
  5
517
  8
回04-下接
  6
CONTINUOUS
 62
     7
  0
BLOCK
  8
回04-下接
  2
*D4848
 70
     1
 10
0.0
 20
0.0
 30
0.0
  3
*D4848
  1

  0
LINE
  5
519
  8
回07-寸法
  6
CONTINUOUS
 62
     5
 10
2514.366917020444
 20
-370.5310141762304
 30
0.0
 11
2514.366917020444
 21
-479.0280467237484
 31
0.0
  0
LINE
  5
51A
  8
回07-寸法
  6
CONTINUOUS
 62
     5
 10
2636.982709916589
 20
-470.0269658054191
 30
0.0
 11
2636.982709916589
 21
-479.0280467237484
 31
0.0
  0
LINE
  5
51B
  8
回07-寸法
  6
CONTINUOUS
 62
     5
 10
2515.866917020444
 20
-478.0280467237483
 30
0.0
 11
2635.482709916589
 21
-478.0280467237483
 31
0.0
  0
INSERT
  5
51C
  8
回07-寸法
  6
CONTINUOUS
 62
     5
  2
_OPEN
 10
2514.366917020444
 20
-478.0280467237483
 30
0.0
 41
1.5
 42
1.5
 43
1.5
 50
180.0
  0
INSERT
  5
51D
  8
回07-寸法
  6
CONTINUOUS
 62
     5
  2
_OPEN
 10
2636.982709916589
 20
-478.0280467237483
 30
0.0
 41
1.5
 42
1.5
 43
1.5
  0
TEXT
  5
51E
  8
回07-寸法
  6
CONTINUOUS
 62
     5
 10
2569.074813468516
 20
-477.3780467237484
 30
0.0
 40
3.0
  1
(122.62)
  0
POINT
  5
51F
  8
DEFPOINTS
  6
CONTINUOUS
 62
     0
 10
2514.366917020444
 20
-370.5310141762304
 30
0.0
  0
POINT
  5
520
  8
DEFPOINTS
  6
CONTINUOUS
 62
     0
 10
2636.982709916589
 20
-470.0269658054191
 30
0.0
  0
POINT
  5
521
  8
DEFPOINTS
  6
CONTINUOUS
 62
     0
 10
2636.982709916589
 20
-478.0280467237483
 30
0.0
  0
ENDBLK
  5
523
  8
回04-下接
  6
CONTINUOUS
 62
     7
  0
BLOCK
  8
回04-下接
  2
*D4949
 70
     1
 10
0.0
 20
0.0
 30
0.0
  3
*D4949
  1

  0
LINE
  5
525
  8
回07-寸法
  6
CONTINUOUS
 62
     5
 10
2686.233835232037
 20
-370.5310141762303
 30
0.0
 11
2699.928925971884
 21
-370.5310141762303
 31
0.0
  0
LINE
  5
526
  8
回07-寸法
  6
CONTINUOUS
 62
     5
 10
2679.48270991659
 20
-380.8377744102897
 30
0.0
 11
2699.928925971884
 21
-380.8377744102897
 31
0.0
  0
LINE
  5
527
  8
回07-寸法
  6
CONTINUOUS
 62
     5
 10
2698.928925971884
 20
-382.3377744102897
 30
0.0
 11
2698.928925971884
 21
-392.5706171227642
 31
0.0
  0
LINE
  5
528
  8
回07-寸法
  6
CONTINUOUS
 62
     5
 10
2698.928925971884
 20
-370.5310141762303
 30
0.0
 11
2698.928925971884
 21
-380.8377744102897
 31
0.0
  0
LINE
  5
529
  8
回07-寸法
  6
CONTINUOUS
 62
     5
 10
2698.928925971884
 20
-369.0310141762303
 30
0.0
 11
2698.928925971884
 21
-367.5310141762303
 31
0.0
  0
INSERT
  5
52A
  8
回07-寸法
  6
CONTINUOUS
 62
     5
  2
_OPEN
 10
2698.928925971884
 20
-370.5310141762303
 30
0.0
 41
1.5
 42
1.5
 43
1.5
 50
270.0
  0
INSERT
  5
52B
  8
回07-寸法
  6
CONTINUOUS
 62
     5
  2
_OPEN
 10
2698.928925971884
 20
-380.8377744102897
 30
0.0
 41
1.5
 42
1.5
 43
1.5
 50
90.0
  0
TEXT
  5
52C
  8
回07-寸法
  6
CONTINUOUS
 62
     5
 10
2698.428925971886
 20
-392.5206171227642
 30
0.0
 40
3.0
  1
10.3
 50
90.0
  0
POINT
  5
52D
  8
DEFPOINTS
  6
CONTINUOUS
 62
     0
 10
2686.233835232037
 20
-370.5310141762303
 30
0.0
  0
POINT
  5
52E
  8
DEFPOINTS
  6
CONTINUOUS
 62
     0
 10
2679.48270991659
 20
-380.8377744102897
 30
0.0
  0
POINT
  5
52F
  8
DEFPOINTS
  6
CONTINUOUS
 62
     0
 10
2698.928925971884
 20
-380.8377744102897
 30
0.0
  0
ENDBLK
  5
531
  8
回04-下接
  6
CONTINUOUS
 62
     7
  0
BLOCK
  8
回04-下接
  2
*D5050
 70
     1
 10
0.0
 20
0.0
 30
0.0
  3
*D5050
  1

  0
LINE
  5
533
  8
回07-寸法
  6
CONTINUOUS
 62
     5
 10
2658.233835232037
 20
-373.7444415770129
 30
0.0
 11
2658.233835232037
 21
-396.5033253941287
 31
0.0
  0
LINE
  5
534
  8
回07-寸法
  6
CONTINUOUS
 62
     5
 10
2623.233835232037
 20
-373.7444415770129
 30
0.0
 11
2623.233835232037
 21
-396.5033253941287
 31
0.0
  0
LINE
  5
535
  8
回07-寸法
  6
CONTINUOUS
 62
     5
 10
2621.733835232037
 20
-395.5033253941288
 30
0.0
 11
2614.300992519563
 21
-395.5033253941288
 31
0.0
  0
LINE
  5
536
  8
回07-寸法
  6
CONTINUOUS
 62
     5
 10
2658.233835232037
 20
-395.5033253941288
 30
0.0
 11
2623.233835232037
 21
-395.5033253941288
 31
0.0
  0
LINE
  5
537
  8
回07-寸法
  6
CONTINUOUS
 62
     5
 10
2659.733835232037
 20
-395.5033253941288
 30
0.0
 11
2661.233835232037
 21
-395.5033253941288
 31
0.0
  0
INSERT
  5
538
  8
回07-寸法
  6
CONTINUOUS
 62
     5
  2
_OPEN
 10
2658.233835232037
 20
-395.5033253941288
 30
0.0
 41
1.5
 42
1.5
 43
1.5
 50
180.0
  0
INSERT
  5
539
  8
回07-寸法
  6
CONTINUOUS
 62
     5
  2
_OPEN
 10
2623.233835232037
 20
-395.5033253941288
 30
0.0
 41
1.5
 42
1.5
 43
1.5
  0
TEXT
  5
53A
  8
回07-寸法
  6
CONTINUOUS
 62
     5
 10
2614.350992519563
 20
-395.0033253941287
 30
0.0
 40
3.0
  1
35
  0
POINT
  5
53B
  8
DEFPOINTS
  6
CONTINUOUS
 62
     0
 10
2658.233835232037
 20
-373.7444415770129
 30
0.0
  0
POINT
  5
53C
  8
DEFPOINTS
  6
CONTINUOUS
 62
     0
 10
2623.233835232037
 20
-373.7444415770129
 30
0.0
  0
POINT
  5
53D
  8
DEFPOINTS
  6
CONTINUOUS
 62
     0
 10
2623.233835232037
 20
-395.5033253941288
 30
0.0
  0
ENDBLK
  5
53F
  8
回04-下接
  6
CONTINUOUS
 62
     7
  0
BLOCK
  8
回04-下接
  2
*D5151
 70
     1
 10
0.0
 20
0.0
 30
0.0
  3
*D5151
  1

  0
LINE
  5
541
  8
回07-寸法
  6
CONTINUOUS
 62
     5
 10
2623.233835232037
 20
-370.5310141762303
 30
0.0
 11
2612.729636762477
 21
-370.5310141762303
 31
0.0
  0
LINE
  5
542
  8
回07-寸法
  6
CONTINUOUS
 62
     5
 10
2636.982709916589
 20
-387.9075298239379
 30
0.0
 11
2612.729636762477
 21
-387.9075298239379
 31
0.0
  0
LINE
  5
543
  8
回07-寸法
  6
CONTINUOUS
 62
     5
 10
2613.729636762477
 20
-372.0310141762303
 30
0.0
 11
2613.729636762477
 21
-386.4075298239379
 31
0.0
  0
INSERT
  5
544
  8
回07-寸法
  6
CONTINUOUS
 62
     5
  2
_OPEN
 10
2613.729636762477
 20
-370.5310141762303
 30
0.0
 41
1.5
 42
1.5
 43
1.5
 50
90.0
  0
INSERT
  5
545
  8
回07-寸法
  6
CONTINUOUS
 62
     5
  2
_OPEN
 10
2613.729636762477
 20
-387.9075298239379
 30
0.0
 41
1.5
 42
1.5
 43
1.5
 50
270.0
  0
TEXT
  5
546
  8
回07-寸法
  6
CONTINUOUS
 62
     5
 10
2613.229636762477
 20
-382.6692720000838
 30
0.0
 40
3.0
  1
17.4
 50
90.0
  0
POINT
  5
547
  8
DEFPOINTS
  6
CONTINUOUS
 62
     0
 10
2623.233835232037
 20
-370.5310141762303
 30
0.0
  0
POINT
  5
548
  8
DEFPOINTS
  6
CONTINUOUS
 62
     0
 10
2636.982709916589
 20
-387.9075298239379
 30
0.0
  0
POINT
  5
549
  8
DEFPOINTS
  6
CONTINUOUS
 62
     0
 10
2613.729636762477
 20
-387.9075298239379
 30
0.0
  0
ENDBLK
  5
54B
  8
回04-下接
  6
CONTINUOUS
 62
     7
  0
BLOCK
  8
回04-下接
  2
*D5252
 70
     1
 10
0.0
 20
0.0
 30
0.0
  3
*D5252
  1

  0
LINE
  5
54D
  8
回07-寸法
  6
CONTINUOUS
 62
     5
 10
2623.233835232037
 20
-370.5310141762303
 30
0.0
 11
2619.920508112513
 21
-370.5310141762303
 31
0.0
  0
LINE
  5
54E
  8
回07-寸法
  6
CONTINUOUS
 62
     5
 10
2623.233835232037
 20
-374.1586551393863
 30
0.0
 11
2619.920508112513
 21
-374.1586551393863
 31
0.0
  0
LINE
  5
54F
  8
回07-寸法
  6
CONTINUOUS
 62
     5
 10
2620.920508112514
 20
-375.6586551393862
 30
0.0
 11
2620.920508112514
 21
-382.361160224688
 31
0.0
  0
LINE
  5
550
  8
回07-寸法
  6
CONTINUOUS
 62
     5
 10
2620.920508112514
 20
-370.5310141762303
 30
0.0
 11
2620.920508112514
 21
-374.1586551393863
 31
0.0
  0
LINE
  5
551
  8
回07-寸法
  6
CONTINUOUS
 62
     5
 10
2620.920508112514
 20
-369.0310141762303
 30
0.0
 11
2620.920508112514
 21
-367.5310141762303
 31
0.0
  0
INSERT
  5
552
  8
回07-寸法
  6
CONTINUOUS
 62
     5
  2
_OPEN
 10
2620.920508112514
 20
-370.5310141762303
 30
0.0
 41
1.5
 42
1.5
 43
1.5
 50
270.0
  0
INSERT
  5
553
  8
回07-寸法
  6
CONTINUOUS
 62
     5
  2
_OPEN
 10
2620.920508112514
 20
-374.1586551393863
 30
0.0
 41
1.5
 42
1.5
 43
1.5
 50
90.0
  0
TEXT
  5
554
  8
回07-寸法
  6
CONTINUOUS
 62
     5
 10
2620.420508112514
 20
-382.3111602246876
 30
0.0
 40
3.0
  1
3.6
 50
90.0
  0
POINT
  5
555
  8
DEFPOINTS
  6
CONTINUOUS
 62
     0
 10
2623.233835232037
 20
-370.5310141762303
 30
0.0
  0
POINT
  5
556
  8
DEFPOINTS
  6
CONTINUOUS
 62
     0
 10
2623.233835232037
 20
-374.1586551393863
 30
0.0
  0
POINT
  5
557
  8
DEFPOINTS
  6
CONTINUOUS
 62
     0
 10
2620.920508112514
 20
-374.1586551393863
 30
0.0
  0
ENDBLK
  5
559
  8
回04-下接
  6
CONTINUOUS
 62
     7
  0
BLOCK
  8
回04-下接
  2
*D5353
 70
     1
 10
0.0
 20
0.0
 30
0.0
  3
*D5353
  1

  0
LINE
  5
55B
  8
回07-寸法
  6
CONTINUOUS
 62
     5
 10
2686.233835232037
 20
-370.5309658054184
 30
0.0
 11
2724.698243840811
 21
-370.5309658054184
 31
0.0
  0
LINE
  5
55C
  8
回07-寸法
  6
CONTINUOUS
 62
     5
 10
2678.982709916589
 20
-470.5269658054198
 30
0.0
 11
2724.698243840811
 21
-470.5269658054198
 31
0.0
  0
LINE
  5
55D
  8
回07-寸法
  6
CONTINUOUS
 62
     5
 10
2723.698243840811
 20
-372.0309658054184
 30
0.0
 11
2723.698243840811
 21
-469.02696580542
 31
0.0
  0
INSERT
  5
55E
  8
回07-寸法
  6
CONTINUOUS
 62
     5
  2
_OPEN
 10
2723.698243840811
 20
-370.5309658054184
 30
0.0
 41
1.5
 42
1.5
 43
1.5
 50
90.0
  0
INSERT
  5
55F
  8
回07-寸法
  6
CONTINUOUS
 62
     5
  2
_OPEN
 10
2723.698243840811
 20
-470.5269658054198
 30
0.0
 41
1.5
 42
1.5
 43
1.5
 50
270.0
  0
INSERT
  5
560
  8
回07-寸法
  6
CONTINUOUS
 62
     5
 66
     1
  2
*X9999
 10
0.0
 20
0.0
 30
0.0
  0
SEQEND
  5
848
  8
回04-下接
  6
CONTINUOUS
 62
     7
  0
POINT
  5
561
  8
DEFPOINTS
  6
CONTINUOUS
 62
     0
 10
2686.233835232037
 20
-370.5309658054184
 30
0.0
  0
POINT
  5
562
  8
DEFPOINTS
  6
CONTINUOUS
 62
     0
 10
2678.982709916589
 20
-470.5269658054198
 30
0.0
  0
POINT
  5
563
  8
DEFPOINTS
  6
CONTINUOUS
 62
     0
 10
2723.698243840811
 20
-470.5269658054198
 30
0.0
  0
ENDBLK
  5
565
  8
回04-下接
  6
CONTINUOUS
 62
     7
  0
BLOCK
  8
回04-下接
  2
*D5454
 70
     1
 10
0.0
 20
0.0
 30
0.0
  3
*D5454
  1

  0
LINE
  5
567
  8
回07-寸法
  6
CONTINUOUS
 62
     5
 10
2637.482709916589
 20
-470.5269658054191
 30
0.0
 11
2584.842075394954
 21
-470.5269658054191
 31
0.0
  0
LINE
  5
568
  8
回07-寸法
  6
CONTINUOUS
 62
     5
 10
2623.233835232037
 20
-370.5310141762303
 30
0.0
 11
2584.842075394954
 21
-370.5310141762303
 31
0.0
  0
LINE
  5
569
  8
回07-寸法
  6
CONTINUOUS
 62
     5
 10
2585.842075394954
 20
-469.026965805419
 30
0.0
 11
2585.842075394954
 21
-372.0310141762303
 31
0.0
  0
INSERT
  5
56A
  8
回07-寸法
  6
CONTINUOUS
 62
     5
  2
_OPEN
 10
2585.842075394954
 20
-470.5269658054191
 30
0.0
 41
1.5
 42
1.5
 43
1.5
 50
270.0
  0
INSERT
  5
56B
  8
回07-寸法
  6
CONTINUOUS
 62
     5
  2
_OPEN
 10
2585.842075394954
 20
-370.5310141762303
 30
0.0
 41
1.5
 42
1.5
 43
1.5
 50
90.0
  0
INSERT
  5
56C
  8
回07-寸法
  6
CONTINUOUS
 62
     5
 66
     1
  2
*X100100
 10
0.0
 20
0.0
 30
0.0
  0
SEQEND
  5
84E
  8
回04-下接
  6
CONTINUOUS
 62
     7
  0
POINT
  5
56D
  8
DEFPOINTS
  6
CONTINUOUS
 62
     0
 10
2637.482709916589
 20
-470.5269658054191
 30
0.0
  0
POINT
  5
56E
  8
DEFPOINTS
  6
CONTINUOUS
 62
     0
 10
2623.233835232037
 20
-370.5310141762303
 30
0.0
  0
POINT
  5
56F
  8
DEFPOINTS
  6
CONTINUOUS
 62
     0
 10
2585.842075394954
 20
-370.5310141762303
 30
0.0
  0
ENDBLK
  5
571
  8
回04-下接
  6
CONTINUOUS
 62
     7
  0
BLOCK
  8
回04-下接
  2
*D5555
 70
     1
 10
0.0
 20
0.0
 30
0.0
  3
*D5555
  1

  0
LINE
  5
573
  8
回07-寸法
  6
CONTINUOUS
 62
     5
 10
2522.516917020444
 20
-357.8310141762305
 30
0.0
 11
2493.386917020444
 21
-357.8310141762305
 31
0.0
  0
LINE
  5
574
  8
回07-寸法
  6
CONTINUOUS
 62
     5
 10
2514.366917020444
 20
-370.5310141762303
 30
0.0
 11
2493.386917020444
 21
-370.5310141762303
 31
0.0
  0
LINE
  5
575
  8
回07-寸法
  6
CONTINUOUS
 62
     5
 10
2494.386917020444
 20
-372.0310141762303
 30
0.0
 11
2494.386917020444
 21
-381.2310141762302
 31
0.0
  0
LINE
  5
576
  8
回07-寸法
  6
CONTINUOUS
 62
     5
 10
2494.386917020444
 20
-357.8310141762305
 30
0.0
 11
2494.386917020444
 21
-370.5310141762303
 31
0.0
  0
LINE
  5
577
  8
回07-寸法
  6
CONTINUOUS
 62
     5
 10
2494.386917020444
 20
-356.3310141762304
 30
0.0
 11
2494.386917020444
 21
-354.8310141762304
 31
0.0
  0
INSERT
  5
578
  8
回07-寸法
  6
CONTINUOUS
 62
     5
  2
_OPEN
 10
2494.386917020444
 20
-357.8310141762305
 30
0.0
 41
1.5
 42
1.5
 43
1.5
 50
270.0
  0
INSERT
  5
579
  8
回07-寸法
  6
CONTINUOUS
 62
     5
  2
_OPEN
 10
2494.386917020444
 20
-370.5310141762303
 30
0.0
 41
1.5
 42
1.5
 43
1.5
 50
90.0
  0
TEXT
  5
57A
  8
回07-寸法
  6
CONTINUOUS
 62
     5
 10
2493.886917020443
 20
-381.1810141762298
 30
0.0
 40
3.0
  1
12.7
 50
90.0
  0
POINT
  5
57B
  8
DEFPOINTS
  6
CONTINUOUS
 62
     0
 10
2522.516917020444
 20
-357.8310141762305
 30
0.0
  0
POINT
  5
57C
  8
DEFPOINTS
  6
CONTINUOUS
 62
     0
 10
2514.366917020444
 20
-370.5310141762303
 30
0.0
  0
POINT
  5
57D
  8
DEFPOINTS
  6
CONTINUOUS
 62
     0
 10
2494.386917020444
 20
-370.5310141762303
 30
0.0
  0
ENDBLK
  5
57F
  8
回04-下接
  6
CONTINUOUS
 62
     7
  0
BLOCK
  8
回04-下接
  2
*D5656
 70
     1
 10
0.0
 20
0.0
 30
0.0
  3
*D5656
  1

  0
LINE
  5
581
  8
回07-寸法
  6
CONTINUOUS
 62
     5
 10
2520.016917020444
 20
-360.3310141762303
 30
0.0
 11
2475.399417020451
 21
-360.3310141762303
 31
0.0
  0
LINE
  5
582
  8
回07-寸法
  6
CONTINUOUS
 62
     5
 10
2514.366917020444
 20
-370.5310141762303
 30
0.0
 11
2475.399417020451
 21
-370.5310141762303
 31
0.0
  0
LINE
  5
583
  8
回07-寸法
  6
CONTINUOUS
 62
     5
 10
2476.399417020452
 20
-372.0310141762303
 30
0.0
 11
2476.399417020452
 21
-380.3214344442487
 31
0.0
  0
LINE
  5
584
  8
回07-寸法
  6
CONTINUOUS
 62
     5
 10
2476.399417020452
 20
-360.3310141762303
 30
0.0
 11
2476.399417020452
 21
-370.5310141762303
 31
0.0
  0
LINE
  5
585
  8
回07-寸法
  6
CONTINUOUS
 62
     5
 10
2476.399417020452
 20
-358.8310141762303
 30
0.0
 11
2476.399417020452
 21
-357.3310141762302
 31
0.0
  0
INSERT
  5
586
  8
回07-寸法
  6
CONTINUOUS
 62
     5
  2
_OPEN
 10
2476.399417020452
 20
-360.3310141762303
 30
0.0
 41
1.5
 42
1.5
 43
1.5
 50
270.0
  0
INSERT
  5
587
  8
回07-寸法
  6
CONTINUOUS
 62
     5
  2
_OPEN
 10
2476.399417020452
 20
-370.5310141762303
 30
0.0
 41
1.5
 42
1.5
 43
1.5
 50
90.0
  0
TEXT
  5
588
  8
回07-寸法
  6
CONTINUOUS
 62
     5
 10
2475.899417020452
 20
-380.2714344442484
 30
0.0
 40
3.0
  1
10.2
 50
90.0
  0
POINT
  5
589
  8
DEFPOINTS
  6
CONTINUOUS
 62
     0
 10
2520.016917020444
 20
-360.3310141762303
 30
0.0
  0
POINT
  5
58A
  8
DEFPOINTS
  6
CONTINUOUS
 62
     0
 10
2514.366917020444
 20
-370.5310141762303
 30
0.0
  0
POINT
  5
58B
  8
DEFPOINTS
  6
CONTINUOUS
 62
     0
 10
2476.399417020452
 20
-370.5310141762303
 30
0.0
  0
ENDBLK
  5
58D
  8
回04-下接
  6
CONTINUOUS
 62
     7
  0
BLOCK
  8
回04-下接
  2
*D5757
 70
     1
 10
0.0
 20
0.0
 30
0.0
  3
*D5757
  1

  0
LINE
  5
58F
  8
回07-寸法
  6
CONTINUOUS
 62
     5
 10
2520.516917020444
 20
-359.8310141762304
 30
0.0
 11
2484.386917020444
 21
-359.8310141762304
 31
0.0
  0
LINE
  5
590
  8
回07-寸法
  6
CONTINUOUS
 62
     5
 10
2514.366917020444
 20
-370.5310141762303
 30
0.0
 11
2484.386917020444
 21
-370.5310141762303
 31
0.0
  0
LINE
  5
591
  8
回07-寸法
  6
CONTINUOUS
 62
     5
 10
2485.386917020444
 20
-372.0310141762303
 30
0.0
 11
2485.386917020444
 21
-381.2310141762302
 31
0.0
  0
LINE
  5
592
  8
回07-寸法
  6
CONTINUOUS
 62
     5
 10
2485.386917020444
 20
-359.8310141762304
 30
0.0
 11
2485.386917020444
 21
-370.5310141762303
 31
0.0
  0
LINE
  5
593
  8
回07-寸法
  6
CONTINUOUS
 62
     5
 10
2485.386917020444
 20
-358.3310141762304
 30
0.0
 11
2485.386917020444
 21
-356.8310141762304
 31
0.0
  0
INSERT
  5
594
  8
回07-寸法
  6
CONTINUOUS
 62
     5
  2
_OPEN
 10
2485.386917020444
 20
-359.8310141762304
 30
0.0
 41
1.5
 42
1.5
 43
1.5
 50
270.0
  0
INSERT
  5
595
  8
回07-寸法
  6
CONTINUOUS
 62
     5
  2
_OPEN
 10
2485.386917020444
 20
-370.5310141762303
 30
0.0
 41
1.5
 42
1.5
 43
1.5
 50
90.0
  0
TEXT
  5
596
  8
回07-寸法
  6
CONTINUOUS
 62
     5
 10
2484.886917020443
 20
-381.1810141762298
 30
0.0
 40
3.0
  1
10.7
 50
90.0
  0
POINT
  5
597
  8
DEFPOINTS
  6
CONTINUOUS
 62
     0
 10
2520.516917020444
 20
-359.8310141762304
 30
0.0
  0
POINT
  5
598
  8
DEFPOINTS
  6
CONTINUOUS
 62
     0
 10
2514.366917020444
 20
-370.5310141762303
 30
0.0
  0
POINT
  5
599
  8
DEFPOINTS
  6
CONTINUOUS
 62
     0
 10
2485.386917020444
 20
-370.5310141762303
 30
0.0
  0
ENDBLK
  5
59B
  8
回04-下接
  6
CONTINUOUS
 62
     7
  0
BLOCK
  8
回04-下接
  2
*D5858
 70
     1
 10
0.0
 20
0.0
 30
0.0
  3
*D5858
  1

  0
LINE
  5
59D
  8
回07-寸法
  6
CONTINUOUS
 62
     5
 10
2786.136917020443
 20
-192.1310141762304
 30
0.0
 11
2786.136917020443
 21
-163.6267158226849
 31
0.0
  0
LINE
  5
59E
  8
回07-寸法
  6
CONTINUOUS
 62
     5
 10
2792.286917020443
 20
-186.1309813527464
 30
0.0
 11
2792.286917020443
 21
-163.6267158226849
 31
0.0
  0
LINE
  5
59F
  8
回07-寸法
  6
CONTINUOUS
 62
     5
 10
2793.786917020443
 20
-164.6267158226849
 30
0.0
 11
2804.384554815719
 21
-164.6267158226849
 31
0.0
  0
LINE
  5
5A0
  8
回07-寸法
  6
CONTINUOUS
 62
     5
 10
2786.136917020443
 20
-164.6267158226849
 30
0.0
 11
2792.286917020443
 21
-164.6267158226849
 31
0.0
  0
LINE
  5
5A1
  8
回07-寸法
  6
CONTINUOUS
 62
     5
 10
2784.636917020444
 20
-164.6267158226849
 30
0.0
 11
2783.136917020444
 21
-164.6267158226849
 31
0.0
  0
INSERT
  5
5A2
  8
回07-寸法
  6
CONTINUOUS
 62
     5
  2
_OPEN
 10
2786.136917020443
 20
-164.6267158226849
 30
0.0
 41
1.5
 42
1.5
 43
1.5
  0
INSERT
  5
5A3
  8
回07-寸法
  6
CONTINUOUS
 62
     5
  2
_OPEN
 10
2792.286917020443
 20
-164.6267158226849
 30
0.0
 41
1.5
 42
1.5
 43
1.5
 50
180.0
  0
TEXT
  5
5A4
  8
回07-寸法
  6
CONTINUOUS
 62
     5
 10
2795.335735918081
 20
-163.9767158226849
 30
0.0
 40
3.0
  1
(6.15)
  0
POINT
  5
5A5
  8
DEFPOINTS
  6
CONTINUOUS
 62
     0
 10
2786.136917020443
 20
-192.1310141762304
 30
0.0
  0
POINT
  5
5A6
  8
DEFPOINTS
  6
CONTINUOUS
 62
     0
 10
2792.286917020443
 20
-186.1309813527464
 30
0.0
  0
POINT
  5
5A7
  8
DEFPOINTS
  6
CONTINUOUS
 62
     0
 10
2792.286917020443
 20
-164.6267158226849
 30
0.0
  0
ENDBLK
  5
5A9
  8
回04-下接
  6
CONTINUOUS
 62
     7
  0
BLOCK
  8
回04-下接
  2
*D5959
 70
     1
 10
0.0
 20
0.0
 30
0.0
  3
*D5959
  1

  0
LINE
  5
5AB
  8
回07-寸法
  6
CONTINUOUS
 62
     5
 10
2784.136917020444
 20
-194.1310141762304
 30
0.0
 11
2784.136917020444
 21
-172.9810813527464
 31
0.0
  0
LINE
  5
5AC
  8
回07-寸法
  6
CONTINUOUS
 62
     5
 10
2792.286917020443
 20
-186.1309813527464
 30
0.0
 11
2792.286917020443
 21
-172.9810813527464
 31
0.0
  0
LINE
  5
5AD
  8
回07-寸法
  6
CONTINUOUS
 62
     5
 10
2793.786917020443
 20
-173.9810813527464
 30
0.0
 11
2805.771661114932
 21
-173.9810813527464
 31
0.0
  0
LINE
  5
5AE
  8
回07-寸法
  6
CONTINUOUS
 62
     5
 10
2784.136917020444
 20
-173.9810813527464
 30
0.0
 11
2792.286917020443
 21
-173.9810813527464
 31
0.0
  0
LINE
  5
5AF
  8
回07-寸法
  6
CONTINUOUS
 62
     5
 10
2782.636917020444
 20
-173.9810813527464
 30
0.0
 11
2781.136917020444
 21
-173.9810813527464
 31
0.0
  0
INSERT
  5
5B0
  8
回07-寸法
  6
CONTINUOUS
 62
     5
  2
_OPEN
 10
2784.136917020444
 20
-173.9810813527464
 30
0.0
 41
1.5
 42
1.5
 43
1.5
  0
INSERT
  5
5B1
  8
回07-寸法
  6
CONTINUOUS
 62
     5
  2
_OPEN
 10
2792.286917020443
 20
-173.9810813527464
 30
0.0
 41
1.5
 42
1.5
 43
1.5
 50
180.0
  0
TEXT
  5
5B2
  8
回07-寸法
  6
CONTINUOUS
 62
     5
 10
2796.722842217294
 20
-173.3310813527464
 30
0.0
 40
3.0
  1
(8.15)
  0
POINT
  5
5B3
  8
DEFPOINTS
  6
CONTINUOUS
 62
     0
 10
2784.136917020444
 20
-194.1310141762304
 30
0.0
  0
POINT
  5
5B4
  8
DEFPOINTS
  6
CONTINUOUS
 62
     0
 10
2792.286917020443
 20
-186.1309813527464
 30
0.0
  0
POINT
  5
5B5
  8
DEFPOINTS
  6
CONTINUOUS
 62
     0
 10
2792.286917020443
 20
-173.9810813527464
 30
0.0
  0
ENDBLK
  5
5B7
  8
回04-下接
  6
CONTINUOUS
 62
     7
  0
BLOCK
  8
回04-下接
  2
*D6060
 70
     1
 10
0.0
 20
0.0
 30
0.0
  3
*D6060
  1

  0
LINE
  5
5B9
  8
回07-寸法
  6
CONTINUOUS
 62
     5
 10
2786.636917020444
 20
-191.6310141762304
 30
0.0
 11
2786.636917020444
 21
-155.1307860771559
 31
0.0
  0
LINE
  5
5BA
  8
回07-寸法
  6
CONTINUOUS
 62
     5
 10
2792.286917020443
 20
-186.1309813527464
 30
0.0
 11
2792.286917020443
 21
-155.1307860771559
 31
0.0
  0
LINE
  5
5BB
  8
回07-寸法
  6
CONTINUOUS
 62
     5
 10
2793.786917020443
 20
-156.1307860771559
 30
0.0
 11
2804.984554815719
 21
-156.1307860771559
 31
0.0
  0
LINE
  5
5BC
  8
回07-寸法
  6
CONTINUOUS
 62
     5
 10
2786.636917020444
 20
-156.1307860771559
 30
0.0
 11
2792.286917020443
 21
-156.1307860771559
 31
0.0
  0
LINE
  5
5BD
  8
回07-寸法
  6
CONTINUOUS
 62
     5
 10
2785.136917020444
 20
-156.1307860771559
 30
0.0
 11
2783.636917020444
 21
-156.1307860771559
 31
0.0
  0
INSERT
  5
5BE
  8
回07-寸法
  6
CONTINUOUS
 62
     5
  2
_OPEN
 10
2786.636917020444
 20
-156.1307860771559
 30
0.0
 41
1.5
 42
1.5
 43
1.5
  0
INSERT
  5
5BF
  8
回07-寸法
  6
CONTINUOUS
 62
     5
  2
_OPEN
 10
2792.286917020443
 20
-156.1307860771559
 30
0.0
 41
1.5
 42
1.5
 43
1.5
 50
180.0
  0
TEXT
  5
5C0
  8
回07-寸法
  6
CONTINUOUS
 62
     5
 10
2795.335735918081
 20
-155.4807860771559
 30
0.0
 40
3.0
  1
(5.65)
  0
POINT
  5
5C1
  8
DEFPOINTS
  6
CONTINUOUS
 62
     0
 10
2786.636917020444
 20
-191.6310141762304
 30
0.0
  0
POINT
  5
5C2
  8
DEFPOINTS
  6
CONTINUOUS
 62
     0
 10
2792.286917020443
 20
-186.1309813527464
 30
0.0
  0
POINT
  5
5C3
  8
DEFPOINTS
  6
CONTINUOUS
 62
     0
 10
2792.286917020443
 20
-156.1307860771559
 30
0.0
  0
ENDBLK
  5
5C5
  8
回04-下接
  6
CONTINUOUS
 62
     7
  0
BLOCK
  8
回04-下接
  2
*D6161
 70
     1
 10
0.0
 20
0.0
 30
0.0
  3
*D6161
  1

  0
LINE
  5
5C7
  8
回07-寸法
  6
CONTINUOUS
 62
     5
 10
2522.516917020444
 20
-194.1310141762295
 30
0.0
 11
2493.399417020443
 21
-194.1310141762295
 31
0.0
  0
LINE
  5
5C8
  8
回07-寸法
  6
CONTINUOUS
 62
     5
 10
2514.366917020444
 20
-186.1309813527464
 30
0.0
 11
2493.399417020443
 21
-186.1309813527464
 31
0.0
  0
LINE
  5
5C9
  8
回07-寸法
  6
CONTINUOUS
 62
     5
 10
2494.399417020443
 20
-184.6309813527464
 30
0.0
 11
2494.399417020443
 21
-175.2834435574706
 31
0.0
  0
LINE
  5
5CA
  8
回07-寸法
  6
CONTINUOUS
 62
     5
 10
2494.399417020443
 20
-194.1310141762295
 30
0.0
 11
2494.399417020443
 21
-186.1309813527464
 31
0.0
  0
LINE
  5
5CB
  8
回07-寸法
  6
CONTINUOUS
 62
     5
 10
2494.399417020443
 20
-195.6310141762295
 30
0.0
 11
2494.399417020443
 21
-197.1310141762295
 31
0.0
  0
INSERT
  5
5CC
  8
回07-寸法
  6
CONTINUOUS
 62
     5
  2
_OPEN
 10
2494.399417020443
 20
-194.1310141762295
 30
0.0
 41
1.5
 42
1.5
 43
1.5
 50
90.0
  0
INSERT
  5
5CD
  8
回07-寸法
  6
CONTINUOUS
 62
     5
  2
_OPEN
 10
2494.399417020443
 20
-186.1309813527464
 30
0.0
 41
1.5
 42
1.5
 43
1.5
 50
270.0
  0
TEXT
  5
5CE
  8
回07-寸法
  6
CONTINUOUS
 62
     5
 10
2493.749417020443
 20
-179.8322624551083
 30
0.0
 40
3.0
  1
(8)
 50
90.0
  0
POINT
  5
5CF
  8
DEFPOINTS
  6
CONTINUOUS
 62
     0
 10
2522.516917020444
 20
-194.1310141762295
 30
0.0
  0
POINT
  5
5D0
  8
DEFPOINTS
  6
CONTINUOUS
 62
     0
 10
2514.366917020444
 20
-186.1309813527464
 30
0.0
  0
POINT
  5
5D1
  8
DEFPOINTS
  6
CONTINUOUS
 62
     0
 10
2494.399417020443
 20
-186.1309813527464
 30
0.0
  0
ENDBLK
  5
5D3
  8
回04-下接
  6
CONTINUOUS
 62
     7
  0
BLOCK
  8
回04-下接
  2
*D6262
 70
     1
 10
0.0
 20
0.0
 30
0.0
  3
*D6262
  1

  0
LINE
  5
5D5
  8
回07-寸法
  6
CONTINUOUS
 62
     5
 10
2520.516917020444
 20
-192.1310141762304
 30
0.0
 11
2484.399417020448
 21
-192.1310141762304
 31
0.0
  0
LINE
  5
5D6
  8
回07-寸法
  6
CONTINUOUS
 62
     5
 10
2514.366917020444
 20
-186.1309813527464
 30
0.0
 11
2484.399417020448
 21
-186.1309813527464
 31
0.0
  0
LINE
  5
5D7
  8
回07-寸法
  6
CONTINUOUS
 62
     5
 10
2485.399417020448
 20
-184.6309813527464
 30
0.0
 11
2485.399417020448
 21
-178.5333435574708
 31
0.0
  0
LINE
  5
5D8
  8
回07-寸法
  6
CONTINUOUS
 62
     5
 10
2485.399417020448
 20
-192.1310141762304
 30
0.0
 11
2485.399417020448
 21
-186.1309813527464
 31
0.0
  0
LINE
  5
5D9
  8
回07-寸法
  6
CONTINUOUS
 62
     5
 10
2485.399417020448
 20
-193.6310141762304
 30
0.0
 11
2485.399417020448
 21
-195.1310141762304
 31
0.0
  0
INSERT
  5
5DA
  8
回07-寸法
  6
CONTINUOUS
 62
     5
  2
_OPEN
 10
2485.399417020448
 20
-192.1310141762304
 30
0.0
 41
1.5
 42
1.5
 43
1.5
 50
90.0
  0
INSERT
  5
5DB
  8
回07-寸法
  6
CONTINUOUS
 62
     5
  2
_OPEN
 10
2485.399417020448
 20
-186.1309813527464
 30
0.0
 41
1.5
 42
1.5
 43
1.5
 50
270.0
  0
TEXT
  5
5DC
  8
回07-寸法
  6
CONTINUOUS
 62
     5
 10
2484.749417020448
 20
-183.0821624551085
 30
0.0
 40
3.0
  1
(6)
 50
90.0
  0
POINT
  5
5DD
  8
DEFPOINTS
  6
CONTINUOUS
 62
     0
 10
2520.516917020444
 20
-192.1310141762304
 30
0.0
  0
POINT
  5
5DE
  8
DEFPOINTS
  6
CONTINUOUS
 62
     0
 10
2514.366917020444
 20
-186.1309813527464
 30
0.0
  0
POINT
  5
5DF
  8
DEFPOINTS
  6
CONTINUOUS
 62
     0
 10
2485.399417020448
 20
-186.1309813527464
 30
0.0
  0
ENDBLK
  5
5E1
  8
回04-下接
  6
CONTINUOUS
 62
     7
  0
BLOCK
  8
回04-下接
  2
*D6363
 70
     1
 10
0.0
 20
0.0
 30
0.0
  3
*D6363
  1

  0
LINE
  5
5E3
  8
回07-寸法
  6
CONTINUOUS
 62
     5
 10
2520.016917020444
 20
-191.6310141762304
 30
0.0
 11
2475.399417020456
 21
-191.6310141762304
 31
0.0
  0
LINE
  5
5E4
  8
回07-寸法
  6
CONTINUOUS
 62
     5
 10
2514.366917020444
 20
-186.1309813527464
 30
0.0
 11
2475.399417020456
 21
-186.1309813527464
 31
0.0
  0
LINE
  5
5E5
  8
回07-寸法
  6
CONTINUOUS
 62
     5
 10
2476.399417020456
 20
-184.6309813527464
 30
0.0
 11
2476.399417020456
 21
-175.5333435574708
 31
0.0
  0
LINE
  5
5E6
  8
回07-寸法
  6
CONTINUOUS
 62
     5
 10
2476.399417020456
 20
-191.6310141762304
 30
0.0
 11
2476.399417020456
 21
-186.1309813527464
 31
0.0
  0
LINE
  5
5E7
  8
回07-寸法
  6
CONTINUOUS
 62
     5
 10
2476.399417020456
 20
-193.1310141762304
 30
0.0
 11
2476.399417020456
 21
-194.6310141762304
 31
0.0
  0
INSERT
  5
5E8
  8
回07-寸法
  6
CONTINUOUS
 62
     5
  2
_OPEN
 10
2476.399417020456
 20
-191.6310141762304
 30
0.0
 41
1.5
 42
1.5
 43
1.5
 50
90.0
  0
INSERT
  5
5E9
  8
回07-寸法
  6
CONTINUOUS
 62
     5
  2
_OPEN
 10
2476.399417020456
 20
-186.1309813527464
 30
0.0
 41
1.5
 42
1.5
 43
1.5
 50
270.0
  0
TEXT
  5
5EA
  8
回07-寸法
  6
CONTINUOUS
 62
     5
 10
2475.749417020456
 20
-183.0821624551085
 30
0.0
 40
3.0
  1
(5.5)
 50
90.0
  0
POINT
  5
5EB
  8
DEFPOINTS
  6
CONTINUOUS
 62
     0
 10
2520.016917020444
 20
-191.6310141762304
 30
0.0
  0
POINT
  5
5EC
  8
DEFPOINTS
  6
CONTINUOUS
 62
     0
 10
2514.366917020444
 20
-186.1309813527464
 30
0.0
  0
POINT
  5
5ED
  8
DEFPOINTS
  6
CONTINUOUS
 62
     0
 10
2476.399417020456
 20
-186.1309813527464
 30
0.0
  0
ENDBLK
  5
5EF
  8
回04-下接
  6
CONTINUOUS
 62
     7
  0
BLOCK
  8
回04-下接
  2
*D6464
 70
     1
 10
0.0
 20
0.0
 30
0.0
  3
*D6464
  1

  0
LINE
  5
5F1
  8
回07-寸法
  6
CONTINUOUS
 62
     5
 10
2520.516917020444
 20
-192.1310141762304
 30
0.0
 11
2520.516917020444
 21
-163.6267158226849
 31
0.0
  0
LINE
  5
5F2
  8
回07-寸法
  6
CONTINUOUS
 62
     5
 10
2514.366917020444
 20
-186.1309813527464
 30
0.0
 11
2514.366917020444
 21
-163.6267158226849
 31
0.0
  0
LINE
  5
5F3
  8
回07-寸法
  6
CONTINUOUS
 62
     5
 10
2512.866917020444
 20
-164.6267158226849
 30
0.0
 11
2504.439653240916
 21
-164.6267158226849
 31
0.0
  0
LINE
  5
5F4
  8
回07-寸法
  6
CONTINUOUS
 62
     5
 10
2520.516917020444
 20
-164.6267158226849
 30
0.0
 11
2514.366917020444
 21
-164.6267158226849
 31
0.0
  0
LINE
  5
5F5
  8
回07-寸法
  6
CONTINUOUS
 62
     5
 10
2522.016917020444
 20
-164.6267158226849
 30
0.0
 11
2523.516917020444
 21
-164.6267158226849
 31
0.0
  0
INSERT
  5
5F6
  8
回07-寸法
  6
CONTINUOUS
 62
     5
  2
_OPEN
 10
2520.516917020444
 20
-164.6267158226849
 30
0.0
 41
1.5
 42
1.5
 43
1.5
 50
180.0
  0
INSERT
  5
5F7
  8
回07-寸法
  6
CONTINUOUS
 62
     5
  2
_OPEN
 10
2514.366917020444
 20
-164.6267158226849
 30
0.0
 41
1.5
 42
1.5
 43
1.5
  0
TEXT
  5
5F8
  8
回07-寸法
  6
CONTINUOUS
 62
     5
 10
2504.489653240916
 20
-164.1267158226849
 30
0.0
 40
3.0
  1
6.15
  0
POINT
  5
5F9
  8
DEFPOINTS
  6
CONTINUOUS
 62
     0
 10
2520.516917020444
 20
-192.1310141762304
 30
0.0
  0
POINT
  5
5FA
  8
DEFPOINTS
  6
CONTINUOUS
 62
     0
 10
2514.366917020444
 20
-186.1309813527464
 30
0.0
  0
POINT
  5
5FB
  8
DEFPOINTS
  6
CONTINUOUS
 62
     0
 10
2514.366917020444
 20
-164.6267158226849
 30
0.0
  0
ENDBLK
  5
5FD
  8
回04-下接
  6
CONTINUOUS
 62
     7
  0
BLOCK
  8
回04-下接
  2
*D6565
 70
     1
 10
0.0
 20
0.0
 30
0.0
  3
*D6565
  1

  0
LINE
  5
5FF
  8
回07-寸法
  6
CONTINUOUS
 62
     5
 10
2522.516917020444
 20
-194.1310141762304
 30
0.0
 11
2522.516917020444
 21
-172.9810813527464
 31
0.0
  0
LINE
  5
600
  8
回07-寸法
  6
CONTINUOUS
 62
     5
 10
2514.366917020444
 20
-186.1309813527464
 30
0.0
 11
2514.366917020444
 21
-172.9810813527464
 31
0.0
  0
LINE
  5
601
  8
回07-寸法
  6
CONTINUOUS
 62
     5
 10
2512.866917020444
 20
-173.9810813527464
 30
0.0
 11
2503.209298910207
 21
-173.9810813527464
 31
0.0
  0
LINE
  5
602
  8
回07-寸法
  6
CONTINUOUS
 62
     5
 10
2522.516917020444
 20
-173.9810813527464
 30
0.0
 11
2514.366917020444
 21
-173.9810813527464
 31
0.0
  0
LINE
  5
603
  8
回07-寸法
  6
CONTINUOUS
 62
     5
 10
2524.016917020444
 20
-173.9810813527464
 30
0.0
 11
2525.516917020444
 21
-173.9810813527464
 31
0.0
  0
INSERT
  5
604
  8
回07-寸法
  6
CONTINUOUS
 62
     5
  2
_OPEN
 10
2522.516917020444
 20
-173.9810813527464
 30
0.0
 41
1.5
 42
1.5
 43
1.5
 50
180.0
  0
INSERT
  5
605
  8
回07-寸法
  6
CONTINUOUS
 62
     5
  2
_OPEN
 10
2514.366917020444
 20
-173.9810813527464
 30
0.0
 41
1.5
 42
1.5
 43
1.5
  0
TEXT
  5
606
  8
回07-寸法
  6
CONTINUOUS
 62
     5
 10
2503.259298910208
 20
-173.4810813527464
 30
0.0
 40
3.0
  1
8.15
  0
POINT
  5
607
  8
DEFPOINTS
  6
CONTINUOUS
 62
     0
 10
2522.516917020444
 20
-194.1310141762304
 30
0.0
  0
POINT
  5
608
  8
DEFPOINTS
  6
CONTINUOUS
 62
     0
 10
2514.366917020444
 20
-186.1309813527464
 30
0.0
  0
POINT
  5
609
  8
DEFPOINTS
  6
CONTINUOUS
 62
     0
 10
2514.366917020444
 20
-173.9810813527464
 30
0.0
  0
ENDBLK
  5
60B
  8
回04-下接
  6
CONTINUOUS
 62
     7
  0
BLOCK
  8
回04-下接
  2
*D6666
 70
     1
 10
0.0
 20
0.0
 30
0.0
  3
*D6666
  1

  0
LINE
  5
60D
  8
回07-寸法
  6
CONTINUOUS
 62
     5
 10
2520.016917020444
 20
-191.6310141762304
 30
0.0
 11
2520.016917020444
 21
-155.1307860771559
 31
0.0
  0
LINE
  5
60E
  8
回07-寸法
  6
CONTINUOUS
 62
     5
 10
2514.366917020444
 20
-186.1309813527464
 30
0.0
 11
2514.366917020444
 21
-155.1307860771559
 31
0.0
  0
LINE
  5
60F
  8
回07-寸法
  6
CONTINUOUS
 62
     5
 10
2512.866917020444
 20
-156.1307860771559
 30
0.0
 11
2504.066917020444
 21
-156.1307860771559
 31
0.0
  0
LINE
  5
610
  8
回07-寸法
  6
CONTINUOUS
 62
     5
 10
2520.016917020444
 20
-156.1307860771559
 30
0.0
 11
2514.366917020444
 21
-156.1307860771559
 31
0.0
  0
LINE
  5
611
  8
回07-寸法
  6
CONTINUOUS
 62
     5
 10
2521.516917020444
 20
-156.1307860771559
 30
0.0
 11
2523.016917020444
 21
-156.1307860771559
 31
0.0
  0
INSERT
  5
612
  8
回07-寸法
  6
CONTINUOUS
 62
     5
  2
_OPEN
 10
2520.016917020444
 20
-156.1307860771559
 30
0.0
 41
1.5
 42
1.5
 43
1.5
 50
180.0
  0
INSERT
  5
613
  8
回07-寸法
  6
CONTINUOUS
 62
     5
  2
_OPEN
 10
2514.366917020444
 20
-156.1307860771559
 30
0.0
 41
1.5
 42
1.5
 43
1.5
  0
TEXT
  5
614
  8
回07-寸法
  6
CONTINUOUS
 62
     5
 10
2504.116917020444
 20
-155.6307860771559
 30
0.0
 40
3.0
  1
5.65
  0
POINT
  5
615
  8
DEFPOINTS
  6
CONTINUOUS
 62
     0
 10
2520.016917020444
 20
-191.6310141762304
 30
0.0
  0
POINT
  5
616
  8
DEFPOINTS
  6
CONTINUOUS
 62
     0
 10
2514.366917020444
 20
-186.1309813527464
 30
0.0
  0
POINT
  5
617
  8
DEFPOINTS
  6
CONTINUOUS
 62
     0
 10
2514.366917020444
 20
-156.1307860771559
 30
0.0
  0
ENDBLK
  5
619
  8
回04-下接
  6
CONTINUOUS
 62
     7
  0
BLOCK
  8
回04-下接
  2
*D6767
 70
     1
 10
0.0
 20
0.0
 30
0.0
  3
*D6767
  1

  0
LINE
  5
61B
  8
回07-寸法
  6
CONTINUOUS
 62
     5
 10
2520.016917020444
 20
-191.6310141762304
 30
0.0
 11
2475.399417020453
 21
-191.6310141762304
 31
0.0
  0
LINE
  5
61C
  8
回07-寸法
  6
CONTINUOUS
 62
     5
 10
2520.016917020444
 20
-360.3310141762305
 30
0.0
 11
2475.399417020453
 21
-360.3310141762305
 31
0.0
  0
LINE
  5
61D
  8
回07-寸法
  6
CONTINUOUS
 62
     5
 10
2476.399417020453
 20
-193.1310141762304
 30
0.0
 11
2476.399417020453
 21
-358.8310141762304
 31
0.0
  0
INSERT
  5
61E
  8
回07-寸法
  6
CONTINUOUS
 62
     5
  2
_OPEN
 10
2476.399417020453
 20
-191.6310141762304
 30
0.0
 41
1.5
 42
1.5
 43
1.5
 50
90.0
  0
INSERT
  5
61F
  8
回07-寸法
  6
CONTINUOUS
 62
     5
  2
_OPEN
 10
2476.399417020453
 20
-360.3310141762305
 30
0.0
 41
1.5
 42
1.5
 43
1.5
 50
270.0
  0
TEXT
  5
620
  8
回07-寸法
  6
CONTINUOUS
 62
     5
 10
2475.899417020454
 20
-280.3310141762304
 30
0.0
 40
3.0
  1
168.7
 50
90.0
  0
POINT
  5
621
  8
DEFPOINTS
  6
CONTINUOUS
 62
     0
 10
2520.016917020444
 20
-191.6310141762304
 30
0.0
  0
POINT
  5
622
  8
DEFPOINTS
  6
CONTINUOUS
 62
     0
 10
2520.016917020444
 20
-360.3310141762305
 30
0.0
  0
POINT
  5
623
  8
DEFPOINTS
  6
CONTINUOUS
 62
     0
 10
2476.399417020453
 20
-360.3310141762305
 30
0.0
  0
ENDBLK
  5
625
  8
回04-下接
  6
CONTINUOUS
 62
     7
  0
BLOCK
  8
回04-下接
  2
*D6868
 70
     1
 10
0.0
 20
0.0
 30
0.0
  3
*D6868
  1

  0
LINE
  5
627
  8
回07-寸法
  6
CONTINUOUS
 62
     5
 10
2520.516917020444
 20
-192.1310141762304
 30
0.0
 11
2484.399417020453
 21
-192.1310141762304
 31
0.0
  0
LINE
  5
628
  8
回07-寸法
  6
CONTINUOUS
 62
     5
 10
2520.516917020444
 20
-359.8310141762305
 30
0.0
 11
2484.399417020453
 21
-359.8310141762305
 31
0.0
  0
LINE
  5
629
  8
回07-寸法
  6
CONTINUOUS
 62
     5
 10
2485.399417020453
 20
-193.6310141762304
 30
0.0
 11
2485.399417020453
 21
-358.3310141762305
 31
0.0
  0
INSERT
  5
62A
  8
回07-寸法
  6
CONTINUOUS
 62
     5
  2
_OPEN
 10
2485.399417020453
 20
-192.1310141762304
 30
0.0
 41
1.5
 42
1.5
 43
1.5
 50
90.0
  0
INSERT
  5
62B
  8
回07-寸法
  6
CONTINUOUS
 62
     5
  2
_OPEN
 10
2485.399417020453
 20
-359.8310141762305
 30
0.0
 41
1.5
 42
1.5
 43
1.5
 50
270.0
  0
TEXT
  5
62C
  8
回07-寸法
  6
CONTINUOUS
 62
     5
 10
2484.149417020454
 20
-293.2304236250493
 30
0.0
 40
3.0
  1
167.7(Viewing area)
 50
90.0
  0
POINT
  5
62D
  8
DEFPOINTS
  6
CONTINUOUS
 62
     0
 10
2520.516917020444
 20
-192.1310141762304
 30
0.0
  0
POINT
  5
62E
  8
DEFPOINTS
  6
CONTINUOUS
 62
     0
 10
2520.516917020444
 20
-359.8310141762305
 30
0.0
  0
POINT
  5
62F
  8
DEFPOINTS
  6
CONTINUOUS
 62
     0
 10
2485.399417020453
 20
-359.8310141762305
 30
0.0
  0
ENDBLK
  5
631
  8
回04-下接
  6
CONTINUOUS
 62
     7
  0
BLOCK
  8
回04-下接
  2
*D6969
 70
     1
 10
0.0
 20
0.0
 30
0.0
  3
*D6969
  1

  0
LINE
  5
633
  8
回07-寸法
  6
CONTINUOUS
 62
     5
 10
2522.516917020444
 20
-194.1310141762295
 30
0.0
 11
2493.399417020453
 21
-194.1310141762295
 31
0.0
  0
LINE
  5
634
  8
回07-寸法
  6
CONTINUOUS
 62
     5
 10
2522.516917020444
 20
-357.8310141762305
 30
0.0
 11
2493.399417020453
 21
-357.8310141762305
 31
0.0
  0
LINE
  5
635
  8
回07-寸法
  6
CONTINUOUS
 62
     5
 10
2494.399417020453
 20
-195.6310141762295
 30
0.0
 11
2494.399417020453
 21
-356.3310141762304
 31
0.0
  0
INSERT
  5
636
  8
回07-寸法
  6
CONTINUOUS
 62
     5
  2
_OPEN
 10
2494.399417020453
 20
-194.1310141762295
 30
0.0
 41
1.5
 42
1.5
 43
1.5
 50
90.0
  0
INSERT
  5
637
  8
回07-寸法
  6
CONTINUOUS
 62
     5
  2
_OPEN
 10
2494.399417020453
 20
-357.8310141762305
 30
0.0
 41
1.5
 42
1.5
 43
1.5
 50
270.0
  0
TEXT
  5
638
  8
回07-寸法
  6
CONTINUOUS
 62
     5
 10
2493.749417020453
 20
-292.1804236250487
 30
0.0
 40
3.0
  1
163.7(Active area)
 50
90.0
  0
POINT
  5
639
  8
DEFPOINTS
  6
CONTINUOUS
 62
     0
 10
2522.516917020444
 20
-194.1310141762295
 30
0.0
  0
POINT
  5
63A
  8
DEFPOINTS
  6
CONTINUOUS
 62
     0
 10
2522.516917020444
 20
-357.8310141762305
 30
0.0
  0
POINT
  5
63B
  8
DEFPOINTS
  6
CONTINUOUS
 62
     0
 10
2494.399417020453
 20
-357.8310141762305
 30
0.0
  0
ENDBLK
  5
63D
  8
回04-下接
  6
CONTINUOUS
 62
     7
  0
BLOCK
  8
回04-下接
  2
*D7070
 70
     1
 10
0.0
 20
0.0
 30
0.0
  3
*D7070
  1

  0
LINE
  5
63F
  8
回07-寸法
  6
CONTINUOUS
 62
     5
 10
2514.366917020444
 20
-186.1309813527464
 30
0.0
 11
2466.399417020455
 21
-186.1309813527464
 31
0.0
  0
LINE
  5
640
  8
回07-寸法
  6
CONTINUOUS
 62
     5
 10
2514.366917020444
 20
-370.5310141762304
 30
0.0
 11
2466.399417020455
 21
-370.5310141762304
 31
0.0
  0
LINE
  5
641
  8
回07-寸法
  6
CONTINUOUS
 62
     5
 10
2467.399417020455
 20
-187.6309813527464
 30
0.0
 11
2467.399417020455
 21
-369.0310141762304
 31
0.0
  0
INSERT
  5
642
  8
回07-寸法
  6
CONTINUOUS
 62
     5
  2
_OPEN
 10
2467.399417020455
 20
-186.1309813527464
 30
0.0
 41
1.5
 42
1.5
 43
1.5
 50
90.0
  0
INSERT
  5
643
  8
回07-寸法
  6
CONTINUOUS
 62
     5
  2
_OPEN
 10
2467.399417020455
 20
-370.5310141762304
 30
0.0
 41
1.5
 42
1.5
 43
1.5
 50
270.0
  0
INSERT
  5
644
  8
回07-寸法
  6
CONTINUOUS
 62
     5
 66
     1
  2
*X101101
 10
0.0
 20
0.0
 30
0.0
  0
SEQEND
  5
854
  8
回04-下接
  6
CONTINUOUS
 62
     7
  0
POINT
  5
645
  8
DEFPOINTS
  6
CONTINUOUS
 62
     0
 10
2514.366917020444
 20
-186.1309813527464
 30
0.0
  0
POINT
  5
646
  8
DEFPOINTS
  6
CONTINUOUS
 62
     0
 10
2514.366917020444
 20
-370.5310141762304
 30
0.0
  0
POINT
  5
647
  8
DEFPOINTS
  6
CONTINUOUS
 62
     0
 10
2467.399417020455
 20
-370.5310141762304
 30
0.0
  0
ENDBLK
  5
649
  8
回04-下接
  6
CONTINUOUS
 62
     7
  0
BLOCK
  8
回04-下接
  2
*D7171
 70
     1
 10
0.0
 20
0.0
 30
0.0
  3
*D7171
  1

  0
LINE
  5
64B
  8
回07-寸法
  6
CONTINUOUS
 62
     5
 10
2522.516917020444
 20
-194.1310141762295
 30
0.0
 11
2522.516917020444
 21
-172.9810813527464
 31
0.0
  0
LINE
  5
64C
  8
回07-寸法
  6
CONTINUOUS
 62
     5
 10
2784.136917020444
 20
-194.1310141762304
 30
0.0
 11
2784.136917020444
 21
-172.9810813527464
 31
0.0
  0
LINE
  5
64D
  8
回07-寸法
  6
CONTINUOUS
 62
     5
 10
2524.016917020444
 20
-173.9810813527464
 30
0.0
 11
2782.636917020444
 21
-173.9810813527464
 31
0.0
  0
INSERT
  5
64E
  8
回07-寸法
  6
CONTINUOUS
 62
     5
  2
_OPEN
 10
2522.516917020444
 20
-173.9810813527464
 30
0.0
 41
1.5
 42
1.5
 43
1.5
 50
180.0
  0
INSERT
  5
64F
  8
回07-寸法
  6
CONTINUOUS
 62
     5
  2
_OPEN
 10
2784.136917020444
 20
-173.9810813527464
 30
0.0
 41
1.5
 42
1.5
 43
1.5
  0
TEXT
  5
650
  8
回07-寸法
  6
CONTINUOUS
 62
     5
 10
2636.077507571625
 20
-173.3310813527464
 30
0.0
 40
3.0
  1
261.62(Active area)
  0
POINT
  5
651
  8
DEFPOINTS
  6
CONTINUOUS
 62
     0
 10
2522.516917020444
 20
-194.1310141762295
 30
0.0
  0
POINT
  5
652
  8
DEFPOINTS
  6
CONTINUOUS
 62
     0
 10
2784.136917020444
 20
-194.1310141762304
 30
0.0
  0
POINT
  5
653
  8
DEFPOINTS
  6
CONTINUOUS
 62
     0
 10
2784.136917020444
 20
-173.9810813527464
 30
0.0
  0
ENDBLK
  5
655
  8
回04-下接
  6
CONTINUOUS
 62
     7
  0
BLOCK
  8
回04-下接
  2
*D7272
 70
     1
 10
0.0
 20
0.0
 30
0.0
  3
*D7272
  1

  0
LINE
  5
657
  8
回07-寸法
  6
CONTINUOUS
 62
     5
 10
2520.016917020444
 20
-191.6310141762304
 30
0.0
 11
2520.016917020444
 21
-155.1307860771559
 31
0.0
  0
LINE
  5
658
  8
回07-寸法
  6
CONTINUOUS
 62
     5
 10
2786.636917020444
 20
-191.6310141762304
 30
0.0
 11
2786.636917020444
 21
-155.1307860771559
 31
0.0
  0
LINE
  5
659
  8
回07-寸法
  6
CONTINUOUS
 62
     5
 10
2521.516917020444
 20
-156.1307860771559
 30
0.0
 11
2785.136917020444
 21
-156.1307860771559
 31
0.0
  0
INSERT
  5
65A
  8
回07-寸法
  6
CONTINUOUS
 62
     5
  2
_OPEN
 10
2520.016917020444
 20
-156.1307860771559
 30
0.0
 41
1.5
 42
1.5
 43
1.5
 50
180.0
  0
INSERT
  5
65B
  8
回07-寸法
  6
CONTINUOUS
 62
     5
  2
_OPEN
 10
2786.636917020444
 20
-156.1307860771559
 30
0.0
 41
1.5
 42
1.5
 43
1.5
  0
TEXT
  5
65C
  8
回07-寸法
  6
CONTINUOUS
 62
     5
 10
2647.626585335104
 20
-155.6307860771559
 30
0.0
 40
3.0
  1
266.62
  0
POINT
  5
65D
  8
DEFPOINTS
  6
CONTINUOUS
 62
     0
 10
2520.016917020444
 20
-191.6310141762304
 30
0.0
  0
POINT
  5
65E
  8
DEFPOINTS
  6
CONTINUOUS
 62
     0
 10
2786.636917020444
 20
-191.6310141762304
 30
0.0
  0
POINT
  5
65F
  8
DEFPOINTS
  6
CONTINUOUS
 62
     0
 10
2786.636917020444
 20
-156.1307860771559
 30
0.0
  0
ENDBLK
  5
661
  8
回04-下接
  6
CONTINUOUS
 62
     7
  0
BLOCK
  8
回04-下接
  2
*D7373
 70
     1
 10
0.0
 20
0.0
 30
0.0
  3
*D7373
  1

  0
LINE
  5
663
  8
回07-寸法
  6
CONTINUOUS
 62
     5
 10
2520.516917020444
 20
-192.1310141762304
 30
0.0
 11
2520.516917020444
 21
-163.6267158226849
 31
0.0
  0
LINE
  5
664
  8
回07-寸法
  6
CONTINUOUS
 62
     5
 10
2786.136917020443
 20
-192.1310141762304
 30
0.0
 11
2786.136917020443
 21
-163.6267158226849
 31
0.0
  0
LINE
  5
665
  8
回07-寸法
  6
CONTINUOUS
 62
     5
 10
2522.016917020444
 20
-164.6267158226849
 30
0.0
 11
2784.636917020444
 21
-164.6267158226849
 31
0.0
  0
INSERT
  5
666
  8
回07-寸法
  6
CONTINUOUS
 62
     5
  2
_OPEN
 10
2520.516917020444
 20
-164.6267158226849
 30
0.0
 41
1.5
 42
1.5
 43
1.5
 50
180.0
  0
INSERT
  5
667
  8
回07-寸法
  6
CONTINUOUS
 62
     5
  2
_OPEN
 10
2786.136917020443
 20
-164.6267158226849
 30
0.0
 41
1.5
 42
1.5
 43
1.5
  0
TEXT
  5
668
  8
回07-寸法
  6
CONTINUOUS
 62
     5
 10
2634.727507571625
 20
-163.376715822685
 30
0.0
 40
3.0
  1
265.62(Viewing area)
  0
POINT
  5
669
  8
DEFPOINTS
  6
CONTINUOUS
 62
     0
 10
2520.516917020444
 20
-192.1310141762304
 30
0.0
  0
POINT
  5
66A
  8
DEFPOINTS
  6
CONTINUOUS
 62
     0
 10
2786.136917020443
 20
-192.1310141762304
 30
0.0
  0
POINT
  5
66B
  8
DEFPOINTS
  6
CONTINUOUS
 62
     0
 10
2786.136917020443
 20
-164.6267158226849
 30
0.0
  0
ENDBLK
  5
66D
  8
回04-下接
  6
CONTINUOUS
 62
     7
  0
BLOCK
  8
回04-下接
  2
*D7474
 70
     1
 10
0.0
 20
0.0
 30
0.0
  3
*D7474
  1

  0
LINE
  5
66F
  8
回07-寸法
  6
CONTINUOUS
 62
     5
 10
2514.366917020444
 20
-186.1309813527464
 30
0.0
 11
2514.366917020444
 21
-146.1300610386263
 31
0.0
  0
LINE
  5
670
  8
回07-寸法
  6
CONTINUOUS
 62
     5
 10
2792.286917020443
 20
-186.1309813527464
 30
0.0
 11
2792.286917020443
 21
-146.1300610386263
 31
0.0
  0
LINE
  5
671
  8
回07-寸法
  6
CONTINUOUS
 62
     5
 10
2515.866917020444
 20
-147.1300610386263
 30
0.0
 11
2790.786917020443
 21
-147.1300610386263
 31
0.0
  0
INSERT
  5
672
  8
回07-寸法
  6
CONTINUOUS
 62
     5
  2
_OPEN
 10
2514.366917020444
 20
-147.1300610386263
 30
0.0
 41
1.5
 42
1.5
 43
1.5
 50
180.0
  0
INSERT
  5
673
  8
回07-寸法
  6
CONTINUOUS
 62
     5
  2
_OPEN
 10
2792.286917020443
 20
-147.1300610386263
 30
0.0
 41
1.5
 42
1.5
 43
1.5
  0
INSERT
  5
674
  8
回07-寸法
  6
CONTINUOUS
 62
     5
 66
     1
  2
*X102102
 10
0.0
 20
0.0
 30
0.0
  0
SEQEND
  5
85A
  8
回04-下接
  6
CONTINUOUS
 62
     7
  0
POINT
  5
675
  8
DEFPOINTS
  6
CONTINUOUS
 62
     0
 10
2514.366917020444
 20
-186.1309813527464
 30
0.0
  0
POINT
  5
676
  8
DEFPOINTS
  6
CONTINUOUS
 62
     0
 10
2792.286917020443
 20
-186.1309813527464
 30
0.0
  0
POINT
  5
677
  8
DEFPOINTS
  6
CONTINUOUS
 62
     0
 10
2792.286917020443
 20
-147.1300610386263
 30
0.0
  0
ENDBLK
  5
679
  8
回04-下接
  6
CONTINUOUS
 62
     7
  0
BLOCK
  8
回04-下接
  2
*D7575
 70
     1
 10
0.0
 20
0.0
 30
0.0
  3
*D7575
  1

  0
LINE
  5
67B
  8
回07-寸法
  6
CONTINUOUS
 62
     5
 10
2686.233835232037
 20
-370.5310141762304
 30
0.0
 11
2693.844272192046
 21
-370.5310141762304
 31
0.0
  0
LINE
  5
67C
  8
回07-寸法
  6
CONTINUOUS
 62
     5
 10
2686.233835232037
 20
-374.0866490948417
 30
0.0
 11
2693.844272192046
 21
-374.0866490948417
 31
0.0
  0
LINE
  5
67D
  8
回07-寸法
  6
CONTINUOUS
 62
     5
 10
2692.844272192046
 20
-375.5866490948417
 30
0.0
 11
2692.844272192046
 21
-389.4215457117184
 31
0.0
  0
LINE
  5
67E
  8
回07-寸法
  6
CONTINUOUS
 62
     5
 10
2692.844272192046
 20
-370.5310141762304
 30
0.0
 11
2692.844272192046
 21
-374.0866490948417
 31
0.0
  0
LINE
  5
67F
  8
回07-寸法
  6
CONTINUOUS
 62
     5
 10
2692.844272192046
 20
-369.0310141762304
 30
0.0
 11
2692.844272192046
 21
-367.5310141762304
 31
0.0
  0
INSERT
  5
680
  8
回07-寸法
  6
CONTINUOUS
 62
     5
  2
_OPEN
 10
2692.844272192046
 20
-370.5310141762304
 30
0.0
 41
1.5
 42
1.5
 43
1.5
 50
270.0
  0
INSERT
  5
681
  8
回07-寸法
  6
CONTINUOUS
 62
     5
  2
_OPEN
 10
2692.844272192046
 20
-374.0866490948417
 30
0.0
 41
1.5
 42
1.5
 43
1.5
 50
90.0
  0
TEXT
  5
682
  8
回07-寸法
  6
CONTINUOUS
 62
     5
 10
2692.344272192046
 20
-389.3715457117182
 30
0.0
 40
3.0
  1
3.6
 50
90.0
  0
POINT
  5
683
  8
DEFPOINTS
  6
CONTINUOUS
 62
     0
 10
2686.233835232037
 20
-370.5310141762304
 30
0.0
  0
POINT
  5
684
  8
DEFPOINTS
  6
CONTINUOUS
 62
     0
 10
2686.233835232037
 20
-374.0866490948417
 30
0.0
  0
POINT
  5
685
  8
DEFPOINTS
  6
CONTINUOUS
 62
     0
 10
2692.844272192046
 20
-374.0866490948417
 30
0.0
  0
ENDBLK
  5
687
  8
回04-下接
  6
CONTINUOUS
 62
     7
  0
BLOCK
  8
回04-下接
  2
*D7676
 70
     1
 10
0.0
 20
0.0
 30
0.0
  3
*D7676
  1

  0
LINE
  5
689
  8
回07-寸法
  6
CONTINUOUS
 62
     5
 10
2659.233835232037
 20
-373.6724355324684
 30
0.0
 11
2659.233835232037
 21
-401.3064633527823
 31
0.0
  0
LINE
  5
68A
  8
回07-寸法
  6
CONTINUOUS
 62
     5
 10
2686.233835232037
 20
-373.6724355324684
 30
0.0
 11
2686.233835232037
 21
-401.3064633527823
 31
0.0
  0
LINE
  5
68B
  8
回07-寸法
  6
CONTINUOUS
 62
     5
 10
2687.733835232037
 20
-400.3064633527824
 30
0.0
 11
2695.134622633613
 21
-400.3064633527824
 31
0.0
  0
LINE
  5
68C
  8
回07-寸法
  6
CONTINUOUS
 62
     5
 10
2659.233835232037
 20
-400.3064633527824
 30
0.0
 11
2686.233835232037
 21
-400.3064633527824
 31
0.0
  0
LINE
  5
68D
  8
回07-寸法
  6
CONTINUOUS
 62
     5
 10
2657.733835232037
 20
-400.3064633527824
 30
0.0
 11
2656.233835232037
 21
-400.3064633527824
 31
0.0
  0
INSERT
  5
68E
  8
回07-寸法
  6
CONTINUOUS
 62
     5
  2
_OPEN
 10
2659.233835232037
 20
-400.3064633527824
 30
0.0
 41
1.5
 42
1.5
 43
1.5
  0
INSERT
  5
68F
  8
回07-寸法
  6
CONTINUOUS
 62
     5
  2
_OPEN
 10
2686.233835232037
 20
-400.3064633527824
 30
0.0
 41
1.5
 42
1.5
 43
1.5
 50
180.0
  0
TEXT
  5
690
  8
回07-寸法
  6
CONTINUOUS
 62
     5
 10
2690.884622633613
 20
-399.8064633527824
 30
0.0
 40
3.0
  1
27
  0
POINT
  5
691
  8
DEFPOINTS
  6
CONTINUOUS
 62
     0
 10
2659.233835232037
 20
-373.6724355324684
 30
0.0
  0
POINT
  5
692
  8
DEFPOINTS
  6
CONTINUOUS
 62
     0
 10
2686.233835232037
 20
-373.6724355324684
 30
0.0
  0
POINT
  5
693
  8
DEFPOINTS
  6
CONTINUOUS
 62
     0
 10
2686.233835232037
 20
-400.3064633527824
 30
0.0
  0
ENDBLK
  5
695
  8
回04-下接
  6
CONTINUOUS
 62
     7
  0
BLOCK
  8
回04-下接
  2
*X7777
 70
     1
 10
0.0
 20
0.0
 30
0.0
  3
*X7777
  1

  0
INSERT
  5
6FE
  8
回08-記事
  6
CONTINUOUS
 62
     5
  2
_OPEN
 10
2841.572415172951
 20
-408.8981876007468
 30
0.0
 41
2.0
 42
2.0
 43
2.0
 50
339.4448764264851
  0
LINE
  5
6FF
  8
回08-記事
  6
CONTINUOUS
 62
     5
 10
2839.699745521882
 20
-408.1959708407908
 30
0.0
 11
2829.031351971578
 21
-404.1955189999915
 31
0.0
  0
LINE
  5
700
  8
回08-記事
  6
CONTINUOUS
 62
     5
 10
2829.031351971578
 20
-404.1955189999915
 30
0.0
 11
2794.931351971578
 21
-404.1955189999915
 31
0.0
  0
ENDBLK
  5
702
  8
回04-下接
  6
CONTINUOUS
 62
     7
  0
BLOCK
  8
回04-下接
  2
*X7878
 70
     1
 10
0.0
 20
0.0
 30
0.0
  3
*X7878
  1

  0
INSERT
  5
705
  8
回08-記事
  6
CONTINUOUS
 62
     5
  2
_OPEN
 10
2844.200450255334
 20
-409.0728636327421
 30
0.0
 41
2.0
 42
2.0
 43
2.0
 50
224.0506723783502
  0
LINE
  5
706
  8
回08-記事
  6
CONTINUOUS
 62
     5
 10
2845.637900582024
 20
-407.6822750673145
 30
0.0
 11
2849.242157637397
 21
-404.1955189999915
 31
0.0
  0
LINE
  5
707
  8
回08-記事
  6
CONTINUOUS
 62
     5
 10
2849.242157637397
 20
-404.1955189999915
 30
0.0
 11
2872.542157637397
 21
-404.1955189999915
 31
0.0
  0
ENDBLK
  5
709
  8
回04-下接
  6
CONTINUOUS
 62
     7
  0
BLOCK
  8
回04-下接
  2
*X7979
 70
     1
 10
0.0
 20
0.0
 30
0.0
  3
*X7979
  1

  0
LINE
  5
716
  8
回08-記事
  6
CONTINUOUS
 62
     7
 10
2843.737017266123
 20
-392.599103043137
 30
0.0
 11
2844.437017266125
 21
-391.8991030431367
 31
0.0
1001
GRADIENTCOLOR1ACI
1070
     5
1001
GRADIENTCOLOR2ACI
1070
     2
1001
ACAD
1010
0.0
1020
0.0
1030
0.0
  0
LINE
  5
717
  8
回08-記事
  6
CONTINUOUS
 62
     7
 10
2843.737017266123
 20
-393.9461414612973
 30
0.0
 11
2844.437017266125
 21
-393.2461414612967
 31
0.0
1001
GRADIENTCOLOR1ACI
1070
     5
1001
GRADIENTCOLOR2ACI
1070
     2
1001
ACAD
1010
0.0
1020
0.0
1030
0.0
  0
LINE
  5
718
  8
回08-記事
  6
CONTINUOUS
 62
     7
 10
2843.737017266123
 20
-395.2931798794578
 30
0.0
 11
2844.437017266125
 21
-394.593179879457
 31
0.0
1001
GRADIENTCOLOR1ACI
1070
     5
1001
GRADIENTCOLOR2ACI
1070
     2
1001
ACAD
1010
0.0
1020
0.0
1030
0.0
  0
LINE
  5
719
  8
回08-記事
  6
CONTINUOUS
 62
     7
 10
2843.737017266123
 20
-396.6402182976176
 30
0.0
 11
2844.437017266125
 21
-395.9402182976171
 31
0.0
1001
GRADIENTCOLOR1ACI
1070
     5
1001
GRADIENTCOLOR2ACI
1070
     2
1001
ACAD
1010
0.0
1020
0.0
1030
0.0
  0
LINE
  5
71A
  8
回08-記事
  6
CONTINUOUS
 62
     7
 10
2843.737017266123
 20
-397.9872567157782
 30
0.0
 11
2844.437017266125
 21
-397.2872567157775
 31
0.0
1001
GRADIENTCOLOR1ACI
1070
     5
1001
GRADIENTCOLOR2ACI
1070
     2
1001
ACAD
1010
0.0
1020
0.0
1030
0.0
  0
LINE
  5
71B
  8
回08-記事
  6
CONTINUOUS
 62
     7
 10
2843.737017266123
 20
-399.3342951339382
 30
0.0
 11
2844.437017266125
 21
-398.6342951339376
 31
0.0
1001
GRADIENTCOLOR1ACI
1070
     5
1001
GRADIENTCOLOR2ACI
1070
     2
1001
ACAD
1010
0.0
1020
0.0
1030
0.0
  0
LINE
  5
71C
  8
回08-記事
  6
CONTINUOUS
 62
     7
 10
2843.737017266123
 20
-400.6813335520984
 30
0.0
 11
2844.437017266125
 21
-399.9813335520976
 31
0.0
1001
GRADIENTCOLOR1ACI
1070
     5
1001
GRADIENTCOLOR2ACI
1070
     2
1001
ACAD
1010
0.0
1020
0.0
1030
0.0
  0
LINE
  5
71D
  8
回08-記事
  6
CONTINUOUS
 62
     7
 10
2843.737017266123
 20
-402.0283719702582
 30
0.0
 11
2844.437017266125
 21
-401.3283719702576
 31
0.0
1001
GRADIENTCOLOR1ACI
1070
     5
1001
GRADIENTCOLOR2ACI
1070
     2
1001
ACAD
1010
0.0
1020
0.0
1030
0.0
  0
LINE
  5
71E
  8
回08-記事
  6
CONTINUOUS
 62
     7
 10
2843.737017266123
 20
-403.3754103884186
 30
0.0
 11
2844.437017266125
 21
-402.6754103884179
 31
0.0
1001
GRADIENTCOLOR1ACI
1070
     5
1001
GRADIENTCOLOR2ACI
1070
     2
1001
ACAD
1010
0.0
1020
0.0
1030
0.0
  0
LINE
  5
71F
  8
回08-記事
  6
CONTINUOUS
 62
     7
 10
2843.737017266123
 20
-404.722448806579
 30
0.0
 11
2844.437017266125
 21
-404.0224488065781
 31
0.0
1001
GRADIENTCOLOR1ACI
1070
     5
1001
GRADIENTCOLOR2ACI
1070
     2
1001
ACAD
1010
0.0
1020
0.0
1030
0.0
  0
LINE
  5
720
  8
回08-記事
  6
CONTINUOUS
 62
     7
 10
2843.737017266123
 20
-406.069487224739
 30
0.0
 11
2844.437017266125
 21
-405.3694872247382
 31
0.0
1001
GRADIENTCOLOR1ACI
1070
     5
1001
GRADIENTCOLOR2ACI
1070
     2
1001
ACAD
1010
0.0
1020
0.0
1030
0.0
  0
LINE
  5
721
  8
回08-記事
  6
CONTINUOUS
 62
     7
 10
2843.737017266123
 20
-407.4165256428993
 30
0.0
 11
2844.437017266125
 21
-406.7165256428986
 31
0.0
1001
GRADIENTCOLOR1ACI
1070
     5
1001
GRADIENTCOLOR2ACI
1070
     2
1001
ACAD
1010
0.0
1020
0.0
1030
0.0
  0
LINE
  5
722
  8
回08-記事
  6
CONTINUOUS
 62
     7
 10
2843.737017266123
 20
-408.7635640610591
 30
0.0
 11
2844.437017266125
 21
-408.0635640610585
 31
0.0
1001
GRADIENTCOLOR1ACI
1070
     5
1001
GRADIENTCOLOR2ACI
1070
     2
1001
ACAD
1010
0.0
1020
0.0
1030
0.0
  0
LINE
  5
723
  8
回08-記事
  6
CONTINUOUS
 62
     7
 10
2843.737017266123
 20
-410.1106024792199
 30
0.0
 11
2844.437017266125
 21
-409.4106024792186
 31
0.0
1001
GRADIENTCOLOR1ACI
1070
     5
1001
GRADIENTCOLOR2ACI
1070
     2
1001
ACAD
1010
0.0
1020
0.0
1030
0.0
  0
LINE
  5
724
  8
回08-記事
  6
CONTINUOUS
 62
     7
 10
2843.737017266123
 20
-411.4576408973798
 30
0.0
 11
2844.437017266125
 21
-410.7576408973789
 31
0.0
1001
GRADIENTCOLOR1ACI
1070
     5
1001
GRADIENTCOLOR2ACI
1070
     2
1001
ACAD
1010
0.0
1020
0.0
1030
0.0
  0
LINE
  5
725
  8
回08-記事
  6
CONTINUOUS
 62
     7
 10
2843.737017266123
 20
-412.8046793155402
 30
0.0
 11
2844.437017266125
 21
-412.1046793155393
 31
0.0
1001
GRADIENTCOLOR1ACI
1070
     5
1001
GRADIENTCOLOR2ACI
1070
     2
1001
ACAD
1010
0.0
1020
0.0
1030
0.0
  0
LINE
  5
726
  8
回08-記事
  6
CONTINUOUS
 62
     7
 10
2843.737017266123
 20
-414.1517177337004
 30
0.0
 11
2844.437017266125
 21
-413.4517177336997
 31
0.0
1001
GRADIENTCOLOR1ACI
1070
     5
1001
GRADIENTCOLOR2ACI
1070
     2
1001
ACAD
1010
0.0
1020
0.0
1030
0.0
  0
LINE
  5
727
  8
回08-記事
  6
CONTINUOUS
 62
     7
 10
2843.737017266123
 20
-415.4987561518602
 30
0.0
 11
2844.437017266125
 21
-414.7987561518593
 31
0.0
1001
GRADIENTCOLOR1ACI
1070
     5
1001
GRADIENTCOLOR2ACI
1070
     2
1001
ACAD
1010
0.0
1020
0.0
1030
0.0
  0
LINE
  5
728
  8
回08-記事
  6
CONTINUOUS
 62
     7
 10
2843.737017266123
 20
-416.8457945700206
 30
0.0
 11
2844.437017266125
 21
-416.1457945700199
 31
0.0
1001
GRADIENTCOLOR1ACI
1070
     5
1001
GRADIENTCOLOR2ACI
1070
     2
1001
ACAD
1010
0.0
1020
0.0
1030
0.0
  0
LINE
  5
729
  8
回08-記事
  6
CONTINUOUS
 62
     7
 10
2844.422203804283
 20
-417.5076464500223
 30
0.0
 11
2844.437017266125
 21
-417.4928329881801
 31
0.0
1001
GRADIENTCOLOR1ACI
1070
     5
1001
GRADIENTCOLOR2ACI
1070
     2
1001
ACAD
1010
0.0
1020
0.0
1030
0.0
  0
ENDBLK
  5
72B
  8
回04-下接
  6
CONTINUOUS
 62
     7
  0
BLOCK
  8
回04-下接
  2
*X8080
 70
     1
 10
0.0
 20
0.0
 30
0.0
  3
*X8080
  1

  0
LINE
  5
72E
  8
回08-記事
  6
CONTINUOUS
 62
     7
 10
2834.143833047153
 20
-371.2104036444181
 30
0.0
 11
2835.123222515342
 21
-370.2310141762305
 31
0.0
1001
GRADIENTCOLOR1ACI
1070
     5
1001
GRADIENTCOLOR2ACI
1070
     2
1001
ACAD
1010
0.0
1020
0.0
1030
0.0
  0
LINE
  5
72F
  8
回08-記事
  6
CONTINUOUS
 62
     7
 10
2834.143833047153
 20
-372.557442062578
 30
0.0
 11
2834.843833047153
 21
-371.8574420625781
 31
0.0
1001
GRADIENTCOLOR1ACI
1070
     5
1001
GRADIENTCOLOR2ACI
1070
     2
1001
ACAD
1010
0.0
1020
0.0
1030
0.0
  0
LINE
  5
730
  8
回08-記事
  6
CONTINUOUS
 62
     7
 10
2835.470260933501
 20
-371.2310141762305
 30
0.0
 11
2836.470260933501
 21
-370.2310141762305
 31
0.0
1001
GRADIENTCOLOR1ACI
1070
     5
1001
GRADIENTCOLOR2ACI
1070
     2
1001
ACAD
1010
0.0
1020
0.0
1030
0.0
  0
LINE
  5
731
  8
回08-記事
  6
CONTINUOUS
 62
     7
 10
2834.143833047153
 20
-373.9044804807383
 30
0.0
 11
2834.843833047153
 21
-373.2044804807385
 31
0.0
1001
GRADIENTCOLOR1ACI
1070
     5
1001
GRADIENTCOLOR2ACI
1070
     2
1001
ACAD
1010
0.0
1020
0.0
1030
0.0
  0
LINE
  5
732
  8
回08-記事
  6
CONTINUOUS
 62
     7
 10
2836.817299351661
 20
-371.2310141762306
 30
0.0
 11
2837.817299351661
 21
-370.2310141762302
 31
0.0
1001
GRADIENTCOLOR1ACI
1070
     5
1001
GRADIENTCOLOR2ACI
1070
     2
1001
ACAD
1010
0.0
1020
0.0
1030
0.0
  0
LINE
  5
733
  8
回08-記事
  6
CONTINUOUS
 62
     7
 10
2838.164337769821
 20
-371.2310141762305
 30
0.0
 11
2839.164337769821
 21
-370.2310141762305
 31
0.0
1001
GRADIENTCOLOR1ACI
1070
     5
1001
GRADIENTCOLOR2ACI
1070
     2
1001
ACAD
1010
0.0
1020
0.0
1030
0.0
  0
LINE
  5
734
  8
回08-記事
  6
CONTINUOUS
 62
     7
 10
2839.511376187981
 20
-371.2310141762304
 30
0.0
 11
2840.511376187981
 21
-370.2310141762302
 31
0.0
1001
GRADIENTCOLOR1ACI
1070
     5
1001
GRADIENTCOLOR2ACI
1070
     2
1001
ACAD
1010
0.0
1020
0.0
1030
0.0
  0
LINE
  5
735
  8
回08-記事
  6
CONTINUOUS
 62
     7
 10
2840.858414606141
 20
-371.2310141762304
 30
0.0
 11
2841.858414606141
 21
-370.2310141762304
 31
0.0
1001
GRADIENTCOLOR1ACI
1070
     5
1001
GRADIENTCOLOR2ACI
1070
     2
1001
ACAD
1010
0.0
1020
0.0
1030
0.0
  0
LINE
  5
736
  8
回08-記事
  6
CONTINUOUS
 62
     7
 10
2843.737017266123
 20
-371.0464883525691
 30
0.0
 11
2844.252491442462
 21
-370.5310141762305
 31
0.0
1001
GRADIENTCOLOR1ACI
1070
     5
1001
GRADIENTCOLOR2ACI
1070
     2
1001
ACAD
1010
0.0
1020
0.0
1030
0.0
  0
LINE
  5
737
  8
回08-記事
  6
CONTINUOUS
 62
     7
 10
2843.737017266123
 20
-372.393526770729
 30
0.0
 11
2844.437017266125
 21
-371.6935267707281
 31
0.0
1001
GRADIENTCOLOR1ACI
1070
     5
1001
GRADIENTCOLOR2ACI
1070
     2
1001
ACAD
1010
0.0
1020
0.0
1030
0.0
  0
LINE
  5
738
  8
回08-記事
  6
CONTINUOUS
 62
     7
 10
2844.899529860624
 20
-371.2310141762298
 30
0.0
 11
2845.599529860622
 21
-370.5310141762301
 31
0.0
1001
GRADIENTCOLOR1ACI
1070
     5
1001
GRADIENTCOLOR2ACI
1070
     2
1001
ACAD
1010
0.0
1020
0.0
1030
0.0
  0
LINE
  5
739
  8
回08-記事
  6
CONTINUOUS
 62
     7
 10
2843.737017266123
 20
-373.7405651888893
 30
0.0
 11
2844.437017266125
 21
-373.0405651888883
 31
0.0
1001
GRADIENTCOLOR1ACI
1070
     5
1001
GRADIENTCOLOR2ACI
1070
     2
1001
ACAD
1010
0.0
1020
0.0
1030
0.0
  0
LINE
  5
73A
  8
回08-記事
  6
CONTINUOUS
 62
     7
 10
2846.246568278783
 20
-371.2310141762302
 30
0.0
 11
2846.946568278783
 21
-370.5310141762303
 31
0.0
1001
GRADIENTCOLOR1ACI
1070
     5
1001
GRADIENTCOLOR2ACI
1070
     2
1001
ACAD
1010
0.0
1020
0.0
1030
0.0
  0
LINE
  5
73B
  8
回08-記事
  6
CONTINUOUS
 62
     7
 10
2850.037017266124
 20
-367.4405651888895
 30
0.0
 11
2850.546568278782
 21
-366.9310141762303
 31
0.0
1001
GRADIENTCOLOR1ACI
1070
     5
1001
GRADIENTCOLOR2ACI
1070
     2
1001
ACAD
1010
0.0
1020
0.0
1030
0.0
  0
LINE
  5
73C
  8
回08-記事
  6
CONTINUOUS
 62
     7
 10
2847.593606696942
 20
-371.2310141762304
 30
0.0
 11
2848.293606696942
 21
-370.5310141762301
 31
0.0
1001
GRADIENTCOLOR1ACI
1070
     5
1001
GRADIENTCOLOR2ACI
1070
     2
1001
ACAD
1010
0.0
1020
0.0
1030
0.0
  0
LINE
  5
73D
  8
回08-記事
  6
CONTINUOUS
 62
     7
 10
2850.037017266124
 20
-368.7876036070496
 30
0.0
 11
2850.737017266123
 21
-368.0876036070497
 31
0.0
1001
GRADIENTCOLOR1ACI
1070
     5
1001
GRADIENTCOLOR2ACI
1070
     2
1001
ACAD
1010
0.0
1020
0.0
1030
0.0
  0
LINE
  5
73E
  8
回08-記事
  6
CONTINUOUS
 62
     7
 10
2848.940645115103
 20
-371.2310141762301
 30
0.0
 11
2849.640645115103
 21
-370.5310141762303
 31
0.0
1001
GRADIENTCOLOR1ACI
1070
     5
1001
GRADIENTCOLOR2ACI
1070
     2
1001
ACAD
1010
0.0
1020
0.0
1030
0.0
  0
LINE
  5
73F
  8
回08-記事
  6
CONTINUOUS
 62
     7
 10
2850.037017266124
 20
-370.1346420252098
 30
0.0
 11
2850.737017266123
 21
-369.4346420252097
 31
0.0
1001
GRADIENTCOLOR1ACI
1070
     5
1001
GRADIENTCOLOR2ACI
1070
     2
1001
ACAD
1010
0.0
1020
0.0
1030
0.0
  0
LINE
  5
740
  8
回08-記事
  6
CONTINUOUS
 62
     7
 10
2850.287683533263
 20
-371.2310141762302
 30
0.0
 11
2850.737017266125
 21
-370.7816804433697
 31
0.0
1001
GRADIENTCOLOR1ACI
1070
     5
1001
GRADIENTCOLOR2ACI
1070
     2
1001
ACAD
1010
0.0
1020
0.0
1030
0.0
  0
ENDBLK
  5
742
  8
回04-下接
  6
CONTINUOUS
 62
     7
  0
BLOCK
  8
回04-下接
  2
*X8181
 70
     1
 10
0.0
 20
0.0
 30
0.0
  3
*X8181
  1

  0
LINE
  5
763
  8
回08-記事
  6
CONTINUOUS
 62
     7
 10
2841.337017266125
 20
-392.599103043137
 30
0.0
 11
2842.037017266124
 21
-391.8991030431373
 31
0.0
1001
GRADIENTCOLOR1ACI
1070
     5
1001
GRADIENTCOLOR2ACI
1070
     2
1001
ACAD
1010
0.0
1020
0.0
1030
0.0
  0
LINE
  5
764
  8
回08-記事
  6
CONTINUOUS
 62
     7
 10
2841.337017266125
 20
-393.9461414612976
 30
0.0
 11
2842.037017266124
 21
-393.2461414612975
 31
0.0
1001
GRADIENTCOLOR1ACI
1070
     5
1001
GRADIENTCOLOR2ACI
1070
     2
1001
ACAD
1010
0.0
1020
0.0
1030
0.0
  0
LINE
  5
765
  8
回08-記事
  6
CONTINUOUS
 62
     7
 10
2841.337017266125
 20
-395.2931798794578
 30
0.0
 11
2842.037017266124
 21
-394.5931798794578
 31
0.0
1001
GRADIENTCOLOR1ACI
1070
     5
1001
GRADIENTCOLOR2ACI
1070
     2
1001
ACAD
1010
0.0
1020
0.0
1030
0.0
  0
LINE
  5
766
  8
回08-記事
  6
CONTINUOUS
 62
     7
 10
2841.337017266125
 20
-396.640218297618
 30
0.0
 11
2842.037017266124
 21
-395.9402182976179
 31
0.0
1001
GRADIENTCOLOR1ACI
1070
     5
1001
GRADIENTCOLOR2ACI
1070
     2
1001
ACAD
1010
0.0
1020
0.0
1030
0.0
  0
LINE
  5
767
  8
回08-記事
  6
CONTINUOUS
 62
     7
 10
2841.337017266123
 20
-397.9872567157784
 30
0.0
 11
2842.037017266124
 21
-397.2872567157782
 31
0.0
1001
GRADIENTCOLOR1ACI
1070
     5
1001
GRADIENTCOLOR2ACI
1070
     2
1001
ACAD
1010
0.0
1020
0.0
1030
0.0
  0
LINE
  5
768
  8
回08-記事
  6
CONTINUOUS
 62
     7
 10
2841.337017266125
 20
-399.3342951339382
 30
0.0
 11
2842.037017266124
 21
-398.6342951339383
 31
0.0
1001
GRADIENTCOLOR1ACI
1070
     5
1001
GRADIENTCOLOR2ACI
1070
     2
1001
ACAD
1010
0.0
1020
0.0
1030
0.0
  0
LINE
  5
769
  8
回08-記事
  6
CONTINUOUS
 62
     7
 10
2841.337017266125
 20
-400.6813335520986
 30
0.0
 11
2842.037017266124
 21
-399.9813335520983
 31
0.0
1001
GRADIENTCOLOR1ACI
1070
     5
1001
GRADIENTCOLOR2ACI
1070
     2
1001
ACAD
1010
0.0
1020
0.0
1030
0.0
  0
LINE
  5
76A
  8
回08-記事
  6
CONTINUOUS
 62
     7
 10
2841.337017266125
 20
-402.0283719702588
 30
0.0
 11
2842.037017266124
 21
-401.3283719702585
 31
0.0
1001
GRADIENTCOLOR1ACI
1070
     5
1001
GRADIENTCOLOR2ACI
1070
     2
1001
ACAD
1010
0.0
1020
0.0
1030
0.0
  0
LINE
  5
76B
  8
回08-記事
  6
CONTINUOUS
 62
     7
 10
2841.337017266123
 20
-403.3754103884191
 30
0.0
 11
2842.037017266124
 21
-402.6754103884187
 31
0.0
1001
GRADIENTCOLOR1ACI
1070
     5
1001
GRADIENTCOLOR2ACI
1070
     2
1001
ACAD
1010
0.0
1020
0.0
1030
0.0
  0
LINE
  5
76C
  8
回08-記事
  6
CONTINUOUS
 62
     7
 10
2841.337017266123
 20
-404.7224488065793
 30
0.0
 11
2842.037017266124
 21
-404.0224488065793
 31
0.0
1001
GRADIENTCOLOR1ACI
1070
     5
1001
GRADIENTCOLOR2ACI
1070
     2
1001
ACAD
1010
0.0
1020
0.0
1030
0.0
  0
LINE
  5
76D
  8
回08-記事
  6
CONTINUOUS
 62
     7
 10
2841.337017266125
 20
-406.0694872247394
 30
0.0
 11
2842.037017266124
 21
-405.3694872247395
 31
0.0
1001
GRADIENTCOLOR1ACI
1070
     5
1001
GRADIENTCOLOR2ACI
1070
     2
1001
ACAD
1010
0.0
1020
0.0
1030
0.0
  0
LINE
  5
76E
  8
回08-記事
  6
CONTINUOUS
 62
     7
 10
2841.337017266123
 20
-407.4165256428996
 30
0.0
 11
2842.037017266124
 21
-406.7165256428993
 31
0.0
1001
GRADIENTCOLOR1ACI
1070
     5
1001
GRADIENTCOLOR2ACI
1070
     2
1001
ACAD
1010
0.0
1020
0.0
1030
0.0
  0
LINE
  5
76F
  8
回08-記事
  6
CONTINUOUS
 62
     7
 10
2841.337017266125
 20
-408.7635640610593
 30
0.0
 11
2842.037017266124
 21
-408.0635640610597
 31
0.0
1001
GRADIENTCOLOR1ACI
1070
     5
1001
GRADIENTCOLOR2ACI
1070
     2
1001
ACAD
1010
0.0
1020
0.0
1030
0.0
  0
LINE
  5
770
  8
回08-記事
  6
CONTINUOUS
 62
     7
 10
2841.337017266125
 20
-410.1106024792199
 30
0.0
 11
2842.037017266124
 21
-409.4106024792196
 31
0.0
1001
GRADIENTCOLOR1ACI
1070
     5
1001
GRADIENTCOLOR2ACI
1070
     2
1001
ACAD
1010
0.0
1020
0.0
1030
0.0
  0
LINE
  5
771
  8
回08-記事
  6
CONTINUOUS
 62
     7
 10
2841.337017266125
 20
-411.4576408973798
 30
0.0
 11
2842.037017266124
 21
-410.7576408973799
 31
0.0
1001
GRADIENTCOLOR1ACI
1070
     5
1001
GRADIENTCOLOR2ACI
1070
     2
1001
ACAD
1010
0.0
1020
0.0
1030
0.0
  0
LINE
  5
772
  8
回08-記事
  6
CONTINUOUS
 62
     7
 10
2841.337017266123
 20
-412.8046793155403
 30
0.0
 11
2842.037017266124
 21
-412.1046793155405
 31
0.0
1001
GRADIENTCOLOR1ACI
1070
     5
1001
GRADIENTCOLOR2ACI
1070
     2
1001
ACAD
1010
0.0
1020
0.0
1030
0.0
  0
LINE
  5
773
  8
回08-記事
  6
CONTINUOUS
 62
     7
 10
2841.337017266125
 20
-414.1517177337004
 30
0.0
 11
2842.037017266124
 21
-413.4517177337005
 31
0.0
1001
GRADIENTCOLOR1ACI
1070
     5
1001
GRADIENTCOLOR2ACI
1070
     2
1001
ACAD
1010
0.0
1020
0.0
1030
0.0
  0
LINE
  5
774
  8
回08-記事
  6
CONTINUOUS
 62
     7
 10
2841.337017266125
 20
-415.4987561518606
 30
0.0
 11
2842.037017266124
 21
-414.7987561518605
 31
0.0
1001
GRADIENTCOLOR1ACI
1070
     5
1001
GRADIENTCOLOR2ACI
1070
     2
1001
ACAD
1010
0.0
1020
0.0
1030
0.0
  0
LINE
  5
775
  8
回08-記事
  6
CONTINUOUS
 62
     7
 10
2841.337017266125
 20
-416.8457945700208
 30
0.0
 11
2842.037017266124
 21
-416.1457945700209
 31
0.0
1001
GRADIENTCOLOR1ACI
1070
     5
1001
GRADIENTCOLOR2ACI
1070
     2
1001
ACAD
1010
0.0
1020
0.0
1030
0.0
  0
LINE
  5
776
  8
回08-記事
  6
CONTINUOUS
 62
     7
 10
2842.022203804282
 20
-417.5076464500226
 30
0.0
 11
2842.037017266124
 21
-417.492832988181
 31
0.0
1001
GRADIENTCOLOR1ACI
1070
     5
1001
GRADIENTCOLOR2ACI
1070
     2
1001
ACAD
1010
0.0
1020
0.0
1030
0.0
  0
ENDBLK
  5
778
  8
回04-下接
  6
CONTINUOUS
 62
     7
  0
BLOCK
  8
回04-下接
  2
*X8282
 70
     1
 10
0.0
 20
0.0
 30
0.0
  3
*X8282
  1

  0
TEXT
  5
78A
  8
回08-記事
  6
CONTINUOUS
 62
     5
 10
2604.509745336822
 20
-410.1291647705044
 30
0.0
 40
4.0
  1
･Part label
  0
TEXT
  5
78B
  8
回08-記事
  6
CONTINUOUS
 62
     5
 10
2604.509745336822
 20
-416.7958314371711
 30
0.0
 40
4.0
  1
･Lot label
  0
ENDBLK
  5
78D
  8
回04-下接
  6
CONTINUOUS
 62
     7
  0
BLOCK
  8
回04-下接
  2
*X8383
 70
     1
 10
0.0
 20
0.0
 30
0.0
  3
*X8383
  1

  0
INSERT
  5
790
  8
回08-記事
  6
CONTINUOUS
 62
     5
  2
_OPEN
 10
2644.225978333509
 20
-407.8648573498996
 30
0.0
 41
2.0
 42
2.0
 43
2.0
 50
40.91176056451907
  0
LINE
  5
791
  8
回08-記事
  6
CONTINUOUS
 62
     5
 10
2642.714540211967
 20
-409.1746492435786
 30
0.0
 11
2633.343078670155
 21
-417.2958314371711
 31
0.0
  0
LINE
  5
792
  8
回08-記事
  6
CONTINUOUS
 62
     5
 10
2633.343078670155
 20
-417.2958314371711
 30
0.0
 11
2605.309745336822
 21
-417.2958314371711
 31
0.0
  0
ENDBLK
  5
794
  8
回04-下接
  6
CONTINUOUS
 62
     7
  0
BLOCK
  8
回04-下接
  2
*X8484
 70
     1
 10
0.0
 20
0.0
 30
0.0
  3
*X8484
  1

  0
LINE
  5
7A0
  8
回08-記事
  6
CONTINUOUS
 62
     7
 10
2643.530961383663
 20
-396.2985834755703
 30
0.0
 11
2644.194543471451
 21
-395.6350013877814
 31
0.0
1001
GRADIENTCOLOR1ACI
1070
     5
1001
GRADIENTCOLOR2ACI
1070
     2
1001
ACAD
1010
0.0
1020
0.0
1030
0.0
  0
LINE
  5
7A1
  8
回08-記事
  6
CONTINUOUS
 62
     7
 10
2643.530961383663
 20
-398.5436475058384
 30
0.0
 11
2646.439607501719
 21
-395.6350013877813
 31
0.0
1001
GRADIENTCOLOR1ACI
1070
     5
1001
GRADIENTCOLOR2ACI
1070
     2
1001
ACAD
1010
0.0
1020
0.0
1030
0.0
  0
LINE
  5
7A2
  8
回08-記事
  6
CONTINUOUS
 62
     7
 10
2643.530961383663
 20
-400.7887115361052
 30
0.0
 11
2648.030961383662
 21
-396.2887115361056
 31
0.0
1001
GRADIENTCOLOR1ACI
1070
     5
1001
GRADIENTCOLOR2ACI
1070
     2
1001
ACAD
1010
0.0
1020
0.0
1030
0.0
  0
LINE
  5
7A3
  8
回08-記事
  6
CONTINUOUS
 62
     7
 10
2643.530961383663
 20
-403.0337755663727
 30
0.0
 11
2648.030961383662
 21
-398.5337755663729
 31
0.0
1001
GRADIENTCOLOR1ACI
1070
     5
1001
GRADIENTCOLOR2ACI
1070
     2
1001
ACAD
1010
0.0
1020
0.0
1030
0.0
  0
LINE
  5
7A4
  8
回08-記事
  6
CONTINUOUS
 62
     7
 10
2643.530961383663
 20
-405.2788395966405
 30
0.0
 11
2648.030961383662
 21
-400.7788395966406
 31
0.0
1001
GRADIENTCOLOR1ACI
1070
     5
1001
GRADIENTCOLOR2ACI
1070
     2
1001
ACAD
1010
0.0
1020
0.0
1030
0.0
  0
LINE
  5
7A5
  8
回08-記事
  6
CONTINUOUS
 62
     7
 10
2643.530961383663
 20
-407.5239036269081
 30
0.0
 11
2648.030961383662
 21
-403.0239036269081
 31
0.0
1001
GRADIENTCOLOR1ACI
1070
     5
1001
GRADIENTCOLOR2ACI
1070
     2
1001
ACAD
1010
0.0
1020
0.0
1030
0.0
  0
LINE
  5
7A6
  8
回08-記事
  6
CONTINUOUS
 62
     7
 10
2643.530961383663
 20
-409.7689676571754
 30
0.0
 11
2648.030961383662
 21
-405.2689676571756
 31
0.0
1001
GRADIENTCOLOR1ACI
1070
     5
1001
GRADIENTCOLOR2ACI
1070
     2
1001
ACAD
1010
0.0
1020
0.0
1030
0.0
  0
LINE
  5
7A7
  8
回08-記事
  6
CONTINUOUS
 62
     7
 10
2643.530961383663
 20
-412.0140316874429
 30
0.0
 11
2648.030961383662
 21
-407.514031687443
 31
0.0
1001
GRADIENTCOLOR1ACI
1070
     5
1001
GRADIENTCOLOR2ACI
1070
     2
1001
ACAD
1010
0.0
1020
0.0
1030
0.0
  0
LINE
  5
7A8
  8
回08-記事
  6
CONTINUOUS
 62
     7
 10
2643.530961383663
 20
-414.2590957177104
 30
0.0
 11
2648.030961383662
 21
-409.7590957177108
 31
0.0
1001
GRADIENTCOLOR1ACI
1070
     5
1001
GRADIENTCOLOR2ACI
1070
     2
1001
ACAD
1010
0.0
1020
0.0
1030
0.0
  0
LINE
  5
7A9
  8
回08-記事
  6
CONTINUOUS
 62
     7
 10
2643.530961383663
 20
-416.5041597479778
 30
0.0
 11
2648.030961383662
 21
-412.0041597479782
 31
0.0
1001
GRADIENTCOLOR1ACI
1070
     5
1001
GRADIENTCOLOR2ACI
1070
     2
1001
ACAD
1010
0.0
1020
0.0
1030
0.0
  0
LINE
  5
7AA
  8
回08-記事
  6
CONTINUOUS
 62
     7
 10
2643.530961383663
 20
-418.7492237782458
 30
0.0
 11
2648.030961383661
 21
-414.2492237782462
 31
0.0
1001
GRADIENTCOLOR1ACI
1070
     5
1001
GRADIENTCOLOR2ACI
1070
     2
1001
ACAD
1010
0.0
1020
0.0
1030
0.0
  0
LINE
  5
7AB
  8
回08-記事
  6
CONTINUOUS
 62
     7
 10
2643.530961383663
 20
-420.9942878085128
 30
0.0
 11
2648.030961383662
 21
-416.494287808513
 31
0.0
1001
GRADIENTCOLOR1ACI
1070
     5
1001
GRADIENTCOLOR2ACI
1070
     2
1001
ACAD
1010
0.0
1020
0.0
1030
0.0
  0
LINE
  5
7AC
  8
回08-記事
  6
CONTINUOUS
 62
     7
 10
2645.135311834662
 20
-421.6350013877811
 30
0.0
 11
2648.030961383661
 21
-418.7393518387811
 31
0.0
1001
GRADIENTCOLOR1ACI
1070
     5
1001
GRADIENTCOLOR2ACI
1070
     2
1001
ACAD
1010
0.0
1020
0.0
1030
0.0
  0
LINE
  5
7AD
  8
回08-記事
  6
CONTINUOUS
 62
     7
 10
2647.380375864929
 20
-421.6350013877813
 30
0.0
 11
2648.030961383661
 21
-420.9844158690486
 31
0.0
1001
GRADIENTCOLOR1ACI
1070
     5
1001
GRADIENTCOLOR2ACI
1070
     2
1001
ACAD
1010
0.0
1020
0.0
1030
0.0
  0
ENDBLK
  5
7AF
  8
回04-下接
  6
CONTINUOUS
 62
     7
  0
BLOCK
  8
回04-下接
  2
*X8585
 70
     1
 10
0.0
 20
0.0
 30
0.0
  3
*X8585
  1

  0
TEXT
  5
7F0
  8
回07-寸法
  6
CONTINUOUS
 62
     5
 10
2654.760862393914
 20
-77.47773135561327
 30
0.0
 40
3.0
  1
277.92
  0
TEXT
  5
7F1
  8
回07-寸法
  6
CONTINUOUS
 62
     5
 10
2666.171693499496
 20
-77.47773135561327
 30
0.0
 40
2.1
  1
±0.3
  0
ENDBLK
  5
7F3
  8
回04-下接
  6
CONTINUOUS
 62
     7
  0
BLOCK
  8
回04-下接
  2
*X8686
 70
     1
 10
0.0
 20
0.0
 30
0.0
  3
*X8686
  1

  0
TEXT
  5
7F6
  8
回07-寸法
  6
CONTINUOUS
 62
     5
 10
2476.626277946716
 20
-216.417188395596
 30
0.0
 40
3.0
  1
184.4
 50
90.0
  0
TEXT
  5
7F7
  8
回07-寸法
  6
CONTINUOUS
 62
     5
 10
2476.626277946716
 20
-207.1171883955958
 30
0.0
 40
2.1
  1
±0.3
 50
90.0
  0
ENDBLK
  5
7F9
  8
回04-下接
  6
CONTINUOUS
 62
     7
  0
BLOCK
  8
回04-下接
  2
*X8787
 70
     1
 10
0.0
 20
0.0
 30
0.0
  3
*X8787
  1

  0
TEXT
  5
7FC
  8
回07-寸法
  6
CONTINUOUS
 62
     5
 10
2595.068936321215
 20
-355.5551806219323
 30
0.0
 40
3.0
  1
100
 50
90.0
  0
TEXT
  5
7FD
  8
回07-寸法
  6
CONTINUOUS
 62
     5
 10
2595.068936321215
 20
-349.8551806219325
 30
0.0
 40
2.1
  1
±1
 50
90.0
  0
ENDBLK
  5
7FF
  8
回04-下接
  6
CONTINUOUS
 62
     7
  0
BLOCK
  8
回04-下接
  2
*X8888
 70
     1
 10
0.0
 20
0.0
 30
0.0
  3
*X8888
  1

  0
TEXT
  5
802
  8
回07-寸法
  6
CONTINUOUS
 62
     5
 10
2732.925104767071
 20
-355.5551564365269
 30
0.0
 40
3.0
  1
100
 50
90.0
  0
TEXT
  5
803
  8
回07-寸法
  6
CONTINUOUS
 62
     5
 10
2732.925104767071
 20
-349.8551564365271
 30
0.0
 40
2.1
  1
±1
 50
90.0
  0
ENDBLK
  5
805
  8
回04-下接
  6
CONTINUOUS
 62
     7
  0
BLOCK
  8
回04-下接
  2
*X8989
 70
     1
 10
0.0
 20
0.0
 30
0.0
  3
*X8989
  1

  0
TEXT
  5
808
  8
回07-寸法
  6
CONTINUOUS
 62
     5
 10
2649.78207084285
 20
-408.5267373548553
 30
0.0
 40
3.0
  1
17.5
  0
TEXT
  5
809
  8
回07-寸法
  6
CONTINUOUS
 62
     5
 10
2656.38207084285
 20
-408.5267373548553
 30
0.0
 40
2.1
  1
±0.1
  0
ENDBLK
  5
80B
  8
回04-下接
  6
CONTINUOUS
 62
     7
  0
BLOCK
  8
回04-下接
  2
*X9090
 70
     1
 10
0.0
 20
0.0
 30
0.0
  3
*X9090
  1

  0
TEXT
  5
80E
  8
回07-寸法
  6
CONTINUOUS
 62
     5
 10
2676.78207084285
 20
-415.2909178846358
 30
0.0
 40
3.0
  1
13.5
  0
TEXT
  5
80F
  8
回07-寸法
  6
CONTINUOUS
 62
     5
 10
2683.382070842851
 20
-415.2909178846358
 30
0.0
 40
2.1
  1
±0.1
  0
ENDBLK
  5
811
  8
回04-下接
  6
CONTINUOUS
 62
     7
  0
BLOCK
  8
回04-下接
  2
*X9191
 70
     1
 10
0.0
 20
0.0
 30
0.0
  3
*X9191
  1

  0
TEXT
  5
814
  8
回07-寸法
  6
CONTINUOUS
 62
     5
 10
2855.857661960453
 20
-406.5868487997931
 30
0.0
 40
3.0
  1
0.3
  0
TEXT
  5
815
  8
回07-寸法
  6
CONTINUOUS
 62
     5
 10
2860.957661960453
 20
-406.5868487997931
 30
0.0
 40
2.00001
  1
±0.05
  0
ENDBLK
  5
817
  8
回04-下接
  6
CONTINUOUS
 62
     7
  0
BLOCK
  8
回04-下接
  2
*X9292
 70
     1
 10
0.0
 20
0.0
 30
0.0
  3
*X9292
  1

  0
TEXT
  5
81A
  8
回07-寸法
  6
CONTINUOUS
 62
     5
 10
2845.15462024023
 20
-105.9740013518135
 30
0.0
 40
3.0
  1
2.1
  0
TEXT
  5
81B
  8
回07-寸法
  6
CONTINUOUS
 62
     5
 10
2849.65462024023
 20
-105.9740013518135
 30
0.0
 40
1.5
  1
±0.2
  0
ENDBLK
  5
81D
  8
回04-下接
  6
CONTINUOUS
 62
     7
  0
BLOCK
  8
回04-下接
  2
*X9393
 70
     1
 10
0.0
 20
0.0
 30
0.0
  3
*X9393
  1

  0
TEXT
  5
820
  8
回07-寸法
  6
CONTINUOUS
 62
     5
 10
2828.329242910071
 20
-406.5868487997931
 30
0.0
 40
3.0
  1
0.3
  0
TEXT
  5
821
  8
回07-寸法
  6
CONTINUOUS
 62
     5
 10
2833.429242910071
 20
-406.5868487997931
 30
0.0
 40
2.00001
  1
±0.05
  0
ENDBLK
  5
823
  8
回04-下接
  6
CONTINUOUS
 62
     7
  0
BLOCK
  8
回04-下接
  2
*X9494
 70
     1
 10
0.0
 20
0.0
 30
0.0
  3
*X9494
  1

  0
TEXT
  5
826
  8
回07-寸法
  6
CONTINUOUS
 62
     5
 10
2818.643803547153
 20
-475.7381581686861
 30
0.0
 40
3.0
  1
0.3
  0
TEXT
  5
827
  8
回07-寸法
  6
CONTINUOUS
 62
     5
 10
2823.743803547154
 20
-475.7381581686861
 30
0.0
 40
2.00001
  1
±0.05
  0
ENDBLK
  5
829
  8
回04-下接
  6
CONTINUOUS
 62
     7
  0
BLOCK
  8
回04-下接
  2
*X9595
 70
     1
 10
0.0
 20
0.0
 30
0.0
  3
*X9595
  1

  0
TEXT
  5
82C
  8
回07-寸法
  6
CONTINUOUS
 62
     5
 10
2835.427759313968
 20
-175.1256059962971
 30
0.0
 40
3.0
  1
2.1
  0
TEXT
  5
82D
  8
回07-寸法
  6
CONTINUOUS
 62
     5
 10
2839.927759313968
 20
-175.1256059962971
 30
0.0
 40
1.5
  1
±0.2
  0
ENDBLK
  5
82F
  8
回04-下接
  6
CONTINUOUS
 62
     7
  0
BLOCK
  8
回04-下接
  2
*X9696
 70
     1
 10
0.0
 20
0.0
 30
0.0
  3
*X9696
  1

  0
TEXT
  5
832
  8
回07-寸法
  6
CONTINUOUS
 62
     5
 10
2846.089379470848
 20
-475.7381581686861
 30
0.0
 40
3.0
  1
0.3
  0
TEXT
  5
833
  8
回07-寸法
  6
CONTINUOUS
 62
     5
 10
2851.189379470848
 20
-475.7381581686861
 30
0.0
 40
2.00001
  1
±0.05
  0
ENDBLK
  5
835
  8
回04-下接
  6
CONTINUOUS
 62
     7
  0
BLOCK
  8
回04-下接
  2
*X9797
 70
     1
 10
0.0
 20
0.0
 30
0.0
  3
*X9797
  1

  0
TEXT
  5
838
  8
回07-寸法
  6
CONTINUOUS
 62
     5
 10
2667.055209916589
 20
-484.4422272535288
 30
0.0
 40
3.0
  1
13.5
  0
TEXT
  5
839
  8
回07-寸法
  6
CONTINUOUS
 62
     5
 10
2673.655209916589
 20
-484.4422272535288
 30
0.0
 40
2.1
  1
±0.1
  0
ENDBLK
  5
83B
  8
回04-下接
  6
CONTINUOUS
 62
     7
  0
BLOCK
  8
回04-下接
  2
*X9898
 70
     1
 10
0.0
 20
0.0
 30
0.0
  3
*X9898
  1

  0
TEXT
  5
83E
  8
回07-寸法
  6
CONTINUOUS
 62
     5
 10
2640.055209916589
 20
-477.6780467237484
 30
0.0
 40
3.0
  1
17.5
  0
TEXT
  5
83F
  8
回07-寸法
  6
CONTINUOUS
 62
     5
 10
2646.655209916589
 20
-477.6780467237484
 30
0.0
 40
2.1
  1
±0.1
  0
ENDBLK
  5
841
  8
回04-下接
  6
CONTINUOUS
 62
     7
  0
BLOCK
  8
回04-下接
  2
*X9999
 70
     1
 10
0.0
 20
0.0
 30
0.0
  3
*X9999
  1

  0
TEXT
  5
844
  8
回07-寸法
  6
CONTINUOUS
 62
     5
 10
2723.198243840811
 20
-424.7064658054194
 30
0.0
 40
3.0
  1
100
 50
90.0
  0
TEXT
  5
845
  8
回07-寸法
  6
CONTINUOUS
 62
     5
 10
2723.198243840811
 20
-419.0064658054198
 30
0.0
 40
2.1
  1
±1
 50
90.0
  0
ENDBLK
  5
847
  8
回04-下接
  6
CONTINUOUS
 62
     7
  0
BLOCK
  8
回04-下接
  2
*X100100
 70
     1
 10
0.0
 20
0.0
 30
0.0
  3
*X100100
  1

  0
TEXT
  5
84A
  8
回07-寸法
  6
CONTINUOUS
 62
     5
 10
2585.342075394954
 20
-424.7064899908255
 30
0.0
 40
3.0
  1
100
 50
90.0
  0
TEXT
  5
84B
  8
回07-寸法
  6
CONTINUOUS
 62
     5
 10
2585.342075394954
 20
-419.0064899908255
 30
0.0
 40
2.1
  1
±1
 50
90.0
  0
ENDBLK
  5
84D
  8
回04-下接
  6
CONTINUOUS
 62
     7
  0
BLOCK
  8
回04-下接
  2
*X101101
 70
     1
 10
0.0
 20
0.0
 30
0.0
  3
*X101101
  1

  0
TEXT
  5
850
  8
回07-寸法
  6
CONTINUOUS
 62
     5
 10
2466.899417020455
 20
-285.5684977644882
 30
0.0
 40
3.0
  1
184.4
 50
90.0
  0
TEXT
  5
851
  8
回07-寸法
  6
CONTINUOUS
 62
     5
 10
2466.899417020455
 20
-276.2684977644881
 30
0.0
 40
2.1
  1
±0.3
 50
90.0
  0
ENDBLK
  5
853
  8
回04-下接
  6
CONTINUOUS
 62
     7
  0
BLOCK
  8
回04-下接
  2
*X102102
 70
     1
 10
0.0
 20
0.0
 30
0.0
  3
*X102102
  1

  0
TEXT
  5
856
  8
回07-寸法
  6
CONTINUOUS
 62
     5
 10
2645.034001467653
 20
-146.6300610386263
 30
0.0
 40
3.0
  1
277.92
  0
TEXT
  5
857
  8
回07-寸法
  6
CONTINUOUS
 62
     5
 10
2656.444832573235
 20
-146.6300610386263
 30
0.0
 40
2.1
  1
±0.3
  0
ENDBLK
  5
859
  8
回04-下接
  6
CONTINUOUS
 62
     7
  0
ENDSEC
  0
SECTION
  2
ENTITIES
  0
TEXT
  5
60
  8
回03-記事
  6
CONTINUOUS
 62
     5
 10
2686.702599638428
 20
-511.990173901903
 30
0.0
 40
3.839999999999999
  1
without affecting product specification.
  0
TEXT
  5
62
  8
回03-記事
  6
CONTINUOUS
 62
     5
 10
2686.702599638428
 20
-505.254409330543
 30
0.0
 40
3.839999999999999
  1
Edges and corners of ITO glass may be chamfered 
  0
TEXT
  5
63
  8
回03-記事
  6
CONTINUOUS
 62
     5
 10
2686.702599638428
 20
-498.5186447591831
 30
0.0
 40
3.839999999999999
  1
Unit: mm
  0
TEXT
  5
64
  8
回03-記事
  6
CONTINUOUS
 62
     5
 10
2686.702599638428
 20
-491.7828801878234
 30
0.0
 40
3.839999999999999
  1
EXCEPT WHERE INDICATED
  0
TEXT
  5
65
  8
回03-記事
  6
CONTINUOUS
 62
     5
 10
2686.702599638428
 20
-485.0471156164636
 30
0.0
 40
3.839999999999999
  1
TOLERANCE=±0.5mm
  0
TEXT
  5
66
  8
回03-記事
  6
CONTINUOUS
 62
     7
 10
2924.138758572949
 20
-470.6362296252049
 30
0.0
 40
5.341519282175998
  1
PROTECTION TAPE
  0
TEXT
  5
67
  8
回03-記事
  6
CONTINUOUS
 62
     7
 10
2915.798538021446
 20
-470.6644494308512
 30
0.0
 40
5.555180053463042
  1
6
  0
LINE
  5
68
  8
回03-記事
  6
CONTINUOUS
 62
     7
 10
2912.960366420795
 20
-472.2595001623176
 30
0.0
 11
2995.715111420711
 21
-472.2595001623176
 31
0.0
  0
TEXT
  5
69
  8
回03-記事
  6
CONTINUOUS
 62
     7
 10
2923.460694127331
 20
-461.6088485451868
 30
0.0
 40
5.555180053463042
  1
STIFFENER
  0
TEXT
  5
6A
  8
回03-記事
  6
CONTINUOUS
 62
     7
 10
2923.460694127331
 20
-452.3502151227472
 30
0.0
 40
5.555180053463042
  1
REINFORCEMENT FILM
  0
TEXT
  5
6B
  8
回03-記事
  6
CONTINUOUS
 62
     7
 10
2945.323197600295
 20
-414.9472940235067
 30
0.0
 40
5.555180053463042
  1
ITEM
  0
LINE
  5
6C
  8
回03-記事
  6
CONTINUOUS
 62
     7
 10
2995.715111420711
 20
-472.2595001623176
 30
0.0
 11
2995.715111420711
 21
-407.4490662052484
 31
0.0
  0
TEXT
  5
6D
  8
回03-記事
  6
CONTINUOUS
 62
     7
 10
2915.798538021446
 20
-442.888549163539
 30
0.0
 40
5.555180053463042
  1
3
  0
TEXT
  5
6E
  8
回03-記事
  6
CONTINUOUS
 62
     7
 10
2915.798538021446
 20
-452.1471825859747
 30
0.0
 40
5.555180053463042
  1
4
  0
TEXT
  5
6F
  8
回03-記事
  6
CONTINUOUS
 62
     7
 10
2915.798538021446
 20
-433.6299157410953
 30
0.0
 40
5.555180053463042
  1
2
  0
TEXT
  5
70
  8
回03-記事
  6
CONTINUOUS
 62
     7
 10
2915.798538021446
 20
-461.4058160084123
 30
0.0
 40
5.555180053463042
  1
5
  0
LINE
  5
71
  8
回03-記事
  6
CONTINUOUS
 62
     7
 10
2922.593611948785
 20
-407.4490662052484
 30
0.0
 11
2922.593611948785
 21
-472.2595001623176
 31
0.0
  0
LINE
  5
72
  8
回03-記事
  6
CONTINUOUS
 62
     7
 10
2912.960366420795
 20
-407.4490662052484
 30
0.0
 11
2912.960366420795
 21
-472.2595001623176
 31
0.0
  0
TEXT
  5
73
  8
回03-記事
  6
CONTINUOUS
 62
     7
 10
2915.798538021446
 20
-424.3712823186601
 30
0.0
 40
5.555180053463042
  1
1
  0
LINE
  5
74
  8
回03-記事
  6
CONTINUOUS
 62
     7
 10
2912.960366420795
 20
-463.0008667398787
 30
0.0
 11
2995.715111420711
 21
-463.0008667398787
 31
0.0
  0
LINE
  5
75
  8
回03-記事
  6
CONTINUOUS
 62
     7
 10
2912.960366420795
 20
-407.4490662052484
 30
0.0
 11
2995.715111420711
 21
-407.4490662052484
 31
0.0
  0
LINE
  5
76
  8
回03-記事
  6
CONTINUOUS
 62
     7
 10
2912.960366420795
 20
-425.9663330501232
 30
0.0
 11
2995.715111420711
 21
-425.9663330501293
 31
0.0
  0
LINE
  5
77
  8
回03-記事
  6
CONTINUOUS
 62
     7
 10
2912.960366420795
 20
-416.7076996276854
 30
0.0
 11
2995.715111420711
 21
-416.7076996276854
 31
0.0
  0
LINE
  5
78
  8
回03-記事
  6
CONTINUOUS
 62
     7
 10
2912.960366420795
 20
-453.7422333174389
 30
0.0
 11
2995.715111420711
 21
-453.7422333174389
 31
0.0
  0
LINE
  5
79
  8
回03-記事
  6
CONTINUOUS
 62
     7
 10
2912.960366420795
 20
-444.4835998950016
 30
0.0
 11
2995.715111420711
 21
-444.4835998950016
 31
0.0
  0
LINE
  5
7A
  8
回03-記事
  6
CONTINUOUS
 62
     7
 10
2912.960366420795
 20
-435.2249664725628
 30
0.0
 11
2995.715111420711
 21
-435.2249664725628
 31
0.0
  0
TEXT
  5
7B
  8
回03-記事
  6
CONTINUOUS
 62
     7
 10
2923.460694127331
 20
-424.490451057537
 30
0.0
 40
5.555180053463042
  1
ITO FILM
  0
TEXT
  5
7C
  8
回03-記事
  6
CONTINUOUS
 62
     7
 10
2923.460694127331
 20
-433.7490844799766
 30
0.0
 40
5.555180053463042
  1
ITO GLASS
  0
TEXT
  5
7D
  8
回03-記事
  6
CONTINUOUS
 62
     7
 10
2923.460694127331
 20
-443.0077179024182
 30
0.0
 40
5.555180053463042
  1
TAIL
  0
LINE
  5
7E
  8
回04-図面枠
  6
CONTINUOUS
 62
     7
 10
2981.946160205204
 20
-522.8627648839226
 30
0.0
 11
2981.946160205204
 21
-509.0027648839229
 31
0.0
  0
LINE
  5
81
  8
回04-図面枠
  6
CENTER2
 62
     7
 10
2989.177487664108
 20
-520.909926328211
 30
0.0
 11
2989.177487664108
 21
-511.2078421306632
 31
0.0
  0
LINE
  5
83
  8
回04-図面枠
  6
CONTINUOUS
 62
     7
 10
2995.783847169919
 20
-518.1072753038636
 30
0.0
 11
3002.950583110232
 21
-519.9315797508861
 31
0.0
  0
LINE
  5
84
  8
回04-図面枠
  6
CONTINUOUS
 62
     7
 10
2995.783847169919
 20
-514.0104931550113
 30
0.0
 11
3002.950583110232
 21
-512.1861887079879
 31
0.0
  0
LINE
  5
85
  8
回04-図面枠
  6
CONTINUOUS
 62
     7
 10
3002.950583110232
 20
-512.1861887079879
 30
0.0
 11
3002.950583110232
 21
-519.9315797508861
 31
0.0
  0
LINE
  5
86
  8
回04-図面枠
  6
CONTINUOUS
 62
     7
 10
2995.783847169919
 20
-514.0104931550113
 30
0.0
 11
2995.783847169919
 21
-518.1072753038636
 31
0.0
  0
LINE
  5
87
  8
回04-図面枠
  6
CENTER2
 62
     7
 10
2984.729807687399
 20
-516.0588842294371
 30
0.0
 11
3003.585758966038
 21
-516.0588842294371
 31
0.0
  0
CIRCLE
  5
88
  8
回04-図面枠
  6
CONTINUOUS
 62
     7
 10
2989.177487664108
 20
-516.0588842294371
 30
0.0
 40
2.048391074426259
  0
CIRCLE
  5
89
  8
回04-図面枠
  6
CONTINUOUS
 62
     7
 10
2989.177487664108
 20
-516.0588842294371
 30
0.0
 40
3.872695521448362
  0
TEXT
  5
8A
  8
回04-図面枠
 62
     7
 10
2927.386383138985
 20
-502.4091342824004
 30
0.0
 40
6.929999999999997
  1
Oct/12/2023
 72
     1
 11
2953.027383138985
 21
-502.4091342824004
 31
0.0
  0
TEXT
  5
8B
  8
回04-図面枠
  6
CONTINUOUS
 62
     7
 10
2946.029095064837
 20
-487.2470747173481
 30
0.0
 40
4.157999999999998
  1
DATE
  0
TEXT
  5
8C
  8
回04-図面枠
 62
     7
 10
2914.291013566793
 20
-519.3455018215741
 30
0.0
 40
6.929999999999997
  1
DMC Co., Ltd.
 72
     1
 11
2941.837763566793
 21
-519.3455018215741
 31
0.0
  0
TEXT
  5
8D
  8
回04-図面枠
 62
     7
 10
2820.317883138985
 20
-498.6190161613311
 30
0.0
 40
6.929999999999997
  1
MTR-G121WB100B
 72
     1
 11
2856.007383138985
 21
-498.6190161613311
 31
0.0
  0
TEXT
  5
8E
  8
回04-図面枠
 62
     7
 10
2842.909683138985
 20
-486.8998723376854
 30
0.0
 40
4.157999999999998
  1
PART　No.
 72
     1
 11
2856.007383138985
 21
-486.8998723376854
 31
0.0
  0
LINE
  5
8F
  8
回04-図面枠
 62
     7
 10
2815.120383138984
 20
-515.9327648839227
 30
0.0
 11
2896.894383138985
 21
-515.9327648839227
 31
0.0
  0
TEXT
  5
90
  8
回04-図面枠
 62
     7
 10
2828.762088138985
 20
-514.3388222902217
 30
0.0
 40
4.157999999999998
  1
Multi Touch Resistive
 72
     1
 11
2856.007383138985
 21
-514.3388222902217
 31
0.0
  0
TEXT
  5
91
  8
回04-図面枠
 62
     7
 10
2825.861883138985
 20
-521.2688222902214
 30
0.0
 40
4.157999999999998
  1
DIMENTIONAL　DRAWING
 72
     1
 11
2856.007383138985
 21
-521.2688222902214
 31
0.0
  0
LINE
  5
92
  8
回04-図面枠
 62
     7
 10
2901.052383138985
 20
-481.2827648839226
 30
0.0
 11
2901.052383138985
 21
-522.8627648839226
 31
0.0
  0
TEXT
  5
93
  8
回04-図面枠
 62
     7
 10
2849.354583138985
 20
-507.9721079941712
 30
0.0
 40
4.157999999999998
  1
TYPE
 72
     1
 11
2856.007383138985
 21
-507.9721079941712
 31
0.0
  0
LINE
  5
94
  8
回04-図面枠
 62
     7
 10
2810.962383138985
 20
-481.2827648839226
 30
0.0
 11
2810.962383138985
 21
-522.8627648839226
 31
0.0
  0
LINE
  5
95
  8
回04-図面枠
 62
     7
 10
2810.962383138985
 20
-502.0727648839223
 30
0.0
 11
2901.052383138985
 21
-502.0727648839223
 31
0.0
  0
LINE
  5
96
  8
回04-図面枠
 62
     7
 10
2810.962383138985
 20
-509.0027648839229
 30
0.0
 11
3005.002383138984
 21
-509.0027648839229
 31
0.0
  0
LINE
  5
97
  8
回04-図面枠
 62
     7
 10
2810.962383138985
 20
-481.2827648839226
 30
0.0
 11
3005.002383138984
 21
-481.2827648839226
 31
0.0
  0
LINE
  5
98
  8
回04-図面枠
 62
     7
 10
2810.962383138985
 20
-488.2127648839228
 30
0.0
 11
3005.002383138984
 21
-488.2127648839228
 31
0.0
  0
TEXT
  5
99
  8
回07-寸法
  6
CONTINUOUS
 62
     5
 10
2476.667870922435
 20
-421.1274021677533
 30
0.0
 40
4.0
  1
(Insulation area)
 50
90.0
  0
TEXT
  5
9D
  8
回07-寸法
  6
CONTINUOUS
 62
     5
 10
2793.935254263532
 20
-151.1402193068446
 30
0.0
 40
4.0
  1
(Insulation area)
  0
TEXT
  5
9E
  8
回07-寸法
  6
CONTINUOUS
 62
     5
 10
2470.657909685046
 20
-183.6132579069302
 30
0.0
 40
4.0
  1
(Insulation area)
 50
90.0
  0
TEXT
  5
9F
  8
回07-寸法
  6
CONTINUOUS
 62
     5
 10
2474.087552979372
 20
-151.1402193068446
 30
0.0
 40
4.0
  1
(Insulation area)
  0
TEXT
  5
A0
  8
回08-記事
  6
CONTINUOUS
 62
     7
 10
2680.867164096918
 20
-461.8027254168534
 30
0.0
 40
2.5
  1
(Conductor side near side)
  0
TEXT
  5
A4
  8
回08-記事
  6
CONTINUOUS
 62
     7
 10
2686.000908880774
 20
-457.5467209959867
 30
0.0
 40
2.5
  1
Tail-1
  0
TEXT
  5
A5
  8
回08-記事
  6
CONTINUOUS
 62
     7
 10
2597.007436666317
 20
-461.8027254168534
 30
0.0
 40
2.5
  1
(Conductor side far side)
  0
TEXT
  5
A6
  8
回08-記事
  6
CONTINUOUS
 62
     7
 10
2623.878812419186
 20
-457.5467209959867
 30
0.0
 40
2.5
  1
Tail-2
  0
POLYLINE
  5
A7
  8
回05-ﾃｰﾙ
  6
CONTINUOUS
 62
     8
 66
     1
 10
0.0
 20
0.0
 30
0.0
  0
VERTEX
  5
A87
  8
回05-ﾃｰﾙ
  6
CONTINUOUS
 62
     8
 10
2678.982709916589
 20
-470.5269658054191
 30
0.0
 42
0.4142135623730951
  0
VERTEX
  5
A89
  8
回05-ﾃｰﾙ
  6
CONTINUOUS
 62
     8
 10
2679.48270991659
 20
-470.0269658054191
 30
0.0
  0
VERTEX
  5
A8A
  8
回05-ﾃｰﾙ
  6
CONTINUOUS
 62
     8
 10
2679.48270991659
 20
-381.2519879726623
 30
0.0
  0
SEQEND
  5
A88
  8
回04-下接
  6
CONTINUOUS
 62
     7
  0
POLYLINE
  5
AB
  8
回05-ﾃｰﾙ
  6
CONTINUOUS
 62
     8
 66
     1
 10
0.0
 20
0.0
 30
0.0
 70
     1
  0
VERTEX
  5
A8B
  8
回05-ﾃｰﾙ
  6
CONTINUOUS
 62
     8
 10
2636.982709916589
 20
-470.0269658054188
 30
0.0
  0
VERTEX
  5
A8D
  8
回05-ﾃｰﾙ
  6
CONTINUOUS
 62
     8
 10
2636.982709916589
 20
-388.3217433863101
 30
0.0
 42
0.1989123673796994
  0
VERTEX
  5
A8E
  8
回05-ﾃｰﾙ
  6
CONTINUOUS
 62
     8
 10
2636.689816697776
 20
-387.6146366051234
 30
0.0
  0
VERTEX
  5
A8F
  8
回05-ﾃｰﾙ
  6
CONTINUOUS
 62
     8
 10
2623.526728450852
 20
-374.451548358199
 30
0.0
 42
-0.1989123673796993
  0
VERTEX
  5
A90
  8
回05-ﾃｰﾙ
  6
CONTINUOUS
 62
     8
 10
2623.233835232037
 20
-373.7444415770123
 30
0.0
  0
VERTEX
  5
A91
  8
回05-ﾃｰﾙ
  6
CONTINUOUS
 62
     8
 10
2623.233835232037
 20
-367.3810141762303
 30
0.0
  0
VERTEX
  5
A92
  8
回05-ﾃｰﾙ
  6
CONTINUOUS
 62
     8
 10
2658.233835232038
 20
-367.3810141762303
 30
0.0
  0
VERTEX
  5
A93
  8
回05-ﾃｰﾙ
  6
CONTINUOUS
 62
     8
 10
2658.233835232038
 20
-373.7444415770123
 30
0.0
 42
-0.1989123673796995
  0
VERTEX
  5
A94
  8
回05-ﾃｰﾙ
  6
CONTINUOUS
 62
     8
 10
2657.940942013223
 20
-374.451548358199
 30
0.0
  0
VERTEX
  5
A95
  8
回05-ﾃｰﾙ
  6
CONTINUOUS
 62
     8
 10
2654.775603135402
 20
-377.6168872360206
 30
0.0
 42
0.1989123673796993
  0
VERTEX
  5
A96
  8
回05-ﾃｰﾙ
  6
CONTINUOUS
 62
     8
 10
2654.482709916589
 20
-378.3239940172072
 30
0.0
  0
VERTEX
  5
A97
  8
回05-ﾃｰﾙ
  6
CONTINUOUS
 62
     8
 10
2654.482709916589
 20
-470.0269658054188
 30
0.0
 42
-0.4142135623730951
  0
VERTEX
  5
A98
  8
回05-ﾃｰﾙ
  6
CONTINUOUS
 62
     8
 10
2653.982709916589
 20
-470.5269658054188
 30
0.0
  0
VERTEX
  5
A99
  8
回05-ﾃｰﾙ
  6
CONTINUOUS
 62
     8
 10
2637.482709916589
 20
-470.5269658054188
 30
0.0
 42
-0.4142135623730951
  0
SEQEND
  5
A8C
  8
回04-下接
  6
CONTINUOUS
 62
     7
  0
POLYLINE
  5
AC
  8
回05-ﾃｰﾙ
  6
CONTINUOUS
 62
     8
 66
     1
 10
0.0
 20
0.0
 30
0.0
 70
     1
  0
VERTEX
  5
A9A
  8
回05-ﾃｰﾙ
  6
CONTINUOUS
 62
     8
 10
2659.233835232037
 20
-367.3810141762303
 30
0.0
  0
VERTEX
  5
A9C
  8
回05-ﾃｰﾙ
  6
CONTINUOUS
 62
     8
 10
2686.233835232037
 20
-367.3810141762303
 30
0.0
  0
SEQEND
  5
A9B
  8
回04-下接
  6
CONTINUOUS
 62
     7
  0
POLYLINE
  5
AD
  8
回03-下ER
  6
CONTINUOUS
 62
     7
 66
     1
 10
0.0
 20
0.0
 30
0.0
  0
VERTEX
  5
A9D
  8
回03-下ER
  6
CONTINUOUS
 62
     7
 10
2765.822917020436
 20
-194.1310141762305
 30
0.0
  0
VERTEX
  5
A9F
  8
回03-下ER
  6
CONTINUOUS
 62
     7
 10
2765.822917020436
 20
-357.8310141762305
 30
0.0
  0
SEQEND
  5
A9E
  8
回04-下接
  6
CONTINUOUS
 62
     7
  0
POLYLINE
  5
B1
  8
回03-下ER
  6
CONTINUOUS
 62
     7
 66
     1
 10
0.0
 20
0.0
 30
0.0
  0
VERTEX
  5
AA0
  8
回03-下ER
  6
CONTINUOUS
 62
     7
 10
2765.422917020436
 20
-357.8310141762305
 30
0.0
  0
VERTEX
  5
AA2
  8
回03-下ER
  6
CONTINUOUS
 62
     7
 10
2765.422917020436
 20
-194.1310141762304
 30
0.0
  0
SEQEND
  5
AA1
  8
回04-下接
  6
CONTINUOUS
 62
     7
  0
POLYLINE
  5
B2
  8
回03-下ER
  6
CONTINUOUS
 62
     7
 66
     1
 10
0.0
 20
0.0
 30
0.0
  0
VERTEX
  5
AA3
  8
回03-下ER
  6
CONTINUOUS
 62
     7
 10
2747.106917020437
 20
-194.1310141762305
 30
0.0
  0
VERTEX
  5
AA5
  8
回03-下ER
  6
CONTINUOUS
 62
     7
 10
2747.106917020437
 20
-357.8310141762305
 30
0.0
  0
SEQEND
  5
AA4
  8
回04-下接
  6
CONTINUOUS
 62
     7
  0
POLYLINE
  5
B3
  8
回03-下ER
  6
CONTINUOUS
 62
     7
 66
     1
 10
0.0
 20
0.0
 30
0.0
  0
VERTEX
  5
AA6
  8
回03-下ER
  6
CONTINUOUS
 62
     7
 10
2746.706917020437
 20
-357.8310141762305
 30
0.0
  0
VERTEX
  5
AA8
  8
回03-下ER
  6
CONTINUOUS
 62
     7
 10
2746.706917020437
 20
-194.1310141762304
 30
0.0
  0
SEQEND
  5
AA7
  8
回04-下接
  6
CONTINUOUS
 62
     7
  0
POLYLINE
  5
B4
  8
回03-下ER
  6
CONTINUOUS
 62
     7
 66
     1
 10
0.0
 20
0.0
 30
0.0
  0
VERTEX
  5
AA9
  8
回03-下ER
  6
CONTINUOUS
 62
     7
 10
2728.390917020437
 20
-194.1310141762305
 30
0.0
  0
VERTEX
  5
AAB
  8
回03-下ER
  6
CONTINUOUS
 62
     7
 10
2728.390917020437
 20
-357.8310141762305
 30
0.0
  0
SEQEND
  5
AAA
  8
回04-下接
  6
CONTINUOUS
 62
     7
  0
POLYLINE
  5
B5
  8
回03-下ER
  6
CONTINUOUS
 62
     7
 66
     1
 10
0.0
 20
0.0
 30
0.0
  0
VERTEX
  5
AAC
  8
回03-下ER
  6
CONTINUOUS
 62
     7
 10
2727.990917020437
 20
-357.8310141762305
 30
0.0
  0
VERTEX
  5
AAE
  8
回03-下ER
  6
CONTINUOUS
 62
     7
 10
2727.990917020437
 20
-194.1310141762304
 30
0.0
  0
SEQEND
  5
AAD
  8
回04-下接
  6
CONTINUOUS
 62
     7
  0
POLYLINE
  5
B6
  8
回03-下ER
  6
CONTINUOUS
 62
     7
 66
     1
 10
0.0
 20
0.0
 30
0.0
  0
VERTEX
  5
AAF
  8
回03-下ER
  6
CONTINUOUS
 62
     7
 10
2709.674917020438
 20
-194.1310141762305
 30
0.0
  0
VERTEX
  5
AB1
  8
回03-下ER
  6
CONTINUOUS
 62
     7
 10
2709.674917020438
 20
-357.8310141762305
 30
0.0
  0
SEQEND
  5
AB0
  8
回04-下接
  6
CONTINUOUS
 62
     7
  0
POLYLINE
  5
B7
  8
回03-下ER
  6
CONTINUOUS
 62
     7
 66
     1
 10
0.0
 20
0.0
 30
0.0
  0
VERTEX
  5
AB2
  8
回03-下ER
  6
CONTINUOUS
 62
     7
 10
2709.274917020438
 20
-357.8310141762305
 30
0.0
  0
VERTEX
  5
AB4
  8
回03-下ER
  6
CONTINUOUS
 62
     7
 10
2709.274917020438
 20
-194.1310141762304
 30
0.0
  0
SEQEND
  5
AB3
  8
回04-下接
  6
CONTINUOUS
 62
     7
  0
POLYLINE
  5
B8
  8
回03-下ER
  6
CONTINUOUS
 62
     7
 66
     1
 10
0.0
 20
0.0
 30
0.0
  0
VERTEX
  5
AB5
  8
回03-下ER
  6
CONTINUOUS
 62
     7
 10
2690.958917020438
 20
-194.1310141762305
 30
0.0
  0
VERTEX
  5
AB7
  8
回03-下ER
  6
CONTINUOUS
 62
     7
 10
2690.958917020438
 20
-357.8310141762305
 30
0.0
  0
SEQEND
  5
AB6
  8
回04-下接
  6
CONTINUOUS
 62
     7
  0
POLYLINE
  5
B9
  8
回03-下ER
  6
CONTINUOUS
 62
     7
 66
     1
 10
0.0
 20
0.0
 30
0.0
  0
VERTEX
  5
AB8
  8
回03-下ER
  6
CONTINUOUS
 62
     7
 10
2690.558917020439
 20
-357.8310141762305
 30
0.0
  0
VERTEX
  5
ABA
  8
回03-下ER
  6
CONTINUOUS
 62
     7
 10
2690.558917020439
 20
-194.1310141762304
 30
0.0
  0
SEQEND
  5
AB9
  8
回04-下接
  6
CONTINUOUS
 62
     7
  0
POLYLINE
  5
BA
  8
回03-下ER
  6
CONTINUOUS
 62
     7
 66
     1
 10
0.0
 20
0.0
 30
0.0
  0
VERTEX
  5
ABB
  8
回03-下ER
  6
CONTINUOUS
 62
     7
 10
2672.242917020439
 20
-194.1310141762305
 30
0.0
  0
VERTEX
  5
ABD
  8
回03-下ER
  6
CONTINUOUS
 62
     7
 10
2672.242917020439
 20
-357.8310141762305
 30
0.0
  0
SEQEND
  5
ABC
  8
回04-下接
  6
CONTINUOUS
 62
     7
  0
POLYLINE
  5
BB
  8
回03-下ER
  6
CONTINUOUS
 62
     7
 66
     1
 10
0.0
 20
0.0
 30
0.0
  0
VERTEX
  5
ABE
  8
回03-下ER
  6
CONTINUOUS
 62
     7
 10
2671.842917020439
 20
-357.8310141762305
 30
0.0
  0
VERTEX
  5
AC0
  8
回03-下ER
  6
CONTINUOUS
 62
     7
 10
2671.842917020439
 20
-194.1310141762304
 30
0.0
  0
SEQEND
  5
ABF
  8
回04-下接
  6
CONTINUOUS
 62
     7
  0
POLYLINE
  5
BC
  8
回03-下ER
  6
CONTINUOUS
 62
     7
 66
     1
 10
0.0
 20
0.0
 30
0.0
  0
VERTEX
  5
AC1
  8
回03-下ER
  6
CONTINUOUS
 62
     7
 10
2653.526917020439
 20
-194.1310141762305
 30
0.0
  0
VERTEX
  5
AC3
  8
回03-下ER
  6
CONTINUOUS
 62
     7
 10
2653.526917020439
 20
-357.8310141762305
 30
0.0
  0
SEQEND
  5
AC2
  8
回04-下接
  6
CONTINUOUS
 62
     7
  0
POLYLINE
  5
BD
  8
回03-下ER
  6
CONTINUOUS
 62
     7
 66
     1
 10
0.0
 20
0.0
 30
0.0
  0
VERTEX
  5
AC4
  8
回03-下ER
  6
CONTINUOUS
 62
     7
 10
2653.12691702044
 20
-357.8310141762305
 30
0.0
  0
VERTEX
  5
AC6
  8
回03-下ER
  6
CONTINUOUS
 62
     7
 10
2653.12691702044
 20
-194.1310141762304
 30
0.0
  0
SEQEND
  5
AC5
  8
回04-下接
  6
CONTINUOUS
 62
     7
  0
POLYLINE
  5
BE
  8
回03-下ER
  6
CONTINUOUS
 62
     7
 66
     1
 10
0.0
 20
0.0
 30
0.0
  0
VERTEX
  5
AC7
  8
回03-下ER
  6
CONTINUOUS
 62
     7
 10
2634.81091702044
 20
-194.1310141762305
 30
0.0
  0
VERTEX
  5
AC9
  8
回03-下ER
  6
CONTINUOUS
 62
     7
 10
2634.81091702044
 20
-357.8310141762305
 30
0.0
  0
SEQEND
  5
AC8
  8
回04-下接
  6
CONTINUOUS
 62
     7
  0
POLYLINE
  5
BF
  8
回03-下ER
  6
CONTINUOUS
 62
     7
 66
     1
 10
0.0
 20
0.0
 30
0.0
  0
VERTEX
  5
ACA
  8
回03-下ER
  6
CONTINUOUS
 62
     7
 10
2634.41091702044
 20
-357.8310141762305
 30
0.0
  0
VERTEX
  5
ACC
  8
回03-下ER
  6
CONTINUOUS
 62
     7
 10
2634.41091702044
 20
-194.1310141762304
 30
0.0
  0
SEQEND
  5
ACB
  8
回04-下接
  6
CONTINUOUS
 62
     7
  0
POLYLINE
  5
C0
  8
回03-下ER
  6
CONTINUOUS
 62
     7
 66
     1
 10
0.0
 20
0.0
 30
0.0
  0
VERTEX
  5
ACD
  8
回03-下ER
  6
CONTINUOUS
 62
     7
 10
2616.09491702044
 20
-194.1310141762305
 30
0.0
  0
VERTEX
  5
ACF
  8
回03-下ER
  6
CONTINUOUS
 62
     7
 10
2616.09491702044
 20
-357.8310141762305
 30
0.0
  0
SEQEND
  5
ACE
  8
回04-下接
  6
CONTINUOUS
 62
     7
  0
POLYLINE
  5
C1
  8
回03-下ER
  6
CONTINUOUS
 62
     7
 66
     1
 10
0.0
 20
0.0
 30
0.0
  0
VERTEX
  5
AD0
  8
回03-下ER
  6
CONTINUOUS
 62
     7
 10
2615.694917020441
 20
-357.8310141762305
 30
0.0
  0
VERTEX
  5
AD2
  8
回03-下ER
  6
CONTINUOUS
 62
     7
 10
2615.694917020441
 20
-194.1310141762304
 30
0.0
  0
SEQEND
  5
AD1
  8
回04-下接
  6
CONTINUOUS
 62
     7
  0
POLYLINE
  5
C2
  8
回03-下ER
  6
CONTINUOUS
 62
     7
 66
     1
 10
0.0
 20
0.0
 30
0.0
  0
VERTEX
  5
AD3
  8
回03-下ER
  6
CONTINUOUS
 62
     7
 10
2597.378917020441
 20
-194.1310141762305
 30
0.0
  0
VERTEX
  5
AD5
  8
回03-下ER
  6
CONTINUOUS
 62
     7
 10
2597.378917020441
 20
-357.8310141762305
 30
0.0
  0
SEQEND
  5
AD4
  8
回04-下接
  6
CONTINUOUS
 62
     7
  0
POLYLINE
  5
C3
  8
回03-下ER
  6
CONTINUOUS
 62
     7
 66
     1
 10
0.0
 20
0.0
 30
0.0
  0
VERTEX
  5
AD6
  8
回03-下ER
  6
CONTINUOUS
 62
     7
 10
2596.978917020442
 20
-357.8310141762305
 30
0.0
  0
VERTEX
  5
AD8
  8
回03-下ER
  6
CONTINUOUS
 62
     7
 10
2596.978917020442
 20
-194.1310141762304
 30
0.0
  0
SEQEND
  5
AD7
  8
回04-下接
  6
CONTINUOUS
 62
     7
  0
POLYLINE
  5
C4
  8
回03-下ER
  6
CONTINUOUS
 62
     7
 66
     1
 10
0.0
 20
0.0
 30
0.0
  0
VERTEX
  5
AD9
  8
回03-下ER
  6
CONTINUOUS
 62
     7
 10
2578.662917020441
 20
-194.1310141762305
 30
0.0
  0
VERTEX
  5
ADB
  8
回03-下ER
  6
CONTINUOUS
 62
     7
 10
2578.662917020441
 20
-357.8310141762305
 30
0.0
  0
SEQEND
  5
ADA
  8
回04-下接
  6
CONTINUOUS
 62
     7
  0
POLYLINE
  5
C5
  8
回03-下ER
  6
CONTINUOUS
 62
     7
 66
     1
 10
0.0
 20
0.0
 30
0.0
  0
VERTEX
  5
ADC
  8
回03-下ER
  6
CONTINUOUS
 62
     7
 10
2578.262917020442
 20
-357.8310141762305
 30
0.0
  0
VERTEX
  5
ADE
  8
回03-下ER
  6
CONTINUOUS
 62
     7
 10
2578.262917020442
 20
-194.1310141762304
 30
0.0
  0
SEQEND
  5
ADD
  8
回04-下接
  6
CONTINUOUS
 62
     7
  0
POLYLINE
  5
C6
  8
回03-下ER
  6
CONTINUOUS
 62
     7
 66
     1
 10
0.0
 20
0.0
 30
0.0
  0
VERTEX
  5
ADF
  8
回03-下ER
  6
CONTINUOUS
 62
     7
 10
2559.946917020442
 20
-194.1310141762305
 30
0.0
  0
VERTEX
  5
AE1
  8
回03-下ER
  6
CONTINUOUS
 62
     7
 10
2559.946917020442
 20
-357.8310141762305
 30
0.0
  0
SEQEND
  5
AE0
  8
回04-下接
  6
CONTINUOUS
 62
     7
  0
POLYLINE
  5
C7
  8
回03-下ER
  6
CONTINUOUS
 62
     7
 66
     1
 10
0.0
 20
0.0
 30
0.0
  0
VERTEX
  5
AE2
  8
回03-下ER
  6
CONTINUOUS
 62
     7
 10
2559.546917020444
 20
-357.8310141762305
 30
0.0
  0
VERTEX
  5
AE4
  8
回03-下ER
  6
CONTINUOUS
 62
     7
 10
2559.546917020444
 20
-194.1310141762304
 30
0.0
  0
SEQEND
  5
AE3
  8
回04-下接
  6
CONTINUOUS
 62
     7
  0
POLYLINE
  5
C8
  8
回03-下ER
  6
CONTINUOUS
 62
     7
 66
     1
 10
0.0
 20
0.0
 30
0.0
  0
VERTEX
  5
AE5
  8
回03-下ER
  6
CONTINUOUS
 62
     7
 10
2541.230917020443
 20
-194.1310141762305
 30
0.0
  0
VERTEX
  5
AE7
  8
回03-下ER
  6
CONTINUOUS
 62
     7
 10
2541.230917020443
 20
-357.8310141762305
 30
0.0
  0
SEQEND
  5
AE6
  8
回04-下接
  6
CONTINUOUS
 62
     7
  0
POLYLINE
  5
C9
  8
回03-下ER
  6
CONTINUOUS
 62
     7
 66
     1
 10
0.0
 20
0.0
 30
0.0
  0
VERTEX
  5
AE8
  8
回03-下ER
  6
CONTINUOUS
 62
     7
 10
2540.830917020442
 20
-357.8310141762305
 30
0.0
  0
VERTEX
  5
AEA
  8
回03-下ER
  6
CONTINUOUS
 62
     7
 10
2540.830917020442
 20
-194.1310141762304
 30
0.0
  0
SEQEND
  5
AE9
  8
回04-下接
  6
CONTINUOUS
 62
     7
  0
TEXT
  5
CA
  8
回08-記事
  6
CONTINUOUS
 62
     7
 10
2925.257888937425
 20
-177.3424471621299
 30
0.0
 40
3.5
  1
PIN ASSIGNMENT
  0
TEXT
  5
CB
  8
回08-記事
  6
CONTINUOUS
 62
     7
 10
2919.407270676064
 20
-186.2792548047564
 30
0.0
 40
3.5
  1
Tail-1
  0
TEXT
  5
CC
  8
回08-記事
  6
CONTINUOUS
 62
     7
 10
2949.930348321839
 20
-186.2792548047564
 30
0.0
 40
3.5
  1
Tail-2
  0
TEXT
  5
CD
  8
回08-記事
  6
CONTINUOUS
 62
     7
 10
2961.821776514405
 20
-352.4293911018627
 30
0.0
 40
3.0
  1
NC
  0
TEXT
  5
CE
  8
回08-記事
  6
CONTINUOUS
 62
     7
 10
2961.821776514405
 20
-221.7925911018626
 30
0.0
 40
3.0
  1
NC
  0
TEXT
  5
CF
  8
回08-記事
  6
CONTINUOUS
 62
     7
 10
2961.821776514405
 20
-231.4693911018627
 30
0.0
 40
3.0
  1
NC
  0
TEXT
  5
D0
  8
回08-記事
  6
CONTINUOUS
 62
     7
 10
2961.821776514405
 20
-270.1765911018626
 30
0.0
 40
3.0
  1
NC
  0
TEXT
  5
D1
  8
回08-記事
  6
CONTINUOUS
 62
     7
 10
2931.348546204171
 20
-270.1765911018626
 30
0.0
 40
3.0
  1
NC
  0
TEXT
  5
D2
  8
回08-記事
  6
CONTINUOUS
 62
     7
 10
2931.348546204171
 20
-265.3381911018627
 30
0.0
 40
3.0
  1
NC
  0
TEXT
  5
D3
  8
回08-記事
  6
CONTINUOUS
 62
     7
 10
2931.348546204171
 20
-260.4997911018626
 30
0.0
 40
3.0
  1
NC
  0
TEXT
  5
D4
  8
回08-記事
  6
CONTINUOUS
 62
     7
 10
2931.348546204171
 20
-255.6613911018626
 30
0.0
 40
3.0
  1
NC
  0
TEXT
  5
D5
  8
回08-記事
  6
CONTINUOUS
 62
     7
 10
2931.348546204171
 20
-245.9845911018627
 30
0.0
 40
3.0
  1
NC
  0
TEXT
  5
D6
  8
回08-記事
  6
CONTINUOUS
 62
     7
 10
2931.348546204171
 20
-241.1461911018625
 30
0.0
 40
3.0
  1
NC
  0
TEXT
  5
D7
  8
回08-記事
  6
CONTINUOUS
 62
     7
 10
2931.348546204171
 20
-236.3077911018625
 30
0.0
 40
3.0
  1
NC
  0
TEXT
  5
D8
  8
回08-記事
  6
CONTINUOUS
 62
     7
 10
2931.348546204171
 20
-231.4693911018627
 30
0.0
 40
3.0
  1
NC
  0
TEXT
  5
D9
  8
回08-記事
  6
CONTINUOUS
 62
     7
 10
2961.821776514405
 20
-192.7621911018626
 30
0.0
 40
3.0
  1
U9
  0
TEXT
  5
DA
  8
回08-記事
  6
CONTINUOUS
 62
     7
 10
2962.106829751448
 20
-347.5909911018626
 30
0.0
 40
3.0
  1
U8
  0
LINE
  5
DB
  8
回08-記事
  6
CONTINUOUS
 62
     7
 10
2950.247024588681
 20
-351.1235063059867
 30
0.0
 11
2960.754749022218
 21
-351.1235063059867
 31
0.0
  0
LINE
  5
DC
  8
回08-記事
  6
CONTINUOUS
 62
     7
 10
2950.247024588681
 20
-346.2851063059867
 30
0.0
 11
2960.754749022218
 21
-346.2851063059867
 31
0.0
  0
TEXT
  5
DD
  8
回08-記事
  6
CONTINUOUS
 62
     7
 10
2944.968580019996
 20
-352.4293911018625
 30
0.0
 40
3.0
  1
60
  0
TEXT
  5
DE
  8
回08-記事
  6
CONTINUOUS
 62
     7
 10
2944.968580019996
 20
-347.5909911018626
 30
0.0
 40
3.0
  1
59
  0
TEXT
  5
DF
  8
回08-記事
  6
CONTINUOUS
 62
     7
 10
2961.821776514405
 20
-323.3989911018626
 30
0.0
 40
3.0
  1
U3
  0
TEXT
  5
E0
  8
回08-記事
  6
CONTINUOUS
 62
     7
 10
2962.106829751448
 20
-342.7525911018627
 30
0.0
 40
3.0
  1
U7
  0
TEXT
  5
E1
  8
回08-記事
  6
CONTINUOUS
 62
     7
 10
2962.106829751448
 20
-337.9141911018626
 30
0.0
 40
3.0
  1
U6
  0
TEXT
  5
E2
  8
回08-記事
  6
CONTINUOUS
 62
     7
 10
2962.106829751448
 20
-333.0757911018626
 30
0.0
 40
3.0
  1
U5
  0
TEXT
  5
E3
  8
回08-記事
  6
CONTINUOUS
 62
     7
 10
2962.106829751448
 20
-328.2373911018626
 30
0.0
 40
3.0
  1
U4
  0
LINE
  5
E4
  8
回08-記事
  6
CONTINUOUS
 62
     7
 10
2950.247024588681
 20
-341.4467063059868
 30
0.0
 11
2960.754749022218
 21
-341.4467063059868
 31
0.0
  0
LINE
  5
E5
  8
回08-記事
  6
CONTINUOUS
 62
     7
 10
2950.247024588681
 20
-336.6083063059869
 30
0.0
 11
2960.754749022218
 21
-336.6083063059869
 31
0.0
  0
LINE
  5
E6
  8
回08-記事
  6
CONTINUOUS
 62
     7
 10
2950.247024588681
 20
-331.7699063059868
 30
0.0
 11
2960.754749022218
 21
-331.7699063059868
 31
0.0
  0
LINE
  5
E7
  8
回08-記事
  6
CONTINUOUS
 62
     7
 10
2950.247024588681
 20
-326.9315063059868
 30
0.0
 11
2960.754749022218
 21
-326.9315063059868
 31
0.0
  0
LINE
  5
E8
  8
回08-記事
  6
CONTINUOUS
 62
     7
 10
2950.247024588681
 20
-322.0931063059867
 30
0.0
 11
2960.754749022218
 21
-322.0931063059867
 31
0.0
  0
LINE
  5
E9
  8
回08-記事
  6
CONTINUOUS
 62
     7
 10
2950.247024588681
 20
-317.2547063059866
 30
0.0
 11
2960.754749022218
 21
-317.2547063059866
 31
0.0
  0
TEXT
  5
EA
  8
回08-記事
  6
CONTINUOUS
 62
     7
 10
2944.968580019996
 20
-342.7525911018627
 30
0.0
 40
3.0
  1
58
  0
TEXT
  5
EB
  8
回08-記事
  6
CONTINUOUS
 62
     7
 10
2944.968580019996
 20
-337.9141911018626
 30
0.0
 40
3.0
  1
57
  0
TEXT
  5
EC
  8
回08-記事
  6
CONTINUOUS
 62
     7
 10
2944.968580019996
 20
-333.0757911018626
 30
0.0
 40
3.0
  1
56
  0
TEXT
  5
ED
  8
回08-記事
  6
CONTINUOUS
 62
     7
 10
2944.968580019996
 20
-328.2373911018626
 30
0.0
 40
3.0
  1
55
  0
TEXT
  5
EE
  8
回08-記事
  6
CONTINUOUS
 62
     7
 10
2944.968580019996
 20
-323.3989911018626
 30
0.0
 40
3.0
  1
54
  0
TEXT
  5
EF
  8
回08-記事
  6
CONTINUOUS
 62
     7
 10
2944.968580019996
 20
-318.5605911018627
 30
0.0
 40
3.0
  1
53
  0
TEXT
  5
F0
  8
回08-記事
  6
CONTINUOUS
 62
     7
 10
2962.106829751448
 20
-318.5605911018627
 30
0.0
 40
3.0
  1
U2
  0
TEXT
  5
F1
  8
回08-記事
  6
CONTINUOUS
 62
     7
 10
2962.106829751448
 20
-308.8837911018627
 30
0.0
 40
3.0
  1
SDL
  0
TEXT
  5
F2
  8
回08-記事
  6
CONTINUOUS
 62
     7
 10
2961.821776514405
 20
-202.4389911018626
 30
0.0
 40
3.0
  1
U11
  0
TEXT
  5
F3
  8
回08-記事
  6
CONTINUOUS
 62
     7
 10
2962.106829751448
 20
-313.7221911018626
 30
0.0
 40
3.0
  1
U1
  0
LINE
  5
F4
  8
回08-記事
  6
CONTINUOUS
 62
     7
 10
2950.247024588681
 20
-312.4163063059867
 30
0.0
 11
2960.754749022218
 21
-312.4163063059867
 31
0.0
  0
LINE
  5
F5
  8
回08-記事
  6
CONTINUOUS
 62
     7
 10
2950.247024588681
 20
-307.5779063059868
 30
0.0
 11
2960.754749022218
 21
-307.5779063059868
 31
0.0
  0
TEXT
  5
F6
  8
回08-記事
  6
CONTINUOUS
 62
     7
 10
2944.968580019996
 20
-313.7221911018626
 30
0.0
 40
3.0
  1
52
  0
TEXT
  5
F7
  8
回08-記事
  6
CONTINUOUS
 62
     7
 10
2944.968580019996
 20
-308.8837911018627
 30
0.0
 40
3.0
  1
51
  0
TEXT
  5
F8
  8
回08-記事
  6
CONTINUOUS
 62
     7
 10
2961.821776514405
 20
-250.8229911018625
 30
0.0
 40
3.0
  1
D11
  0
TEXT
  5
F9
  8
回08-記事
  6
CONTINUOUS
 62
     7
 10
2961.821776514405
 20
-197.6005911018626
 30
0.0
 40
3.0
  1
U10
  0
TEXT
  5
FA
  8
回08-記事
  6
CONTINUOUS
 62
     7
 10
2961.821776514405
 20
-284.6917911018626
 30
0.0
 40
3.0
  1
D5
  0
TEXT
  5
FB
  8
回08-記事
  6
CONTINUOUS
 62
     7
 10
2961.821776514405
 20
-279.8533911018626
 30
0.0
 40
3.0
  1
D6
  0
TEXT
  5
FC
  8
回08-記事
  6
CONTINUOUS
 62
     7
 10
2961.821776514405
 20
-275.0149911018626
 30
0.0
 40
3.0
  1
D7
  0
TEXT
  5
FD
  8
回08-記事
  6
CONTINUOUS
 62
     7
 10
2961.821776514405
 20
-241.1461911018625
 30
0.0
 40
3.0
  1
D13
  0
TEXT
  5
FE
  8
回08-記事
  6
CONTINUOUS
 62
     7
 10
2961.821776514405
 20
-236.3077911018626
 30
0.0
 40
3.0
  1
D14
  0
TEXT
  5
FF
  8
回08-記事
  6
CONTINUOUS
 62
     7
 10
2961.821776514405
 20
-226.6309911018626
 30
0.0
 40
3.0
  1
SUR
  0
TEXT
  5
100
  8
回08-記事
  6
CONTINUOUS
 62
     7
 10
2961.821776514405
 20
-216.9541911018626
 30
0.0
 40
3.0
  1
U14
  0
TEXT
  5
101
  8
回08-記事
  6
CONTINUOUS
 62
     7
 10
2961.821776514405
 20
-212.1157911018626
 30
0.0
 40
3.0
  1
U13
  0
TEXT
  5
102
  8
回08-記事
  6
CONTINUOUS
 62
     7
 10
2961.821776514405
 20
-207.2773911018626
 30
0.0
 40
3.0
  1
U12
  0
LINE
  5
103
  8
回08-記事
  6
CONTINUOUS
 62
     7
 10
2950.247024588681
 20
-191.4563063059866
 30
0.0
 11
2960.754749022218
 21
-191.4563063059866
 31
0.0
  0
TEXT
  5
104
  8
回08-記事
  6
CONTINUOUS
 62
     7
 10
2945.202923503252
 20
-192.7621911018626
 30
0.0
 40
3.0
  1
27
  0
LINE
  5
105
  8
回08-記事
  6
CONTINUOUS
 62
     7
 10
2950.247024588681
 20
-196.2947063059865
 30
0.0
 11
2960.754749022218
 21
-196.2947063059865
 31
0.0
  0
TEXT
  5
106
  8
回08-記事
  6
CONTINUOUS
 62
     7
 10
2945.202923503252
 20
-197.6005911018626
 30
0.0
 40
3.0
  1
28
  0
LINE
  5
107
  8
回08-記事
  6
CONTINUOUS
 62
     7
 10
2950.247024588681
 20
-201.1331063059867
 30
0.0
 11
2960.754749022218
 21
-201.1331063059867
 31
0.0
  0
TEXT
  5
108
  8
回08-記事
  6
CONTINUOUS
 62
     7
 10
2945.202923503252
 20
-202.4389911018626
 30
0.0
 40
3.0
  1
29
  0
LINE
  5
109
  8
回08-記事
  6
CONTINUOUS
 62
     7
 10
2950.247024588681
 20
-205.9715063059866
 30
0.0
 11
2960.754749022218
 21
-205.9715063059866
 31
0.0
  0
TEXT
  5
10A
  8
回08-記事
  6
CONTINUOUS
 62
     7
 10
2945.205998564305
 20
-207.2773911018626
 30
0.0
 40
3.0
  1
30
  0
LINE
  5
10B
  8
回08-記事
  6
CONTINUOUS
 62
     7
 10
2950.247024588681
 20
-210.8099063059866
 30
0.0
 11
2960.754749022218
 21
-210.8099063059866
 31
0.0
  0
TEXT
  5
10C
  8
回08-記事
  6
CONTINUOUS
 62
     7
 10
2945.205998564305
 20
-212.1157911018626
 30
0.0
 40
3.0
  1
31
  0
LINE
  5
10D
  8
回08-記事
  6
CONTINUOUS
 62
     7
 10
2950.247024588681
 20
-215.6483063059866
 30
0.0
 11
2960.754749022218
 21
-215.6483063059866
 31
0.0
  0
TEXT
  5
10E
  8
回08-記事
  6
CONTINUOUS
 62
     7
 10
2945.205998564305
 20
-216.9541911018626
 30
0.0
 40
3.0
  1
32
  0
LINE
  5
10F
  8
回08-記事
  6
CONTINUOUS
 62
     7
 10
2950.247024588681
 20
-220.4867063059867
 30
0.0
 11
2960.754749022218
 21
-220.4867063059867
 31
0.0
  0
TEXT
  5
110
  8
回08-記事
  6
CONTINUOUS
 62
     7
 10
2945.226868824027
 20
-221.7925911018626
 30
0.0
 40
3.0
  1
33
  0
LINE
  5
111
  8
回08-記事
  6
CONTINUOUS
 62
     7
 10
2950.247024588681
 20
-225.3251063059867
 30
0.0
 11
2960.754749022218
 21
-225.3251063059867
 31
0.0
  0
TEXT
  5
112
  8
回08-記事
  6
CONTINUOUS
 62
     7
 10
2945.226868824027
 20
-226.6309911018626
 30
0.0
 40
3.0
  1
34
  0
TEXT
  5
113
  8
回08-記事
  6
CONTINUOUS
 62
     7
 10
2962.106829751448
 20
-304.0453911018627
 30
0.0
 40
3.0
  1
D1
  0
TEXT
  5
114
  8
回08-記事
  6
CONTINUOUS
 62
     7
 10
2962.106829751448
 20
-299.2069911018625
 30
0.0
 40
3.0
  1
D2
  0
TEXT
  5
115
  8
回08-記事
  6
CONTINUOUS
 62
     7
 10
2962.106829751448
 20
-294.3685911018627
 30
0.0
 40
3.0
  1
D3
  0
TEXT
  5
116
  8
回08-記事
  6
CONTINUOUS
 62
     7
 10
2962.106829751448
 20
-289.5301911018627
 30
0.0
 40
3.0
  1
D4
  0
TEXT
  5
117
  8
回08-記事
  6
CONTINUOUS
 62
     7
 10
2961.821776514405
 20
-265.3381911018626
 30
0.0
 40
3.0
  1
D8
  0
TEXT
  5
118
  8
回08-記事
  6
CONTINUOUS
 62
     7
 10
2961.821776514405
 20
-260.4997911018626
 30
0.0
 40
3.0
  1
D9
  0
TEXT
  5
119
  8
回08-記事
  6
CONTINUOUS
 62
     7
 10
2961.821776514405
 20
-255.6613911018625
 30
0.0
 40
3.0
  1
D10
  0
TEXT
  5
11A
  8
回08-記事
  6
CONTINUOUS
 62
     7
 10
2961.821776514405
 20
-245.9845911018626
 30
0.0
 40
3.0
  1
D12
  0
LINE
  5
11B
  8
回08-記事
  6
CONTINUOUS
 62
     7
 10
2950.247024588681
 20
-302.7395063059866
 30
0.0
 11
2960.754749022218
 21
-302.7395063059866
 31
0.0
  0
LINE
  5
11C
  8
回08-記事
  6
CONTINUOUS
 62
     7
 10
2950.247024588681
 20
-297.9011063059867
 30
0.0
 11
2960.754749022218
 21
-297.9011063059867
 31
0.0
  0
LINE
  5
11D
  8
回08-記事
  6
CONTINUOUS
 62
     7
 10
2950.247024588681
 20
-293.0627063059867
 30
0.0
 11
2960.754749022218
 21
-293.0627063059867
 31
0.0
  0
LINE
  5
11E
  8
回08-記事
  6
CONTINUOUS
 62
     7
 10
2950.247024588681
 20
-288.2243063059867
 30
0.0
 11
2960.754749022218
 21
-288.2243063059867
 31
0.0
  0
LINE
  5
11F
  8
回08-記事
  6
CONTINUOUS
 62
     7
 10
2950.247024588681
 20
-283.3859063059867
 30
0.0
 11
2960.754749022218
 21
-283.3859063059867
 31
0.0
  0
LINE
  5
120
  8
回08-記事
  6
CONTINUOUS
 62
     7
 10
2950.247024588681
 20
-278.5475063059867
 30
0.0
 11
2960.754749022218
 21
-278.5475063059867
 31
0.0
  0
LINE
  5
121
  8
回08-記事
  6
CONTINUOUS
 62
     7
 10
2950.247024588681
 20
-273.7091063059867
 30
0.0
 11
2960.754749022218
 21
-273.7091063059867
 31
0.0
  0
LINE
  5
122
  8
回08-記事
  6
CONTINUOUS
 62
     7
 10
2950.247024588681
 20
-268.8707063059867
 30
0.0
 11
2960.754749022218
 21
-268.8707063059867
 31
0.0
  0
LINE
  5
123
  8
回08-記事
  6
CONTINUOUS
 62
     7
 10
2950.247024588681
 20
-264.0323063059867
 30
0.0
 11
2960.754749022218
 21
-264.0323063059867
 31
0.0
  0
LINE
  5
124
  8
回08-記事
  6
CONTINUOUS
 62
     7
 10
2950.247024588681
 20
-259.1939063059867
 30
0.0
 11
2960.754749022218
 21
-259.1939063059867
 31
0.0
  0
LINE
  5
125
  8
回08-記事
  6
CONTINUOUS
 62
     7
 10
2950.247024588681
 20
-254.3555063059867
 30
0.0
 11
2960.754749022218
 21
-254.3555063059867
 31
0.0
  0
LINE
  5
126
  8
回08-記事
  6
CONTINUOUS
 62
     7
 10
2950.247024588681
 20
-249.5171063059867
 30
0.0
 11
2960.754749022218
 21
-249.5171063059867
 31
0.0
  0
LINE
  5
127
  8
回08-記事
  6
CONTINUOUS
 62
     7
 10
2950.247024588681
 20
-244.6787063059868
 30
0.0
 11
2960.754749022218
 21
-244.6787063059868
 31
0.0
  0
LINE
  5
128
  8
回08-記事
  6
CONTINUOUS
 62
     7
 10
2950.247024588681
 20
-239.8403063059866
 30
0.0
 11
2960.754749022218
 21
-239.8403063059866
 31
0.0
  0
LINE
  5
129
  8
回08-記事
  6
CONTINUOUS
 62
     7
 10
2950.247024588681
 20
-235.0019063059866
 30
0.0
 11
2960.754749022218
 21
-235.0019063059866
 31
0.0
  0
LINE
  5
12A
  8
回08-記事
  6
CONTINUOUS
 62
     7
 10
2950.247024588681
 20
-230.1635063059868
 30
0.0
 11
2960.754749022218
 21
-230.1635063059868
 31
0.0
  0
TEXT
  5
12B
  8
回08-記事
  6
CONTINUOUS
 62
     7
 10
2944.968580019996
 20
-304.0453911018627
 30
0.0
 40
3.0
  1
50
  0
TEXT
  5
12C
  8
回08-記事
  6
CONTINUOUS
 62
     7
 10
2944.716736746653
 20
-299.2069911018625
 30
0.0
 40
3.0
  1
49
  0
TEXT
  5
12D
  8
回08-記事
  6
CONTINUOUS
 62
     7
 10
2944.745727915032
 20
-294.3685911018627
 30
0.0
 40
3.0
  1
48
  0
TEXT
  5
12E
  8
回08-記事
  6
CONTINUOUS
 62
     7
 10
2944.714142494114
 20
-289.5301911018627
 30
0.0
 40
3.0
  1
47
  0
TEXT
  5
12F
  8
回08-記事
  6
CONTINUOUS
 62
     7
 10
2944.714142494114
 20
-284.6917911018626
 30
0.0
 40
3.0
  1
46
  0
TEXT
  5
130
  8
回08-記事
  6
CONTINUOUS
 62
     7
 10
2944.687148530335
 20
-279.8533911018626
 30
0.0
 40
3.0
  1
45
  0
TEXT
  5
131
  8
回08-記事
  6
CONTINUOUS
 62
     7
 10
2944.687148530335
 20
-275.0149911018626
 30
0.0
 40
3.0
  1
44
  0
TEXT
  5
132
  8
回08-記事
  6
CONTINUOUS
 62
     7
 10
2944.679386907162
 20
-270.1765911018625
 30
0.0
 40
3.0
  1
43
  0
TEXT
  5
133
  8
回08-記事
  6
CONTINUOUS
 62
     7
 10
2944.679386907162
 20
-265.3381911018626
 30
0.0
 40
3.0
  1
42
  0
TEXT
  5
134
  8
回08-記事
  6
CONTINUOUS
 62
     7
 10
2944.793899344862
 20
-260.4997911018626
 30
0.0
 40
3.0
  1
41
  0
TEXT
  5
135
  8
回08-記事
  6
CONTINUOUS
 62
     7
 10
2944.793899344862
 20
-255.6613911018625
 30
0.0
 40
3.0
  1
40
  0
TEXT
  5
136
  8
回08-記事
  6
CONTINUOUS
 62
     7
 10
2945.079314676505
 20
-250.8229911018625
 30
0.0
 40
3.0
  1
39
  0
TEXT
  5
137
  8
回08-記事
  6
CONTINUOUS
 62
     7
 10
2945.079314676505
 20
-245.9845911018626
 30
0.0
 40
3.0
  1
38
  0
TEXT
  5
138
  8
回08-記事
  6
CONTINUOUS
 62
     7
 10
2945.079135033764
 20
-241.1461911018625
 30
0.0
 40
3.0
  1
37
  0
TEXT
  5
139
  8
回08-記事
  6
CONTINUOUS
 62
     7
 10
2945.079135033764
 20
-236.3077911018626
 30
0.0
 40
3.0
  1
36
  0
TEXT
  5
13A
  8
回08-記事
  6
CONTINUOUS
 62
     7
 10
2945.226868824027
 20
-231.4693911018626
 30
0.0
 40
3.0
  1
35
  0
TEXT
  5
13B
  8
回08-記事
  6
CONTINUOUS
 62
     7
 10
2931.633599441216
 20
-313.7221911018626
 30
0.0
 40
3.0
  1
SUL
  0
TEXT
  5
13C
  8
回08-記事
  6
CONTINUOUS
 62
     7
 10
2931.633599441216
 20
-304.0453911018627
 30
0.0
 40
3.0
  1
L2
  0
TEXT
  5
13D
  8
回08-記事
  6
CONTINUOUS
 62
     7
 10
2931.348546204171
 20
-202.4389911018626
 30
0.0
 40
3.0
  1
R3
  0
TEXT
  5
13E
  8
回08-記事
  6
CONTINUOUS
 62
     7
 10
2931.633599441216
 20
-308.8837911018627
 30
0.0
 40
3.0
  1
L1
  0
LINE
  5
13F
  8
回08-記事
  6
CONTINUOUS
 62
     7
 10
2919.773794278448
 20
-312.4163063059867
 30
0.0
 11
2930.281518711985
 21
-312.4163063059867
 31
0.0
  0
LINE
  5
140
  8
回08-記事
  6
CONTINUOUS
 62
     7
 10
2919.773794278448
 20
-307.5779063059868
 30
0.0
 11
2930.281518711985
 21
-307.5779063059868
 31
0.0
  0
TEXT
  5
141
  8
回08-記事
  6
CONTINUOUS
 62
     7
 10
2915.495349709764
 20
-313.7221911018626
 30
0.0
 40
3.0
  1
26
  0
TEXT
  5
142
  8
回08-記事
  6
CONTINUOUS
 62
     7
 10
2915.495349709764
 20
-308.8837911018627
 30
0.0
 40
3.0
  1
25
  0
TEXT
  5
143
  8
回08-記事
  6
CONTINUOUS
 62
     7
 10
2931.348546204171
 20
-250.8229911018625
 30
0.0
 40
3.0
  1
SDR
  0
TEXT
  5
144
  8
回08-記事
  6
CONTINUOUS
 62
     7
 10
2931.348546204171
 20
-197.6005911018626
 30
0.0
 40
3.0
  1
R2
  0
TEXT
  5
145
  8
回08-記事
  6
CONTINUOUS
 62
     7
 10
2931.348546204171
 20
-279.8533911018626
 30
0.0
 40
3.0
  1
L7
  0
TEXT
  5
146
  8
回08-記事
  6
CONTINUOUS
 62
     7
 10
2931.348546204171
 20
-275.0149911018626
 30
0.0
 40
3.0
  1
L8
  0
TEXT
  5
147
  8
回08-記事
  6
CONTINUOUS
 62
     7
 10
2931.348546204171
 20
-226.6309911018626
 30
0.0
 40
3.0
  1
R8
  0
TEXT
  5
148
  8
回08-記事
  6
CONTINUOUS
 62
     7
 10
2931.348546204171
 20
-221.7925911018626
 30
0.0
 40
3.0
  1
R7
  0
TEXT
  5
149
  8
回08-記事
  6
CONTINUOUS
 62
     7
 10
2931.348546204171
 20
-216.9541911018626
 30
0.0
 40
3.0
  1
R6
  0
TEXT
  5
14A
  8
回08-記事
  6
CONTINUOUS
 62
     7
 10
2931.348546204171
 20
-212.1157911018626
 30
0.0
 40
3.0
  1
R5
  0
TEXT
  5
14B
  8
回08-記事
  6
CONTINUOUS
 62
     7
 10
2931.348546204171
 20
-207.2773911018626
 30
0.0
 40
3.0
  1
R4
  0
TEXT
  5
14C
  8
回08-記事
  6
CONTINUOUS
 62
     7
 10
2931.348546204171
 20
-192.7621911018626
 30
0.0
 40
3.0
  1
R1
  0
LINE
  5
14D
  8
回08-記事
  6
CONTINUOUS
 62
     7
 10
2919.773794278448
 20
-191.4563063059866
 30
0.0
 11
2930.281518711985
 21
-191.4563063059866
 31
0.0
  0
TEXT
  5
14E
  8
回08-記事
  6
CONTINUOUS
 62
     7
 10
2916.688996002104
 20
-192.7621911018626
 30
0.0
 40
3.0
  1
1
  0
LINE
  5
14F
  8
回08-記事
  6
CONTINUOUS
 62
     7
 10
2919.773794278448
 20
-196.2947063059865
 30
0.0
 11
2930.281518711985
 21
-196.2947063059865
 31
0.0
  0
TEXT
  5
150
  8
回08-記事
  6
CONTINUOUS
 62
     7
 10
2916.688996002104
 20
-197.6005911018626
 30
0.0
 40
3.0
  1
2
  0
LINE
  5
151
  8
回08-記事
  6
CONTINUOUS
 62
     7
 10
2919.773794278448
 20
-201.1331063059867
 30
0.0
 11
2930.281518711985
 21
-201.1331063059867
 31
0.0
  0
TEXT
  5
152
  8
回08-記事
  6
CONTINUOUS
 62
     7
 10
2916.688996002104
 20
-202.4389911018626
 30
0.0
 40
3.0
  1
3
  0
LINE
  5
153
  8
回08-記事
  6
CONTINUOUS
 62
     7
 10
2919.773794278448
 20
-205.9715063059866
 30
0.0
 11
2930.281518711985
 21
-205.9715063059866
 31
0.0
  0
TEXT
  5
154
  8
回08-記事
  6
CONTINUOUS
 62
     7
 10
2916.688996002104
 20
-207.2773911018626
 30
0.0
 40
3.0
  1
4
  0
LINE
  5
155
  8
回08-記事
  6
CONTINUOUS
 62
     7
 10
2919.773794278448
 20
-210.8099063059866
 30
0.0
 11
2930.281518711985
 21
-210.8099063059866
 31
0.0
  0
TEXT
  5
156
  8
回08-記事
  6
CONTINUOUS
 62
     7
 10
2916.688996002104
 20
-212.1157911018626
 30
0.0
 40
3.0
  1
5
  0
LINE
  5
157
  8
回08-記事
  6
CONTINUOUS
 62
     7
 10
2919.773794278448
 20
-215.6483063059866
 30
0.0
 11
2930.281518711985
 21
-215.6483063059866
 31
0.0
  0
TEXT
  5
158
  8
回08-記事
  6
CONTINUOUS
 62
     7
 10
2916.688996002104
 20
-216.9541911018626
 30
0.0
 40
3.0
  1
6
  0
LINE
  5
159
  8
回08-記事
  6
CONTINUOUS
 62
     7
 10
2919.773794278448
 20
-220.4867063059867
 30
0.0
 11
2930.281518711985
 21
-220.4867063059867
 31
0.0
  0
TEXT
  5
15A
  8
回08-記事
  6
CONTINUOUS
 62
     7
 10
2916.688996002104
 20
-221.7925911018626
 30
0.0
 40
3.0
  1
7
  0
LINE
  5
15B
  8
回08-記事
  6
CONTINUOUS
 62
     7
 10
2919.773794278448
 20
-225.3251063059867
 30
0.0
 11
2930.281518711985
 21
-225.3251063059867
 31
0.0
  0
TEXT
  5
15C
  8
回08-記事
  6
CONTINUOUS
 62
     7
 10
2916.688996002104
 20
-226.6309911018626
 30
0.0
 40
3.0
  1
8
  0
TEXT
  5
15D
  8
回08-記事
  6
CONTINUOUS
 62
     7
 10
2931.633599441216
 20
-299.2069911018625
 30
0.0
 40
3.0
  1
L3
  0
TEXT
  5
15E
  8
回08-記事
  6
CONTINUOUS
 62
     7
 10
2931.633599441216
 20
-294.3685911018627
 30
0.0
 40
3.0
  1
L4
  0
TEXT
  5
15F
  8
回08-記事
  6
CONTINUOUS
 62
     7
 10
2931.633599441216
 20
-289.5301911018627
 30
0.0
 40
3.0
  1
L5
  0
TEXT
  5
160
  8
回08-記事
  6
CONTINUOUS
 62
     7
 10
2931.633599441216
 20
-284.6917911018626
 30
0.0
 40
3.0
  1
L6
  0
LINE
  5
161
  8
回08-記事
  6
CONTINUOUS
 62
     7
 10
2919.773794278448
 20
-302.7395063059866
 30
0.0
 11
2930.281518711985
 21
-302.7395063059866
 31
0.0
  0
LINE
  5
162
  8
回08-記事
  6
CONTINUOUS
 62
     7
 10
2919.773794278448
 20
-297.9011063059867
 30
0.0
 11
2930.281518711985
 21
-297.9011063059867
 31
0.0
  0
LINE
  5
163
  8
回08-記事
  6
CONTINUOUS
 62
     7
 10
2919.773794278448
 20
-293.0627063059867
 30
0.0
 11
2930.281518711985
 21
-293.0627063059867
 31
0.0
  0
LINE
  5
164
  8
回08-記事
  6
CONTINUOUS
 62
     7
 10
2919.773794278448
 20
-288.2243063059867
 30
0.0
 11
2930.281518711985
 21
-288.2243063059867
 31
0.0
  0
LINE
  5
165
  8
回08-記事
  6
CONTINUOUS
 62
     7
 10
2919.773794278448
 20
-283.3859063059867
 30
0.0
 11
2930.281518711985
 21
-283.3859063059867
 31
0.0
  0
LINE
  5
166
  8
回08-記事
  6
CONTINUOUS
 62
     7
 10
2919.773794278448
 20
-278.5475063059867
 30
0.0
 11
2930.281518711985
 21
-278.5475063059867
 31
0.0
  0
LINE
  5
167
  8
回08-記事
  6
CONTINUOUS
 62
     7
 10
2919.773794278448
 20
-273.7091063059867
 30
0.0
 11
2930.281518711985
 21
-273.7091063059867
 31
0.0
  0
LINE
  5
168
  8
回08-記事
  6
CONTINUOUS
 62
     7
 10
2919.773794278448
 20
-268.8707063059867
 30
0.0
 11
2930.281518711985
 21
-268.8707063059867
 31
0.0
  0
LINE
  5
169
  8
回08-記事
  6
CONTINUOUS
 62
     7
 10
2919.773794278448
 20
-264.0323063059867
 30
0.0
 11
2930.281518711985
 21
-264.0323063059867
 31
0.0
  0
LINE
  5
16A
  8
回08-記事
  6
CONTINUOUS
 62
     7
 10
2919.773794278448
 20
-259.1939063059867
 30
0.0
 11
2930.281518711985
 21
-259.1939063059867
 31
0.0
  0
LINE
  5
16B
  8
回08-記事
  6
CONTINUOUS
 62
     7
 10
2919.773794278448
 20
-254.3555063059867
 30
0.0
 11
2930.281518711985
 21
-254.3555063059867
 31
0.0
  0
LINE
  5
16C
  8
回08-記事
  6
CONTINUOUS
 62
     7
 10
2919.773794278448
 20
-249.5171063059867
 30
0.0
 11
2930.281518711985
 21
-249.5171063059867
 31
0.0
  0
LINE
  5
16D
  8
回08-記事
  6
CONTINUOUS
 62
     7
 10
2919.773794278448
 20
-244.6787063059868
 30
0.0
 11
2930.281518711985
 21
-244.6787063059868
 31
0.0
  0
LINE
  5
16E
  8
回08-記事
  6
CONTINUOUS
 62
     7
 10
2919.773794278448
 20
-239.8403063059866
 30
0.0
 11
2930.281518711985
 21
-239.8403063059866
 31
0.0
  0
LINE
  5
16F
  8
回08-記事
  6
CONTINUOUS
 62
     7
 10
2919.773794278448
 20
-235.0019063059866
 30
0.0
 11
2930.281518711985
 21
-235.0019063059866
 31
0.0
  0
LINE
  5
170
  8
回08-記事
  6
CONTINUOUS
 62
     7
 10
2919.773794278448
 20
-230.1635063059868
 30
0.0
 11
2930.281518711985
 21
-230.1635063059868
 31
0.0
  0
TEXT
  5
171
  8
回08-記事
  6
CONTINUOUS
 62
     7
 10
2915.495349709764
 20
-304.0453911018627
 30
0.0
 40
3.0
  1
24
  0
TEXT
  5
172
  8
回08-記事
  6
CONTINUOUS
 62
     7
 10
2915.495349709764
 20
-299.2069911018625
 30
0.0
 40
3.0
  1
23
  0
TEXT
  5
173
  8
回08-記事
  6
CONTINUOUS
 62
     7
 10
2915.495349709764
 20
-294.3685911018627
 30
0.0
 40
3.0
  1
22
  0
TEXT
  5
174
  8
回08-記事
  6
CONTINUOUS
 62
     7
 10
2915.495349709764
 20
-289.5301911018627
 30
0.0
 40
3.0
  1
21
  0
TEXT
  5
175
  8
回08-記事
  6
CONTINUOUS
 62
     7
 10
2915.495349709764
 20
-284.6917911018626
 30
0.0
 40
3.0
  1
20
  0
TEXT
  5
176
  8
回08-記事
  6
CONTINUOUS
 62
     7
 10
2915.495349709764
 20
-279.8533911018626
 30
0.0
 40
3.0
  1
19
  0
TEXT
  5
177
  8
回08-記事
  6
CONTINUOUS
 62
     7
 10
2915.495349709764
 20
-275.0149911018626
 30
0.0
 40
3.0
  1
18
  0
TEXT
  5
178
  8
回08-記事
  6
CONTINUOUS
 62
     7
 10
2915.495349709764
 20
-270.1765911018625
 30
0.0
 40
3.0
  1
17
  0
TEXT
  5
179
  8
回08-記事
  6
CONTINUOUS
 62
     7
 10
2915.495349709764
 20
-265.3381911018626
 30
0.0
 40
3.0
  1
16
  0
TEXT
  5
17A
  8
回08-記事
  6
CONTINUOUS
 62
     7
 10
2915.32066903463
 20
-260.4997911018626
 30
0.0
 40
3.0
  1
15
  0
TEXT
  5
17B
  8
回08-記事
  6
CONTINUOUS
 62
     7
 10
2915.32066903463
 20
-255.6613911018625
 30
0.0
 40
3.0
  1
14
  0
TEXT
  5
17C
  8
回08-記事
  6
CONTINUOUS
 62
     7
 10
2915.32066903463
 20
-250.8229911018625
 30
0.0
 40
3.0
  1
13
  0
TEXT
  5
17D
  8
回08-記事
  6
CONTINUOUS
 62
     7
 10
2915.32066903463
 20
-245.9845911018626
 30
0.0
 40
3.0
  1
12
  0
TEXT
  5
17E
  8
回08-記事
  6
CONTINUOUS
 62
     7
 10
2915.32066903463
 20
-241.1461911018625
 30
0.0
 40
3.0
  1
11
  0
TEXT
  5
17F
  8
回08-記事
  6
CONTINUOUS
 62
     7
 10
2915.32066903463
 20
-236.3077911018626
 30
0.0
 40
3.0
  1
10
  0
TEXT
  5
180
  8
回08-記事
  6
CONTINUOUS
 62
     7
 10
2916.688996002104
 20
-231.4693911018626
 30
0.0
 40
3.0
  1
9
  0
LINE
  5
181
  8
回08-記事
  6
CENTER2
 62
     1
 10
2787.136917020444
 20
-275.9810141762304
 30
0.0
 11
2519.516917020444
 21
-275.9810141762304
 31
0.0
  0
LINE
  5
182
  8
回08-記事
  6
CENTER2
 62
     1
 10
2653.326917020444
 20
-191.1310141762304
 30
0.0
 11
2653.326917020444
 21
-360.8310141762304
 31
0.0
  0
ARC
  5
183
  8
回08-記事
  6
CONTINUOUS
 62
     7
 10
2843.037017266123
 20
-350.9869329819347
 30
0.0
 40
0.5
 50
90.0
 51
270.0
  0
ARC
  5
184
  8
回08-記事
  6
CONTINUOUS
 62
     7
 10
2843.037017266123
 20
-353.8669329819347
 30
0.0
 40
0.5
 50
90.0
 51
270.0
  0
ARC
  5
185
  8
回08-記事
  6
CONTINUOUS
 62
     7
 10
2843.037017266123
 20
-356.7469329819346
 30
0.0
 40
0.5
 50
90.0
 51
270.0
  0
ARC
  5
186
  8
回08-記事
  6
CONTINUOUS
 62
     7
 10
2843.037017266123
 20
-333.7069329819347
 30
0.0
 40
0.5
 50
90.0
 51
270.0
  0
ARC
  5
187
  8
回08-記事
  6
CONTINUOUS
 62
     7
 10
2843.037017266123
 20
-336.5869329819346
 30
0.0
 40
0.5
 50
90.0
 51
270.0
  0
ARC
  5
188
  8
回08-記事
  6
CONTINUOUS
 62
     7
 10
2843.037017266123
 20
-339.4669329819346
 30
0.0
 40
0.5
 50
90.0
 51
270.0
  0
ARC
  5
189
  8
回08-記事
  6
CONTINUOUS
 62
     7
 10
2843.037017266123
 20
-342.3469329819346
 30
0.0
 40
0.5
 50
90.0
 51
270.0
  0
ARC
  5
18A
  8
回08-記事
  6
CONTINUOUS
 62
     7
 10
2843.037017266123
 20
-348.1069329819347
 30
0.0
 40
0.5
 50
90.0
 51
270.0
  0
ARC
  5
18B
  8
回08-記事
  6
CONTINUOUS
 62
     7
 10
2843.037017266123
 20
-345.2269329819347
 30
0.0
 40
0.5
 50
90.0
 51
270.0
  0
ARC
  5
18C
  8
回08-記事
  6
CONTINUOUS
 62
     7
 10
2843.037017266123
 20
-192.5869329819347
 30
0.0
 40
0.5
 50
90.0
 51
270.0
  0
ARC
  5
18D
  8
回08-記事
  6
CONTINUOUS
 62
     7
 10
2843.037017266123
 20
-206.9869329819347
 30
0.0
 40
0.5
 50
90.0
 51
270.0
  0
ARC
  5
18E
  8
回08-記事
  6
CONTINUOUS
 62
     7
 10
2843.037017266123
 20
-209.8669329819347
 30
0.0
 40
0.5
 50
90.0
 51
270.0
  0
ARC
  5
18F
  8
回08-記事
  6
CONTINUOUS
 62
     7
 10
2843.037017266123
 20
-195.4669329819347
 30
0.0
 40
0.5
 50
90.0
 51
270.0
  0
ARC
  5
190
  8
回08-記事
  6
CONTINUOUS
 62
     7
 10
2843.037017266123
 20
-198.3469329819347
 30
0.0
 40
0.5
 50
90.0
 51
270.0
  0
ARC
  5
191
  8
回08-記事
  6
CONTINUOUS
 62
     7
 10
2843.037017266123
 20
-201.2269329819347
 30
0.0
 40
0.5
 50
90.0
 51
270.0
  0
ARC
  5
192
  8
回08-記事
  6
CONTINUOUS
 62
     7
 10
2843.037017266123
 20
-204.1069329819347
 30
0.0
 40
0.5
 50
90.0
 51
270.0
  0
ARC
  5
193
  8
回08-記事
  6
CONTINUOUS
 62
     7
 10
2843.037017266123
 20
-212.7469329819346
 30
0.0
 40
0.5
 50
90.0
 51
270.0
  0
ARC
  5
194
  8
回08-記事
  6
CONTINUOUS
 62
     7
 10
2843.037017266123
 20
-215.6269329819346
 30
0.0
 40
0.5
 50
90.0
 51
270.0
  0
ARC
  5
195
  8
回08-記事
  6
CONTINUOUS
 62
     7
 10
2843.037017266123
 20
-218.5069329819346
 30
0.0
 40
0.5
 50
90.0
 51
270.0
  0
ARC
  5
196
  8
回08-記事
  6
CONTINUOUS
 62
     7
 10
2843.037017266123
 20
-232.9069329819347
 30
0.0
 40
0.5
 50
90.0
 51
270.0
  0
ARC
  5
197
  8
回08-記事
  6
CONTINUOUS
 62
     7
 10
2843.037017266123
 20
-235.7869329819346
 30
0.0
 40
0.5
 50
90.0
 51
270.0
  0
ARC
  5
198
  8
回08-記事
  6
CONTINUOUS
 62
     7
 10
2843.037017266123
 20
-221.3869329819346
 30
0.0
 40
0.5
 50
90.0
 51
270.0
  0
ARC
  5
199
  8
回08-記事
  6
CONTINUOUS
 62
     7
 10
2843.037017266123
 20
-224.2669329819346
 30
0.0
 40
0.5
 50
90.0
 51
270.0
  0
ARC
  5
19A
  8
回08-記事
  6
CONTINUOUS
 62
     7
 10
2843.037017266123
 20
-227.1469329819346
 30
0.0
 40
0.5
 50
90.0
 51
270.0
  0
ARC
  5
19B
  8
回08-記事
  6
CONTINUOUS
 62
     7
 10
2843.037017266123
 20
-230.0269329819347
 30
0.0
 40
0.5
 50
90.0
 51
270.0
  0
ARC
  5
19C
  8
回08-記事
  6
CONTINUOUS
 62
     7
 10
2843.037017266123
 20
-238.6669329819346
 30
0.0
 40
0.5
 50
90.0
 51
270.0
  0
TEXT
  5
19D
  8
回08-記事
  6
CONTINUOUS
 62
     5
 10
2787.593577147405
 20
-409.0921277087694
 30
0.0
 40
4.0
  1
MTR-G121WB100B
  0
TEXT
  5
19E
  8
回08-記事
  6
CONTINUOUS
 62
     5
 10
2794.331351971578
 20
-403.6955189999916
 30
0.0
 40
4.0
  1
Product label
1001
ACAD
1000
MTEXTBEGIN
1070
    73
1070
     1
1070
    44
1040
1.0
1070
    74
1070
     0
1000
MTEXTEND
  0
INSERT
  5
19F
  8
回08-記事
  6
CONTINUOUS
 62
     7
 66
     1
  2
*X7777
 10
0.0
 20
0.0
 30
0.0
  0
SEQEND
  5
703
  8
回04-下接
  6
CONTINUOUS
 62
     7
  0
TEXT
  5
1A1
  8
回08-記事
  6
CONTINUOUS
 62
     5
 10
2851.142157637397
 20
-403.6955189999916
 30
0.0
 40
4.0
  1
Lot label
1001
ACAD
1000
MTEXTBEGIN
1070
    73
1070
     1
1070
    44
1040
1.0
1070
    74
1070
     0
1000
MTEXTEND
  0
INSERT
  5
1A2
  8
回08-記事
  6
CONTINUOUS
 62
     7
 66
     1
  2
*X7878
 10
0.0
 20
0.0
 30
0.0
  0
SEQEND
  5
70A
  8
回04-下接
  6
CONTINUOUS
 62
     7
  0
LINE
  5
1A3
  8
回08-記事
  6
CONTINUOUS
 62
     7
 10
2857.784807643727
 20
-284.1004884637701
 30
0.0
 11
2847.838702718242
 21
-284.0893834764184
 31
0.0
  0
TEXT
  5
1A4
  8
回08-記事
  6
CONTINUOUS
 62
     7
 10
2859.002641215381
 20
-285.5007100014821
 30
0.0
 40
4.0
  1
2
  0
ARC
  5
1A5
  8
回08-記事
  6
CONTINUOUS
 62
     7
 10
2843.037017266123
 20
-241.5469329819346
 30
0.0
 40
0.5
 50
90.0
 51
270.0
  0
ARC
  5
1A6
  8
回08-記事
  6
CONTINUOUS
 62
     7
 10
2843.037017266123
 20
-244.4269329819346
 30
0.0
 40
0.5
 50
90.0
 51
270.0
  0
ARC
  5
1A7
  8
回08-記事
  6
CONTINUOUS
 62
     7
 10
2843.037017266123
 20
-258.8269329819346
 30
0.0
 40
0.5
 50
90.0
 51
270.0
  0
ARC
  5
1A8
  8
回08-記事
  6
CONTINUOUS
 62
     7
 10
2843.037017266123
 20
-261.7069329819346
 30
0.0
 40
0.5
 50
90.0
 51
270.0
  0
ARC
  5
1A9
  8
回08-記事
  6
CONTINUOUS
 62
     7
 10
2843.037017266123
 20
-276.1069329819346
 30
0.0
 40
0.5
 50
90.0
 51
270.0
  0
ARC
  5
1AA
  8
回08-記事
  6
CONTINUOUS
 62
     7
 10
2843.037017266123
 20
-287.6269329819345
 30
0.0
 40
0.5
 50
90.0
 51
270.0
  0
ARC
  5
1AB
  8
回08-記事
  6
CONTINUOUS
 62
     7
 10
2843.037017266123
 20
-290.5069329819345
 30
0.0
 40
0.5
 50
90.0
 51
270.0
  0
ARC
  5
1AC
  8
回08-記事
  6
CONTINUOUS
 62
     7
 10
2843.037017266123
 20
-293.3869329819345
 30
0.0
 40
0.5
 50
90.0
 51
270.0
  0
ARC
  5
1AD
  8
回08-記事
  6
CONTINUOUS
 62
     7
 10
2843.037017266123
 20
-296.2669329819346
 30
0.0
 40
0.5
 50
90.0
 51
270.0
  0
ARC
  5
1AE
  8
回08-記事
  6
CONTINUOUS
 62
     7
 10
2843.037017266123
 20
-299.1469329819346
 30
0.0
 40
0.5
 50
90.0
 51
270.0
  0
ARC
  5
1AF
  8
回08-記事
  6
CONTINUOUS
 62
     7
 10
2843.037017266123
 20
-302.0269329819346
 30
0.0
 40
0.5
 50
90.0
 51
270.0
  0
ARC
  5
1B0
  8
回08-記事
  6
CONTINUOUS
 62
     7
 10
2843.037017266123
 20
-310.6669329819346
 30
0.0
 40
0.5
 50
90.0
 51
270.0
  0
ARC
  5
1B1
  8
回08-記事
  6
CONTINUOUS
 62
     7
 10
2843.037017266123
 20
-316.4269329819346
 30
0.0
 40
0.5
 50
90.0
 51
270.0
  0
ARC
  5
1B2
  8
回08-記事
  6
CONTINUOUS
 62
     7
 10
2843.037017266123
 20
-319.3069329819346
 30
0.0
 40
0.5
 50
90.0
 51
270.0
  0
ARC
  5
1B3
  8
回08-記事
  6
CONTINUOUS
 62
     7
 10
2843.037017266123
 20
-322.1869329819346
 30
0.0
 40
0.5
 50
90.0
 51
270.0
  0
ARC
  5
1B4
  8
回08-記事
  6
CONTINUOUS
 62
     7
 10
2843.037017266123
 20
-325.0669329819346
 30
0.0
 40
0.5
 50
90.0
 51
270.0
  0
ARC
  5
1B5
  8
回08-記事
  6
CONTINUOUS
 62
     7
 10
2843.037017266123
 20
-330.8269329819347
 30
0.0
 40
0.5
 50
90.0
 51
270.0
  0
POLYLINE
  5
1B6
  8
回08-記事
  6
CONTINUOUS
 62
     7
 66
     1
 10
0.0
 20
0.0
 30
0.0
 70
     1
  0
VERTEX
  5
AEB
  8
回08-記事
  6
CONTINUOUS
 62
     7
 10
2841.337017266125
 20
-391.5076464500225
 30
0.0
  0
VERTEX
  5
AED
  8
回08-記事
  6
CONTINUOUS
 62
     7
 10
2842.037017266124
 20
-391.5076464500225
 30
0.0
  0
VERTEX
  5
AEE
  8
回08-記事
  6
CONTINUOUS
 62
     7
 10
2842.037017266124
 20
-417.5076464500224
 30
0.0
  0
VERTEX
  5
AEF
  8
回08-記事
  6
CONTINUOUS
 62
     7
 10
2841.337017266125
 20
-417.5076464500224
 30
0.0
  0
SEQEND
  5
AEC
  8
回04-下接
  6
CONTINUOUS
 62
     7
  0
LINE
  5
1B7
  8
回08-記事
  6
CONTINUOUS
 62
     7
 10
2837.951798033459
 20
-454.4945697334683
 30
0.0
 11
2841.302881078422
 21
-461.947682702315
 31
0.0
  0
LINE
  5
1B8
  8
回08-記事
  6
CONTINUOUS
 62
     7
 10
2834.853625962608
 20
-461.3160647741633
 30
0.0
 11
2837.951798033459
 21
-454.4945697334683
 31
0.0
  0
LINE
  5
1B9
  8
回08-記事
  6
CONTINUOUS
 62
     7
 10
2833.609908570262
 20
-422.0179166616817
 30
0.0
 11
2829.749262739158
 21
-422.8398164638502
 31
0.0
  0
LINE
  5
1BA
  8
回08-記事
  6
CONTINUOUS
 62
     7
 10
2832.795128796634
 20
-385.4547543375757
 30
0.0
 11
2830.258653648962
 21
-386.531632156878
 31
0.0
  0
LINE
  5
1BB
  8
回08-記事
  6
CONTINUOUS
 62
     7
 10
2848.830604599319
 20
-374.8150012881415
 30
0.0
 11
2847.867773582459
 21
-371.2883208289286
 31
0.0
  0
LINE
  5
1BC
  8
回08-記事
  6
CONTINUOUS
 62
     7
 10
2839.443037571248
 20
-370.9677135144548
 30
0.0
 11
2848.830604599319
 21
-374.8150012881415
 31
0.0
  0
TEXT
  5
1BD
  8
回08-記事
  6
CONTINUOUS
 62
     7
 10
2836.837207890228
 20
-453.9265783901433
 30
0.0
 40
4.0
  1
5
  0
TEXT
  5
1BE
  8
回08-記事
  6
CONTINUOUS
 62
     7
 10
2826.538035372259
 20
-424.513192064581
 30
0.0
 40
4.0
  1
3
  0
POLYLINE
  5
1BF
  8
回08-記事
  6
CONTINUOUS
 62
     7
 66
     1
 10
0.0
 20
0.0
 30
0.0
 70
     1
  0
VERTEX
  5
AF0
  8
回08-記事
  6
CONTINUOUS
 62
     7
 10
2843.737017266123
 20
-391.5076464500225
 30
0.0
  0
VERTEX
  5
AF2
  8
回08-記事
  6
CONTINUOUS
 62
     7
 10
2844.437017266125
 20
-391.5076464500225
 30
0.0
  0
VERTEX
  5
AF3
  8
回08-記事
  6
CONTINUOUS
 62
     7
 10
2844.437017266125
 20
-417.5076464500224
 30
0.0
  0
VERTEX
  5
AF4
  8
回08-記事
  6
CONTINUOUS
 62
     7
 10
2843.737017266123
 20
-417.5076464500224
 30
0.0
  0
SEQEND
  5
AF1
  8
回04-下接
  6
CONTINUOUS
 62
     7
  0
INSERT
  5
1C0
  8
回08-記事
  6
CONTINUOUS
 62
     7
 66
     1
  2
*X7979
 10
0.0
 20
0.0
 30
0.0
1001
GRADIENTCOLOR1ACI
1070
     5
1001
GRADIENTCOLOR2ACI
1070
     2
1001
ACAD
1010
0.0
1020
0.0
1030
0.0
  0
SEQEND
  5
72C
  8
回04-下接
  6
CONTINUOUS
 62
     7
  0
LINE
  5
1C3
  8
回08-記事
  6
CONTINUOUS
 62
     7
 10
2843.737017266123
 20
-370.5310141762304
 30
0.0
 11
2843.737017266123
 21
-374.1310141762304
 31
0.0
1001
ACAD
1000
ASC_BOUNDS
1002
{
1070
    19
1005
1C8
1002
}
  0
LINE
  5
1C4
  8
回08-記事
  6
CONTINUOUS
 62
     7
 10
2850.037017266124
 20
-370.5310141762304
 30
0.0
 11
2843.737017266123
 21
-370.5310141762304
 31
0.0
1001
ACAD
1000
ASC_BOUNDS
1002
{
1070
    19
1005
1C8
1002
}
  0
LINE
  5
1C5
  8
回08-記事
  6
CONTINUOUS
 62
     7
 10
2850.737017266123
 20
-371.2310141762304
 30
0.0
 11
2850.737017266123
 21
-366.9310141762304
 31
0.0
1001
ACAD
1000
ASC_BOUNDS
1002
{
1070
    19
1005
1C8
1002
}
  0
LINE
  5
1C6
  8
回08-記事
  6
CONTINUOUS
 62
     7
 10
2844.437017266125
 20
-374.1310141762304
 30
0.0
 11
2844.437017266125
 21
-371.2310141762304
 31
0.0
1001
ACAD
1000
ASC_BOUNDS
1002
{
1070
    19
1005
1C8
1002
}
  0
LINE
  5
1C7
  8
回08-記事
  6
CONTINUOUS
 62
     7
 10
2842.037017266124
 20
-371.2310141762304
 30
0.0
 11
2834.843833047153
 21
-371.2310141762304
 31
0.0
1001
ACAD
1000
ASC_BOUNDS
1002
{
1070
    19
1005
1C8
1002
}
  0
INSERT
  5
1C8
  8
回08-記事
  6
CONTINUOUS
 62
     7
 66
     1
  2
*X8080
 10
0.0
 20
0.0
 30
0.0
1001
GRADIENTCOLOR1ACI
1070
     5
1001
GRADIENTCOLOR2ACI
1070
     2
1001
ACAD
1010
0.0
1020
0.0
1030
0.0
  0
SEQEND
  5
743
  8
回04-下接
  6
CONTINUOUS
 62
     7
  0
DIMENSION
  5
1C9
  8
回07-寸法
  6
CONTINUOUS
 62
     7
  2
*D3939
 10
2833.143833047153
 20
-476.2381581686861
 30
0.0
 11
2824.367637194792
 21
-474.2381581686863
 31
0.0
 70
    32
  1
0.3{\H0.66667x;±0.05}
  3
DMC
 13
2835.643833047153
 23
-470.5269658054191
 33
0.0
 14
2833.143833047153
 24
-470.5269658054191
 34
0.0
1001
ACAD
1000
DSTYLE
1002
{
1070
    41
1040
1.5
1070
    47
1040
0.2
1070
    48
1040
0.2
1070
   141
1040
1.5
1070
   371
1070
    13
1070
   372
1070
    13
1002
}
  0
DIMENSION
  5
1DB
  8
回07-寸法
  6
CONTINUOUS
 62
     7
  2
*D4040
 10
2839.398893516044
 20
-470.5269658054191
 30
0.0
 11
2837.798888016044
 21
-465.5269658054191
 31
0.0
 70
    32
  1
{\H0.66667x;(<>)}
  3
DMC
 13
2835.643833047153
 23
-460.5269658054191
 33
0.0
 14
2835.643833047153
 24
-470.5269658054191
 34
0.0
 50
90.0
1001
ACAD
1000
DSTYLE
1002
{
1070
    41
1040
1.5
1070
    47
1040
0.2
1070
    48
1040
0.2
1070
   141
1040
1.5
1070
   371
1070
    13
1070
   372
1070
    13
1002
}
  0
LINE
  5
1EA
  8
回08-記事
  6
CONTINUOUS
 62
     7
 10
2833.143833047153
 20
-360.3310141762305
 30
0.0
 11
2843.037017266123
 21
-360.3310141762305
 31
0.0
  0
POLYLINE
  5
1EB
  8
回08-記事
  6
CONTINUOUS
 62
     7
 66
     1
 10
0.0
 20
0.0
 30
0.0
 70
     1
  0
VERTEX
  5
AF5
  8
回08-記事
  6
CONTINUOUS
 62
     7
 10
2843.737017266123
 20
-465.5269658054191
 30
0.0
  0
VERTEX
  5
AF7
  8
回08-記事
  6
CONTINUOUS
 62
     7
 10
2843.037017266123
 20
-465.5269658054191
 30
0.0
  0
VERTEX
  5
AF8
  8
回08-記事
  6
CONTINUOUS
 62
     7
 10
2843.037017266123
 20
-370.5310141762304
 30
0.0
  0
VERTEX
  5
AF9
  8
回08-記事
  6
CONTINUOUS
 62
     7
 10
2843.737017266123
 20
-370.5310141762304
 30
0.0
  0
SEQEND
  5
AF6
  8
回04-下接
  6
CONTINUOUS
 62
     7
  0
POLYLINE
  5
1EC
  8
回08-記事
  6
CONTINUOUS
 62
     7
 66
     1
 10
0.0
 20
0.0
 30
0.0
 70
     1
  0
VERTEX
  5
AFA
  8
回08-記事
  6
CONTINUOUS
 62
     7
 10
2832.443833047152
 20
-370.0310141762303
 30
0.0
  0
VERTEX
  5
AFC
  8
回08-記事
  6
CONTINUOUS
 62
     7
 10
2833.143833047153
 20
-370.0310141762303
 30
0.0
  0
VERTEX
  5
AFD
  8
回08-記事
  6
CONTINUOUS
 62
     7
 10
2833.143833047153
 20
-465.5269658054191
 30
0.0
  0
VERTEX
  5
AFE
  8
回08-記事
  6
CONTINUOUS
 62
     7
 10
2832.443833047152
 20
-465.5269658054191
 30
0.0
  0
SEQEND
  5
AFB
  8
回04-下接
  6
CONTINUOUS
 62
     7
  0
POLYLINE
  5
1ED
  8
回08-記事
  6
CONTINUOUS
 62
     7
 66
     1
 10
0.0
 20
0.0
 30
0.0
 70
     1
  0
VERTEX
  5
AFF
  8
回08-記事
  6
CONTINUOUS
 62
     7
 10
2842.037017266124
 20
-367.3810141762306
 30
0.0
  0
VERTEX
  5
B01
  8
回08-記事
  6
CONTINUOUS
 62
     7
 10
2843.037017266123
 20
-367.3810141762306
 30
0.0
  0
VERTEX
  5
B02
  8
回08-記事
  6
CONTINUOUS
 62
     7
 10
2843.037017266123
 20
-470.5269658054191
 30
0.0
  0
VERTEX
  5
B03
  8
回08-記事
  6
CONTINUOUS
 62
     7
 10
2842.037017266124
 20
-470.5269658054191
 30
0.0
  0
SEQEND
  5
B00
  8
回04-下接
  6
CONTINUOUS
 62
     7
  0
POLYLINE
  5
1EE
  8
回08-記事
  6
CONTINUOUS
 62
     7
 66
     1
 10
0.0
 20
0.0
 30
0.0
 70
     1
  0
VERTEX
  5
B04
  8
回08-記事
  6
CONTINUOUS
 62
     7
 10
2829.143833047153
 20
-186.6309813527466
 30
0.0
  0
VERTEX
  5
B06
  8
回08-記事
  6
CONTINUOUS
 62
     7
 10
2833.143833047153
 20
-186.6309813527466
 30
0.0
  0
VERTEX
  5
B07
  8
回08-記事
  6
CONTINUOUS
 62
     7
 10
2833.143833047153
 20
-370.0310141762303
 30
0.0
  0
VERTEX
  5
B08
  8
回08-記事
  6
CONTINUOUS
 62
     7
 10
2829.143833047153
 20
-370.0310141762303
 30
0.0
  0
SEQEND
  5
B05
  8
回04-下接
  6
CONTINUOUS
 62
     7
  0
POLYLINE
  5
1EF
  8
回08-記事
  6
CONTINUOUS
 62
     7
 66
     1
 10
0.0
 20
0.0
 30
0.0
 70
     1
  0
VERTEX
  5
B09
  8
回08-記事
  6
CONTINUOUS
 62
     7
 10
2843.037017266123
 20
-186.1309813527464
 30
0.0
  0
VERTEX
  5
B0B
  8
回08-記事
  6
CONTINUOUS
 62
     7
 10
2850.037017266124
 20
-186.1309813527464
 30
0.0
  0
VERTEX
  5
B0C
  8
回08-記事
  6
CONTINUOUS
 62
     7
 10
2850.037017266124
 20
-370.5310141762304
 30
0.0
  0
VERTEX
  5
B0D
  8
回08-記事
  6
CONTINUOUS
 62
     7
 10
2843.037017266123
 20
-370.5310141762304
 30
0.0
  0
SEQEND
  5
B0A
  8
回04-下接
  6
CONTINUOUS
 62
     7
  0
DIMENSION
  5
1F0
  8
回07-寸法
  6
CONTINUOUS
 62
     5
  2
*D4141
 10
2850.037017266124
 20
-175.6256059962971
 30
0.0
 11
2839.590425156638
 21
-173.6256059962971
 31
0.0
 70
    32
  1
2.1{\H0.5x;±0.2}
  3
DMC
 13
2829.143833047153
 23
-186.6309813527466
 33
0.0
 14
2850.037017266124
 24
-186.1309813527464
 34
0.0
1001
ACAD
1000
DSTYLE
1002
{
1070
    41
1040
1.5
1070
    47
1040
0.2
1070
    48
1040
0.2
1070
   141
1040
1.5
1070
   371
1070
    13
1070
   372
1070
    13
1002
}
  0
LINE
  5
1FD
  8
回08-記事
  6
CONTINUOUS
 62
     7
 10
2830.715075040523
 20
-283.521538969972
 30
0.0
 11
2824.365894753749
 21
-284.0893834764184
 31
0.0
  0
TEXT
  5
1FE
  8
回08-記事
  6
CONTINUOUS
 62
     7
 10
2820.697348831393
 20
-286.0352976934603
 30
0.0
 40
4.0
  1
1
  0
ARC
  5
1FF
  8
回08-記事
  6
CONTINUOUS
 62
     7
 10
2843.037017266123
 20
-247.3069329819346
 30
0.0
 40
0.5
 50
90.0
 51
270.0
  0
ARC
  5
200
  8
回08-記事
  6
CONTINUOUS
 62
     7
 10
2843.037017266123
 20
-250.1869329819346
 30
0.0
 40
0.5
 50
90.0
 51
270.0
  0
ARC
  5
201
  8
回08-記事
  6
CONTINUOUS
 62
     7
 10
2843.037017266123
 20
-253.0669329819346
 30
0.0
 40
0.5
 50
90.0
 51
270.0
  0
ARC
  5
202
  8
回08-記事
  6
CONTINUOUS
 62
     7
 10
2843.037017266123
 20
-255.9469329819346
 30
0.0
 40
0.5
 50
90.0
 51
270.0
  0
ARC
  5
203
  8
回08-記事
  6
CONTINUOUS
 62
     7
 10
2843.037017266123
 20
-264.5869329819346
 30
0.0
 40
0.5
 50
90.0
 51
270.0
  0
ARC
  5
204
  8
回08-記事
  6
CONTINUOUS
 62
     7
 10
2843.037017266123
 20
-267.4669329819346
 30
0.0
 40
0.5
 50
90.0
 51
270.0
  0
ARC
  5
205
  8
回08-記事
  6
CONTINUOUS
 62
     7
 10
2843.037017266123
 20
-270.3469329819346
 30
0.0
 40
0.5
 50
90.0
 51
270.0
  0
ARC
  5
206
  8
回08-記事
  6
CONTINUOUS
 62
     7
 10
2843.037017266123
 20
-273.2269329819346
 30
0.0
 40
0.5
 50
90.0
 51
270.0
  0
ARC
  5
207
  8
回08-記事
  6
CONTINUOUS
 62
     7
 10
2843.037017266123
 20
-278.9869329819345
 30
0.0
 40
0.5
 50
90.0
 51
270.0
  0
ARC
  5
208
  8
回08-記事
  6
CONTINUOUS
 62
     7
 10
2843.037017266123
 20
-281.8669329819345
 30
0.0
 40
0.5
 50
90.0
 51
270.0
  0
ARC
  5
209
  8
回08-記事
  6
CONTINUOUS
 62
     7
 10
2843.037017266123
 20
-284.7469329819345
 30
0.0
 40
0.5
 50
90.0
 51
270.0
  0
ARC
  5
20A
  8
回08-記事
  6
CONTINUOUS
 62
     7
 10
2843.037017266123
 20
-304.9069329819346
 30
0.0
 40
0.5
 50
90.0
 51
270.0
  0
ARC
  5
20B
  8
回08-記事
  6
CONTINUOUS
 62
     7
 10
2843.037017266123
 20
-307.7869329819346
 30
0.0
 40
0.5
 50
90.0
 51
270.0
  0
ARC
  5
20C
  8
回08-記事
  6
CONTINUOUS
 62
     7
 10
2843.037017266123
 20
-313.5469329819346
 30
0.0
 40
0.5
 50
90.0
 51
270.0
  0
POLYLINE
  5
20D
  8
回08-記事
  6
CONTINUOUS
 62
     7
 66
     1
 10
0.0
 20
0.0
 30
0.0
 70
     1
  0
VERTEX
  5
B0E
  8
回08-記事
  6
CONTINUOUS
 62
     7
 10
2833.143833047153
 20
-186.6309813527466
 30
0.0
  0
VERTEX
  5
B10
  8
回08-記事
  6
CONTINUOUS
 62
     7
 10
2843.037017266123
 20
-186.6309813527466
 30
0.0
  0
VERTEX
  5
B11
  8
回08-記事
  6
CONTINUOUS
 62
     7
 10
2843.037017266123
 20
-191.6310141762304
 30
0.0
  0
VERTEX
  5
B12
  8
回08-記事
  6
CONTINUOUS
 62
     7
 10
2833.143833047153
 20
-191.6310141762304
 30
0.0
  0
SEQEND
  5
B0F
  8
回04-下接
  6
CONTINUOUS
 62
     7
  0
ARC
  5
20E
  8
回08-記事
  6
CONTINUOUS
 62
     7
 10
2843.037017266123
 20
-327.9469329819347
 30
0.0
 40
0.5
 50
90.0
 51
270.0
  0
INSERT
  5
20F
  8
回08-記事
  6
CONTINUOUS
 62
     7
 66
     1
  2
*X8181
 10
0.0
 20
0.0
 30
0.0
1001
GRADIENTCOLOR1ACI
1070
     5
1001
GRADIENTCOLOR2ACI
1070
     2
1001
ACAD
1010
0.0
1020
0.0
1030
0.0
  0
SEQEND
  5
779
  8
回04-下接
  6
CONTINUOUS
 62
     7
  0
LINE
  5
210
  8
回08-記事
  6
CONTINUOUS
 62
     7
 10
2829.749262739158
 20
-422.8398164638502
 30
0.0
 11
2842.28053390172
 21
-425.7480808325095
 31
0.0
  0
LINE
  5
211
  8
回08-記事
  6
CONTINUOUS
 62
     7
 10
2830.258653648962
 20
-386.531632156878
 30
0.0
 11
2843.511744762985
 21
-388.4953481336278
 31
0.0
  0
TEXT
  5
212
  8
回08-記事
  6
CONTINUOUS
 62
     7
 10
2849.982050646922
 20
-377.8031067625041
 30
0.0
 40
4.0
  1
6
  0
TEXT
  5
213
  8
回08-記事
  6
CONTINUOUS
 62
     7
 10
2826.599243568832
 20
-388.2609884161877
 30
0.0
 40
4.0
  1
4
  0
LINE
  5
214
  8
回08-記事
  6
CONTINUOUS
 62
     7
 10
2850.037017266124
 20
-366.9310141762304
 30
0.0
 11
2850.037017266124
 21
-370.5310141762304
 31
0.0
1001
ACAD
1000
ASC_BOUNDS
1002
{
1070
    19
1005
1C8
1002
}
  0
LINE
  5
215
  8
回08-記事
  6
CONTINUOUS
 62
     7
 10
2850.737017266123
 20
-366.9310141762304
 30
0.0
 11
2850.037017266124
 21
-366.9310141762304
 31
0.0
1001
ACAD
1000
ASC_BOUNDS
1002
{
1070
    19
1005
1C8
1002
}
  0
LINE
  5
216
  8
回08-記事
  6
CONTINUOUS
 62
     7
 10
2843.737017266123
 20
-374.1310141762304
 30
0.0
 11
2844.437017266125
 21
-374.1310141762304
 31
0.0
1001
ACAD
1000
ASC_BOUNDS
1002
{
1070
    19
1005
1C8
1002
}
  0
LINE
  5
217
  8
回08-記事
  6
CONTINUOUS
 62
     7
 10
2844.437017266125
 20
-371.2310141762304
 30
0.0
 11
2850.737017266123
 21
-371.2310141762304
 31
0.0
1001
ACAD
1000
ASC_BOUNDS
1002
{
1070
    19
1005
1C8
1002
}
  0
LINE
  5
218
  8
回08-記事
  6
CONTINUOUS
 62
     7
 10
2834.843833047153
 20
-371.2310141762304
 30
0.0
 11
2834.843833047153
 21
-374.1310141762304
 31
0.0
1001
ACAD
1000
ASC_BOUNDS
1002
{
1070
    19
1005
1C8
1002
}
  0
LINE
  5
219
  8
回08-記事
  6
CONTINUOUS
 62
     7
 10
2834.843833047153
 20
-374.1310141762304
 30
0.0
 11
2834.143833047153
 21
-374.1310141762304
 31
0.0
1001
ACAD
1000
ASC_BOUNDS
1002
{
1070
    19
1005
1C8
1002
}
  0
LINE
  5
21A
  8
回08-記事
  6
CONTINUOUS
 62
     7
 10
2842.037017266124
 20
-370.2310141762304
 30
0.0
 11
2842.037017266124
 21
-371.2310141762304
 31
0.0
1001
ACAD
1000
ASC_BOUNDS
1002
{
1070
    19
1005
1C8
1002
}
  0
LINE
  5
21B
  8
回08-記事
  6
CONTINUOUS
 62
     7
 10
2834.143833047153
 20
-370.2310141762304
 30
0.0
 11
2842.037017266124
 21
-370.2310141762304
 31
0.0
1001
ACAD
1000
ASC_BOUNDS
1002
{
1070
    19
1005
1C8
1002
}
  0
LINE
  5
21C
  8
回08-記事
  6
CONTINUOUS
 62
     7
 10
2834.143833047153
 20
-374.1310141762304
 30
0.0
 11
2834.143833047153
 21
-370.2310141762304
 31
0.0
1001
ACAD
1000
ASC_BOUNDS
1002
{
1070
    19
1005
1C8
1002
}
  0
DIMENSION
  5
21D
  8
回07-寸法
  6
CONTINUOUS
 62
     7
  2
*D4242
 10
2843.037017266123
 20
-476.2381581686861
 30
0.0
 11
2851.813213118485
 21
-474.2381581686863
 31
0.0
 70
    32
  1
0.3{\H0.66667x;±0.05}
  3
DMC
 13
2840.537017266123
 23
-470.5269658054191
 33
0.0
 14
2843.037017266123
 24
-470.5269658054191
 34
0.0
1001
ACAD
1000
DSTYLE
1002
{
1070
    41
1040
1.5
1070
    47
1040
0.2
1070
    48
1040
0.2
1070
   141
1040
1.5
1070
   371
1070
    13
1070
   372
1070
    13
1002
}
  0
DIMENSION
  5
22E
  8
回07-寸法
  6
CONTINUOUS
 62
     7
  2
*D4343
 10
2852.152655856818
 20
-465.5269658054191
 30
0.0
 11
2850.152655856819
 21
-468.0269658054191
 31
0.0
 70
    32
  3
DMC
 13
2843.037017266123
 23
-470.5269658054191
 33
0.0
 14
2843.737017266123
 24
-465.5269658054191
 34
0.0
 50
90.0
1001
ACAD
1000
DSTYLE
1002
{
1070
    41
1040
1.5
1070
    47
1040
0.2
1070
    48
1040
0.2
1070
   141
1040
1.5
1070
   371
1070
    13
1070
   372
1070
    13
1002
}
  0
DIMENSION
  5
23D
  8
回07-寸法
  6
CONTINUOUS
 62
     7
  2
*D4444
 10
2825.278115065533
 20
-465.5269658054191
 30
0.0
 11
2823.278115065533
 21
-468.0269658054191
 31
0.0
 70
    32
  3
DMC
 13
2833.143833047153
 23
-470.5269658054191
 33
0.0
 14
2832.443833047152
 24
-465.5269658054191
 34
0.0
 50
90.0
1001
ACAD
1000
DSTYLE
1002
{
1070
    41
1040
1.5
1070
    47
1040
0.2
1070
    48
1040
0.2
1070
   141
1040
1.5
1070
   371
1070
    13
1070
   372
1070
    13
1002
}
  0
LINE
  5
24C
  8
回08-記事
  6
CONTINUOUS
 62
     7
 10
2834.143833047153
 20
-370.2310141762304
 30
0.0
 11
2842.037017266124
 21
-370.2310141762304
 31
0.0
  0
POLYLINE
  5
24D
  8
回08-記事
  6
CONTINUOUS
 62
     7
 66
     1
 10
0.0
 20
0.0
 30
0.0
 70
     1
  0
VERTEX
  5
B13
  8
回08-記事
  6
CONTINUOUS
 62
     7
 10
2840.537017266123
 20
-460.5269658054191
 30
0.0
  0
VERTEX
  5
B15
  8
回08-記事
  6
CONTINUOUS
 62
     7
 10
2842.037017266124
 20
-460.5269658054191
 30
0.0
  0
VERTEX
  5
B16
  8
回08-記事
  6
CONTINUOUS
 62
     7
 10
2842.037017266124
 20
-470.5269658054191
 30
0.0
  0
VERTEX
  5
B17
  8
回08-記事
  6
CONTINUOUS
 62
     7
 10
2840.537017266123
 20
-470.5269658054191
 30
0.0
  0
SEQEND
  5
B14
  8
回04-下接
  6
CONTINUOUS
 62
     7
  0
POLYLINE
  5
24E
  8
回08-記事
  6
CONTINUOUS
 62
     7
 66
     1
 10
0.0
 20
0.0
 30
0.0
 70
     1
  0
VERTEX
  5
B18
  8
回08-記事
  6
CONTINUOUS
 62
     7
 10
2834.143833047153
 20
-460.5269658054191
 30
0.0
  0
VERTEX
  5
B1A
  8
回08-記事
  6
CONTINUOUS
 62
     7
 10
2835.643833047153
 20
-460.5269658054191
 30
0.0
  0
VERTEX
  5
B1B
  8
回08-記事
  6
CONTINUOUS
 62
     7
 10
2835.643833047153
 20
-470.5269658054191
 30
0.0
  0
VERTEX
  5
B1C
  8
回08-記事
  6
CONTINUOUS
 62
     7
 10
2834.143833047153
 20
-470.5269658054191
 30
0.0
  0
SEQEND
  5
B19
  8
回04-下接
  6
CONTINUOUS
 62
     7
  0
POLYLINE
  5
24F
  8
回08-記事
  6
CONTINUOUS
 62
     7
 66
     1
 10
0.0
 20
0.0
 30
0.0
 70
     1
  0
VERTEX
  5
B1D
  8
回08-記事
  6
CONTINUOUS
 62
     7
 10
2833.143833047153
 20
-367.3810141762306
 30
0.0
  0
VERTEX
  5
B1F
  8
回08-記事
  6
CONTINUOUS
 62
     7
 10
2834.143833047153
 20
-367.3810141762306
 30
0.0
  0
VERTEX
  5
B20
  8
回08-記事
  6
CONTINUOUS
 62
     7
 10
2834.143833047153
 20
-470.5269658054191
 30
0.0
  0
VERTEX
  5
B21
  8
回08-記事
  6
CONTINUOUS
 62
     7
 10
2833.143833047153
 20
-470.5269658054191
 30
0.0
  0
SEQEND
  5
B1E
  8
回04-下接
  6
CONTINUOUS
 62
     7
  0
DIMENSION
  5
250
  8
回07-寸法
  6
CONTINUOUS
 62
     5
  2
*D4545
 10
2679.48270991659
 20
-484.9422272535288
 30
0.0
 11
2672.732709916589
 21
-484.9422272535288
 31
0.0
 70
   160
  3
DMC
 13
2665.982709916589
 23
-470.0269658054191
 33
0.0
 14
2679.48270991659
 24
-470.02696580542
 34
0.0
1001
ACAD
1000
DSTYLE
1002
{
1070
    41
1040
1.5
1070
    47
1040
0.1
1070
    48
1040
0.1
1070
    71
1070
     1
1070
   141
1040
1.5
1070
   371
1070
    13
1070
   372
1070
    13
1002
}
  0
DIMENSION
  5
25D
  8
回07-寸法
  6
CONTINUOUS
 62
     5
  2
*D4646
 10
2665.982709916589
 20
-484.7922272535288
 30
0.0
 11
2590.174813468516
 21
-484.7922272535288
 31
0.0
 70
   160
  1
(<>)
  3
DMC
 13
2514.366917020444
 23
-370.5310141762304
 33
0.0
 14
2665.982709916589
 24
-470.0269658054191
 34
0.0
1001
ACAD
1000
DSTYLE
1002
{
1070
    41
1040
1.5
1070
    47
1040
0.2
1070
    48
1040
0.2
1070
   141
1040
1.5
1070
   371
1070
    13
1070
   372
1070
    13
1002
}
  0
DIMENSION
  5
26A
  8
回07-寸法
  6
CONTINUOUS
 62
     5
  2
*D4747
 10
2654.482709916589
 20
-478.1780467237484
 30
0.0
 11
2645.732709916589
 21
-478.1780467237484
 31
0.0
 70
   160
  3
DMC
 13
2636.982709916589
 23
-470.0269658054191
 33
0.0
 14
2654.482709916589
 24
-470.0269658054191
 34
0.0
1001
ACAD
1000
DSTYLE
1002
{
1070
    41
1040
1.5
1070
    47
1040
0.1
1070
    48
1040
0.1
1070
    71
1070
     1
1070
   141
1040
1.5
1070
   371
1070
    13
1070
   372
1070
    13
1002
}
  0
DIMENSION
  5
277
  8
回07-寸法
  6
CONTINUOUS
 62
     5
  2
*D4848
 10
2636.982709916589
 20
-478.0280467237483
 30
0.0
 11
2575.674813468516
 21
-478.0280467237483
 31
0.0
 70
   160
  1
(<>)
  3
DMC
 13
2514.366917020444
 23
-370.5310141762304
 33
0.0
 14
2636.982709916589
 24
-470.0269658054191
 34
0.0
1001
ACAD
1000
DSTYLE
1002
{
1070
    41
1040
1.5
1070
    47
1040
0.2
1070
    48
1040
0.2
1070
   141
1040
1.5
1070
   371
1070
    13
1070
   372
1070
    13
1002
}
  0
DIMENSION
  5
284
  8
回07-寸法
  6
CONTINUOUS
 62
     5
  2
*D4949
 10
2698.928925971884
 20
-380.8377744102897
 30
0.0
 11
2698.928925971884
 21
-389.2206171227643
 31
0.0
 70
   160
  3
DMC
 13
2686.233835232037
 23
-370.5310141762303
 33
0.0
 14
2679.48270991659
 24
-380.8377744102897
 34
0.0
 50
90.0
1001
ACAD
1000
DSTYLE
1002
{
1070
   271
1070
     1
1070
    41
1040
1.5
1070
    47
1040
0.2
1070
    48
1040
0.2
1070
   141
1040
1.5
1070
   371
1070
    13
1070
   372
1070
    13
1002
}
  0
DIMENSION
  5
293
  8
回07-寸法
  6
CONTINUOUS
 62
     5
  2
*D5050
 10
2623.233835232037
 20
-395.5033253941288
 30
0.0
 11
2616.450992519563
 21
-395.5033253941288
 31
0.0
 70
   160
  3
DMC
 13
2658.233835232037
 23
-373.7444415770129
 33
0.0
 14
2623.233835232037
 24
-373.7444415770129
 34
0.0
1001
ACAD
1000
DSTYLE
1002
{
1070
    41
1040
1.5
1070
    47
1040
0.2
1070
    48
1040
0.2
1070
   141
1040
1.5
1070
   371
1070
    13
1070
   372
1070
    13
1002
}
  0
DIMENSION
  5
2A2
  8
回07-寸法
  6
CONTINUOUS
 62
     5
  2
*D5151
 10
2613.729636762477
 20
-387.9075298239379
 30
0.0
 11
2611.729636762477
 21
-379.2192720000842
 31
0.0
 70
    32
  3
DMC
 13
2623.233835232037
 23
-370.5310141762303
 33
0.0
 14
2636.982709916589
 24
-387.9075298239379
 34
0.0
 50
90.0
1001
ACAD
1000
DSTYLE
1002
{
1070
   271
1070
     1
1070
    41
1040
1.5
1070
    47
1040
0.2
1070
    48
1040
0.2
1070
   141
1040
1.5
1070
   371
1070
    13
1070
   372
1070
    13
1002
}
  0
DIMENSION
  5
2AF
  8
回07-寸法
  6
CONTINUOUS
 62
     5
  2
*D5252
 10
2620.920508112514
 20
-374.1586551393863
 30
0.0
 11
2618.920508112513
 21
-379.7599076820372
 31
0.0
 70
    32
  3
DMC
 13
2623.233835232037
 23
-370.5310141762303
 33
0.0
 14
2623.233835232037
 24
-374.1586551393863
 34
0.0
 50
90.0
1001
ACAD
1000
DSTYLE
1002
{
1070
   271
1070
     1
1070
    41
1040
1.5
1070
    47
1040
0.2
1070
    48
1040
0.2
1070
   141
1040
1.5
1070
   371
1070
    13
1070
   372
1070
    13
1002
}
  0
DIMENSION
  5
2BE
  8
回07-寸法
  6
CONTINUOUS
 62
     5
  2
*D5353
 10
2723.698243840811
 20
-470.5269658054198
 30
0.0
 11
2723.698243840811
 21
-420.52896580542
 31
0.0
 70
   160
  3
DMC
 13
2686.233835232037
 23
-370.5309658054184
 33
0.0
 14
2678.982709916589
 24
-470.5269658054198
 34
0.0
 50
90.0
1001
ACAD
1000
DSTYLE
1002
{
1070
    41
1040
1.5
1070
    47
1040
1.0
1070
    48
1040
1.0
1070
    71
1070
     1
1070
   141
1040
1.5
1070
   371
1070
    13
1070
   372
1070
    13
1002
}
  0
DIMENSION
  5
2CB
  8
回07-寸法
  6
CONTINUOUS
 62
     5
  2
*D5454
 10
2585.842075394954
 20
-370.5310141762303
 30
0.0
 11
2585.842075394954
 21
-420.5289899908255
 31
0.0
 70
   160
  3
DMC
 13
2637.482709916589
 23
-470.5269658054191
 33
0.0
 14
2623.233835232037
 24
-370.5310141762303
 34
0.0
 50
90.0
1001
ACAD
1000
DSTYLE
1002
{
1070
    41
1040
1.5
1070
    47
1040
1.0
1070
    48
1040
1.0
1070
    71
1070
     1
1070
   141
1040
1.5
1070
   371
1070
    13
1070
   372
1070
    13
1002
}
  0
INSERT
  5
2D8
  8
回08-記事
  6
CONTINUOUS
 62
     5
 66
     1
  2
*X8282
 10
0.0
 20
0.0
 30
0.0
  0
SEQEND
  5
78E
  8
回04-下接
  6
CONTINUOUS
 62
     7
  0
INSERT
  5
2D9
  8
回08-記事
  6
CONTINUOUS
 62
     7
 66
     1
  2
*X8383
 10
0.0
 20
0.0
 30
0.0
  0
SEQEND
  5
795
  8
回04-下接
  6
CONTINUOUS
 62
     7
  0
DIMENSION
  5
2DA
  8
回07-寸法
  6
CONTINUOUS
 62
     5
  2
*D5555
 10
2494.386917020444
 20
-370.5310141762303
 30
0.0
 11
2494.386917020444
 21
-377.8810141762303
 31
0.0
 70
   160
  3
DMC
 13
2522.516917020444
 23
-357.8310141762305
 33
0.0
 14
2514.366917020444
 24
-370.5310141762303
 34
0.0
 50
90.0
1001
ACAD
1000
DSTYLE
1002
{
1070
    41
1040
1.5
1070
    47
1040
0.2
1070
    48
1040
0.2
1070
   141
1040
1.5
1070
   371
1070
    13
1070
   372
1070
    13
1002
}
  0
DIMENSION
  5
2E9
  8
回07-寸法
  6
CONTINUOUS
 62
     5
  2
*D5656
 10
2476.399417020452
 20
-370.5310141762303
 30
0.0
 11
2476.399417020452
 21
-376.9711027589083
 31
0.0
 70
   160
  3
DMC
 13
2520.016917020444
 23
-360.3310141762303
 33
0.0
 14
2514.366917020444
 24
-370.5310141762303
 34
0.0
 50
90.0
1001
ACAD
1000
DSTYLE
1002
{
1070
    41
1040
1.5
1070
    47
1040
0.2
1070
    48
1040
0.2
1070
   141
1040
1.5
1070
   371
1070
    13
1070
   372
1070
    13
1002
}
  0
DIMENSION
  5
2F8
  8
回07-寸法
  6
CONTINUOUS
 62
     5
  2
*D5757
 10
2485.386917020444
 20
-370.5310141762303
 30
0.0
 11
2485.386917020444
 21
-377.8810141762303
 31
0.0
 70
   160
  3
DMC
 13
2520.516917020444
 23
-359.8310141762304
 33
0.0
 14
2514.366917020444
 24
-370.5310141762303
 34
0.0
 50
90.0
1001
ACAD
1000
DSTYLE
1002
{
1070
    41
1040
1.5
1070
    47
1040
0.2
1070
    48
1040
0.2
1070
   141
1040
1.5
1070
   371
1070
    13
1070
   372
1070
    13
1002
}
  0
DIMENSION
  5
307
  8
回07-寸法
  6
CONTINUOUS
 62
     5
  2
*D5858
 10
2792.286917020443
 20
-164.6267158226849
 30
0.0
 11
2799.835735918081
 21
-162.4767158226849
 31
0.0
 70
    32
  1
(<>)
  3
DMC
 13
2786.136917020443
 23
-192.1310141762304
 33
0.0
 14
2792.286917020443
 24
-186.1309813527464
 34
0.0
1001
ACAD
1000
DSTYLE
1002
{
1070
    41
1040
1.5
1070
    47
1040
0.2
1070
    48
1040
0.2
1070
   141
1040
1.5
1070
   371
1070
    13
1070
   372
1070
    13
1002
}
  0
DIMENSION
  5
316
  8
回07-寸法
  6
CONTINUOUS
 62
     5
  2
*D5959
 10
2792.286917020443
 20
-173.9810813527464
 30
0.0
 11
2801.222842217294
 21
-173.9810813527464
 31
0.0
 70
   160
  1
(<>)
  3
DMC
 13
2784.136917020444
 23
-194.1310141762304
 33
0.0
 14
2792.286917020443
 24
-186.1309813527464
 34
0.0
1001
ACAD
1000
DSTYLE
1002
{
1070
    41
1040
1.5
1070
    47
1040
0.2
1070
    48
1040
0.2
1070
   141
1040
1.5
1070
   371
1070
    13
1070
   372
1070
    13
1002
}
  0
DIMENSION
  5
325
  8
回07-寸法
  6
CONTINUOUS
 62
     5
  2
*D6060
 10
2792.286917020443
 20
-156.1307860771559
 30
0.0
 11
2800.135735918081
 21
-153.9807860771559
 31
0.0
 70
    32
  1
(<>)
  3
DMC
 13
2786.636917020444
 23
-191.6310141762304
 33
0.0
 14
2792.286917020443
 24
-186.1309813527464
 34
0.0
1001
ACAD
1000
DSTYLE
1002
{
1070
    41
1040
1.5
1070
    47
1040
0.2
1070
    48
1040
0.2
1070
   141
1040
1.5
1070
   371
1070
    13
1070
   372
1070
    13
1002
}
  0
DIMENSION
  5
334
  8
回07-寸法
  6
CONTINUOUS
 62
     5
  2
*D6161
 10
2494.399417020443
 20
-186.1309813527464
 30
0.0
 11
2494.399417020443
 21
-177.5822624551085
 31
0.0
 70
   160
  1
(<>)
  3
DMC
 13
2522.516917020444
 23
-194.1310141762295
 33
0.0
 14
2514.366917020444
 24
-186.1309813527464
 34
0.0
 50
90.0
1001
ACAD
1000
DSTYLE
1002
{
1070
    41
1040
1.5
1070
    47
1040
0.2
1070
    48
1040
0.2
1070
   141
1040
1.5
1070
   371
1070
    13
1070
   372
1070
    13
1002
}
  0
DIMENSION
  5
343
  8
回07-寸法
  6
CONTINUOUS
 62
     5
  2
*D6262
 10
2485.399417020448
 20
-186.1309813527464
 30
0.0
 11
2485.399417020448
 21
-180.8321624551086
 31
0.0
 70
   160
  1
(<>)
  3
DMC
 13
2520.516917020444
 23
-192.1310141762304
 33
0.0
 14
2514.366917020444
 24
-186.1309813527464
 34
0.0
 50
90.0
1001
ACAD
1000
DSTYLE
1002
{
1070
    41
1040
1.5
1070
    47
1040
0.2
1070
    48
1040
0.2
1070
   141
1040
1.5
1070
   371
1070
    13
1070
   372
1070
    13
1002
}
  0
DIMENSION
  5
352
  8
回07-寸法
  6
CONTINUOUS
 62
     5
  2
*D6363
 10
2476.399417020456
 20
-186.1309813527464
 30
0.0
 11
2474.249417020456
 21
-179.3321624551086
 31
0.0
 70
    32
  1
(<>)
  3
DMC
 13
2520.016917020444
 23
-191.6310141762304
 33
0.0
 14
2514.366917020444
 24
-186.1309813527464
 34
0.0
 50
90.0
1001
ACAD
1000
DSTYLE
1002
{
1070
    41
1040
1.5
1070
    47
1040
0.2
1070
    48
1040
0.2
1070
   141
1040
1.5
1070
   371
1070
    13
1070
   372
1070
    13
1002
}
  0
DIMENSION
  5
361
  8
回07-寸法
  6
CONTINUOUS
 62
     5
  2
*D6464
 10
2514.366917020444
 20
-164.6267158226849
 30
0.0
 11
2507.789653240916
 21
-164.6267158226849
 31
0.0
 70
   160
  3
DMC
 13
2520.516917020444
 23
-192.1310141762304
 33
0.0
 14
2514.366917020444
 24
-186.1309813527464
 34
0.0
1001
ACAD
1000
DSTYLE
1002
{
1070
    41
1040
1.5
1070
    47
1040
0.2
1070
    48
1040
0.2
1070
   141
1040
1.5
1070
   371
1070
    13
1070
   372
1070
    13
1002
}
  0
DIMENSION
  5
370
  8
回07-寸法
  6
CONTINUOUS
 62
     5
  2
*D6565
 10
2514.366917020444
 20
-173.9810813527464
 30
0.0
 11
2506.559298910207
 21
-173.9810813527464
 31
0.0
 70
   160
  3
DMC
 13
2522.516917020444
 23
-194.1310141762304
 33
0.0
 14
2514.366917020444
 24
-186.1309813527464
 34
0.0
1001
ACAD
1000
DSTYLE
1002
{
1070
    41
1040
1.5
1070
    47
1040
0.2
1070
    48
1040
0.2
1070
   141
1040
1.5
1070
   371
1070
    13
1070
   372
1070
    13
1002
}
  0
DIMENSION
  5
37F
  8
回07-寸法
  6
CONTINUOUS
 62
     5
  2
*D6666
 10
2514.366917020444
 20
-156.1307860771559
 30
0.0
 11
2507.716917020444
 21
-154.1307860771559
 31
0.0
 70
    32
  3
DMC
 13
2520.016917020444
 23
-191.6310141762304
 33
0.0
 14
2514.366917020444
 24
-186.1309813527464
 34
0.0
1001
ACAD
1000
DSTYLE
1002
{
1070
    41
1040
1.5
1070
    47
1040
0.2
1070
    48
1040
0.2
1070
   141
1040
1.5
1070
   371
1070
    13
1070
   372
1070
    13
1002
}
  0
DIMENSION
  5
38E
  8
回07-寸法
  6
CONTINUOUS
 62
     5
  2
*D6767
 10
2476.399417020453
 20
-360.3310141762305
 30
0.0
 11
2474.399417020454
 21
-275.9810141762305
 31
0.0
 70
    32
  3
DMC
 13
2520.016917020444
 23
-191.6310141762304
 33
0.0
 14
2520.016917020444
 24
-360.3310141762305
 34
0.0
 50
90.0
1001
ACAD
1000
DSTYLE
1002
{
1070
    41
1040
1.5
1070
    47
1040
0.2
1070
    48
1040
0.2
1070
   141
1040
1.5
1070
   371
1070
    13
1070
   372
1070
    13
1002
}
  0
DIMENSION
  5
39B
  8
回07-寸法
  6
CONTINUOUS
 62
     5
  2
*D6868
 10
2485.399417020453
 20
-359.8310141762305
 30
0.0
 11
2482.949417020453
 21
-275.9810141762305
 31
0.0
 70
    32
  1
<>(Viewing area)
  3
DMC
 13
2520.516917020444
 23
-192.1310141762304
 33
0.0
 14
2520.516917020444
 24
-359.8310141762305
 34
0.0
 50
90.0
1001
ACAD
1000
DSTYLE
1002
{
1070
    41
1040
1.5
1070
    47
1040
0.2
1070
    48
1040
0.2
1070
   141
1040
1.5
1070
   371
1070
    13
1070
   372
1070
    13
1002
}
  0
DIMENSION
  5
3A8
  8
回07-寸法
  6
CONTINUOUS
 62
     5
  2
*D6969
 10
2494.399417020453
 20
-357.8310141762305
 30
0.0
 11
2492.249417020453
 21
-275.9810141762299
 31
0.0
 70
    32
  1
<>(Active area)
  3
DMC
 13
2522.516917020444
 23
-194.1310141762295
 33
0.0
 14
2522.516917020444
 24
-357.8310141762305
 34
0.0
 50
90.0
1001
ACAD
1000
DSTYLE
1002
{
1070
    41
1040
1.5
1070
    47
1040
0.2
1070
    48
1040
0.2
1070
   141
1040
1.5
1070
   371
1070
    13
1070
   372
1070
    13
1002
}
  0
DIMENSION
  5
3B5
  8
回07-寸法
  6
CONTINUOUS
 62
     5
  2
*D7070
 10
2467.399417020455
 20
-370.5310141762304
 30
0.0
 11
2465.399417020455
 21
-278.3309977644884
 31
0.0
 70
    32
  3
DMC
 13
2514.366917020444
 23
-186.1309813527464
 33
0.0
 14
2514.366917020444
 24
-370.5310141762304
 34
0.0
 50
90.0
1001
ACAD
1000
DSTYLE
1002
{
1070
   147
1040
0.5
1070
    72
1070
     0
1070
    71
1070
     1
1070
    41
1040
1.5
1070
    47
1040
0.3
1070
    48
1040
0.3
1070
   141
1040
1.5
1070
   371
1070
    13
1070
   372
1070
    13
1002
}
  0
DIMENSION
  5
3C2
  8
回07-寸法
  6
CONTINUOUS
 62
     5
  2
*D7171
 10
2784.136917020444
 20
-173.9810813527464
 30
0.0
 11
2653.326917020444
 21
-173.9810813527464
 31
0.0
 70
   160
  1
<>(Active area)
  3
DMC
 13
2522.516917020444
 23
-194.1310141762295
 33
0.0
 14
2784.136917020444
 24
-194.1310141762304
 34
0.0
1001
ACAD
1000
DSTYLE
1002
{
1070
    41
1040
1.5
1070
    47
1040
0.2
1070
    48
1040
0.2
1070
   141
1040
1.5
1070
   371
1070
    13
1070
   372
1070
    13
1002
}
  0
DIMENSION
  5
3CF
  8
回07-寸法
  6
CONTINUOUS
 62
     5
  2
*D7272
 10
2786.636917020444
 20
-156.1307860771559
 30
0.0
 11
2653.326917020444
 21
-156.1307860771559
 31
0.0
 70
   160
  3
DMC
 13
2520.016917020444
 23
-191.6310141762304
 33
0.0
 14
2786.636917020444
 24
-191.6310141762304
 34
0.0
1001
ACAD
1000
DSTYLE
1002
{
1070
    41
1040
1.5
1070
    47
1040
0.2
1070
    48
1040
0.2
1070
   141
1040
1.5
1070
   371
1070
    13
1070
   372
1070
    13
1002
}
  0
DIMENSION
  5
3DC
  8
回07-寸法
  6
CONTINUOUS
 62
     5
  2
*D7373
 10
2786.136917020443
 20
-164.6267158226849
 30
0.0
 11
2653.326917020444
 21
-164.6267158226849
 31
0.0
 70
   160
  1
<>(Viewing area)
  3
DMC
 13
2520.516917020444
 23
-192.1310141762304
 33
0.0
 14
2786.136917020443
 24
-192.1310141762304
 34
0.0
1001
ACAD
1000
DSTYLE
1002
{
1070
    41
1040
1.5
1070
    47
1040
0.2
1070
    48
1040
0.2
1070
   141
1040
1.5
1070
   371
1070
    13
1070
   372
1070
    13
1002
}
  0
DIMENSION
  5
3E9
  8
回07-寸法
  6
CONTINUOUS
 62
     5
  2
*D7474
 10
2792.286917020443
 20
-147.1300610386263
 30
0.0
 11
2653.326917020444
 21
-147.1300610386263
 31
0.0
 70
   160
  3
DMC
 13
2514.366917020444
 23
-186.1309813527464
 33
0.0
 14
2792.286917020443
 24
-186.1309813527464
 34
0.0
1001
ACAD
1000
DSTYLE
1002
{
1070
    41
1040
1.5
1070
    47
1040
0.3
1070
    48
1040
0.3
1070
    71
1070
     1
1070
   141
1040
1.5
1070
   371
1070
    13
1070
   372
1070
    13
1002
}
  0
TEXT
  5
3F6
  8
回08-記事
  6
CONTINUOUS
 62
     7
 10
2525.211767326782
 20
-357.3329741839903
 30
0.0
 40
2.0
  1
SDL
  0
TEXT
  5
3F7
  8
回08-記事
  6
CONTINUOUS
 62
     7
 10
2772.834503963809
 20
-357.3198111052919
 30
0.0
 40
2.0
  1
D14
  0
TEXT
  5
3F8
  8
回08-記事
  6
CONTINUOUS
 62
     7
 10
2753.987793070036
 20
-357.3198111052919
 30
0.0
 40
2.0
  1
D13
  0
TEXT
  5
3F9
  8
回08-記事
  6
CONTINUOUS
 62
     7
 10
2735.466017330808
 20
-357.3198111052919
 30
0.0
 40
2.0
  1
D12
  0
TEXT
  5
3FA
  8
回08-記事
  6
CONTINUOUS
 62
     7
 10
2716.924004776676
 20
-357.3198111052919
 30
0.0
 40
2.0
  1
D11
  0
TEXT
  5
3FB
  8
回08-記事
  6
CONTINUOUS
 62
     7
 10
2697.624072378697
 20
-357.3198111052919
 30
0.0
 40
2.0
  1
D10
  0
TEXT
  5
3FC
  8
回08-記事
  6
CONTINUOUS
 62
     7
 10
2679.78046028555
 20
-357.3198111052919
 30
0.0
 40
2.0
  1
D9
  0
TEXT
  5
3FD
  8
回08-記事
  6
CONTINUOUS
 62
     7
 10
2661.119734822235
 20
-357.3198111052919
 30
0.0
 40
2.0
  1
D8
  0
TEXT
  5
3FE
  8
回08-記事
  6
CONTINUOUS
 62
     7
 10
2642.518843361894
 20
-357.3198111052919
 30
0.0
 40
2.0
  1
D7
  0
TEXT
  5
3FF
  8
回08-記事
  6
CONTINUOUS
 62
     7
 10
2623.846409535932
 20
-357.3198111052919
 30
0.0
 40
2.0
  1
D6
  0
TEXT
  5
400
  8
回08-記事
  6
CONTINUOUS
 62
     7
 10
2605.180740042325
 20
-357.3198111052919
 30
0.0
 40
2.0
  1
D5
  0
TEXT
  5
401
  8
回08-記事
  6
CONTINUOUS
 62
     7
 10
2586.094052660009
 20
-357.3198111052919
 30
0.0
 40
2.0
  1
D4
  0
TEXT
  5
402
  8
回08-記事
  6
CONTINUOUS
 62
     7
 10
2567.615469767245
 20
-357.3198111052919
 30
0.0
 40
2.0
  1
D3
  0
TEXT
  5
403
  8
回08-記事
  6
CONTINUOUS
 62
     7
 10
2548.734903502401
 20
-357.3198111052919
 30
0.0
 40
2.0
  1
D2
  0
TEXT
  5
404
  8
回08-記事
  6
CONTINUOUS
 62
     7
 10
2530.36614776893
 20
-357.3198111052919
 30
0.0
 40
2.0
  1
D1
  0
TEXT
  5
405
  8
回08-記事
  6
CONTINUOUS
 62
     7
 10
2779.13669531983
 20
-352.0624280839957
 30
0.0
 40
2.0
  1
SDR
  0
TEXT
  5
406
  8
回08-記事
  6
CONTINUOUS
 62
     7
 10
2780.409426996522
 20
-349.2303801815352
 30
0.0
 40
2.0
  1
R8
  0
TEXT
  5
407
  8
回08-記事
  6
CONTINUOUS
 62
     7
 10
2780.409426996522
 20
-329.0233291974847
 30
0.0
 40
2.0
  1
R7
  0
TEXT
  5
408
  8
回08-記事
  6
CONTINUOUS
 62
     7
 10
2780.409426996522
 20
-307.5710957473894
 30
0.0
 40
2.0
  1
R6
  0
TEXT
  5
409
  8
回08-記事
  6
CONTINUOUS
 62
     7
 10
2780.409426996522
 20
-286.8509675929054
 30
0.0
 40
2.0
  1
R5
  0
TEXT
  5
40A
  8
回08-記事
  6
CONTINUOUS
 62
     7
 10
2780.409426996522
 20
-266.7292141299814
 30
0.0
 40
2.0
  1
R4
  0
TEXT
  5
40B
  8
回08-記事
  6
CONTINUOUS
 62
     7
 10
2780.409426996522
 20
-245.5432508967061
 30
0.0
 40
2.0
  1
R3
  0
TEXT
  5
40C
  8
回08-記事
  6
CONTINUOUS
 62
     7
 10
2780.409426996522
 20
-225.8733506686058
 30
0.0
 40
2.0
  1
R2
  0
TEXT
  5
40D
  8
回08-記事
  6
CONTINUOUS
 62
     7
 10
2780.409426996522
 20
-205.4007711991856
 30
0.0
 40
2.0
  1
R1
  0
TEXT
  5
40E
  8
回08-記事
  6
CONTINUOUS
 62
     7
 10
2779.197905367118
 20
-198.960908902233
 30
0.0
 40
2.0
  1
SUR
  0
TEXT
  5
40F
  8
回08-記事
  6
CONTINUOUS
 62
     7
 10
2524.050035558514
 20
-202.0981399612972
 30
0.0
 40
2.0
  1
SUL
  0
TEXT
  5
410
  8
回08-記事
  6
CONTINUOUS
 62
     7
 10
2524.434013799556
 20
-348.31430226042
 30
0.0
 40
2.0
  1
L8
  0
TEXT
  5
411
  8
回08-記事
  6
CONTINUOUS
 62
     7
 10
2524.434013799556
 20
-328.484705849679
 30
0.0
 40
2.0
  1
L7
  0
TEXT
  5
412
  8
回08-記事
  6
CONTINUOUS
 62
     7
 10
2524.434013799556
 20
-307.0813178066128
 30
0.0
 40
2.0
  1
L6
  0
TEXT
  5
413
  8
回08-記事
  6
CONTINUOUS
 62
     7
 10
2524.434013799556
 20
-286.9471672071332
 30
0.0
 40
2.0
  1
L5
  0
TEXT
  5
414
  8
回08-記事
  6
CONTINUOUS
 62
     7
 10
2524.434013799556
 20
-266.3537024522193
 30
0.0
 40
2.0
  1
L4
  0
TEXT
  5
415
  8
回08-記事
  6
CONTINUOUS
 62
     7
 10
2524.434013799556
 20
-245.9208049768776
 30
0.0
 40
2.0
  1
L3
  0
TEXT
  5
416
  8
回08-記事
  6
CONTINUOUS
 62
     7
 10
2524.434013799556
 20
-225.1716205722069
 30
0.0
 40
2.0
  1
L2
  0
TEXT
  5
417
  8
回08-記事
  6
CONTINUOUS
 62
     7
 10
2524.434013799556
 20
-205.49786469455
 30
0.0
 40
2.0
  1
L1
  0
TEXT
  5
418
  8
回08-記事
  6
CONTINUOUS
 62
     7
 10
2773.822471050011
 20
-197.6111377662853
 30
0.0
 40
2.0
  1
U14
  0
TEXT
  5
419
  8
回08-記事
  6
CONTINUOUS
 62
     7
 10
2754.854047103659
 20
-197.6111377662853
 30
0.0
 40
2.0
  1
U13
  0
TEXT
  5
41A
  8
回08-記事
  6
CONTINUOUS
 62
     7
 10
2735.768550967162
 20
-197.6111377662853
 30
0.0
 40
2.0
  1
U12
  0
TEXT
  5
41B
  8
回08-記事
  6
CONTINUOUS
 62
     7
 10
2717.151397103851
 20
-197.6111377662853
 30
0.0
 40
2.0
  1
U11
  0
TEXT
  5
41C
  8
回08-記事
  6
CONTINUOUS
 62
     7
 10
2698.417144294092
 20
-197.6111377662853
 30
0.0
 40
2.0
  1
U10
  0
TEXT
  5
41D
  8
回08-記事
  6
CONTINUOUS
 62
     7
 10
2679.679480056099
 20
-197.6111377662853
 30
0.0
 40
2.0
  1
U9
  0
TEXT
  5
41E
  8
回08-記事
  6
CONTINUOUS
 62
     7
 10
2660.922190072142
 20
-197.6111377662853
 30
0.0
 40
2.0
  1
U8
  0
TEXT
  5
41F
  8
回08-記事
  6
CONTINUOUS
 62
     7
 10
2642.890490806613
 20
-197.6111377662853
 30
0.0
 40
2.0
  1
U7
  0
TEXT
  5
420
  8
回08-記事
  6
CONTINUOUS
 62
     7
 10
2623.549177686916
 20
-197.6111377662853
 30
0.0
 40
2.0
  1
U6
  0
TEXT
  5
421
  8
回08-記事
  6
CONTINUOUS
 62
     7
 10
2605.283293906644
 20
-197.6111377662853
 30
0.0
 40
2.0
  1
U5
  0
TEXT
  5
422
  8
回08-記事
  6
CONTINUOUS
 62
     7
 10
2586.6507016583
 20
-197.6111377662853
 30
0.0
 40
2.0
  1
U4
  0
TEXT
  5
423
  8
回08-記事
  6
CONTINUOUS
 62
     7
 10
2567.331007628908
 20
-197.6111377662853
 30
0.0
 40
2.0
  1
U3
  0
TEXT
  5
424
  8
回08-記事
  6
CONTINUOUS
 62
     7
 10
2549.299308363381
 20
-197.6111377662853
 30
0.0
 40
2.0
  1
U2
  0
TEXT
  5
425
  8
回08-記事
  6
CONTINUOUS
 62
     7
 10
2531.293231256305
 20
-197.6111377662853
 30
0.0
 40
2.0
  1
U1
  0
TEXT
  5
426
  8
回08-記事
  6
CONTINUOUS
 62
     7
 10
2632.223360231464
 20
-469.5609878043653
 30
0.0
 40
3.0
  1
60
  0
TEXT
  5
427
  8
回08-記事
  6
CONTINUOUS
 62
     7
 10
2654.98537786352
 20
-469.5609878043653
 30
0.0
 40
3.0
  1
27
  0
TEXT
  5
428
  8
回08-記事
  6
CONTINUOUS
 62
     7
 10
2661.278236749311
 20
-469.5609878043653
 30
0.0
 40
3.0
  1
26
  0
TEXT
  5
429
  8
回08-記事
  6
CONTINUOUS
 62
     7
 10
2680.487998908363
 20
-469.5609878043653
 30
0.0
 40
3.0
  1
1
  0
DIMENSION
  5
42A
  8
回07-寸法
  6
CONTINUOUS
 62
     5
  2
*D7575
 10
2692.844272192046
 20
-374.0866490948417
 30
0.0
 11
2692.844272192046
 21
-386.8202931690676
 31
0.0
 70
   160
  3
DMC
 13
2686.233835232037
 23
-370.5310141762304
 33
0.0
 14
2686.233835232037
 24
-374.0866490948417
 34
0.0
 50
90.0
1001
ACAD
1000
DSTYLE
1002
{
1070
   271
1070
     1
1070
    41
1040
1.5
1070
    47
1040
0.2
1070
    48
1040
0.2
1070
   141
1040
1.5
1070
   371
1070
    13
1070
   372
1070
    13
1002
}
  0
DIMENSION
  5
439
  8
回07-寸法
  6
CONTINUOUS
 62
     5
  2
*D7676
 10
2686.233835232037
 20
-400.3064633527824
 30
0.0
 11
2692.984622633612
 21
-400.3064633527824
 31
0.0
 70
   160
  3
DMC
 13
2659.233835232037
 23
-373.6724355324684
 33
0.0
 14
2686.233835232037
 24
-373.6724355324684
 34
0.0
1001
ACAD
1000
DSTYLE
1002
{
1070
    41
1040
1.5
1070
    47
1040
0.2
1070
    48
1040
0.2
1070
   141
1040
1.5
1070
   371
1070
    13
1070
   372
1070
    13
1002
}
  0
POLYLINE
  5
448
  8
回08-記事
  6
CONTINUOUS
 62
     7
 66
     1
 10
0.0
 20
0.0
 30
0.0
 70
     1
1001
ACAD
1000
ASC_BOUNDS
1002
{
1070
    19
1005
449
1002
}
  0
VERTEX
  5
B22
  8
回08-記事
  6
CONTINUOUS
 62
     7
 10
2644.030961383662
 20
-395.6350013877813
 30
0.0
  0
VERTEX
  5
B24
  8
回08-記事
  6
CONTINUOUS
 62
     7
 10
2647.530961383662
 20
-395.6350013877813
 30
0.0
 42
-0.4142135623730951
  0
VERTEX
  5
B25
  8
回08-記事
  6
CONTINUOUS
 62
     7
 10
2648.030961383662
 20
-396.1350013877813
 30
0.0
  0
VERTEX
  5
B26
  8
回08-記事
  6
CONTINUOUS
 62
     7
 10
2648.030961383662
 20
-421.1350013877813
 30
0.0
 42
-0.4142135623730951
  0
VERTEX
  5
B27
  8
回08-記事
  6
CONTINUOUS
 62
     7
 10
2647.530961383662
 20
-421.6350013877812
 30
0.0
  0
VERTEX
  5
B28
  8
回08-記事
  6
CONTINUOUS
 62
     7
 10
2644.030961383662
 20
-421.6350013877812
 30
0.0
 42
-0.4142135623730951
  0
VERTEX
  5
B29
  8
回08-記事
  6
CONTINUOUS
 62
     7
 10
2643.530961383663
 20
-421.1350013877813
 30
0.0
  0
VERTEX
  5
B2A
  8
回08-記事
  6
CONTINUOUS
 62
     7
 10
2643.530961383663
 20
-396.1350013877813
 30
0.0
 42
-0.4142135623730951
  0
SEQEND
  5
B23
  8
回04-下接
  6
CONTINUOUS
 62
     7
  0
INSERT
  5
449
  8
回08-記事
  6
CONTINUOUS
 62
     7
 66
     1
  2
*X8484
 10
0.0
 20
0.0
 30
0.0
1001
GRADIENTCOLOR1ACI
1070
     5
1001
GRADIENTCOLOR2ACI
1070
     2
1001
ACAD
1010
0.0
1020
0.0
1030
0.0
  0
SEQEND
  5
7B0
  8
回04-下接
  6
CONTINUOUS
 62
     7
  0
POLYLINE
  5
44A
  8
回04-下接
  6
CONTINUOUS
 62
     7
 66
     1
 10
0.0
 20
0.0
 30
0.0
 70
     1
  0
VERTEX
  5
B2B
  8
回04-下接
  6
CONTINUOUS
 62
     7
 10
2514.366917020444
 20
-370.5310141762304
 30
0.0
  0
VERTEX
  5
B2D
  8
回04-下接
  6
CONTINUOUS
 62
     7
 10
2792.286917020443
 20
-370.5310141762304
 30
0.0
  0
VERTEX
  5
B2E
  8
回04-下接
  6
CONTINUOUS
 62
     7
 10
2792.286917020443
 20
-186.1309813527464
 30
0.0
  0
VERTEX
  5
B2F
  8
回04-下接
  6
CONTINUOUS
 62
     7
 10
2514.366917020444
 20
-186.1309813527464
 30
0.0
  0
SEQEND
  5
B2C
  8
回04-下接
  6
CONTINUOUS
 62
     7
  0
POLYLINE
  5
44B
  8
回01-上ER
  6
CONTINUOUS
 62
     7
 66
     1
 10
0.0
 20
0.0
 30
0.0
  0
VERTEX
  5
B30
  8
回01-上ER
  6
CONTINUOUS
 62
     7
 10
2784.136917020444
 20
-337.7185141762304
 30
0.0
  0
VERTEX
  5
B32
  8
回01-上ER
  6
CONTINUOUS
 62
     7
 10
2522.516917020444
 20
-337.7185141762304
 30
0.0
  0
SEQEND
  5
B31
  8
回04-下接
  6
CONTINUOUS
 62
     7
  0
POLYLINE
  5
44F
  8
回01-上ER
  6
CONTINUOUS
 62
     7
 66
     1
 10
0.0
 20
0.0
 30
0.0
  0
VERTEX
  5
B33
  8
回01-上ER
  6
CONTINUOUS
 62
     7
 10
2784.136917020444
 20
-317.2060141762304
 30
0.0
  0
VERTEX
  5
B35
  8
回01-上ER
  6
CONTINUOUS
 62
     7
 10
2522.516917020444
 20
-317.2060141762304
 30
0.0
  0
SEQEND
  5
B34
  8
回04-下接
  6
CONTINUOUS
 62
     7
  0
POLYLINE
  5
450
  8
回01-上ER
  6
CONTINUOUS
 62
     7
 66
     1
 10
0.0
 20
0.0
 30
0.0
  0
VERTEX
  5
B36
  8
回01-上ER
  6
CONTINUOUS
 62
     7
 10
2522.516917020444
 20
-337.3185141762304
 30
0.0
  0
VERTEX
  5
B38
  8
回01-上ER
  6
CONTINUOUS
 62
     7
 10
2784.136917020444
 20
-337.3185141762304
 30
0.0
  0
SEQEND
  5
B37
  8
回04-下接
  6
CONTINUOUS
 62
     7
  0
POLYLINE
  5
451
  8
回01-上ER
  6
CONTINUOUS
 62
     7
 66
     1
 10
0.0
 20
0.0
 30
0.0
  0
VERTEX
  5
B39
  8
回01-上ER
  6
CONTINUOUS
 62
     7
 10
2784.136917020444
 20
-296.6935141762304
 30
0.0
  0
VERTEX
  5
B3B
  8
回01-上ER
  6
CONTINUOUS
 62
     7
 10
2522.516917020444
 20
-296.6935141762304
 30
0.0
  0
SEQEND
  5
B3A
  8
回04-下接
  6
CONTINUOUS
 62
     7
  0
POLYLINE
  5
452
  8
回01-上ER
  6
CONTINUOUS
 62
     7
 66
     1
 10
0.0
 20
0.0
 30
0.0
  0
VERTEX
  5
B3C
  8
回01-上ER
  6
CONTINUOUS
 62
     7
 10
2522.516917020444
 20
-316.8060141762304
 30
0.0
  0
VERTEX
  5
B3E
  8
回01-上ER
  6
CONTINUOUS
 62
     7
 10
2784.136917020444
 20
-316.8060141762304
 30
0.0
  0
SEQEND
  5
B3D
  8
回04-下接
  6
CONTINUOUS
 62
     7
  0
POLYLINE
  5
453
  8
回01-上ER
  6
CONTINUOUS
 62
     7
 66
     1
 10
0.0
 20
0.0
 30
0.0
  0
VERTEX
  5
B3F
  8
回01-上ER
  6
CONTINUOUS
 62
     7
 10
2784.136917020444
 20
-276.1810141762304
 30
0.0
  0
VERTEX
  5
B41
  8
回01-上ER
  6
CONTINUOUS
 62
     7
 10
2522.516917020444
 20
-276.1810141762304
 30
0.0
  0
SEQEND
  5
B40
  8
回04-下接
  6
CONTINUOUS
 62
     7
  0
POLYLINE
  5
454
  8
回01-上ER
  6
CONTINUOUS
 62
     7
 66
     1
 10
0.0
 20
0.0
 30
0.0
  0
VERTEX
  5
B42
  8
回01-上ER
  6
CONTINUOUS
 62
     7
 10
2522.516917020444
 20
-296.2935141762304
 30
0.0
  0
VERTEX
  5
B44
  8
回01-上ER
  6
CONTINUOUS
 62
     7
 10
2784.136917020444
 20
-296.2935141762304
 30
0.0
  0
SEQEND
  5
B43
  8
回04-下接
  6
CONTINUOUS
 62
     7
  0
POLYLINE
  5
455
  8
回01-上ER
  6
CONTINUOUS
 62
     7
 66
     1
 10
0.0
 20
0.0
 30
0.0
  0
VERTEX
  5
B45
  8
回01-上ER
  6
CONTINUOUS
 62
     7
 10
2784.136917020444
 20
-255.6685141762304
 30
0.0
  0
VERTEX
  5
B47
  8
回01-上ER
  6
CONTINUOUS
 62
     7
 10
2522.516917020444
 20
-255.6685141762304
 30
0.0
  0
SEQEND
  5
B46
  8
回04-下接
  6
CONTINUOUS
 62
     7
  0
POLYLINE
  5
456
  8
回01-上ER
  6
CONTINUOUS
 62
     7
 66
     1
 10
0.0
 20
0.0
 30
0.0
  0
VERTEX
  5
B48
  8
回01-上ER
  6
CONTINUOUS
 62
     7
 10
2522.516917020444
 20
-275.7810141762304
 30
0.0
  0
VERTEX
  5
B4A
  8
回01-上ER
  6
CONTINUOUS
 62
     7
 10
2784.136917020444
 20
-275.7810141762304
 30
0.0
  0
SEQEND
  5
B49
  8
回04-下接
  6
CONTINUOUS
 62
     7
  0
POLYLINE
  5
457
  8
回01-上ER
  6
CONTINUOUS
 62
     7
 66
     1
 10
0.0
 20
0.0
 30
0.0
  0
VERTEX
  5
B4B
  8
回01-上ER
  6
CONTINUOUS
 62
     7
 10
2784.136917020444
 20
-235.1560141762304
 30
0.0
  0
VERTEX
  5
B4D
  8
回01-上ER
  6
CONTINUOUS
 62
     7
 10
2522.516917020444
 20
-235.1560141762304
 30
0.0
  0
SEQEND
  5
B4C
  8
回04-下接
  6
CONTINUOUS
 62
     7
  0
POLYLINE
  5
458
  8
回01-上ER
  6
CONTINUOUS
 62
     7
 66
     1
 10
0.0
 20
0.0
 30
0.0
  0
VERTEX
  5
B4E
  8
回01-上ER
  6
CONTINUOUS
 62
     7
 10
2522.516917020444
 20
-255.2685141762304
 30
0.0
  0
VERTEX
  5
B50
  8
回01-上ER
  6
CONTINUOUS
 62
     7
 10
2784.136917020444
 20
-255.2685141762304
 30
0.0
  0
SEQEND
  5
B4F
  8
回04-下接
  6
CONTINUOUS
 62
     7
  0
POLYLINE
  5
459
  8
回01-上ER
  6
CONTINUOUS
 62
     7
 66
     1
 10
0.0
 20
0.0
 30
0.0
  0
VERTEX
  5
B51
  8
回01-上ER
  6
CONTINUOUS
 62
     7
 10
2784.136917020444
 20
-214.6435141762304
 30
0.0
  0
VERTEX
  5
B53
  8
回01-上ER
  6
CONTINUOUS
 62
     7
 10
2522.516917020444
 20
-214.6435141762304
 30
0.0
  0
SEQEND
  5
B52
  8
回04-下接
  6
CONTINUOUS
 62
     7
  0
POLYLINE
  5
45A
  8
回01-上ER
  6
CONTINUOUS
 62
     7
 66
     1
 10
0.0
 20
0.0
 30
0.0
  0
VERTEX
  5
B54
  8
回01-上ER
  6
CONTINUOUS
 62
     7
 10
2522.516917020444
 20
-234.7560141762305
 30
0.0
  0
VERTEX
  5
B56
  8
回01-上ER
  6
CONTINUOUS
 62
     7
 10
2784.136917020444
 20
-234.7560141762305
 30
0.0
  0
SEQEND
  5
B55
  8
回04-下接
  6
CONTINUOUS
 62
     7
  0
POLYLINE
  5
45B
  8
回01-上ER
  6
CONTINUOUS
 62
     7
 66
     1
 10
0.0
 20
0.0
 30
0.0
  0
VERTEX
  5
B57
  8
回01-上ER
  6
CONTINUOUS
 62
     7
 10
2522.516917020444
 20
-214.2435141762305
 30
0.0
  0
VERTEX
  5
B59
  8
回01-上ER
  6
CONTINUOUS
 62
     7
 10
2784.136917020444
 20
-214.2435141762305
 30
0.0
  0
SEQEND
  5
B58
  8
回04-下接
  6
CONTINUOUS
 62
     7
  0
POLYLINE
  5
45C
  8
回08-記事
  6
PHANTOM2
 62
     7
 66
     1
 10
0.0
 20
0.0
 30
0.0
 70
     1
  0
VERTEX
  5
B5A
  8
回08-記事
  6
PHANTOM2
 62
     7
 10
2520.016917020444
 20
-360.3310141762305
 30
0.0
  0
VERTEX
  5
B5C
  8
回08-記事
  6
PHANTOM2
 62
     7
 10
2786.636917020444
 20
-360.3310141762305
 30
0.0
  0
VERTEX
  5
B5D
  8
回08-記事
  6
PHANTOM2
 62
     7
 10
2786.636917020444
 20
-191.6310141762304
 30
0.0
  0
VERTEX
  5
B5E
  8
回08-記事
  6
PHANTOM2
 62
     7
 10
2520.016917020444
 20
-191.6310141762304
 30
0.0
  0
SEQEND
  5
B5B
  8
回04-下接
  6
CONTINUOUS
 62
     7
  0
POLYLINE
  5
45E
  8
回08-記事
  6
CONTINUOUS
 62
     7
 66
     1
 10
0.0
 20
0.0
 30
0.0
 70
     1
  0
VERTEX
  5
B5F
  8
回08-記事
  6
CONTINUOUS
 62
     7
 10
2520.516917020444
 20
-359.8310141762305
 30
0.0
  0
VERTEX
  5
B61
  8
回08-記事
  6
CONTINUOUS
 62
     7
 10
2786.136917020443
 20
-359.8310141762305
 30
0.0
  0
VERTEX
  5
B62
  8
回08-記事
  6
CONTINUOUS
 62
     7
 10
2786.136917020443
 20
-192.1310141762304
 30
0.0
  0
VERTEX
  5
B63
  8
回08-記事
  6
CONTINUOUS
 62
     7
 10
2520.516917020444
 20
-192.1310141762304
 30
0.0
  0
SEQEND
  5
B60
  8
回04-下接
  6
CONTINUOUS
 62
     7
  0
POLYLINE
  5
45F
  8
回08-記事
  6
CONTINUOUS
 62
     7
 66
     1
 10
0.0
 20
0.0
 30
0.0
 70
     1
  0
VERTEX
  5
B64
  8
回08-記事
  6
CONTINUOUS
 62
     7
 10
2522.516917020444
 20
-357.8310141762305
 30
0.0
  0
VERTEX
  5
B66
  8
回08-記事
  6
CONTINUOUS
 62
     7
 10
2784.136917020444
 20
-357.8310141762305
 30
0.0
  0
VERTEX
  5
B67
  8
回08-記事
  6
CONTINUOUS
 62
     7
 10
2784.136917020444
 20
-194.1310141762304
 30
0.0
  0
VERTEX
  5
B68
  8
回08-記事
  6
CONTINUOUS
 62
     7
 10
2522.516917020444
 20
-194.1310141762304
 30
0.0
  0
SEQEND
  5
B65
  8
回04-下接
  6
CONTINUOUS
 62
     7
  0
ARC
  5
460
  8
回05-ﾃｰﾙ
  6
CONTINUOUS
 62
     8
 10
2680.482709916589
 20
-381.2519879726623
 30
0.0
 40
1.0
 50
134.9999999999912
 51
180.0
  0
LINE
  5
461
  8
回05-ﾃｰﾙ
  6
CONTINUOUS
 62
     8
 10
2679.775603135402
 20
-380.5448811914759
 30
0.0
 11
2685.940942013223
 21
-374.3795423136541
 31
0.0
  0
ARC
  5
462
  8
回05-ﾃｰﾙ
  6
CONTINUOUS
 62
     8
 10
2664.982709916589
 20
-381.2497373417652
 30
0.0
 40
1.0
 50
0.0
 51
45.00000000000878
  0
LINE
  5
463
  8
回05-ﾃｰﾙ
  6
CONTINUOUS
 62
     8
 10
2665.689816697776
 20
-380.5426305605788
 30
0.0
 11
2659.526728450851
 21
-374.3795423136541
 31
0.0
  0
ARC
  5
464
  8
回05-ﾃｰﾙ
  6
CONTINUOUS
 62
     8
 10
2660.233835232038
 20
-373.6724355324676
 30
0.0
 40
1.0
 50
180.0
 51
225.0000000000088
  0
LINE
  5
465
  8
回05-ﾃｰﾙ
  6
CONTINUOUS
 62
     8
 10
2659.233835232037
 20
-373.6724355324676
 30
0.0
 11
2659.233835232037
 21
-367.3810141762303
 31
0.0
  0
ARC
  5
466
  8
回05-ﾃｰﾙ
  6
CONTINUOUS
 62
     8
 10
2685.233835232037
 20
-373.6724355324676
 30
0.0
 40
1.0
 50
314.9999999999906
 51
0.0
  0
LINE
  5
467
  8
回05-ﾃｰﾙ
  6
CONTINUOUS
 62
     8
 10
2686.233835232037
 20
-373.6724355324676
 30
0.0
 11
2686.233835232037
 21
-367.3810141762303
 31
0.0
  0
ARC
  5
468
  8
回05-ﾃｰﾙ
  6
CONTINUOUS
 62
     8
 10
2666.482709916589
 20
-470.0269658054191
 30
0.0
 40
0.5
 50
180.0
 51
270.0
  0
LINE
  5
469
  8
回05-ﾃｰﾙ
  6
CONTINUOUS
 62
     8
 10
2665.982709916589
 20
-470.0269658054191
 30
0.0
 11
2665.982709916589
 21
-381.2497373417652
 31
0.0
  0
LINE
  5
46A
  8
回05-ﾃｰﾙ
  6
CONTINUOUS
 62
     8
 10
2666.482709916589
 20
-470.5269658054191
 30
0.0
 11
2678.982709916589
 21
-470.5269658054191
 31
0.0
  0
TEXT
  5
46B
  8
回90-枠2
 10
2968.731768444637
 20
-137.4903417578717
 30
0.0
 40
4.0
  1
H
  0
LINE
  5
46F
  8
回90-枠2
 10
2935.002383138984
 20
-132.862764883923
 30
0.0
 11
2935.002383138984
 21
-137.8627648839229
 31
0.0
  0
LINE
  5
470
  8
回90-枠2
 10
2865.002383138985
 20
-132.862764883923
 30
0.0
 11
2865.002383138985
 21
-137.8627648839229
 31
0.0
  0
TEXT
  5
471
  8
回90-枠2
 10
2828.731768444637
 20
-137.4903417578717
 30
0.0
 40
4.0
  1
F
  0
LINE
  5
472
  8
回90-枠2
 10
2795.002383138985
 20
-132.862764883923
 30
0.0
 11
2795.002383138985
 21
-137.8627648839229
 31
0.0
  0
TEXT
  5
473
  8
回90-枠2
 10
2758.731768444637
 20
-137.4903417578717
 30
0.0
 40
4.0
  1
E
  0
TEXT
  5
474
  8
回90-枠2
 10
2898.731768444637
 20
-137.4903417578717
 30
0.0
 40
4.0
  1
G
  0
LINE
  5
475
  8
回90-枠2
 10
2725.002383138985
 20
-132.862764883923
 30
0.0
 11
2725.002383138985
 21
-137.8627648839229
 31
0.0
  0
TEXT
  5
476
  8
回90-枠2
 10
2688.731768444637
 20
-137.4903417578717
 30
0.0
 40
4.0
  1
D
  0
LINE
  5
477
  8
回90-枠2
 10
2655.002383138985
 20
-132.862764883923
 30
0.0
 11
2655.002383138985
 21
-137.8627648839229
 31
0.0
  0
TEXT
  5
478
  8
回90-枠2
 10
2618.731768444637
 20
-137.4903417578717
 30
0.0
 40
4.0
  1
C
  0
LINE
  5
479
  8
回90-枠2
 10
2585.002383138985
 20
-132.862764883923
 30
0.0
 11
2585.002383138985
 21
-137.8627648839229
 31
0.0
  0
TEXT
  5
47A
  8
回90-枠2
 10
2548.731768444637
 20
-137.4903417578717
 30
0.0
 40
4.0
  1
B
  0
LINE
  5
47B
  8
回90-枠2
 10
2515.002383138984
 20
-132.862764883923
 30
0.0
 11
2515.002383138984
 21
-137.8627648839229
 31
0.0
  0
TEXT
  5
47C
  8
回90-枠2
 10
2478.731768444637
 20
-137.4903417578717
 30
0.0
 40
4.0
  1
A
  0
LINE
  5
47D
  8
回90-枠2
 10
3010.002383138985
 20
-132.862764883923
 30
0.0
 11
2440.002383138985
 21
-132.862764883923
 31
0.0
  0
LINE
  5
47E
  8
回90-枠2
 10
2445.002383138985
 20
-137.8627648839229
 30
0.0
 11
3005.002383138985
 21
-137.8627648839229
 31
0.0
  0
TEXT
  5
47F
  8
回90-枠2
 10
3006.406804142645
 20
-178.5740775880637
 30
0.0
 40
4.0
  1
1
  0
LINE
  5
480
  8
回90-枠2
 10
3010.002383138985
 20
-214.862764883923
 30
0.0
 11
3005.002383138985
 21
-214.862764883923
 31
0.0
  0
TEXT
  5
481
  8
回90-枠2
 10
3006.105305439343
 20
-255.5740775880637
 30
0.0
 40
4.0
  1
2
  0
LINE
  5
482
  8
回90-枠2
 10
3010.002383138985
 20
-291.862764883923
 30
0.0
 11
3005.002383138985
 21
-291.862764883923
 31
0.0
  0
TEXT
  5
483
  8
回90-枠2
 10
3006.099824595141
 20
-332.5740775880637
 30
0.0
 40
4.0
  1
3
  0
LINE
  5
484
  8
回90-枠2
 10
3010.002383138985
 20
-368.8627648839229
 30
0.0
 11
3005.002383138985
 21
-368.8627648839229
 31
0.0
  0
TEXT
  5
485
  8
回90-枠2
 10
3006.02673247506
 20
-409.5740775880637
 30
0.0
 40
4.0
  1
4
  0
TEXT
  5
486
  8
回90-枠2
 10
2441.406804142645
 20
-178.5740775880637
 30
0.0
 40
4.0
  1
1
  0
LINE
  5
487
  8
回90-枠2
 10
2445.002383138985
 20
-214.862764883923
 30
0.0
 11
2440.002383138985
 21
-214.862764883923
 31
0.0
  0
TEXT
  5
488
  8
回90-枠2
 10
2441.105305439343
 20
-255.5740775880637
 30
0.0
 40
4.0
  1
2
  0
LINE
  5
489
  8
回90-枠2
 10
2445.002383138985
 20
-291.862764883923
 30
0.0
 11
2440.002383138985
 21
-291.862764883923
 31
0.0
  0
TEXT
  5
48A
  8
回90-枠2
 10
2441.099824595142
 20
-332.5740775880637
 30
0.0
 40
4.0
  1
3
  0
LINE
  5
48B
  8
回90-枠2
 10
2445.002383138985
 20
-368.8627648839229
 30
0.0
 11
2440.002383138985
 21
-368.8627648839229
 31
0.0
  0
TEXT
  5
48C
  8
回90-枠2
 10
2441.02673247506
 20
-409.5740775880637
 30
0.0
 40
4.0
  1
4
  0
LINE
  5
48D
  8
回90-枠2
 10
3010.002383138985
 20
-445.8627648839228
 30
0.0
 11
3005.002383138985
 21
-445.8627648839228
 31
0.0
  0
TEXT
  5
48E
  8
回90-枠2
 10
3006.02673247506
 20
-486.5740775880636
 30
0.0
 40
4.0
  1
5
  0
TEXT
  5
48F
  8
回90-枠2
 10
2968.731768444637
 20
-527.4903417578716
 30
0.0
 40
4.0
  1
H
  0
LINE
  5
490
  8
回90-枠2
 10
2935.002383138984
 20
-522.8627648839228
 30
0.0
 11
2935.002383138984
 21
-527.8627648839227
 31
0.0
  0
LINE
  5
491
  8
回90-枠2
 10
2865.002383138985
 20
-522.8627648839228
 30
0.0
 11
2865.002383138985
 21
-527.8627648839227
 31
0.0
  0
TEXT
  5
492
  8
回90-枠2
 10
2828.731768444637
 20
-527.4903417578716
 30
0.0
 40
4.0
  1
F
  0
LINE
  5
493
  8
回90-枠2
 10
2795.002383138985
 20
-522.8627648839228
 30
0.0
 11
2795.002383138985
 21
-527.8627648839227
 31
0.0
  0
TEXT
  5
494
  8
回90-枠2
 10
2758.731768444637
 20
-527.4903417578716
 30
0.0
 40
4.0
  1
E
  0
TEXT
  5
495
  8
回90-枠2
 10
2898.731768444637
 20
-527.4903417578716
 30
0.0
 40
4.0
  1
G
  0
LINE
  5
496
  8
回90-枠2
 10
2725.002383138985
 20
-522.8627648839228
 30
0.0
 11
2725.002383138985
 21
-527.8627648839227
 31
0.0
  0
TEXT
  5
497
  8
回90-枠2
 10
2688.731768444637
 20
-527.4903417578716
 30
0.0
 40
4.0
  1
D
  0
LINE
  5
498
  8
回90-枠2
 10
2655.002383138985
 20
-522.8627648839228
 30
0.0
 11
2655.002383138985
 21
-527.8627648839227
 31
0.0
  0
TEXT
  5
499
  8
回90-枠2
 10
2618.731768444637
 20
-527.4903417578716
 30
0.0
 40
4.0
  1
C
  0
LINE
  5
49A
  8
回90-枠2
 10
2585.002383138985
 20
-522.8627648839228
 30
0.0
 11
2585.002383138985
 21
-527.8627648839227
 31
0.0
  0
LINE
  5
49B
  8
回90-枠2
 10
2445.002383138985
 20
-445.8627648839228
 30
0.0
 11
2440.002383138985
 21
-445.8627648839228
 31
0.0
  0
TEXT
  5
49C
  8
回90-枠2
 10
2441.02673247506
 20
-486.5740775880636
 30
0.0
 40
4.0
  1
5
  0
TEXT
  5
49D
  8
回90-枠2
 10
2548.731768444637
 20
-527.4903417578716
 30
0.0
 40
4.0
  1
B
  0
LINE
  5
49E
  8
回90-枠2
 10
2515.002383138984
 20
-522.8627648839228
 30
0.0
 11
2515.002383138984
 21
-527.8627648839227
 31
0.0
  0
TEXT
  5
49F
  8
回90-枠2
 10
2478.731768444637
 20
-527.4903417578716
 30
0.0
 40
4.0
  1
A
  0
LINE
  5
4A0
  8
回90-枠2
 10
2445.002383138985
 20
-522.8627648839228
 30
0.0
 11
3005.002383138985
 21
-522.8627648839228
 31
0.0
  0
LINE
  5
4A1
  8
回90-枠2
 10
3010.002383138985
 20
-527.8627648839227
 30
0.0
 11
2440.002383138985
 21
-527.8627648839227
 31
0.0
  0
LINE
  5
4A2
  8
回90-枠2
 10
3010.002383138985
 20
-527.8627648839227
 30
0.0
 11
3010.002383138985
 21
-132.862764883923
 31
0.0
  0
LINE
  5
4A3
  8
回90-枠2
 10
3005.002383138985
 20
-137.8627648839229
 30
0.0
 11
3005.002383138985
 21
-522.8627648839228
 31
0.0
  0
LINE
  5
4A4
  8
回90-枠2
 10
2440.002383138985
 20
-527.8627648839227
 30
0.0
 11
2440.002383138985
 21
-132.862764883923
 31
0.0
  0
LINE
  5
4A5
  8
回90-枠2
 10
2445.002383138985
 20
-137.8627648839229
 30
0.0
 11
2445.002383138985
 21
-522.8627648839228
 31
0.0
  0
ENDSEC
  0
EOF
