  0
SECTION
  2
HEADER
  9
$ACADVER
  1
AC1009
  9
$INSBASE
 10
0.0
 20
0.0
 30
0.0
  9
$EXTMIN
 10
1705.492547106244
 20
-27.54888816566
 30
0.0
  9
$EXTMAX
 10
2515.492547106245
 20
522.45111183434
 30
0.0
  9
$LIMMIN
 10
0.0
 20
0.0
  9
$LIMMAX
 10
3000.0
 20
2500.0
  9
$ORTHOMODE
 70
     0
  9
$REGENMODE
 70
     1
  9
$FILLMODE
 70
     1
  9
$QTEXTMODE
 70
     0
  9
$MIRRTEXT
 70
     1
  9
$DRAGMODE
 70
     2
  9
$LTSCALE
 40
10.0
  9
$OSMODE
 70
    37
  9
$ATTMODE
 70
     1
  9
$TEXTSIZE
 40
5.0
  9
$TRACEWID
 40
1.0
  9
$TEXTSTYLE
  7
STANDARD
  9
$CLAYER
  8
0
  9
$CELTYPE
  6
CONTINUOUS
  9
$CECOLOR
 62
    18
  9
$DIMSCALE
 40
1.0
  9
$DIMASZ
 40
1.5
  9
$DIMEXO
 40
0.0
  9
$DIMDLI
 40
0.0
  9
$DIMRND
 40
0.0
  9
$DIMDLE
 40
0.0
  9
$DIMEXE
 40
1.0
  9
$DIMTP
 40
0.2
  9
$DIMTM
 40
0.2
  9
$DIMTXT
 40
3.0
  9
$DIMCEN
 40
1.5
  9
$DIMTSZ
 40
0.0
  9
$DIMTOL
 70
     0
  9
$DIMLIM
 70
     0
  9
$DIMTIH
 70
     0
  9
$DIMTOH
 70
     0
  9
$DIMSE1
 70
     0
  9
$DIMSE2
 70
     0
  9
$DIMTAD
 70
     3
  9
$DIMZIN
 70
     8
  9
$DIMBLK
  1
OPEN
  9
$DIMASO
 70
     1
  9
$DIMSHO
 70
     1
  9
$DIMPOST
  1

  9
$DIMAPOST
  1

  9
$DIMALT
 70
     0
  9
$DIMALTD
 70
     3
  9
$DIMALTF
 40
0.03937007874016
  9
$DIMLFAC
 40
1.0
  9
$DIMTOFL
 70
     1
  9
$DIMTVP
 40
0.0
  9
$DIMTIX
 70
     0
  9
$DIMSOXD
 70
     0
  9
$DIMSAH
 70
     0
  9
$DIMBLK1
  1

  9
$DIMBLK2
  1

  9
$DIMSTYLE
  2
DMC
  9
$DIMCLRD
 70
     5
  9
$DIMCLRE
 70
     5
  9
$DIMCLRT
 70
     5
  9
$DIMTFAC
 40
0.7
  9
$DIMGAP
 40
0.5
  9
$LUNITS
 70
     2
  9
$LUPREC
 70
     4
  9
$SKETCHINC
 40
1.0
  9
$FILLETRAD
 40
0.5
  9
$AUNITS
 70
     0
  9
$AUPREC
 70
     0
  9
$MENU
  1
.
  9
$ELEVATION
 40
0.0
  9
$PELEVATION
 40
0.0
  9
$THICKNESS
 40
0.0
  9
$LIMCHECK
 70
     0
  9
$BLIPMODE
 70
     0
  9
$CHAMFERA
 40
10.0
  9
$CHAMFERB
 40
10.0
  9
$SKPOLY
 70
     0
  9
$TDCREATE
 40
2451810.404221065
  9
$TDUPDATE
 40
2460230.385391447
  9
$TDINDWG
 40
3.665226065
  9
$TDUSRTIMER
 40
3.665224641
  9
$USRTIMER
 70
     1
  9
$ANGBASE
 50
0.0
  9
$ANGDIR
 70
     0
  9
$PDMODE
 70
     0
  9
$PDSIZE
 40
0.0
  9
$PLINEWID
 40
0.0
  9
$COORDS
 70
     0
  9
$SPLFRAME
 70
     0
  9
$SPLINETYPE
 70
     6
  9
$SPLINESEGS
 70
     8
  9
$ATTDIA
 70
     1
  9
$ATTREQ
 70
     1
  9
$HANDLING
 70
     1
  9
$HANDSEED
  5
BB7
  9
$SURFTAB1
 70
     6
  9
$SURFTAB2
 70
     6
  9
$SURFTYPE
 70
     6
  9
$SURFU
 70
     6
  9
$SURFV
 70
     6
  9
$UCSNAME
  2

  9
$UCSORG
 10
0.0
 20
0.0
 30
0.0
  9
$UCSXDIR
 10
1.0
 20
0.0
 30
0.0
  9
$UCSYDIR
 10
0.0
 20
1.0
 30
0.0
  9
$PUCSNAME
  2

  9
$PUCSORG
 10
0.0
 20
0.0
 30
0.0
  9
$PUCSXDIR
 10
1.0
 20
0.0
 30
0.0
  9
$PUCSYDIR
 10
0.0
 20
1.0
 30
0.0
  9
$USERI1
 70
     0
  9
$USERI2
 70
     0
  9
$USERI3
 70
     0
  9
$USERI4
 70
     0
  9
$USERI5
 70
     0
  9
$USERR1
 40
0.0
  9
$USERR2
 40
0.0
  9
$USERR3
 40
0.0
  9
$USERR4
 40
0.0
  9
$USERR5
 40
0.0
  9
$WORLDVIEW
 70
     1
  9
$SHADEDGE
 70
     3
  9
$SHADEDIF
 70
    70
  9
$TILEMODE
 70
     1
  9
$MAXACTVP
 70
    64
  9
$PLIMCHECK
 70
     0
  9
$PEXTMIN
 10
1.000000000000000E+20
 20
1.000000000000000E+20
 30
1.000000000000000E+20
  9
$PEXTMAX
 10
-1.000000000000000E+20
 20
-1.000000000000000E+20
 30
-1.000000000000000E+20
  9
$PLIMMIN
 10
0.0
 20
0.0
  9
$PLIMMAX
 10
420.0
 20
297.0
  9
$UNITMODE
 70
     0
  9
$VISRETAIN
 70
     1
  9
$PLINEGEN
 70
     0
  9
$PSLTSCALE
 70
     1
  0
ENDSEC
  0
SECTION
  2
TABLES
  0
TABLE
  2
VPORT
 70
     1
  0
VPORT
  2
*ACTIVE
 70
     0
 10
0.0
 20
0.0
 11
1.0
 21
1.0
 12
2224.100312910221
 22
221.2063039255505
 13
0.0
 23
0.0
 14
10.0
 24
10.0
 15
10.0
 25
10.0
 16
0.0
 26
0.0
 36
1.0
 17
0.0
 27
0.0
 37
0.0
 40
923.8161062730068
 41
1.853689567430025
 42
50.0
 43
0.0
 44
0.0
 50
0.0
 51
0.0
 71
     0
 72
   500
 73
     1
 74
     1
 75
     0
 76
     0
 77
     0
 78
     0
  0
ENDTAB
  0
TABLE
  2
LTYPE
 70
     4
  0
LTYPE
  2
CONTINUOUS
 70
     0
  3
Solid line
 72
    65
 73
     0
 40
0.0
  0
LTYPE
  2
CENTER2
 70
     0
  3
Center (.5x) ___ _ ___ _ ___ _ ___ _ ___ _ ___
 72
    65
 73
     4
 40
28.575
 49
19.05
 49
-3.174999999999998
 49
3.174999999999998
 49
-3.174999999999998
  0
LTYPE
  2
DASHED2
 70
     0
  3
Dashed (.5x) _ _ _ _ _ _ _ _ _ _ _ _ _ _ _ _ _
 72
    65
 73
     2
 40
9.524999999999996
 49
6.349999999999998
 49
-3.174999999999998
  0
LTYPE
  2
PHANTOM2
 70
     0
  3
___ _ _ ___ _ _ ___ _ _ ___ _ _ ___ _ _ ___ _ _
 72
    65
 73
     6
 40
1.25
 49
0.625
 49
-0.125
 49
0.125
 49
-0.125
 49
0.125
 49
-0.125
  0
ENDTAB
  0
TABLE
  2
LAYER
 70
    11
  0
LAYER
  2
0
 70
     0
 62
     7
  6
CONTINUOUS
  0
LAYER
  2
DEFPOINTS
 70
     0
 62
     7
  6
CONTINUOUS
  0
LAYER
  2
回05-ﾃｰﾙ
 70
     0
 62
     7
  6
CONTINUOUS
  0
LAYER
  2
回07-寸法
 70
     0
 62
     7
  6
CONTINUOUS
  0
LAYER
  2
回03-下ER
 70
     0
 62
     7
  6
CONTINUOUS
  0
LAYER
  2
回90-枠2
 70
     0
 62
     7
  6
CONTINUOUS
  0
LAYER
  2
回04-下接
 70
     0
 62
     7
  6
CONTINUOUS
  0
LAYER
  2
回01-上ER
 70
     0
 62
     7
  6
CONTINUOUS
  0
LAYER
  2
回08-記事
 70
     0
 62
     7
  6
CONTINUOUS
  0
LAYER
  2
回90-枠1
 70
     0
 62
     7
  6
CONTINUOUS
  0
LAYER
  2
回03-記事
 70
     0
 62
     7
  6
CONTINUOUS
  0
ENDTAB
  0
TABLE
  2
STYLE
 70
     2
  0
STYLE
  2
STANDARD
 70
     0
 40
5.0
 41
1.0
 50
0.0
 71
     0
 42
5.0
  3
isocp.shx
  4
bigfont.shx
  0
STYLE
  2
ANNOTATIVE
 70
     0
 40
0.0
 41
1.0
 50
0.0
 71
     0
 42
0.2
  3
txt.shx
  4

  0
ENDTAB
  0
TABLE
  2
VIEW
 70
     0
  0
ENDTAB
  0
TABLE
  2
UCS
 70
     0
  0
ENDTAB
  0
TABLE
  2
APPID
 70
     7
  0
APPID
  2
ACAD
 70
     0
  0
APPID
  2
ACADANNOTATIVE
 70
     0
  0
APPID
  2
ACAD_PSEXT
 70
     0
  0
APPID
  2
GRADIENTCOLOR1ACI
 70
     0
  0
APPID
  2
GRADIENTCOLOR2ACI
 70
     0
  0
APPID
  2
ACADSTRINGINFO
 70
     0
  0
APPID
  2
ACAD_NAV_VCDISPLAY
 70
     0
  0
ENDTAB
  0
TABLE
  2
DIMSTYLE
 70
     1
  0
DIMSTYLE
  2
DMC
 70
     0
  3

  4

  5
OPEN
  6

  7

 40
1.0
 41
2.0
 42
0.0
 43
0.0
 44
1.0
 45
0.0
 46
0.0
 47
0.0
 48
0.0
140
3.0
141
2.0
142
0.0
143
0.03937007874016
144
1.0
145
0.0
146
0.7
147
0.5
 71
     0
 72
     0
 73
     0
 74
     0
 75
     0
 76
     0
 77
     3
 78
     8
170
     0
171
     3
172
     1
173
     0
174
     0
175
     0
176
     5
177
     5
178
     5
  0
ENDTAB
  0
ENDSEC
  0
SECTION
  2
BLOCKS
  0
BLOCK
  8
0
  2
$MODEL_SPACE
 70
     0
 10
0.0
 20
0.0
 30
0.0
  3
$MODEL_SPACE
  1

  0
ENDBLK
  8
0
  5
1D
  0
BLOCK
 67
     1
  8
0
  2
$PAPER_SPACE
 70
     0
 10
0.0
 20
0.0
 30
0.0
  3
$PAPER_SPACE
  1

  0
ENDBLK
  5
23
 67
     1
  8
0
  0
BLOCK
  8
0
  2
_OPEN
 70
     0
 10
0.0
 20
0.0
 30
0.0
  3
_OPEN
  1

  0
LINE
  5
903
  8
0
  6
BYBLOCK
 62
     0
 10
-1.0
 20
0.166667
 30
0.0
 11
0.0
 21
0.0
 31
0.0
  0
LINE
  5
904
  8
0
  6
BYBLOCK
 62
     0
 10
-1.0
 20
-0.166667
 30
0.0
 11
0.0
 21
0.0
 31
0.0
  0
LINE
  5
905
  8
0
  6
BYBLOCK
 62
     0
 10
0.0
 20
0.0
 30
0.0
 11
-1.0
 21
0.0
 31
0.0
  0
LINE
  5
11
  8
0
  6
CONTINUOUS
 62
     0
 10
-1.0
 20
0.1666666666666666
 30
0.0
 11
0.0
 21
0.0
 31
0.0
  0
LINE
  5
12
  8
0
  6
CONTINUOUS
 62
     0
 10
-1.0
 20
-0.1666666666666666
 30
0.0
 11
0.0
 21
0.0
 31
0.0
  0
LINE
  5
13
  8
0
  6
CONTINUOUS
 62
     0
 10
0.0
 20
0.0
 30
0.0
 11
-1.0
 21
0.0
 31
0.0
  0
ENDBLK
  5
14
  8
0
  0
BLOCK
  8
0
  2
*D11
 70
     1
 10
0.0
 20
0.0
 30
0.0
  3
*D11
  1

  0
LINE
  5
229
  8
回07-寸法
  6
CONTINUOUS
 62
     5
 10
2050.470693454812
 20
233.8002264918677
 30
0.0
 11
2020.214062079546
 21
233.8002264918677
 31
0.0
  0
LINE
  5
22A
  8
回07-寸法
  6
CONTINUOUS
 62
     5
 10
2064.719568139363
 20
133.8042748626786
 30
0.0
 11
2020.214062079546
 21
133.8042748626786
 31
0.0
  0
LINE
  5
22B
  8
回07-寸法
  6
CONTINUOUS
 62
     5
 10
2021.214062079546
 20
232.3002264918677
 30
0.0
 11
2021.214062079546
 21
135.3042748626786
 31
0.0
  0
INSERT
  5
22C
  8
回07-寸法
  6
CONTINUOUS
 62
     5
 66
     1
  2
_OPEN
 10
2021.214062079546
 20
233.8002264918677
 30
0.0
 41
1.5
 42
1.5
 43
1.5
 50
90.0
  0
SEQEND
  5
22D
  8
0
  6
CONTINUOUS
 62
    18
  0
INSERT
  5
22E
  8
回07-寸法
  6
CONTINUOUS
 62
     5
 66
     1
  2
_OPEN
 10
2021.214062079546
 20
133.8042748626786
 30
0.0
 41
1.5
 42
1.5
 43
1.5
 50
270.0
  0
SEQEND
  5
22F
  8
0
  6
CONTINUOUS
 62
    18
  0
INSERT
  5
230
  8
回07-寸法
  6
CONTINUOUS
 62
     5
 66
     1
  2
*X8080
 10
0.0
 20
0.0
 30
0.0
  0
SEQEND
  5
806
  8
0
  6
CONTINUOUS
 62
    18
  0
POINT
  5
231
  8
DEFPOINTS
  6
CONTINUOUS
 62
     0
 10
2050.470693454812
 20
233.8002264918677
 30
0.0
  0
POINT
  5
232
  8
DEFPOINTS
  6
CONTINUOUS
 62
     0
 10
2064.719568139363
 20
133.8042748626786
 30
0.0
  0
POINT
  5
233
  8
DEFPOINTS
  6
CONTINUOUS
 62
     0
 10
2021.214062079546
 20
133.8042748626786
 30
0.0
  0
ENDBLK
  5
234
  8
0
 62
     5
  0
BLOCK
  8
0
  2
*D22
 70
     1
 10
0.0
 20
0.0
 30
0.0
  3
*D22
  1

  0
LINE
  5
218
  8
回07-寸法
  6
CONTINUOUS
 62
     5
 10
2106.719568139363
 20
134.3002264918669
 30
0.0
 11
2106.719568139363
 21
107.8095546345407
 31
0.0
  0
LINE
  5
219
  8
回07-寸法
  6
CONTINUOUS
 62
     5
 10
2093.219568139363
 20
134.3002264918678
 30
0.0
 11
2093.219568139363
 21
107.8095546345407
 31
0.0
  0
LINE
  5
21A
  8
回07-寸法
  6
CONTINUOUS
 62
     5
 10
2091.719568139363
 20
108.8095546345407
 30
0.0
 11
2090.219568139363
 21
108.8095546345407
 31
0.0
  0
LINE
  5
21B
  8
回07-寸法
  6
CONTINUOUS
 62
     5
 10
2108.219568139363
 20
108.8095546345407
 30
0.0
 11
2128.599671485821
 21
108.8095546345407
 31
0.0
  0
LINE
  5
21C
  8
回07-寸法
  6
CONTINUOUS
 62
     5
 10
2093.219568139363
 20
108.8095546345407
 30
0.0
 11
2106.719568139363
 21
108.8095546345407
 31
0.0
  0
INSERT
  5
21D
  8
回07-寸法
  6
CONTINUOUS
 62
     5
 66
     1
  2
_OPEN
 10
2093.219568139363
 20
108.8095546345407
 30
0.0
 41
1.5
 42
1.5
 43
1.5
  0
SEQEND
  5
21E
  8
0
  6
CONTINUOUS
 62
    18
  0
INSERT
  5
21F
  8
回07-寸法
  6
CONTINUOUS
 62
     5
 66
     1
  2
_OPEN
 10
2106.719568139363
 20
108.8095546345407
 30
0.0
 41
1.5
 42
1.5
 43
1.5
 50
180.0
  0
SEQEND
  5
220
  8
0
  6
CONTINUOUS
 62
    18
  0
INSERT
  5
221
  8
回07-寸法
  6
CONTINUOUS
 62
     5
 66
     1
  2
*X8181
 10
0.0
 20
0.0
 30
0.0
  0
SEQEND
  5
80C
  8
0
  6
CONTINUOUS
 62
    18
  0
POINT
  5
222
  8
DEFPOINTS
  6
CONTINUOUS
 62
     0
 10
2106.719568139363
 20
134.3002264918669
 30
0.0
  0
POINT
  5
223
  8
DEFPOINTS
  6
CONTINUOUS
 62
     0
 10
2093.219568139363
 20
134.3002264918678
 30
0.0
  0
POINT
  5
224
  8
DEFPOINTS
  6
CONTINUOUS
 62
     0
 10
2093.219568139363
 20
108.8095546345407
 30
0.0
  0
ENDBLK
  5
225
  8
0
 62
     5
  0
BLOCK
  8
0
  2
*D33
 70
     1
 10
0.0
 20
0.0
 30
0.0
  3
*D33
  1

  0
LINE
  5
207
  8
回07-寸法
  6
CONTINUOUS
 62
     5
 10
2081.719568139363
 20
134.3002264918678
 30
0.0
 11
2081.719568139363
 21
117.8042748626787
 31
0.0
  0
LINE
  5
208
  8
回07-寸法
  6
CONTINUOUS
 62
     5
 10
2064.219568139364
 20
134.3002264918678
 30
0.0
 11
2064.219568139364
 21
117.8042748626787
 31
0.0
  0
LINE
  5
209
  8
回07-寸法
  6
CONTINUOUS
 62
     5
 10
2062.719568139363
 20
118.8042748626787
 30
0.0
 11
2061.219568139363
 21
118.8042748626787
 31
0.0
  0
LINE
  5
20A
  8
回07-寸法
  6
CONTINUOUS
 62
     5
 10
2083.219568139363
 20
118.8042748626787
 30
0.0
 11
2127.881671118475
 21
118.8042748626787
 31
0.0
  0
LINE
  5
20B
  8
回07-寸法
  6
CONTINUOUS
 62
     5
 10
2064.219568139364
 20
118.8042748626787
 30
0.0
 11
2081.719568139363
 21
118.8042748626787
 31
0.0
  0
INSERT
  5
20C
  8
回07-寸法
  6
CONTINUOUS
 62
     5
 66
     1
  2
_OPEN
 10
2064.219568139364
 20
118.8042748626787
 30
0.0
 41
1.5
 42
1.5
 43
1.5
  0
SEQEND
  5
20D
  8
0
  6
CONTINUOUS
 62
    18
  0
INSERT
  5
20E
  8
回07-寸法
  6
CONTINUOUS
 62
     5
 66
     1
  2
_OPEN
 10
2081.719568139363
 20
118.8042748626787
 30
0.0
 41
1.5
 42
1.5
 43
1.5
 50
180.0
  0
SEQEND
  5
20F
  8
0
  6
CONTINUOUS
 62
    18
  0
INSERT
  5
210
  8
回07-寸法
  6
CONTINUOUS
 62
     5
 66
     1
  2
*X8282
 10
0.0
 20
0.0
 30
0.0
  0
SEQEND
  5
812
  8
0
  6
CONTINUOUS
 62
    18
  0
POINT
  5
211
  8
DEFPOINTS
  6
CONTINUOUS
 62
     0
 10
2081.719568139363
 20
134.3002264918678
 30
0.0
  0
POINT
  5
212
  8
DEFPOINTS
  6
CONTINUOUS
 62
     0
 10
2064.219568139364
 20
134.3002264918678
 30
0.0
  0
POINT
  5
213
  8
DEFPOINTS
  6
CONTINUOUS
 62
     0
 10
2064.219568139364
 20
118.8042748626787
 30
0.0
  0
ENDBLK
  5
214
  8
0
 62
     5
  0
BLOCK
  8
0
  2
*D44
 70
     1
 10
0.0
 20
0.0
 30
0.0
  3
*D44
  1

  0
LINE
  5
1F6
  8
回07-寸法
  6
CONTINUOUS
 62
     5
 10
2050.470693454812
 20
233.8002264918677
 30
0.0
 11
2043.365671001443
 21
233.8002264918677
 31
0.0
  0
LINE
  5
1F7
  8
回07-寸法
  6
CONTINUOUS
 62
     5
 10
2050.470693454812
 20
230.1725855287114
 30
0.0
 11
2043.365671001443
 21
230.1725855287114
 31
0.0
  0
LINE
  5
1F8
  8
回07-寸法
  6
CONTINUOUS
 62
     5
 10
2044.365671001443
 20
235.3002264918676
 30
0.0
 11
2044.365671001443
 21
236.8002264918676
 31
0.0
  0
LINE
  5
1F9
  8
回07-寸法
  6
CONTINUOUS
 62
     5
 10
2044.365671001443
 20
228.6725855287114
 30
0.0
 11
2044.365671001443
 21
218.9245540326482
 31
0.0
  0
LINE
  5
1FA
  8
回07-寸法
  6
CONTINUOUS
 62
     5
 10
2044.365671001443
 20
233.8002264918677
 30
0.0
 11
2044.365671001443
 21
230.1725855287114
 31
0.0
  0
INSERT
  5
1FB
  8
回07-寸法
  6
CONTINUOUS
 62
     5
 66
     1
  2
_OPEN
 10
2044.365671001443
 20
233.8002264918677
 30
0.0
 41
1.5
 42
1.5
 43
1.5
 50
270.0
  0
SEQEND
  5
1FC
  8
0
  6
CONTINUOUS
 62
    18
  0
INSERT
  5
1FD
  8
回07-寸法
  6
CONTINUOUS
 62
     5
 66
     1
  2
_OPEN
 10
2044.365671001443
 20
230.1725855287114
 30
0.0
 41
1.5
 42
1.5
 43
1.5
 50
90.0
  0
SEQEND
  5
1FE
  8
0
  6
CONTINUOUS
 62
    18
  0
TEXT
  5
1FF
  8
回07-寸法
  6
CONTINUOUS
 62
     5
 10
2043.865671001443
 20
218.7964822095953
 30
0.0
 40
5.0
  1
3.6
 50
90.0
1001
ACAD
1000
MTEXTBEGIN
1070
    73
1070
     1
1070
    44
1040
1.0
1070
    74
1070
     0
1000
MTEXTEND
  0
POINT
  5
200
  8
DEFPOINTS
  6
CONTINUOUS
 62
     0
 10
2050.470693454812
 20
233.8002264918677
 30
0.0
  0
POINT
  5
201
  8
DEFPOINTS
  6
CONTINUOUS
 62
     0
 10
2050.470693454812
 20
230.1725855287114
 30
0.0
  0
POINT
  5
202
  8
DEFPOINTS
  6
CONTINUOUS
 62
     0
 10
2044.365671001443
 20
230.1725855287114
 30
0.0
  0
ENDBLK
  5
203
  8
0
 62
     5
  0
BLOCK
  8
0
  2
*D55
 70
     1
 10
0.0
 20
0.0
 30
0.0
  3
*D55
  1

  0
LINE
  5
1E7
  8
回07-寸法
  6
CONTINUOUS
 62
     5
 10
2050.470693454812
 20
233.8002264918677
 30
0.0
 11
2035.66899478547
 21
233.8002264918677
 31
0.0
  0
LINE
  5
1E8
  8
回07-寸法
  6
CONTINUOUS
 62
     5
 10
2064.219568139364
 20
216.4237108441599
 30
0.0
 11
2035.66899478547
 21
216.4237108441599
 31
0.0
  0
LINE
  5
1E9
  8
回07-寸法
  6
CONTINUOUS
 62
     5
 10
2036.66899478547
 20
232.3002264918677
 30
0.0
 11
2036.66899478547
 21
217.9237108441599
 31
0.0
  0
INSERT
  5
1EA
  8
回07-寸法
  6
CONTINUOUS
 62
     5
 66
     1
  2
_OPEN
 10
2036.66899478547
 20
233.8002264918677
 30
0.0
 41
1.5
 42
1.5
 43
1.5
 50
90.0
  0
SEQEND
  5
1EB
  8
0
  6
CONTINUOUS
 62
    18
  0
INSERT
  5
1EC
  8
回07-寸法
  6
CONTINUOUS
 62
     5
 66
     1
  2
_OPEN
 10
2036.66899478547
 20
216.4237108441599
 30
0.0
 41
1.5
 42
1.5
 43
1.5
 50
270.0
  0
SEQEND
  5
1ED
  8
0
  6
CONTINUOUS
 62
    18
  0
TEXT
  5
1EE
  8
回07-寸法
  6
CONTINUOUS
 62
     5
 10
2036.16899478547
 20
220.1508135160168
 30
0.0
 40
5.0
  1
17.4
 50
90.0
1001
ACAD
1000
MTEXTBEGIN
1070
    73
1070
     1
1070
    44
1040
1.0
1070
    74
1070
     0
1000
MTEXTEND
  0
POINT
  5
1EF
  8
DEFPOINTS
  6
CONTINUOUS
 62
     0
 10
2050.470693454812
 20
233.8002264918677
 30
0.0
  0
POINT
  5
1F0
  8
DEFPOINTS
  6
CONTINUOUS
 62
     0
 10
2064.219568139364
 20
216.4237108441599
 30
0.0
  0
POINT
  5
1F1
  8
DEFPOINTS
  6
CONTINUOUS
 62
     0
 10
2036.66899478547
 20
216.4237108441599
 30
0.0
  0
ENDBLK
  5
1F2
  8
0
 62
     5
  0
BLOCK
  8
0
  2
*D66
 70
     1
 10
0.0
 20
0.0
 30
0.0
  3
*D66
  1

  0
LINE
  5
1D6
  8
回07-寸法
  6
CONTINUOUS
 62
     5
 10
2113.470693454812
 20
233.8002264918671
 30
0.0
 11
2120.726889451896
 21
233.8002264918671
 31
0.0
  0
LINE
  5
1D7
  8
回07-寸法
  6
CONTINUOUS
 62
     5
 10
2113.470693454812
 20
230.244591573256
 30
0.0
 11
2120.726889451896
 21
230.244591573256
 31
0.0
  0
LINE
  5
1D8
  8
回07-寸法
  6
CONTINUOUS
 62
     5
 10
2119.726889451895
 20
235.3002264918671
 30
0.0
 11
2119.726889451895
 21
236.8002264918671
 31
0.0
  0
LINE
  5
1D9
  8
回07-寸法
  6
CONTINUOUS
 62
     5
 10
2119.726889451895
 20
228.7445915732561
 30
0.0
 11
2119.726889451895
 21
214.5298142648212
 31
0.0
  0
LINE
  5
1DA
  8
回07-寸法
  6
CONTINUOUS
 62
     5
 10
2119.726889451895
 20
233.8002264918671
 30
0.0
 11
2119.726889451895
 21
230.244591573256
 31
0.0
  0
INSERT
  5
1DB
  8
回07-寸法
  6
CONTINUOUS
 62
     5
 66
     1
  2
_OPEN
 10
2119.726889451895
 20
233.8002264918671
 30
0.0
 41
1.5
 42
1.5
 43
1.5
 50
270.0
  0
SEQEND
  5
1DC
  8
0
  6
CONTINUOUS
 62
    18
  0
INSERT
  5
1DD
  8
回07-寸法
  6
CONTINUOUS
 62
     5
 66
     1
  2
_OPEN
 10
2119.726889451895
 20
230.244591573256
 30
0.0
 41
1.5
 42
1.5
 43
1.5
 50
90.0
  0
SEQEND
  5
1DE
  8
0
  6
CONTINUOUS
 62
    18
  0
TEXT
  5
1DF
  8
回07-寸法
  6
CONTINUOUS
 62
     5
 10
2119.226889451895
 20
214.4017424417682
 30
0.0
 40
5.0
  1
3.6
 50
90.0
1001
ACAD
1000
MTEXTBEGIN
1070
    73
1070
     1
1070
    44
1040
1.0
1070
    74
1070
     0
1000
MTEXTEND
  0
POINT
  5
1E0
  8
DEFPOINTS
  6
CONTINUOUS
 62
     0
 10
2113.470693454812
 20
233.8002264918671
 30
0.0
  0
POINT
  5
1E1
  8
DEFPOINTS
  6
CONTINUOUS
 62
     0
 10
2113.470693454812
 20
230.244591573256
 30
0.0
  0
POINT
  5
1E2
  8
DEFPOINTS
  6
CONTINUOUS
 62
     0
 10
2119.726889451895
 20
230.244591573256
 30
0.0
  0
ENDBLK
  5
1E3
  8
0
 62
     5
  0
BLOCK
  8
0
  2
*D77
 70
     1
 10
0.0
 20
0.0
 30
0.0
  3
*D77
  1

  0
LINE
  5
1C5
  8
回07-寸法
  6
CONTINUOUS
 62
     5
 10
2113.470693454812
 20
233.8002264918671
 30
0.0
 11
2128.062994642492
 21
233.8002264918671
 31
0.0
  0
LINE
  5
1C6
  8
回07-寸法
  6
CONTINUOUS
 62
     5
 10
2106.719568139363
 20
223.493466257808
 30
0.0
 11
2128.062994642492
 21
223.493466257808
 31
0.0
  0
LINE
  5
1C7
  8
回07-寸法
  6
CONTINUOUS
 62
     5
 10
2127.062994642491
 20
235.3002264918671
 30
0.0
 11
2127.062994642491
 21
236.8002264918671
 31
0.0
  0
LINE
  5
1C8
  8
回07-寸法
  6
CONTINUOUS
 62
     5
 10
2127.062994642491
 20
221.993466257808
 30
0.0
 11
2127.062994642491
 21
209.7863594766213
 31
0.0
  0
LINE
  5
1C9
  8
回07-寸法
  6
CONTINUOUS
 62
     5
 10
2127.062994642491
 20
233.8002264918671
 30
0.0
 11
2127.062994642491
 21
223.493466257808
 31
0.0
  0
INSERT
  5
1CA
  8
回07-寸法
  6
CONTINUOUS
 62
     5
 66
     1
  2
_OPEN
 10
2127.062994642491
 20
233.8002264918671
 30
0.0
 41
1.5
 42
1.5
 43
1.5
 50
270.0
  0
SEQEND
  5
1CB
  8
0
  6
CONTINUOUS
 62
    18
  0
INSERT
  5
1CC
  8
回07-寸法
  6
CONTINUOUS
 62
     5
 66
     1
  2
_OPEN
 10
2127.062994642491
 20
223.493466257808
 30
0.0
 41
1.5
 42
1.5
 43
1.5
 50
90.0
  0
SEQEND
  5
1CD
  8
0
  6
CONTINUOUS
 62
    18
  0
TEXT
  5
1CE
  8
回07-寸法
  6
CONTINUOUS
 62
     5
 10
2126.562994642492
 20
209.6399128672149
 30
0.0
 40
5.0
  1
10.3
 50
90.0
1001
ACAD
1000
MTEXTBEGIN
1070
    73
1070
     1
1070
    44
1040
1.0
1070
    74
1070
     0
1000
MTEXTEND
  0
POINT
  5
1CF
  8
DEFPOINTS
  6
CONTINUOUS
 62
     0
 10
2113.470693454812
 20
233.8002264918671
 30
0.0
  0
POINT
  5
1D0
  8
DEFPOINTS
  6
CONTINUOUS
 62
     0
 10
2106.719568139363
 20
223.493466257808
 30
0.0
  0
POINT
  5
1D1
  8
DEFPOINTS
  6
CONTINUOUS
 62
     0
 10
2127.062994642491
 20
223.493466257808
 30
0.0
  0
ENDBLK
  5
1D2
  8
0
 62
     5
  0
BLOCK
  8
0
  2
*D88
 70
     1
 10
0.0
 20
0.0
 30
0.0
  3
*D88
  1

  0
LINE
  5
1B4
  8
回07-寸法
  6
CONTINUOUS
 62
     5
 10
2085.470693454812
 20
230.582750720274
 30
0.0
 11
2085.470693454812
 21
207.1646311556128
 31
0.0
  0
LINE
  5
1B5
  8
回07-寸法
  6
CONTINUOUS
 62
     5
 10
2050.470693454812
 20
230.5867990910847
 30
0.0
 11
2050.470693454812
 21
207.1646311556128
 31
0.0
  0
LINE
  5
1B6
  8
回07-寸法
  6
CONTINUOUS
 62
     5
 10
2086.970693454812
 20
208.1646311556128
 30
0.0
 11
2088.470693454812
 21
208.1646311556128
 31
0.0
  0
LINE
  5
1B7
  8
回07-寸法
  6
CONTINUOUS
 62
     5
 10
2048.970693454812
 20
208.1646311556128
 30
0.0
 11
2040.462445373112
 21
208.1646311556128
 31
0.0
  0
LINE
  5
1B8
  8
回07-寸法
  6
CONTINUOUS
 62
     5
 10
2085.470693454812
 20
208.1646311556128
 30
0.0
 11
2050.470693454812
 21
208.1646311556128
 31
0.0
  0
INSERT
  5
1B9
  8
回07-寸法
  6
CONTINUOUS
 62
     5
 66
     1
  2
_OPEN
 10
2085.470693454812
 20
208.1646311556128
 30
0.0
 41
1.5
 42
1.5
 43
1.5
 50
180.0
  0
SEQEND
  5
1BA
  8
0
  6
CONTINUOUS
 62
    18
  0
INSERT
  5
1BB
  8
回07-寸法
  6
CONTINUOUS
 62
     5
 66
     1
  2
_OPEN
 10
2050.470693454812
 20
208.1646311556128
 30
0.0
 41
1.5
 42
1.5
 43
1.5
  0
SEQEND
  5
1BC
  8
0
  6
CONTINUOUS
 62
    18
  0
TEXT
  5
1BD
  8
回07-寸法
  6
CONTINUOUS
 62
     5
 10
2040.315998763706
 20
208.6646311556128
 30
0.0
 40
5.0
  1
35
1001
ACAD
1000
MTEXTBEGIN
1070
    73
1070
     1
1070
    44
1040
1.0
1070
    74
1070
     0
1000
MTEXTEND
  0
POINT
  5
1BE
  8
DEFPOINTS
  6
CONTINUOUS
 62
     0
 10
2085.470693454812
 20
230.582750720274
 30
0.0
  0
POINT
  5
1BF
  8
DEFPOINTS
  6
CONTINUOUS
 62
     0
 10
2050.470693454812
 20
230.5867990910847
 30
0.0
  0
POINT
  5
1C0
  8
DEFPOINTS
  6
CONTINUOUS
 62
     0
 10
2050.470693454812
 20
208.1646311556128
 30
0.0
  0
ENDBLK
  5
1C1
  8
0
 62
     5
  0
BLOCK
  8
0
  2
*D99
 70
     1
 10
0.0
 20
0.0
 30
0.0
  3
*D99
  1

  0
LINE
  5
1A3
  8
回07-寸法
  6
CONTINUOUS
 62
     5
 10
2086.470693454812
 20
230.6547567648186
 30
0.0
 11
2086.470693454812
 21
200.7459739139362
 31
0.0
  0
LINE
  5
1A4
  8
回07-寸法
  6
CONTINUOUS
 62
     5
 10
2113.470693454812
 20
230.6588051356294
 30
0.0
 11
2113.470693454812
 21
200.7459739139362
 31
0.0
  0
LINE
  5
1A5
  8
回07-寸法
  6
CONTINUOUS
 62
     5
 10
2084.970693454812
 20
201.7459739139362
 30
0.0
 11
2083.470693454811
 21
201.7459739139362
 31
0.0
  0
LINE
  5
1A6
  8
回07-寸法
  6
CONTINUOUS
 62
     5
 10
2114.970693454812
 20
201.7459739139362
 30
0.0
 11
2123.097661958749
 21
201.7459739139362
 31
0.0
  0
LINE
  5
1A7
  8
回07-寸法
  6
CONTINUOUS
 62
     5
 10
2086.470693454812
 20
201.7459739139362
 30
0.0
 11
2113.470693454812
 21
201.7459739139362
 31
0.0
  0
INSERT
  5
1A8
  8
回07-寸法
  6
CONTINUOUS
 62
     5
 66
     1
  2
_OPEN
 10
2086.470693454812
 20
201.7459739139362
 30
0.0
 41
1.5
 42
1.5
 43
1.5
  0
SEQEND
  5
1A9
  8
0
  6
CONTINUOUS
 62
    18
  0
INSERT
  5
1AA
  8
回07-寸法
  6
CONTINUOUS
 62
     5
 66
     1
  2
_OPEN
 10
2113.470693454812
 20
201.7459739139362
 30
0.0
 41
1.5
 42
1.5
 43
1.5
 50
180.0
  0
SEQEND
  5
1AB
  8
0
  6
CONTINUOUS
 62
    18
  0
TEXT
  5
1AC
  8
回07-寸法
  6
CONTINUOUS
 62
     5
 10
2116.28417770678
 20
202.2464660399205
 30
0.0
 40
5.0
  1
27
1001
ACAD
1000
MTEXTBEGIN
1070
    73
1070
     1
1070
    44
1040
1.0
1070
    74
1070
     0
1000
MTEXTEND
  0
POINT
  5
1AD
  8
DEFPOINTS
  6
CONTINUOUS
 62
     0
 10
2086.470693454812
 20
230.6547567648186
 30
0.0
  0
POINT
  5
1AE
  8
DEFPOINTS
  6
CONTINUOUS
 62
     0
 10
2113.470693454812
 20
230.6588051356294
 30
0.0
  0
POINT
  5
1AF
  8
DEFPOINTS
  6
CONTINUOUS
 62
     0
 10
2113.470693454812
 20
201.7459739139362
 30
0.0
  0
ENDBLK
  5
1B0
  8
0
 62
     5
  0
BLOCK
  8
0
  2
*D1010
 70
     1
 10
0.0
 20
0.0
 30
0.0
  3
*D1010
  1

  0
LINE
  5
193
  8
回07-寸法
  6
CONTINUOUS
 62
     5
 10
2106.219568139363
 20
133.8042748626777
 30
0.0
 11
2136.45848337491
 21
133.8042748626777
 31
0.0
  0
LINE
  5
194
  8
回07-寸法
  6
CONTINUOUS
 62
     5
 10
2113.470693454812
 20
233.8002264918673
 30
0.0
 11
2136.45848337491
 21
233.8002264918673
 31
0.0
  0
LINE
  5
195
  8
回07-寸法
  6
CONTINUOUS
 62
     5
 10
2135.458483374911
 20
135.3042748626776
 30
0.0
 11
2135.458483374911
 21
232.3002264918673
 31
0.0
  0
INSERT
  5
196
  8
回07-寸法
  6
CONTINUOUS
 62
     5
 66
     1
  2
_OPEN
 10
2135.458483374911
 20
133.8042748626776
 30
0.0
 41
1.5
 42
1.5
 43
1.5
 50
270.0
  0
SEQEND
  5
197
  8
0
  6
CONTINUOUS
 62
    18
  0
INSERT
  5
198
  8
回07-寸法
  6
CONTINUOUS
 62
     5
 66
     1
  2
_OPEN
 10
2135.458483374911
 20
233.8002264918673
 30
0.0
 41
1.5
 42
1.5
 43
1.5
 50
90.0
  0
SEQEND
  5
199
  8
0
  6
CONTINUOUS
 62
    18
  0
INSERT
  5
19A
  8
回07-寸法
  6
CONTINUOUS
 62
     5
 66
     1
  2
*X8383
 10
0.0
 20
0.0
 30
0.0
  0
SEQEND
  5
818
  8
0
  6
CONTINUOUS
 62
    18
  0
POINT
  5
19B
  8
DEFPOINTS
  6
CONTINUOUS
 62
     0
 10
2106.219568139363
 20
133.8042748626777
 30
0.0
  0
POINT
  5
19D
  8
DEFPOINTS
  6
CONTINUOUS
 62
     0
 10
2113.470693454812
 20
233.8002264918673
 30
0.0
  0
POINT
  5
19E
  8
DEFPOINTS
  6
CONTINUOUS
 62
     0
 10
2135.458483374911
 20
233.8002264918673
 30
0.0
  0
ENDBLK
  5
19F
  8
0
 62
     5
  0
BLOCK
  8
0
  2
*D1111
 70
     1
 10
0.0
 20
0.0
 30
0.0
  3
*D1111
  1

  0
LINE
  5
2FC
  8
回07-寸法
  6
CONTINUOUS
 62
     5
 10
1934.416976111369
 20
474.4002264918681
 30
0.0
 11
1894.236976121369
 21
474.4002264918681
 31
0.0
  0
LINE
  5
2FD
  8
回07-寸法
  6
CONTINUOUS
 62
     5
 10
1925.966976111369
 20
483.8002264918676
 30
0.0
 11
1894.236976121369
 21
483.8002264918676
 31
0.0
  0
LINE
  5
2FE
  8
回07-寸法
  6
CONTINUOUS
 62
     5
 10
1895.236976121369
 20
472.9002264918682
 30
0.0
 11
1895.236976121369
 21
471.4002264918682
 31
0.0
  0
LINE
  5
2FF
  8
回07-寸法
  6
CONTINUOUS
 62
     5
 10
1895.236976121369
 20
485.3002264918678
 30
0.0
 11
1895.236976121369
 21
499.3137611364652
 31
0.0
  0
LINE
  5
300
  8
回07-寸法
  6
CONTINUOUS
 62
     5
 10
1895.236976121369
 20
474.4002264918681
 30
0.0
 11
1895.236976121369
 21
483.8002264918678
 31
0.0
  0
INSERT
  5
301
  8
回07-寸法
  6
CONTINUOUS
 62
     5
 66
     1
  2
_OPEN
 10
1895.236976121369
 20
474.4002264918681
 30
0.0
 41
1.5
 42
1.5
 43
1.5
 50
90.0
  0
SEQEND
  5
302
  8
0
  6
CONTINUOUS
 62
    18
  0
INSERT
  5
303
  8
回07-寸法
  6
CONTINUOUS
 62
     5
 66
     1
  2
_OPEN
 10
1895.236976121369
 20
483.8002264918678
 30
0.0
 41
1.5
 42
1.5
 43
1.5
 50
270.0
  0
SEQEND
  5
304
  8
0
  6
CONTINUOUS
 62
    18
  0
TEXT
  5
305
  8
回07-寸法
  6
CONTINUOUS
 62
     5
 10
1894.48576772382
 20
486.5479678928495
 30
0.0
 40
5.0
  1
(9.4)
 50
90.0
1001
ACAD
1000
MTEXTBEGIN
1070
    73
1070
     1
1070
    44
1040
1.0
1070
    74
1070
     0
1000
MTEXTEND
  0
POINT
  5
306
  8
DEFPOINTS
  6
CONTINUOUS
 62
     0
 10
1934.416976111369
 20
474.4002264918681
 30
0.0
  0
POINT
  5
307
  8
DEFPOINTS
  6
CONTINUOUS
 62
     0
 10
1925.966976111369
 20
483.8002264918676
 30
0.0
  0
POINT
  5
308
  8
DEFPOINTS
  6
CONTINUOUS
 62
     0
 10
1895.236976121369
 20
483.8002264918678
 30
0.0
  0
ENDBLK
  5
309
  8
0
 62
     5
  0
BLOCK
  8
0
  2
*D1212
 70
     1
 10
0.0
 20
0.0
 30
0.0
  3
*D1212
  1

  0
LINE
  5
2EB
  8
回07-寸法
  6
CONTINUOUS
 62
     5
 10
1932.251976111369
 20
476.8002264918679
 30
0.0
 11
1882.236976121369
 21
476.8002264918679
 31
0.0
  0
LINE
  5
2EC
  8
回07-寸法
  6
CONTINUOUS
 62
     5
 10
1925.966976111369
 20
483.8002264918676
 30
0.0
 11
1882.236976121369
 21
483.8002264918676
 31
0.0
  0
LINE
  5
2ED
  8
回07-寸法
  6
CONTINUOUS
 62
     5
 10
1883.236976121368
 20
475.300226491868
 30
0.0
 11
1883.236976121368
 21
473.8002264918679
 31
0.0
  0
LINE
  5
2EE
  8
回07-寸法
  6
CONTINUOUS
 62
     5
 10
1883.236976121368
 20
485.3002264918678
 30
0.0
 11
1883.236976121368
 21
493.7962894839937
 31
0.0
  0
LINE
  5
2EF
  8
回07-寸法
  6
CONTINUOUS
 62
     5
 10
1883.236976121368
 20
476.8002264918679
 30
0.0
 11
1883.236976121368
 21
483.8002264918678
 31
0.0
  0
INSERT
  5
2F0
  8
回07-寸法
  6
CONTINUOUS
 62
     5
 66
     1
  2
_OPEN
 10
1883.236976121368
 20
476.8002264918679
 30
0.0
 41
1.5
 42
1.5
 43
1.5
 50
90.0
  0
SEQEND
  5
2F1
  8
0
  6
CONTINUOUS
 62
    18
  0
INSERT
  5
2F2
  8
回07-寸法
  6
CONTINUOUS
 62
     5
 66
     1
  2
_OPEN
 10
1883.236976121368
 20
483.8002264918678
 30
0.0
 41
1.5
 42
1.5
 43
1.5
 50
270.0
  0
SEQEND
  5
2F3
  8
0
  6
CONTINUOUS
 62
    18
  0
TEXT
  5
2F4
  8
回07-寸法
  6
CONTINUOUS
 62
     5
 10
1882.486976121368
 20
486.5482579879309
 30
0.0
 40
5.0
  1
(7)
 50
90.0
1001
ACAD
1000
MTEXTBEGIN
1070
    73
1070
     1
1070
    44
1040
1.0
1070
    74
1070
     0
1000
MTEXTEND
  0
POINT
  5
2F5
  8
DEFPOINTS
  6
CONTINUOUS
 62
     0
 10
1932.251976111369
 20
476.8002264918679
 30
0.0
  0
POINT
  5
2F6
  8
DEFPOINTS
  6
CONTINUOUS
 62
     0
 10
1925.966976111369
 20
483.8002264918676
 30
0.0
  0
POINT
  5
2F7
  8
DEFPOINTS
  6
CONTINUOUS
 62
     0
 10
1883.236976121368
 20
483.8002264918678
 30
0.0
  0
ENDBLK
  5
2F8
  8
0
 62
     5
  0
BLOCK
  8
0
  2
*D1313
 70
     1
 10
0.0
 20
0.0
 30
0.0
  3
*D1313
  1

  0
LINE
  5
2DA
  8
回07-寸法
  6
CONTINUOUS
 62
     5
 10
1931.751976111369
 20
477.3002264918679
 30
0.0
 11
1870.236976121368
 21
477.3002264918679
 31
0.0
  0
LINE
  5
2DB
  8
回07-寸法
  6
CONTINUOUS
 62
     5
 10
1925.966976111369
 20
483.8002264918676
 30
0.0
 11
1870.236976121368
 21
483.8002264918676
 31
0.0
  0
LINE
  5
2DC
  8
回07-寸法
  6
CONTINUOUS
 62
     5
 10
1871.236976121369
 20
475.800226491868
 30
0.0
 11
1871.236976121369
 21
474.3002264918679
 31
0.0
  0
LINE
  5
2DD
  8
回07-寸法
  6
CONTINUOUS
 62
     5
 10
1871.236976121369
 20
485.3002264918678
 30
0.0
 11
1871.236976121369
 21
532.0554415204111
 31
0.0
  0
LINE
  5
2DE
  8
回07-寸法
  6
CONTINUOUS
 62
     5
 10
1871.236976121369
 20
477.3002264918679
 30
0.0
 11
1871.236976121369
 21
483.8002264918678
 31
0.0
  0
INSERT
  5
2DF
  8
回07-寸法
  6
CONTINUOUS
 62
     5
 66
     1
  2
_OPEN
 10
1871.236976121369
 20
477.3002264918679
 30
0.0
 41
1.5
 42
1.5
 43
1.5
 50
90.0
  0
SEQEND
  5
2E0
  8
0
  6
CONTINUOUS
 62
    18
  0
INSERT
  5
2E1
  8
回07-寸法
  6
CONTINUOUS
 62
     5
 66
     1
  2
_OPEN
 10
1871.236976121369
 20
483.8002264918678
 30
0.0
 41
1.5
 42
1.5
 43
1.5
 50
270.0
  0
SEQEND
  5
2E2
  8
0
  6
CONTINUOUS
 62
    18
  0
INSERT
  5
2E3
  8
回07-寸法
  6
CONTINUOUS
 62
     5
 66
     1
  2
*X8484
 10
0.0
 20
0.0
 30
0.0
  0
SEQEND
  5
81E
  8
0
  6
CONTINUOUS
 62
    18
  0
POINT
  5
2E4
  8
DEFPOINTS
  6
CONTINUOUS
 62
     0
 10
1931.751976111369
 20
477.3002264918679
 30
0.0
  0
POINT
  5
2E5
  8
DEFPOINTS
  6
CONTINUOUS
 62
     0
 10
1925.966976111369
 20
483.8002264918676
 30
0.0
  0
POINT
  5
2E6
  8
DEFPOINTS
  6
CONTINUOUS
 62
     0
 10
1871.236976121369
 20
483.8002264918678
 30
0.0
  0
ENDBLK
  5
2E7
  8
0
 62
     5
  0
BLOCK
  8
0
  2
*D1414
 70
     1
 10
0.0
 20
0.0
 30
0.0
  3
*D1414
  1

  0
LINE
  5
2CB
  8
回07-寸法
  6
CONTINUOUS
 62
     5
 10
2238.516976111371
 20
474.4002264918679
 30
0.0
 11
2238.516976111371
 21
505.8852264918676
 31
0.0
  0
LINE
  5
2CC
  8
回07-寸法
  6
CONTINUOUS
 62
     5
 10
1934.416976111369
 20
474.4002264918681
 30
0.0
 11
1934.416976111369
 21
505.8852264918676
 31
0.0
  0
LINE
  5
2CD
  8
回07-寸法
  6
CONTINUOUS
 62
     5
 10
2237.016976111371
 20
504.8852264918675
 30
0.0
 11
1935.916976111369
 21
504.8852264918675
 31
0.0
  0
INSERT
  5
2CE
  8
回07-寸法
  6
CONTINUOUS
 62
     5
 66
     1
  2
_OPEN
 10
2238.516976111371
 20
504.8852264918675
 30
0.0
 41
1.5
 42
1.5
 43
1.5
  0
SEQEND
  5
2CF
  8
0
  6
CONTINUOUS
 62
    18
  0
INSERT
  5
2D0
  8
回07-寸法
  6
CONTINUOUS
 62
     5
 66
     1
  2
_OPEN
 10
1934.416976111369
 20
504.8852264918675
 30
0.0
 41
1.5
 42
1.5
 43
1.5
 50
180.0
  0
SEQEND
  5
2D1
  8
0
  6
CONTINUOUS
 62
    18
  0
TEXT
  5
2D2
  8
回07-寸法
  6
CONTINUOUS
 62
     5
 10
2058.717960363338
 20
505.6352264918674
 30
0.0
 40
5.0
  1
304.1(Active Area)
1001
ACAD
1000
MTEXTBEGIN
1070
    73
1070
     1
1070
    44
1040
1.0
1070
    74
1070
     0
1000
MTEXTEND
  0
POINT
  5
2D3
  8
DEFPOINTS
  6
CONTINUOUS
 62
     0
 10
2238.516976111371
 20
474.4002264918679
 30
0.0
  0
POINT
  5
2D4
  8
DEFPOINTS
  6
CONTINUOUS
 62
     0
 10
1934.416976111369
 20
474.4002264918681
 30
0.0
  0
POINT
  5
2D5
  8
DEFPOINTS
  6
CONTINUOUS
 62
     0
 10
1934.416976111369
 20
504.8852264918675
 30
0.0
  0
ENDBLK
  5
2D6
  8
0
 62
     5
  0
BLOCK
  8
0
  2
*D1515
 70
     1
 10
0.0
 20
0.0
 30
0.0
  3
*D1515
  1

  0
LINE
  5
2BC
  8
回07-寸法
  6
CONTINUOUS
 62
     5
 10
1932.251976111369
 20
476.8002264918675
 30
0.0
 11
1932.251976111369
 21
517.8852264918675
 31
0.0
  0
LINE
  5
2BD
  8
回07-寸法
  6
CONTINUOUS
 62
     5
 10
2240.681976111369
 20
476.8002264918666
 30
0.0
 11
2240.681976111369
 21
517.8852264918675
 31
0.0
  0
LINE
  5
2BE
  8
回07-寸法
  6
CONTINUOUS
 62
     5
 10
1933.751976111369
 20
516.8852264918675
 30
0.0
 11
2239.181976111369
 21
516.8852264918675
 31
0.0
  0
INSERT
  5
2BF
  8
回07-寸法
  6
CONTINUOUS
 62
     5
 66
     1
  2
_OPEN
 10
1932.251976111369
 20
516.8852264918675
 30
0.0
 41
1.5
 42
1.5
 43
1.5
 50
180.0
  0
SEQEND
  5
2C0
  8
0
  6
CONTINUOUS
 62
    18
  0
INSERT
  5
2C1
  8
回07-寸法
  6
CONTINUOUS
 62
     5
 66
     1
  2
_OPEN
 10
2240.681976111369
 20
516.8852264918675
 30
0.0
 41
1.5
 42
1.5
 43
1.5
  0
SEQEND
  5
2C2
  8
0
  6
CONTINUOUS
 62
    18
  0
TEXT
  5
2C3
  8
回07-寸法
  6
CONTINUOUS
 62
     5
 10
2054.717960363337
 20
518.7258357086367
 30
0.0
 40
5.0
  1
308.43(Viewing Area)
1001
ACAD
1000
MTEXTBEGIN
1070
    73
1070
     1
1070
    44
1040
1.0
1070
    74
1070
     0
1000
MTEXTEND
  0
POINT
  5
2C4
  8
DEFPOINTS
  6
CONTINUOUS
 62
     0
 10
1932.251976111369
 20
476.8002264918675
 30
0.0
  0
POINT
  5
2C5
  8
DEFPOINTS
  6
CONTINUOUS
 62
     0
 10
2240.681976111369
 20
476.8002264918666
 30
0.0
  0
POINT
  5
2C6
  8
DEFPOINTS
  6
CONTINUOUS
 62
     0
 10
2240.681976111369
 20
516.8852264918675
 30
0.0
  0
ENDBLK
  5
2C7
  8
0
 62
     5
  0
BLOCK
  8
0
  2
*D1616
 70
     1
 10
0.0
 20
0.0
 30
0.0
  3
*D1616
  1

  0
LINE
  5
2AD
  8
回07-寸法
  6
CONTINUOUS
 62
     5
 10
2246.966976111369
 20
483.8002264918676
 30
0.0
 11
2246.966976111369
 21
541.8852264918675
 31
0.0
  0
LINE
  5
2AE
  8
回07-寸法
  6
CONTINUOUS
 62
     5
 10
1925.966976111369
 20
483.8002264918668
 30
0.0
 11
1925.966976111369
 21
541.8852264918675
 31
0.0
  0
LINE
  5
2AF
  8
回07-寸法
  6
CONTINUOUS
 62
     5
 10
2245.466976111369
 20
540.8852264918675
 30
0.0
 11
1927.466976111369
 21
540.8852264918675
 31
0.0
  0
INSERT
  5
2B0
  8
回07-寸法
  6
CONTINUOUS
 62
     5
 66
     1
  2
_OPEN
 10
2246.966976111369
 20
540.8852264918675
 30
0.0
 41
1.5
 42
1.5
 43
1.5
  0
SEQEND
  5
2B1
  8
0
  6
CONTINUOUS
 62
    18
  0
INSERT
  5
2B2
  8
回07-寸法
  6
CONTINUOUS
 62
     5
 66
     1
  2
_OPEN
 10
1925.966976111369
 20
540.8852264918675
 30
0.0
 41
1.5
 42
1.5
 43
1.5
 50
180.0
  0
SEQEND
  5
2B3
  8
0
  6
CONTINUOUS
 62
    18
  0
INSERT
  5
2B4
  8
回07-寸法
  6
CONTINUOUS
 62
     5
 66
     1
  2
*X8585
 10
0.0
 20
0.0
 30
0.0
  0
SEQEND
  5
824
  8
0
  6
CONTINUOUS
 62
    18
  0
POINT
  5
2B5
  8
DEFPOINTS
  6
CONTINUOUS
 62
     0
 10
2246.966976111369
 20
483.8002264918676
 30
0.0
  0
POINT
  5
2B6
  8
DEFPOINTS
  6
CONTINUOUS
 62
     0
 10
1925.966976111369
 20
483.8002264918668
 30
0.0
  0
POINT
  5
2B7
  8
DEFPOINTS
  6
CONTINUOUS
 62
     0
 10
1925.966976111369
 20
540.8852264918675
 30
0.0
  0
ENDBLK
  5
2B8
  8
0
 62
     5
  0
BLOCK
  8
0
  2
*D1717
 70
     1
 10
0.0
 20
0.0
 30
0.0
  3
*D1717
  1

  0
LINE
  5
29C
  8
回07-寸法
  6
CONTINUOUS
 62
     5
 10
1934.416976121369
 20
474.4002264918681
 30
0.0
 11
1934.416976121369
 21
505.8852264918676
 31
0.0
  0
LINE
  5
29D
  8
回07-寸法
  6
CONTINUOUS
 62
     5
 10
1925.966976111369
 20
483.8002264918668
 30
0.0
 11
1925.966976111369
 21
505.8852264918676
 31
0.0
  0
LINE
  5
29E
  8
回07-寸法
  6
CONTINUOUS
 62
     5
 10
1935.916976121369
 20
504.8852264918675
 30
0.0
 11
1937.416976121369
 21
504.8852264918675
 31
0.0
  0
LINE
  5
29F
  8
回07-寸法
  6
CONTINUOUS
 62
     5
 10
1924.466976111369
 20
504.8852264918675
 30
0.0
 11
1910.759869330181
 21
504.8852264918675
 31
0.0
  0
LINE
  5
2A0
  8
回07-寸法
  6
CONTINUOUS
 62
     5
 10
1934.416976121369
 20
504.8852264918675
 30
0.0
 11
1925.966976111369
 21
504.8852264918675
 31
0.0
  0
INSERT
  5
2A1
  8
回07-寸法
  6
CONTINUOUS
 62
     5
 66
     1
  2
_OPEN
 10
1934.416976121369
 20
504.8852264918675
 30
0.0
 41
1.5
 42
1.5
 43
1.5
 50
180.0
  0
SEQEND
  5
2A2
  8
0
  6
CONTINUOUS
 62
    18
  0
INSERT
  5
2A3
  8
回07-寸法
  6
CONTINUOUS
 62
     5
 66
     1
  2
_OPEN
 10
1925.966976111369
 20
504.8852264918675
 30
0.0
 41
1.5
 42
1.5
 43
1.5
  0
SEQEND
  5
2A4
  8
0
  6
CONTINUOUS
 62
    18
  0
TEXT
  5
2A5
  8
回07-寸法
  6
CONTINUOUS
 62
     5
 10
1910.613422720775
 20
505.3852264918675
 30
0.0
 40
5.0
  1
8.45
1001
ACAD
1000
MTEXTBEGIN
1070
    73
1070
     1
1070
    44
1040
1.0
1070
    74
1070
     0
1000
MTEXTEND
  0
POINT
  5
2A6
  8
DEFPOINTS
  6
CONTINUOUS
 62
     0
 10
1934.416976121369
 20
474.4002264918681
 30
0.0
  0
POINT
  5
2A7
  8
DEFPOINTS
  6
CONTINUOUS
 62
     0
 10
1925.966976111369
 20
483.8002264918668
 30
0.0
  0
POINT
  5
2A8
  8
DEFPOINTS
  6
CONTINUOUS
 62
     0
 10
1925.966976111369
 20
504.8852264918675
 30
0.0
  0
ENDBLK
  5
2A9
  8
0
 62
     5
  0
BLOCK
  8
0
  2
*D1818
 70
     1
 10
0.0
 20
0.0
 30
0.0
  3
*D1818
  1

  0
LINE
  5
28B
  8
回07-寸法
  6
CONTINUOUS
 62
     5
 10
1932.251976111369
 20
476.8002264918675
 30
0.0
 11
1932.251976111369
 21
517.8852264918675
 31
0.0
  0
LINE
  5
28C
  8
回07-寸法
  6
CONTINUOUS
 62
     5
 10
1925.966976111369
 20
483.8002264918668
 30
0.0
 11
1925.966976111369
 21
517.8852264918675
 31
0.0
  0
LINE
  5
28D
  8
回07-寸法
  6
CONTINUOUS
 62
     5
 10
1933.751976111369
 20
516.8852264918675
 30
0.0
 11
1935.251976111368
 21
516.8852264918675
 31
0.0
  0
LINE
  5
28E
  8
回07-寸法
  6
CONTINUOUS
 62
     5
 10
1924.466976111369
 20
516.8852264918675
 30
0.0
 11
1907.460656731757
 21
516.8852264918675
 31
0.0
  0
LINE
  5
28F
  8
回07-寸法
  6
CONTINUOUS
 62
     5
 10
1932.251976111369
 20
516.8852264918675
 30
0.0
 11
1925.966976111369
 21
516.8852264918675
 31
0.0
  0
INSERT
  5
290
  8
回07-寸法
  6
CONTINUOUS
 62
     5
 66
     1
  2
_OPEN
 10
1932.251976111369
 20
516.8852264918675
 30
0.0
 41
1.5
 42
1.5
 43
1.5
 50
180.0
  0
SEQEND
  5
291
  8
0
  6
CONTINUOUS
 62
    18
  0
INSERT
  5
292
  8
回07-寸法
  6
CONTINUOUS
 62
     5
 66
     1
  2
_OPEN
 10
1925.966976111369
 20
516.8852264918675
 30
0.0
 41
1.5
 42
1.5
 43
1.5
  0
SEQEND
  5
293
  8
0
  6
CONTINUOUS
 62
    18
  0
TEXT
  5
294
  8
回07-寸法
  6
CONTINUOUS
 62
     5
 10
1907.463816421563
 20
517.3857186178516
 30
0.0
 40
5.0
  1
6.285
1001
ACAD
1000
MTEXTBEGIN
1070
    73
1070
     1
1070
    44
1040
1.0
1070
    74
1070
     0
1000
MTEXTEND
  0
POINT
  5
295
  8
DEFPOINTS
  6
CONTINUOUS
 62
     0
 10
1932.251976111369
 20
476.8002264918675
 30
0.0
  0
POINT
  5
296
  8
DEFPOINTS
  6
CONTINUOUS
 62
     0
 10
1925.966976111369
 20
483.8002264918668
 30
0.0
  0
POINT
  5
297
  8
DEFPOINTS
  6
CONTINUOUS
 62
     0
 10
1925.966976111369
 20
516.8852264918675
 30
0.0
  0
ENDBLK
  5
298
  8
0
 62
     5
  0
BLOCK
  8
0
  2
*D1919
 70
     1
 10
0.0
 20
0.0
 30
0.0
  3
*D1919
  1

  0
LINE
  5
27A
  8
回07-寸法
  6
CONTINUOUS
 62
     5
 10
1931.751976111369
 20
477.3002264918679
 30
0.0
 11
1931.751976111369
 21
529.8852264918675
 31
0.0
  0
LINE
  5
27B
  8
回07-寸法
  6
CONTINUOUS
 62
     5
 10
1925.966976111369
 20
483.8002264918676
 30
0.0
 11
1925.966976111369
 21
529.8852264918675
 31
0.0
  0
LINE
  5
27C
  8
回07-寸法
  6
CONTINUOUS
 62
     5
 10
1933.251976111369
 20
528.8852264918675
 30
0.0
 11
1934.751976111369
 21
528.8852264918675
 31
0.0
  0
LINE
  5
27D
  8
回07-寸法
  6
CONTINUOUS
 62
     5
 10
1924.466976111369
 20
528.8852264918675
 30
0.0
 11
1874.708329762944
 21
528.8852264918675
 31
0.0
  0
LINE
  5
27E
  8
回07-寸法
  6
CONTINUOUS
 62
     5
 10
1931.751976111369
 20
528.8852264918675
 30
0.0
 11
1925.966976111369
 21
528.8852264918675
 31
0.0
  0
INSERT
  5
27F
  8
回07-寸法
  6
CONTINUOUS
 62
     5
 66
     1
  2
_OPEN
 10
1931.751976111369
 20
528.8852264918675
 30
0.0
 41
1.5
 42
1.5
 43
1.5
 50
180.0
  0
SEQEND
  5
280
  8
0
  6
CONTINUOUS
 62
    18
  0
INSERT
  5
281
  8
回07-寸法
  6
CONTINUOUS
 62
     5
 66
     1
  2
_OPEN
 10
1925.966976111369
 20
528.8852264918675
 30
0.0
 41
1.5
 42
1.5
 43
1.5
  0
SEQEND
  5
282
  8
0
  6
CONTINUOUS
 62
    18
  0
INSERT
  5
283
  8
回07-寸法
  6
CONTINUOUS
 62
     5
 66
     1
  2
*X8686
 10
0.0
 20
0.0
 30
0.0
  0
SEQEND
  5
82A
  8
0
  6
CONTINUOUS
 62
    18
  0
POINT
  5
284
  8
DEFPOINTS
  6
CONTINUOUS
 62
     0
 10
1931.751976111369
 20
477.3002264918679
 30
0.0
  0
POINT
  5
285
  8
DEFPOINTS
  6
CONTINUOUS
 62
     0
 10
1925.966976111369
 20
483.8002264918676
 30
0.0
  0
POINT
  5
286
  8
DEFPOINTS
  6
CONTINUOUS
 62
     0
 10
1925.966976111369
 20
528.8852264918675
 30
0.0
  0
ENDBLK
  5
287
  8
0
 62
     5
  0
BLOCK
  8
0
  2
*D2020
 70
     1
 10
0.0
 20
0.0
 30
0.0
  3
*D2020
  1

  0
LINE
  5
26B
  8
回07-寸法
  6
CONTINUOUS
 62
     5
 10
2241.181976111369
 20
477.3002264918678
 30
0.0
 11
2241.181976111369
 21
529.8852264918675
 31
0.0
  0
LINE
  5
26C
  8
回07-寸法
  6
CONTINUOUS
 62
     5
 10
1931.751976111369
 20
477.3002264918679
 30
0.0
 11
1931.751976111369
 21
529.8852264918675
 31
0.0
  0
LINE
  5
26D
  8
回07-寸法
  6
CONTINUOUS
 62
     5
 10
2239.681976111369
 20
528.8852264918675
 30
0.0
 11
1933.251976111369
 21
528.8852264918675
 31
0.0
  0
INSERT
  5
26E
  8
回07-寸法
  6
CONTINUOUS
 62
     5
 66
     1
  2
_OPEN
 10
2241.181976111369
 20
528.8852264918675
 30
0.0
 41
1.5
 42
1.5
 43
1.5
  0
SEQEND
  5
26F
  8
0
  6
CONTINUOUS
 62
    18
  0
INSERT
  5
270
  8
回07-寸法
  6
CONTINUOUS
 62
     5
 66
     1
  2
_OPEN
 10
1931.751976111369
 20
528.8852264918675
 30
0.0
 41
1.5
 42
1.5
 43
1.5
 50
180.0
  0
SEQEND
  5
271
  8
0
  6
CONTINUOUS
 62
    18
  0
TEXT
  5
272
  8
回07-寸法
  6
CONTINUOUS
 62
     5
 10
2076.707950190051
 20
529.3852264918675
 30
0.0
 40
5.0
  1
309.43
1001
ACAD
1000
MTEXTBEGIN
1070
    73
1070
     1
1070
    44
1040
1.0
1070
    74
1070
     0
1000
MTEXTEND
  0
POINT
  5
273
  8
DEFPOINTS
  6
CONTINUOUS
 62
     0
 10
2241.181976111369
 20
477.3002264918678
 30
0.0
  0
POINT
  5
274
  8
DEFPOINTS
  6
CONTINUOUS
 62
     0
 10
1931.751976111369
 20
477.3002264918679
 30
0.0
  0
POINT
  5
275
  8
DEFPOINTS
  6
CONTINUOUS
 62
     0
 10
1931.751976111369
 20
528.8852264918675
 30
0.0
  0
ENDBLK
  5
276
  8
0
 62
     5
  0
BLOCK
  8
0
  2
*D2121
 70
     1
 10
0.0
 20
0.0
 30
0.0
  3
*D2121
  1

  0
LINE
  5
25A
  8
回07-寸法
  6
CONTINUOUS
 62
     5
 10
2240.681976111369
 20
476.8002264918676
 30
0.0
 11
2240.681976111369
 21
517.8852264918675
 31
0.0
  0
LINE
  5
25B
  8
回07-寸法
  6
CONTINUOUS
 62
     5
 10
2246.966976111369
 20
483.8002264918676
 30
0.0
 11
2246.966976111369
 21
517.8852264918675
 31
0.0
  0
LINE
  5
25C
  8
回07-寸法
  6
CONTINUOUS
 62
     5
 10
2239.181976111369
 20
516.8852264918675
 30
0.0
 11
2237.681976111369
 21
516.8852264918675
 31
0.0
  0
LINE
  5
25D
  8
回07-寸法
  6
CONTINUOUS
 62
     5
 10
2248.46697611137
 20
516.8852264918675
 30
0.0
 11
2268.963039103495
 21
516.8852264918675
 31
0.0
  0
LINE
  5
25E
  8
回07-寸法
  6
CONTINUOUS
 62
     5
 10
2240.681976111369
 20
516.8852264918675
 30
0.0
 11
2246.966976111369
 21
516.8852264918675
 31
0.0
  0
INSERT
  5
25F
  8
回07-寸法
  6
CONTINUOUS
 62
     5
 66
     1
  2
_OPEN
 10
2240.681976111369
 20
516.8852264918675
 30
0.0
 41
1.5
 42
1.5
 43
1.5
  0
SEQEND
  5
260
  8
0
  6
CONTINUOUS
 62
    18
  0
INSERT
  5
261
  8
回07-寸法
  6
CONTINUOUS
 62
     5
 66
     1
  2
_OPEN
 10
2246.966976111369
 20
516.8852264918675
 30
0.0
 41
1.5
 42
1.5
 43
1.5
 50
180.0
  0
SEQEND
  5
262
  8
0
  6
CONTINUOUS
 62
    18
  0
TEXT
  5
263
  8
回07-寸法
  6
CONTINUOUS
 62
     5
 10
2249.715007607432
 20
517.6352264918675
 30
0.0
 40
5.0
  1
(6.285)
1001
ACAD
1000
MTEXTBEGIN
1070
    73
1070
     1
1070
    44
1040
1.0
1070
    74
1070
     0
1000
MTEXTEND
  0
POINT
  5
264
  8
DEFPOINTS
  6
CONTINUOUS
 62
     0
 10
2240.681976111369
 20
476.8002264918676
 30
0.0
  0
POINT
  5
265
  8
DEFPOINTS
  6
CONTINUOUS
 62
     0
 10
2246.966976111369
 20
483.8002264918676
 30
0.0
  0
POINT
  5
266
  8
DEFPOINTS
  6
CONTINUOUS
 62
     0
 10
2246.966976111369
 20
516.8852264918675
 30
0.0
  0
ENDBLK
  5
267
  8
0
 62
     5
  0
BLOCK
  8
0
  2
*D2222
 70
     1
 10
0.0
 20
0.0
 30
0.0
  3
*D2222
  1

  0
LINE
  5
249
  8
回07-寸法
  6
CONTINUOUS
 62
     5
 10
2238.516976111371
 20
474.4002264918681
 30
0.0
 11
2238.516976111371
 21
505.8852264918676
 31
0.0
  0
LINE
  5
24A
  8
回07-寸法
  6
CONTINUOUS
 62
     5
 10
2246.966976111369
 20
483.8002264918676
 30
0.0
 11
2246.966976111369
 21
505.8852264918676
 31
0.0
  0
LINE
  5
24B
  8
回07-寸法
  6
CONTINUOUS
 62
     5
 10
2237.016976111371
 20
504.8852264918675
 30
0.0
 11
2235.516976111371
 21
504.8852264918675
 31
0.0
  0
LINE
  5
24C
  8
回07-寸法
  6
CONTINUOUS
 62
     5
 10
2248.46697611137
 20
504.8852264918675
 30
0.0
 11
2265.963039103495
 21
504.8852264918675
 31
0.0
  0
LINE
  5
24D
  8
回07-寸法
  6
CONTINUOUS
 62
     5
 10
2238.516976111371
 20
504.8852264918675
 30
0.0
 11
2246.966976111369
 21
504.8852264918675
 31
0.0
  0
INSERT
  5
24E
  8
回07-寸法
  6
CONTINUOUS
 62
     5
 66
     1
  2
_OPEN
 10
2238.516976111371
 20
504.8852264918675
 30
0.0
 41
1.5
 42
1.5
 43
1.5
  0
SEQEND
  5
24F
  8
0
  6
CONTINUOUS
 62
    18
  0
INSERT
  5
250
  8
回07-寸法
  6
CONTINUOUS
 62
     5
 66
     1
  2
_OPEN
 10
2246.966976111369
 20
504.8852264918675
 30
0.0
 41
1.5
 42
1.5
 43
1.5
 50
180.0
  0
SEQEND
  5
251
  8
0
  6
CONTINUOUS
 62
    18
  0
TEXT
  5
252
  8
回07-寸法
  6
CONTINUOUS
 62
     5
 10
2249.715007607432
 20
505.6352264918674
 30
0.0
 40
5.0
  1
(8.45)
1001
ACAD
1000
MTEXTBEGIN
1070
    73
1070
     1
1070
    44
1040
1.0
1070
    74
1070
     0
1000
MTEXTEND
  0
POINT
  5
253
  8
DEFPOINTS
  6
CONTINUOUS
 62
     0
 10
2238.516976111371
 20
474.4002264918681
 30
0.0
  0
POINT
  5
254
  8
DEFPOINTS
  6
CONTINUOUS
 62
     0
 10
2246.966976111369
 20
483.8002264918676
 30
0.0
  0
POINT
  5
255
  8
DEFPOINTS
  6
CONTINUOUS
 62
     0
 10
2246.966976111369
 20
504.8852264918675
 30
0.0
  0
ENDBLK
  5
256
  8
0
 62
     5
  0
BLOCK
  8
0
  2
*D2323
 70
     1
 10
0.0
 20
0.0
 30
0.0
  3
*D2323
  1

  0
LINE
  5
238
  8
回07-寸法
  6
CONTINUOUS
 62
     5
 10
2241.181976111369
 20
477.3002264918678
 30
0.0
 11
2241.181976111369
 21
529.8852264918675
 31
0.0
  0
LINE
  5
239
  8
回07-寸法
  6
CONTINUOUS
 62
     5
 10
2246.966976111369
 20
483.8002264918676
 30
0.0
 11
2246.966976111369
 21
529.8852264918675
 31
0.0
  0
LINE
  5
23A
  8
回07-寸法
  6
CONTINUOUS
 62
     5
 10
2239.681976111369
 20
528.8852264918675
 30
0.0
 11
2238.181976111369
 21
528.8852264918675
 31
0.0
  0
LINE
  5
23B
  8
回07-寸法
  6
CONTINUOUS
 62
     5
 10
2248.46697611137
 20
528.8852264918675
 30
0.0
 11
2302.223653955858
 21
528.8852264918675
 31
0.0
  0
LINE
  5
23C
  8
回07-寸法
  6
CONTINUOUS
 62
     5
 10
2241.181976111369
 20
528.8852264918675
 30
0.0
 11
2246.966976111369
 21
528.8852264918675
 31
0.0
  0
INSERT
  5
23D
  8
回07-寸法
  6
CONTINUOUS
 62
     5
 66
     1
  2
_OPEN
 10
2241.181976111369
 20
528.8852264918675
 30
0.0
 41
1.5
 42
1.5
 43
1.5
  0
SEQEND
  5
23E
  8
0
  6
CONTINUOUS
 62
    18
  0
INSERT
  5
23F
  8
回07-寸法
  6
CONTINUOUS
 62
     5
 66
     1
  2
_OPEN
 10
2246.966976111369
 20
528.8852264918675
 30
0.0
 41
1.5
 42
1.5
 43
1.5
 50
180.0
  0
SEQEND
  5
240
  8
0
  6
CONTINUOUS
 62
    18
  0
INSERT
  5
241
  8
回07-寸法
  6
CONTINUOUS
 62
     5
 66
     1
  2
*X8787
 10
0.0
 20
0.0
 30
0.0
  0
SEQEND
  5
830
  8
0
  6
CONTINUOUS
 62
    18
  0
POINT
  5
242
  8
DEFPOINTS
  6
CONTINUOUS
 62
     0
 10
2241.181976111369
 20
477.3002264918678
 30
0.0
  0
POINT
  5
243
  8
DEFPOINTS
  6
CONTINUOUS
 62
     0
 10
2246.966976111369
 20
483.8002264918676
 30
0.0
  0
POINT
  5
244
  8
DEFPOINTS
  6
CONTINUOUS
 62
     0
 10
2246.966976111369
 20
528.8852264918675
 30
0.0
  0
ENDBLK
  5
245
  8
0
 62
     5
  0
BLOCK
  8
0
  2
*D2424
 70
     1
 10
0.0
 20
0.0
 30
0.0
  3
*D2424
  1

  0
LINE
  5
38B
  8
回07-寸法
  6
CONTINUOUS
 62
     5
 10
1934.416976111369
 20
246.3002264918682
 30
0.0
 11
1894.236976121369
 21
246.3002264918682
 31
0.0
  0
LINE
  5
38C
  8
回07-寸法
  6
CONTINUOUS
 62
     5
 10
1934.416976111369
 20
474.4002264918681
 30
0.0
 11
1894.236976121369
 21
474.4002264918681
 31
0.0
  0
LINE
  5
38D
  8
回07-寸法
  6
CONTINUOUS
 62
     5
 10
1895.236976121369
 20
247.8002264918682
 30
0.0
 11
1895.236976121369
 21
472.9002264918682
 31
0.0
  0
INSERT
  5
38E
  8
回07-寸法
  6
CONTINUOUS
 62
     5
 66
     1
  2
_OPEN
 10
1895.236976121369
 20
246.3002264918682
 30
0.0
 41
1.5
 42
1.5
 43
1.5
 50
270.0
  0
SEQEND
  5
38F
  8
0
  6
CONTINUOUS
 62
    18
  0
INSERT
  5
390
  8
回07-寸法
  6
CONTINUOUS
 62
     5
 66
     1
  2
_OPEN
 10
1895.236976121369
 20
474.4002264918681
 30
0.0
 41
1.5
 42
1.5
 43
1.5
 50
90.0
  0
SEQEND
  5
391
  8
0
  6
CONTINUOUS
 62
    18
  0
TEXT
  5
392
  8
回07-寸法
  6
CONTINUOUS
 62
     5
 10
1894.486976121369
 20
335.1012107438362
 30
0.0
 40
5.0
  1
228.1(Active Area)
 50
90.0
1001
ACAD
1000
MTEXTBEGIN
1070
    73
1070
     1
1070
    44
1040
1.0
1070
    74
1070
     0
1000
MTEXTEND
  0
POINT
  5
393
  8
DEFPOINTS
  6
CONTINUOUS
 62
     0
 10
1934.416976111369
 20
246.3002264918682
 30
0.0
  0
POINT
  5
394
  8
DEFPOINTS
  6
CONTINUOUS
 62
     0
 10
1934.416976111369
 20
474.4002264918681
 30
0.0
  0
POINT
  5
395
  8
DEFPOINTS
  6
CONTINUOUS
 62
     0
 10
1895.236976121369
 20
474.4002264918681
 30
0.0
  0
ENDBLK
  5
396
  8
0
 62
     5
  0
BLOCK
  8
0
  2
*D2525
 70
     1
 10
0.0
 20
0.0
 30
0.0
  3
*D2525
  1

  0
LINE
  5
37C
  8
回07-寸法
  6
CONTINUOUS
 62
     5
 10
1932.251976111369
 20
476.8002264918679
 30
0.0
 11
1882.236976121369
 21
476.8002264918679
 31
0.0
  0
LINE
  5
37D
  8
回07-寸法
  6
CONTINUOUS
 62
     5
 10
1932.251976111369
 20
243.9002264918681
 30
0.0
 11
1882.236976121369
 21
243.9002264918681
 31
0.0
  0
LINE
  5
37E
  8
回07-寸法
  6
CONTINUOUS
 62
     5
 10
1883.236976121368
 20
475.300226491868
 30
0.0
 11
1883.236976121368
 21
245.4002264918681
 31
0.0
  0
INSERT
  5
37F
  8
回07-寸法
  6
CONTINUOUS
 62
     5
 66
     1
  2
_OPEN
 10
1883.236976121368
 20
476.8002264918679
 30
0.0
 41
1.5
 42
1.5
 43
1.5
 50
90.0
  0
SEQEND
  5
380
  8
0
  6
CONTINUOUS
 62
    18
  0
INSERT
  5
381
  8
回07-寸法
  6
CONTINUOUS
 62
     5
 66
     1
  2
_OPEN
 10
1883.236976121368
 20
243.9002264918681
 30
0.0
 41
1.5
 42
1.5
 43
1.5
 50
270.0
  0
SEQEND
  5
382
  8
0
  6
CONTINUOUS
 62
    18
  0
TEXT
  5
383
  8
回07-寸法
  6
CONTINUOUS
 62
     5
 10
1881.396366904599
 20
332.8421848225187
 30
0.0
 40
5.0
  1
232.9(Viewing Area)
 50
90.0
1001
ACAD
1000
MTEXTBEGIN
1070
    73
1070
     1
1070
    44
1040
1.0
1070
    74
1070
     0
1000
MTEXTEND
  0
POINT
  5
384
  8
DEFPOINTS
  6
CONTINUOUS
 62
     0
 10
1932.251976111369
 20
476.8002264918679
 30
0.0
  0
POINT
  5
385
  8
DEFPOINTS
  6
CONTINUOUS
 62
     0
 10
1932.251976111369
 20
243.9002264918681
 30
0.0
  0
POINT
  5
386
  8
DEFPOINTS
  6
CONTINUOUS
 62
     0
 10
1883.236976121368
 20
243.9002264918681
 30
0.0
  0
ENDBLK
  5
387
  8
0
 62
     5
  0
BLOCK
  8
0
  2
*D2626
 70
     1
 10
0.0
 20
0.0
 30
0.0
  3
*D2626
  1

  0
LINE
  5
36D
  8
回07-寸法
  6
CONTINUOUS
 62
     5
 10
1925.966976111369
 20
483.8002264918676
 30
0.0
 11
1858.236976121369
 21
483.8002264918676
 31
0.0
  0
LINE
  5
36E
  8
回07-寸法
  6
CONTINUOUS
 62
     5
 10
1925.966976111369
 20
233.8002264918677
 30
0.0
 11
1858.236976121369
 21
233.8002264918677
 31
0.0
  0
LINE
  5
36F
  8
回07-寸法
  6
CONTINUOUS
 62
     5
 10
1859.236976121369
 20
482.3002264918677
 30
0.0
 11
1859.236976121369
 21
235.3002264918676
 31
0.0
  0
INSERT
  5
370
  8
回07-寸法
  6
CONTINUOUS
 62
     5
 66
     1
  2
_OPEN
 10
1859.236976121369
 20
483.8002264918678
 30
0.0
 41
1.5
 42
1.5
 43
1.5
 50
90.0
  0
SEQEND
  5
371
  8
0
  6
CONTINUOUS
 62
    18
  0
INSERT
  5
372
  8
回07-寸法
  6
CONTINUOUS
 62
     5
 66
     1
  2
_OPEN
 10
1859.236976121369
 20
233.8002264918677
 30
0.0
 41
1.5
 42
1.5
 43
1.5
 50
270.0
  0
SEQEND
  5
373
  8
0
  6
CONTINUOUS
 62
    18
  0
INSERT
  5
374
  8
回07-寸法
  6
CONTINUOUS
 62
     5
 66
     1
  2
*X8888
 10
0.0
 20
0.0
 30
0.0
  0
SEQEND
  5
836
  8
0
  6
CONTINUOUS
 62
    18
  0
POINT
  5
375
  8
DEFPOINTS
  6
CONTINUOUS
 62
     0
 10
1925.966976111369
 20
483.8002264918676
 30
0.0
  0
POINT
  5
376
  8
DEFPOINTS
  6
CONTINUOUS
 62
     0
 10
1925.966976111369
 20
233.8002264918677
 30
0.0
  0
POINT
  5
377
  8
DEFPOINTS
  6
CONTINUOUS
 62
     0
 10
1859.236976121369
 20
233.8002264918677
 30
0.0
  0
ENDBLK
  5
378
  8
0
 62
     5
  0
BLOCK
  8
0
  2
*D2727
 70
     1
 10
0.0
 20
0.0
 30
0.0
  3
*D2727
  1

  0
LINE
  5
35E
  8
回07-寸法
  6
CONTINUOUS
 62
     5
 10
1931.751976111369
 20
243.4002264918681
 30
0.0
 11
1870.236976121368
 21
243.4002264918681
 31
0.0
  0
LINE
  5
35F
  8
回07-寸法
  6
CONTINUOUS
 62
     5
 10
1931.751976111369
 20
477.3002264918679
 30
0.0
 11
1870.236976121368
 21
477.3002264918679
 31
0.0
  0
LINE
  5
360
  8
回07-寸法
  6
CONTINUOUS
 62
     5
 10
1871.236976121369
 20
244.9002264918681
 30
0.0
 11
1871.236976121369
 21
475.800226491868
 31
0.0
  0
INSERT
  5
361
  8
回07-寸法
  6
CONTINUOUS
 62
     5
 66
     1
  2
_OPEN
 10
1871.236976121369
 20
243.4002264918681
 30
0.0
 41
1.5
 42
1.5
 43
1.5
 50
270.0
  0
SEQEND
  5
362
  8
0
  6
CONTINUOUS
 62
    18
  0
INSERT
  5
363
  8
回07-寸法
  6
CONTINUOUS
 62
     5
 66
     1
  2
_OPEN
 10
1871.236976121369
 20
477.3002264918679
 30
0.0
 41
1.5
 42
1.5
 43
1.5
 50
90.0
  0
SEQEND
  5
364
  8
0
  6
CONTINUOUS
 62
    18
  0
TEXT
  5
365
  8
回07-寸法
  6
CONTINUOUS
 62
     5
 10
1870.736483995384
 20
352.5912005705508
 30
0.0
 40
5.0
  1
233.9
 50
90.0
1001
ACAD
1000
MTEXTBEGIN
1070
    73
1070
     1
1070
    44
1040
1.0
1070
    74
1070
     0
1000
MTEXTEND
  0
POINT
  5
366
  8
DEFPOINTS
  6
CONTINUOUS
 62
     0
 10
1931.751976111369
 20
243.4002264918681
 30
0.0
  0
POINT
  5
367
  8
DEFPOINTS
  6
CONTINUOUS
 62
     0
 10
1931.751976111369
 20
477.3002264918679
 30
0.0
  0
POINT
  5
368
  8
DEFPOINTS
  6
CONTINUOUS
 62
     0
 10
1871.236976121369
 20
477.3002264918679
 30
0.0
  0
ENDBLK
  5
369
  8
0
 62
     5
  0
BLOCK
  8
0
  2
*D2828
 70
     1
 10
0.0
 20
0.0
 30
0.0
  3
*D2828
  1

  0
LINE
  5
34D
  8
回07-寸法
  6
CONTINUOUS
 62
     5
 10
1932.251976111369
 20
243.9002264918681
 30
0.0
 11
1882.236976121368
 21
243.9002264918681
 31
0.0
  0
LINE
  5
34E
  8
回07-寸法
  6
CONTINUOUS
 62
     5
 10
1925.966976111369
 20
233.8002264918677
 30
0.0
 11
1882.236976121368
 21
233.8002264918677
 31
0.0
  0
LINE
  5
34F
  8
回07-寸法
  6
CONTINUOUS
 62
     5
 10
1883.236976121368
 20
245.4002264918681
 30
0.0
 11
1883.236976121368
 21
246.9002264918681
 31
0.0
  0
LINE
  5
350
  8
回07-寸法
  6
CONTINUOUS
 62
     5
 10
1883.236976121368
 20
232.3002264918677
 30
0.0
 11
1883.236976121368
 21
221.3002264918675
 31
0.0
  0
LINE
  5
351
  8
回07-寸法
  6
CONTINUOUS
 62
     5
 10
1883.236976121368
 20
243.9002264918681
 30
0.0
 11
1883.236976121368
 21
233.8002264918677
 31
0.0
  0
INSERT
  5
352
  8
回07-寸法
  6
CONTINUOUS
 62
     5
 66
     1
  2
_OPEN
 10
1883.236976121368
 20
243.9002264918681
 30
0.0
 41
1.5
 42
1.5
 43
1.5
 50
270.0
  0
SEQEND
  5
353
  8
0
  6
CONTINUOUS
 62
    18
  0
INSERT
  5
354
  8
回07-寸法
  6
CONTINUOUS
 62
     5
 66
     1
  2
_OPEN
 10
1883.236976121368
 20
233.8002264918677
 30
0.0
 41
1.5
 42
1.5
 43
1.5
 50
90.0
  0
SEQEND
  5
355
  8
0
  6
CONTINUOUS
 62
    18
  0
TEXT
  5
356
  8
回07-寸法
  6
CONTINUOUS
 62
     5
 10
1882.736976121368
 20
221.0502264918678
 30
0.0
 40
5.0
  1
10.1
 50
90.0
1001
ACAD
1000
MTEXTBEGIN
1070
    73
1070
     1
1070
    44
1040
1.0
1070
    74
1070
     0
1000
MTEXTEND
  0
POINT
  5
357
  8
DEFPOINTS
  6
CONTINUOUS
 62
     0
 10
1932.251976111369
 20
243.9002264918681
 30
0.0
  0
POINT
  5
358
  8
DEFPOINTS
  6
CONTINUOUS
 62
     0
 10
1925.966976111369
 20
233.8002264918677
 30
0.0
  0
POINT
  5
359
  8
DEFPOINTS
  6
CONTINUOUS
 62
     0
 10
1883.236976121368
 20
233.8002264918677
 30
0.0
  0
ENDBLK
  5
35A
  8
0
 62
     5
  0
BLOCK
  8
0
  2
*D2929
 70
     1
 10
0.0
 20
0.0
 30
0.0
  3
*D2929
  1

  0
LINE
  5
33C
  8
回07-寸法
  6
CONTINUOUS
 62
     5
 10
1934.416976111369
 20
246.300226491868
 30
0.0
 11
1894.236976121369
 21
246.300226491868
 31
0.0
  0
LINE
  5
33D
  8
回07-寸法
  6
CONTINUOUS
 62
     5
 10
1925.966976111369
 20
233.8002264918677
 30
0.0
 11
1894.236976121369
 21
233.8002264918677
 31
0.0
  0
LINE
  5
33E
  8
回07-寸法
  6
CONTINUOUS
 62
     5
 10
1895.236976121368
 20
247.800226491868
 30
0.0
 11
1895.236976121368
 21
249.300226491868
 31
0.0
  0
LINE
  5
33F
  8
回07-寸法
  6
CONTINUOUS
 62
     5
 10
1895.236976121368
 20
232.3002264918677
 30
0.0
 11
1895.236976121368
 21
220.093119710681
 31
0.0
  0
LINE
  5
340
  8
回07-寸法
  6
CONTINUOUS
 62
     5
 10
1895.236976121368
 20
246.300226491868
 30
0.0
 11
1895.236976121368
 21
233.8002264918677
 31
0.0
  0
INSERT
  5
341
  8
回07-寸法
  6
CONTINUOUS
 62
     5
 66
     1
  2
_OPEN
 10
1895.236976121368
 20
246.300226491868
 30
0.0
 41
1.5
 42
1.5
 43
1.5
 50
270.0
  0
SEQEND
  5
342
  8
0
  6
CONTINUOUS
 62
    18
  0
INSERT
  5
343
  8
回07-寸法
  6
CONTINUOUS
 62
     5
 66
     1
  2
_OPEN
 10
1895.236976121368
 20
233.8002264918677
 30
0.0
 41
1.5
 42
1.5
 43
1.5
 50
90.0
  0
SEQEND
  5
344
  8
0
  6
CONTINUOUS
 62
    18
  0
TEXT
  5
345
  8
回07-寸法
  6
CONTINUOUS
 62
     5
 10
1894.736483995384
 20
219.9466731012744
 30
0.0
 40
5.0
  1
12.5
 50
90.0
1001
ACAD
1000
MTEXTBEGIN
1070
    73
1070
     1
1070
    44
1040
1.0
1070
    74
1070
     0
1000
MTEXTEND
  0
POINT
  5
346
  8
DEFPOINTS
  6
CONTINUOUS
 62
     0
 10
1934.416976111369
 20
246.300226491868
 30
0.0
  0
POINT
  5
347
  8
DEFPOINTS
  6
CONTINUOUS
 62
     0
 10
1925.966976111369
 20
233.8002264918677
 30
0.0
  0
POINT
  5
348
  8
DEFPOINTS
  6
CONTINUOUS
 62
     0
 10
1895.236976121368
 20
233.8002264918677
 30
0.0
  0
ENDBLK
  5
349
  8
0
 62
     5
  0
BLOCK
  8
0
  2
*D3030
 70
     1
 10
0.0
 20
0.0
 30
0.0
  3
*D3030
  1

  0
LINE
  5
32B
  8
回07-寸法
  6
CONTINUOUS
 62
     5
 10
1931.751976111369
 20
243.4002264918681
 30
0.0
 11
1870.236976121368
 21
243.4002264918681
 31
0.0
  0
LINE
  5
32C
  8
回07-寸法
  6
CONTINUOUS
 62
     5
 10
1925.966976111369
 20
233.8002264918677
 30
0.0
 11
1870.236976121368
 21
233.8002264918677
 31
0.0
  0
LINE
  5
32D
  8
回07-寸法
  6
CONTINUOUS
 62
     5
 10
1871.236976121369
 20
244.9002264918681
 30
0.0
 11
1871.236976121369
 21
246.4002264918681
 31
0.0
  0
LINE
  5
32E
  8
回07-寸法
  6
CONTINUOUS
 62
     5
 10
1871.236976121369
 20
232.3002264918677
 30
0.0
 11
1871.236976121369
 21
189.3344733622559
 31
0.0
  0
LINE
  5
32F
  8
回07-寸法
  6
CONTINUOUS
 62
     5
 10
1871.236976121369
 20
243.4002264918681
 30
0.0
 11
1871.236976121369
 21
233.8002264918677
 31
0.0
  0
INSERT
  5
330
  8
回07-寸法
  6
CONTINUOUS
 62
     5
 66
     1
  2
_OPEN
 10
1871.236976121369
 20
243.4002264918681
 30
0.0
 41
1.5
 42
1.5
 43
1.5
 50
270.0
  0
SEQEND
  5
331
  8
0
  6
CONTINUOUS
 62
    18
  0
INSERT
  5
332
  8
回07-寸法
  6
CONTINUOUS
 62
     5
 66
     1
  2
_OPEN
 10
1871.236976121369
 20
233.8002264918677
 30
0.0
 41
1.5
 42
1.5
 43
1.5
 50
90.0
  0
SEQEND
  5
333
  8
0
  6
CONTINUOUS
 62
    18
  0
INSERT
  5
334
  8
回07-寸法
  6
CONTINUOUS
 62
     5
 66
     1
  2
*X8989
 10
0.0
 20
0.0
 30
0.0
  0
SEQEND
  5
83C
  8
0
  6
CONTINUOUS
 62
    18
  0
POINT
  5
335
  8
DEFPOINTS
  6
CONTINUOUS
 62
     0
 10
1931.751976111369
 20
243.4002264918681
 30
0.0
  0
POINT
  5
336
  8
DEFPOINTS
  6
CONTINUOUS
 62
     0
 10
1925.966976111369
 20
233.8002264918677
 30
0.0
  0
POINT
  5
337
  8
DEFPOINTS
  6
CONTINUOUS
 62
     0
 10
1871.236976121369
 20
233.8002264918677
 30
0.0
  0
ENDBLK
  5
338
  8
0
 62
     5
  0
BLOCK
  8
0
  2
*D3131
 70
     1
 10
0.0
 20
0.0
 30
0.0
  3
*D3131
  1

  0
LINE
  5
31C
  8
回07-寸法
  6
CONTINUOUS
 62
     5
 10
2064.219584528938
 20
134.3002264918678
 30
0.0
 11
2064.219584528938
 21
117.8042748626788
 31
0.0
  0
LINE
  5
31D
  8
回07-寸法
  6
CONTINUOUS
 62
     5
 10
1925.966976111369
 20
233.8002264918674
 30
0.0
 11
1925.966976111369
 21
117.8042748626788
 31
0.0
  0
LINE
  5
31E
  8
回07-寸法
  6
CONTINUOUS
 62
     5
 10
2062.719584528938
 20
118.8042748626788
 30
0.0
 11
1927.466976111369
 21
118.8042748626788
 31
0.0
  0
INSERT
  5
31F
  8
回07-寸法
  6
CONTINUOUS
 62
     5
 66
     1
  2
_OPEN
 10
2064.219584528938
 20
118.8042748626788
 30
0.0
 41
1.5
 42
1.5
 43
1.5
  0
SEQEND
  5
320
  8
0
  6
CONTINUOUS
 62
    18
  0
INSERT
  5
321
  8
回07-寸法
  6
CONTINUOUS
 62
     5
 66
     1
  2
_OPEN
 10
1925.966976111369
 20
118.8042748626788
 30
0.0
 41
1.5
 42
1.5
 43
1.5
 50
180.0
  0
SEQEND
  5
322
  8
0
  6
CONTINUOUS
 62
    18
  0
TEXT
  5
323
  8
回07-寸法
  6
CONTINUOUS
 62
     5
 10
1985.843280320153
 20
119.5542748626787
 30
0.0
 40
5.0
  1
(138.3)
1001
ACAD
1000
MTEXTBEGIN
1070
    73
1070
     1
1070
    44
1040
1.0
1070
    74
1070
     0
1000
MTEXTEND
  0
POINT
  5
324
  8
DEFPOINTS
  6
CONTINUOUS
 62
     0
 10
2064.219584528938
 20
134.3002264918678
 30
0.0
  0
POINT
  5
325
  8
DEFPOINTS
  6
CONTINUOUS
 62
     0
 10
1925.966976111369
 20
233.8002264918674
 30
0.0
  0
POINT
  5
326
  8
DEFPOINTS
  6
CONTINUOUS
 62
     0
 10
1925.966976111369
 20
118.8042748626788
 30
0.0
  0
ENDBLK
  5
327
  8
0
 62
     5
  0
BLOCK
  8
0
  2
*D3232
 70
     1
 10
0.0
 20
0.0
 30
0.0
  3
*D3232
  1

  0
LINE
  5
30D
  8
回07-寸法
  6
CONTINUOUS
 62
     5
 10
1925.966976111369
 20
233.8002264918677
 30
0.0
 11
1925.966976111369
 21
107.8095546345407
 31
0.0
  0
LINE
  5
30E
  8
回07-寸法
  6
CONTINUOUS
 62
     5
 10
2093.219568139363
 20
134.3042748626786
 30
0.0
 11
2093.219568139363
 21
107.8095546345407
 31
0.0
  0
LINE
  5
30F
  8
回07-寸法
  6
CONTINUOUS
 62
     5
 10
1927.466976111369
 20
108.8095546345407
 30
0.0
 11
2091.719568139363
 21
108.8095546345407
 31
0.0
  0
INSERT
  5
310
  8
回07-寸法
  6
CONTINUOUS
 62
     5
 66
     1
  2
_OPEN
 10
1925.966976111369
 20
108.8095546345407
 30
0.0
 41
1.5
 42
1.5
 43
1.5
 50
180.0
  0
SEQEND
  5
311
  8
0
  6
CONTINUOUS
 62
    18
  0
INSERT
  5
312
  8
回07-寸法
  6
CONTINUOUS
 62
     5
 66
     1
  2
_OPEN
 10
2093.219568139363
 20
108.8095546345407
 30
0.0
 41
1.5
 42
1.5
 43
1.5
  0
SEQEND
  5
313
  8
0
  6
CONTINUOUS
 62
    18
  0
TEXT
  5
314
  8
回07-寸法
  6
CONTINUOUS
 62
     5
 10
2000.343272125366
 20
109.5595546345407
 30
0.0
 40
5.0
  1
(167.3)
1001
ACAD
1000
MTEXTBEGIN
1070
    73
1070
     1
1070
    44
1040
1.0
1070
    74
1070
     0
1000
MTEXTEND
  0
POINT
  5
315
  8
DEFPOINTS
  6
CONTINUOUS
 62
     0
 10
1925.966976111369
 20
233.8002264918677
 30
0.0
  0
POINT
  5
316
  8
DEFPOINTS
  6
CONTINUOUS
 62
     0
 10
2093.219568139363
 20
134.3042748626786
 30
0.0
  0
POINT
  5
317
  8
DEFPOINTS
  6
CONTINUOUS
 62
     0
 10
2093.219568139363
 20
108.8095546345407
 30
0.0
  0
ENDBLK
  5
318
  8
0
 62
     5
  0
BLOCK
  8
0
  2
*D3333
 70
     1
 10
0.0
 20
0.0
 30
0.0
  3
*D3333
  1

  0
LINE
  5
43F
  8
回07-寸法
  6
CONTINUOUS
 62
     5
 10
2287.413292792756
 20
483.3002264918676
 30
0.0
 11
2287.413292792756
 21
489.6872427272623
 31
0.0
  0
LINE
  5
440
  8
回07-寸法
  6
CONTINUOUS
 62
     5
 10
2308.306477011726
 20
483.8002264918676
 30
0.0
 11
2308.306477011726
 21
489.6872427272623
 31
0.0
  0
LINE
  5
441
  8
回07-寸法
  6
CONTINUOUS
 62
     5
 10
2288.913292792756
 20
488.6872427272623
 30
0.0
 11
2306.806477011726
 21
488.6872427272623
 31
0.0
  0
INSERT
  5
442
  8
回07-寸法
  6
CONTINUOUS
 62
     5
 66
     1
  2
_OPEN
 10
2287.413292792756
 20
488.6872427272623
 30
0.0
 41
1.5
 42
1.5
 43
1.5
 50
180.0
  0
SEQEND
  5
443
  8
0
  6
CONTINUOUS
 62
    18
  0
INSERT
  5
444
  8
回07-寸法
  6
CONTINUOUS
 62
     5
 66
     1
  2
_OPEN
 10
2308.306477011726
 20
488.6872427272623
 30
0.0
 41
1.5
 42
1.5
 43
1.5
  0
SEQEND
  5
445
  8
0
  6
CONTINUOUS
 62
    18
  0
INSERT
  5
446
  8
回07-寸法
  6
CONTINUOUS
 62
     5
 66
     1
  2
*X9090
 10
0.0
 20
0.0
 30
0.0
  0
SEQEND
  5
842
  8
0
  6
CONTINUOUS
 62
    18
  0
POINT
  5
447
  8
DEFPOINTS
  6
CONTINUOUS
 62
     0
 10
2287.413292792756
 20
483.3002264918676
 30
0.0
  0
POINT
  5
448
  8
DEFPOINTS
  6
CONTINUOUS
 62
     0
 10
2308.306477011726
 20
483.8002264918676
 30
0.0
  0
POINT
  5
449
  8
DEFPOINTS
  6
CONTINUOUS
 62
     0
 10
2308.306477011726
 20
488.6872427272623
 30
0.0
  0
ENDBLK
  5
44A
  8
0
 62
     5
  0
BLOCK
  8
0
  2
*D3434
 70
     1
 10
0.0
 20
0.0
 30
0.0
  3
*D3434
  1

  0
LINE
  5
430
  8
回08-記事
  6
CONTINUOUS
 62
     5
 10
2291.413292792755
 20
133.8042748626788
 30
0.0
 11
2282.451882623783
 21
133.8042748626788
 31
0.0
  0
LINE
  5
431
  8
回08-記事
  6
CONTINUOUS
 62
     5
 10
2290.713292792756
 20
138.8042748626789
 30
0.0
 11
2282.451882623783
 21
138.8042748626789
 31
0.0
  0
LINE
  5
432
  8
回08-記事
  6
CONTINUOUS
 62
     5
 10
2283.451882623784
 20
135.3042748626789
 30
0.0
 11
2283.451882623784
 21
137.3042748626789
 31
0.0
  0
INSERT
  5
433
  8
回08-記事
  6
CONTINUOUS
 62
     5
 66
     1
  2
_OPEN
 10
2283.451882623784
 20
133.8042748626788
 30
0.0
 41
1.5
 42
1.5
 43
1.5
 50
270.0
  0
SEQEND
  5
434
  8
0
  6
CONTINUOUS
 62
    18
  0
INSERT
  5
435
  8
回08-記事
  6
CONTINUOUS
 62
     5
 66
     1
  2
_OPEN
 10
2283.451882623784
 20
138.8042748626789
 30
0.0
 41
1.5
 42
1.5
 43
1.5
 50
90.0
  0
SEQEND
  5
436
  8
0
  6
CONTINUOUS
 62
    18
  0
TEXT
  5
437
  8
回08-記事
  6
CONTINUOUS
 62
     5
 10
2282.951882623784
 20
134.554274862679
 30
0.0
 40
5.0
  1
5
 50
90.0
1001
ACAD
1000
MTEXTBEGIN
1070
    73
1070
     1
1070
    44
1040
1.0
1070
    74
1070
     0
1000
MTEXTEND
  0
POINT
  5
438
  8
DEFPOINTS
  6
CONTINUOUS
 62
     0
 10
2291.413292792755
 20
133.8042748626788
 30
0.0
  0
POINT
  5
439
  8
DEFPOINTS
  6
CONTINUOUS
 62
     0
 10
2290.713292792756
 20
138.8042748626789
 30
0.0
  0
POINT
  5
43A
  8
DEFPOINTS
  6
CONTINUOUS
 62
     0
 10
2283.451882623784
 20
138.8042748626789
 30
0.0
  0
ENDBLK
  5
43B
  8
0
 62
     5
  0
BLOCK
  8
0
  2
*D3535
 70
     1
 10
0.0
 20
0.0
 30
0.0
  3
*D3535
  1

  0
LINE
  5
421
  8
回08-記事
  6
CONTINUOUS
 62
     5
 10
2301.306477011726
 20
133.8042748626788
 30
0.0
 11
2314.581062577643
 21
133.8042748626788
 31
0.0
  0
LINE
  5
422
  8
回08-記事
  6
CONTINUOUS
 62
     5
 10
2302.006477011726
 20
138.8042748626789
 30
0.0
 11
2314.581062577643
 21
138.8042748626789
 31
0.0
  0
LINE
  5
423
  8
回08-記事
  6
CONTINUOUS
 62
     5
 10
2313.581062577643
 20
135.3042748626789
 30
0.0
 11
2313.581062577643
 21
137.3042748626789
 31
0.0
  0
INSERT
  5
424
  8
回08-記事
  6
CONTINUOUS
 62
     5
 66
     1
  2
_OPEN
 10
2313.581062577643
 20
133.8042748626788
 30
0.0
 41
1.5
 42
1.5
 43
1.5
 50
270.0
  0
SEQEND
  5
425
  8
0
  6
CONTINUOUS
 62
    18
  0
INSERT
  5
426
  8
回08-記事
  6
CONTINUOUS
 62
     5
 66
     1
  2
_OPEN
 10
2313.581062577643
 20
138.8042748626789
 30
0.0
 41
1.5
 42
1.5
 43
1.5
 50
90.0
  0
SEQEND
  5
427
  8
0
  6
CONTINUOUS
 62
    18
  0
TEXT
  5
428
  8
回08-記事
  6
CONTINUOUS
 62
     5
 10
2313.081062577643
 20
134.5542748626794
 30
0.0
 40
5.0
  1
5
 50
90.0
1001
ACAD
1000
MTEXTBEGIN
1070
    73
1070
     1
1070
    44
1040
1.0
1070
    74
1070
     0
1000
MTEXTEND
  0
POINT
  5
429
  8
DEFPOINTS
  6
CONTINUOUS
 62
     0
 10
2301.306477011726
 20
133.8042748626788
 30
0.0
  0
POINT
  5
42A
  8
DEFPOINTS
  6
CONTINUOUS
 62
     0
 10
2302.006477011726
 20
138.8042748626789
 30
0.0
  0
POINT
  5
42B
  8
DEFPOINTS
  6
CONTINUOUS
 62
     0
 10
2313.581062577643
 20
138.8042748626789
 30
0.0
  0
ENDBLK
  5
42C
  8
0
 62
     5
  0
BLOCK
  8
0
  2
*D3636
 70
     1
 10
0.0
 20
0.0
 30
0.0
  3
*D3636
  1

  0
LINE
  5
412
  8
回08-記事
  6
CONTINUOUS
 62
     5
 10
2293.913292792755
 20
143.8042748626789
 30
0.0
 11
2299.187825657117
 21
143.8042748626789
 31
0.0
  0
LINE
  5
413
  8
回08-記事
  6
CONTINUOUS
 62
     5
 10
2293.913292792755
 20
133.8042748626788
 30
0.0
 11
2299.187825657117
 21
133.8042748626788
 31
0.0
  0
LINE
  5
414
  8
回08-記事
  6
CONTINUOUS
 62
     5
 10
2298.187825657117
 20
142.3042748626789
 30
0.0
 11
2298.187825657117
 21
135.3042748626789
 31
0.0
  0
INSERT
  5
415
  8
回08-記事
  6
CONTINUOUS
 62
     5
 66
     1
  2
_OPEN
 10
2298.187825657117
 20
143.8042748626789
 30
0.0
 41
1.5
 42
1.5
 43
1.5
 50
90.0
  0
SEQEND
  5
416
  8
0
  6
CONTINUOUS
 62
    18
  0
INSERT
  5
417
  8
回08-記事
  6
CONTINUOUS
 62
     5
 66
     1
  2
_OPEN
 10
2298.187825657117
 20
133.8042748626788
 30
0.0
 41
1.5
 42
1.5
 43
1.5
 50
270.0
  0
SEQEND
  5
418
  8
0
  6
CONTINUOUS
 62
    18
  0
TEXT
  5
419
  8
回08-記事
  6
CONTINUOUS
 62
     5
 10
2297.521158157117
 20
135.4709248626791
 30
0.0
 40
3.333349999999998
  1
(10)
 50
90.0
1001
ACAD
1000
MTEXTBEGIN
1070
    73
1070
     1
1070
    44
1040
1.0
1070
    74
1070
     0
1000
MTEXTEND
  0
POINT
  5
41A
  8
DEFPOINTS
  6
CONTINUOUS
 62
     0
 10
2293.913292792755
 20
143.8042748626789
 30
0.0
  0
POINT
  5
41B
  8
DEFPOINTS
  6
CONTINUOUS
 62
     0
 10
2293.913292792755
 20
133.8042748626788
 30
0.0
  0
POINT
  5
41C
  8
DEFPOINTS
  6
CONTINUOUS
 62
     0
 10
2298.187825657117
 20
133.8042748626788
 30
0.0
  0
ENDBLK
  5
41D
  8
0
 62
     5
  0
BLOCK
  8
0
  2
*D3737
 70
     1
 10
0.0
 20
0.0
 30
0.0
  3
*D3737
  1

  0
LINE
  5
401
  8
回08-記事
  6
CONTINUOUS
 62
     5
 10
2293.913292792755
 20
133.8042748626788
 30
0.0
 11
2293.913292792755
 21
123.303292597373
 31
0.0
  0
LINE
  5
402
  8
回08-記事
  6
CONTINUOUS
 62
     5
 10
2291.413292792755
 20
133.8042748626788
 30
0.0
 11
2291.413292792755
 21
123.303292597373
 31
0.0
  0
LINE
  5
403
  8
回08-記事
  6
CONTINUOUS
 62
     5
 10
2295.413292792755
 20
124.303292597373
 30
0.0
 11
2296.913292792755
 21
124.303292597373
 31
0.0
  0
LINE
  5
404
  8
回08-記事
  6
CONTINUOUS
 62
     5
 10
2289.913292792755
 20
124.303292597373
 30
0.0
 11
2269.687452693864
 21
124.303292597373
 31
0.0
  0
LINE
  5
405
  8
回08-記事
  6
CONTINUOUS
 62
     5
 10
2293.913292792755
 20
124.303292597373
 30
0.0
 11
2291.413292792755
 21
124.303292597373
 31
0.0
  0
INSERT
  5
406
  8
回08-記事
  6
CONTINUOUS
 62
     5
 66
     1
  2
_OPEN
 10
2293.913292792755
 20
124.303292597373
 30
0.0
 41
1.5
 42
1.5
 43
1.5
 50
180.0
  0
SEQEND
  5
407
  8
0
  6
CONTINUOUS
 62
    18
  0
INSERT
  5
408
  8
回08-記事
  6
CONTINUOUS
 62
     5
 66
     1
  2
_OPEN
 10
2291.413292792755
 20
124.303292597373
 30
0.0
 41
1.5
 42
1.5
 43
1.5
  0
SEQEND
  5
409
  8
0
  6
CONTINUOUS
 62
    18
  0
INSERT
  5
40A
  8
回08-記事
  6
CONTINUOUS
 62
     5
 66
     1
  2
*X9191
 10
0.0
 20
0.0
 30
0.0
  0
SEQEND
  5
848
  8
0
  6
CONTINUOUS
 62
    18
  0
POINT
  5
40B
  8
DEFPOINTS
  6
CONTINUOUS
 62
     0
 10
2293.913292792755
 20
133.8042748626788
 30
0.0
  0
POINT
  5
40C
  8
DEFPOINTS
  6
CONTINUOUS
 62
     0
 10
2291.413292792755
 20
133.8042748626788
 30
0.0
  0
POINT
  5
40D
  8
DEFPOINTS
  6
CONTINUOUS
 62
     0
 10
2291.413292792755
 20
124.303292597373
 30
0.0
  0
ENDBLK
  5
40E
  8
0
 62
     5
  0
BLOCK
  8
0
  2
*D3838
 70
     1
 10
0.0
 20
0.0
 30
0.0
  3
*D3838
  1

  0
LINE
  5
3F0
  8
回08-記事
  6
CONTINUOUS
 62
     5
 10
2298.806477011726
 20
133.8042748626788
 30
0.0
 11
2298.806477011726
 21
117.0161804246172
 31
0.0
  0
LINE
  5
3F1
  8
回08-記事
  6
CONTINUOUS
 62
     5
 10
2301.306477011726
 20
133.8042748626788
 30
0.0
 11
2301.306477011726
 21
117.0161804246172
 31
0.0
  0
LINE
  5
3F2
  8
回08-記事
  6
CONTINUOUS
 62
     5
 10
2297.306477011726
 20
118.0161804246172
 30
0.0
 11
2295.806477011726
 21
118.0161804246172
 31
0.0
  0
LINE
  5
3F3
  8
回08-記事
  6
CONTINUOUS
 62
     5
 10
2302.806477011726
 20
118.0161804246172
 30
0.0
 11
2323.032317110617
 21
118.0161804246172
 31
0.0
  0
LINE
  5
3F4
  8
回08-記事
  6
CONTINUOUS
 62
     5
 10
2298.806477011726
 20
118.0161804246172
 30
0.0
 11
2301.306477011726
 21
118.0161804246172
 31
0.0
  0
INSERT
  5
3F5
  8
回08-記事
  6
CONTINUOUS
 62
     5
 66
     1
  2
_OPEN
 10
2298.806477011726
 20
118.0161804246172
 30
0.0
 41
1.5
 42
1.5
 43
1.5
  0
SEQEND
  5
3F6
  8
0
  6
CONTINUOUS
 62
    18
  0
INSERT
  5
3F7
  8
回08-記事
  6
CONTINUOUS
 62
     5
 66
     1
  2
_OPEN
 10
2301.306477011726
 20
118.0161804246172
 30
0.0
 41
1.5
 42
1.5
 43
1.5
 50
180.0
  0
SEQEND
  5
3F8
  8
0
  6
CONTINUOUS
 62
    18
  0
INSERT
  5
3F9
  8
回08-記事
  6
CONTINUOUS
 62
     5
 66
     1
  2
*X9292
 10
0.0
 20
0.0
 30
0.0
  0
SEQEND
  5
84E
  8
0
  6
CONTINUOUS
 62
    18
  0
POINT
  5
3FA
  8
DEFPOINTS
  6
CONTINUOUS
 62
     0
 10
2298.806477011726
 20
133.8042748626788
 30
0.0
  0
POINT
  5
3FB
  8
DEFPOINTS
  6
CONTINUOUS
 62
     0
 10
2301.306477011726
 20
133.8042748626788
 30
0.0
  0
POINT
  5
3FC
  8
DEFPOINTS
  6
CONTINUOUS
 62
     0
 10
2301.306477011726
 20
118.0161804246172
 30
0.0
  0
ENDBLK
  5
3FD
  8
0
 62
     5
  0
BLOCK
  8
0
  2
*D3939
 70
     1
 10
0.0
 20
0.0
 30
0.0
  3
*D3939
  1

  0
LINE
  5
4FA
  8
回07-寸法
  6
CONTINUOUS
 62
     5
 10
2096.492707213102
 20
64.65296549378468
 30
0.0
 11
2126.73162244865
 21
64.65296549378468
 31
0.0
  0
LINE
  5
4FC
  8
回07-寸法
  6
CONTINUOUS
 62
     5
 10
2103.74383252855
 20
164.6489171229743
 30
0.0
 11
2126.73162244865
 21
164.6489171229743
 31
0.0
  0
LINE
  5
4FD
  8
回07-寸法
  6
CONTINUOUS
 62
     5
 10
2125.731622448649
 20
66.15296549378467
 30
0.0
 11
2125.731622448649
 21
163.1489171229743
 31
0.0
  0
INSERT
  5
4FE
  8
回07-寸法
  6
CONTINUOUS
 62
     5
  2
_OPEN
 10
2125.731622448649
 20
64.65296549378468
 30
0.0
 41
1.5
 42
1.5
 43
1.5
 50
270.0
  0
INSERT
  5
4FF
  8
回07-寸法
  6
CONTINUOUS
 62
     5
  2
_OPEN
 10
2125.731622448649
 20
164.6489171229743
 30
0.0
 41
1.5
 42
1.5
 43
1.5
 50
90.0
  0
INSERT
  5
500
  8
回07-寸法
  6
CONTINUOUS
 62
     5
 66
     1
  2
*X9393
 10
0.0
 20
0.0
 30
0.0
  0
SEQEND
  5
854
  8
0
  6
CONTINUOUS
 62
    18
  0
POINT
  5
501
  8
DEFPOINTS
  6
CONTINUOUS
 62
     0
 10
2096.492707213102
 20
64.65296549378468
 30
0.0
  0
POINT
  5
502
  8
DEFPOINTS
  6
CONTINUOUS
 62
     0
 10
2103.74383252855
 20
164.6489171229743
 30
0.0
  0
POINT
  5
503
  8
DEFPOINTS
  6
CONTINUOUS
 62
     0
 10
2125.731622448649
 20
164.6489171229743
 30
0.0
  0
ENDBLK
  5
505
  8
0
  6
CONTINUOUS
 62
    18
  0
BLOCK
  8
0
  2
*D4040
 70
     1
 10
0.0
 20
0.0
 30
0.0
  3
*D4040
  1

  0
LINE
  5
507
  8
回07-寸法
  6
CONTINUOUS
 62
     5
 10
2076.74383252855
 20
161.5034473959256
 30
0.0
 11
2076.74383252855
 21
131.5946645450432
 31
0.0
  0
LINE
  5
509
  8
回07-寸法
  6
CONTINUOUS
 62
     5
 10
2103.74383252855
 20
161.5074957667364
 30
0.0
 11
2103.74383252855
 21
131.5946645450432
 31
0.0
  0
LINE
  5
50A
  8
回07-寸法
  6
CONTINUOUS
 62
     5
 10
2105.24383252855
 20
132.5946645450432
 30
0.0
 11
2113.307316780518
 21
132.5946645450432
 31
0.0
  0
LINE
  5
50B
  8
回07-寸法
  6
CONTINUOUS
 62
     5
 10
2076.74383252855
 20
132.5946645450432
 30
0.0
 11
2103.74383252855
 21
132.5946645450432
 31
0.0
  0
LINE
  5
50C
  8
回07-寸法
  6
CONTINUOUS
 62
     5
 10
2075.24383252855
 20
132.5946645450432
 30
0.0
 11
2073.74383252855
 21
132.5946645450432
 31
0.0
  0
INSERT
  5
50D
  8
回07-寸法
  6
CONTINUOUS
 62
     5
  2
_OPEN
 10
2076.74383252855
 20
132.5946645450432
 30
0.0
 41
1.5
 42
1.5
 43
1.5
  0
INSERT
  5
50E
  8
回07-寸法
  6
CONTINUOUS
 62
     5
  2
_OPEN
 10
2103.74383252855
 20
132.5946645450432
 30
0.0
 41
1.5
 42
1.5
 43
1.5
 50
180.0
  0
TEXT
  5
50F
  8
回07-寸法
  6
CONTINUOUS
 62
     5
 10
2106.557316780519
 20
133.0946645450432
 30
0.0
 40
5.0
  1
27
  0
POINT
  5
510
  8
DEFPOINTS
  6
CONTINUOUS
 62
     0
 10
2076.74383252855
 20
161.5034473959256
 30
0.0
  0
POINT
  5
511
  8
DEFPOINTS
  6
CONTINUOUS
 62
     0
 10
2103.74383252855
 20
161.5074957667364
 30
0.0
  0
POINT
  5
512
  8
DEFPOINTS
  6
CONTINUOUS
 62
     0
 10
2103.74383252855
 20
132.5946645450432
 30
0.0
  0
ENDBLK
  5
514
  8
0
  6
CONTINUOUS
 62
    18
  0
BLOCK
  8
0
  2
*D4141
 70
     1
 10
0.0
 20
0.0
 30
0.0
  3
*D4141
  1

  0
LINE
  5
516
  8
回07-寸法
  6
CONTINUOUS
 62
     5
 10
2075.74383252855
 20
161.4314413513809
 30
0.0
 11
2075.74383252855
 21
138.0133217867197
 31
0.0
  0
LINE
  5
517
  8
回07-寸法
  6
CONTINUOUS
 62
     5
 10
2040.74383252855
 20
161.4354897221917
 30
0.0
 11
2040.74383252855
 21
138.0133217867197
 31
0.0
  0
LINE
  5
518
  8
回07-寸法
  6
CONTINUOUS
 62
     5
 10
2039.24383252855
 20
139.0133217867197
 30
0.0
 11
2030.839137837443
 21
139.0133217867197
 31
0.0
  0
LINE
  5
519
  8
回07-寸法
  6
CONTINUOUS
 62
     5
 10
2075.74383252855
 20
139.0133217867197
 30
0.0
 11
2040.74383252855
 21
139.0133217867197
 31
0.0
  0
LINE
  5
51A
  8
回07-寸法
  6
CONTINUOUS
 62
     5
 10
2077.24383252855
 20
139.0133217867197
 30
0.0
 11
2078.74383252855
 21
139.0133217867197
 31
0.0
  0
INSERT
  5
51B
  8
回07-寸法
  6
CONTINUOUS
 62
     5
  2
_OPEN
 10
2075.74383252855
 20
139.0133217867197
 30
0.0
 41
1.5
 42
1.5
 43
1.5
 50
180.0
  0
INSERT
  5
51C
  8
回07-寸法
  6
CONTINUOUS
 62
     5
  2
_OPEN
 10
2040.74383252855
 20
139.0133217867197
 30
0.0
 41
1.5
 42
1.5
 43
1.5
  0
TEXT
  5
51D
  8
回07-寸法
  6
CONTINUOUS
 62
     5
 10
2030.589137837444
 20
139.5133217867197
 30
0.0
 40
5.0
  1
35
  0
POINT
  5
51E
  8
DEFPOINTS
  6
CONTINUOUS
 62
     0
 10
2075.74383252855
 20
161.4314413513809
 30
0.0
  0
POINT
  5
51F
  8
DEFPOINTS
  6
CONTINUOUS
 62
     0
 10
2040.74383252855
 20
161.4354897221917
 30
0.0
  0
POINT
  5
520
  8
DEFPOINTS
  6
CONTINUOUS
 62
     0
 10
2040.74383252855
 20
139.0133217867197
 30
0.0
  0
ENDBLK
  5
522
  8
0
  6
CONTINUOUS
 62
    18
  0
BLOCK
  8
0
  2
*D4242
 70
     1
 10
0.0
 20
0.0
 30
0.0
  3
*D4242
  1

  0
LINE
  5
524
  8
回07-寸法
  6
CONTINUOUS
 62
     5
 10
2103.74383252855
 20
164.648917122974
 30
0.0
 11
2118.336133716231
 21
164.648917122974
 31
0.0
  0
LINE
  5
525
  8
回07-寸法
  6
CONTINUOUS
 62
     5
 10
2096.992707213102
 20
154.342156888915
 30
0.0
 11
2118.336133716231
 21
154.342156888915
 31
0.0
  0
LINE
  5
526
  8
回07-寸法
  6
CONTINUOUS
 62
     5
 10
2117.33613371623
 20
152.842156888915
 30
0.0
 11
2117.33613371623
 21
140.7386034983219
 31
0.0
  0
LINE
  5
527
  8
回07-寸法
  6
CONTINUOUS
 62
     5
 10
2117.33613371623
 20
164.648917122974
 30
0.0
 11
2117.33613371623
 21
154.342156888915
 31
0.0
  0
LINE
  5
528
  8
回07-寸法
  6
CONTINUOUS
 62
     5
 10
2117.33613371623
 20
166.1489171229741
 30
0.0
 11
2117.33613371623
 21
167.648917122974
 31
0.0
  0
INSERT
  5
529
  8
回07-寸法
  6
CONTINUOUS
 62
     5
  2
_OPEN
 10
2117.33613371623
 20
164.648917122974
 30
0.0
 41
1.5
 42
1.5
 43
1.5
 50
270.0
  0
INSERT
  5
52A
  8
回07-寸法
  6
CONTINUOUS
 62
     5
  2
_OPEN
 10
2117.33613371623
 20
154.342156888915
 30
0.0
 41
1.5
 42
1.5
 43
1.5
 50
90.0
  0
TEXT
  5
52B
  8
回07-寸法
  6
CONTINUOUS
 62
     5
 10
2116.836133716231
 20
140.4886034983219
 30
0.0
 40
5.0
  1
10.3
 50
90.0
  0
POINT
  5
52C
  8
DEFPOINTS
  6
CONTINUOUS
 62
     0
 10
2103.74383252855
 20
164.648917122974
 30
0.0
  0
POINT
  5
52D
  8
DEFPOINTS
  6
CONTINUOUS
 62
     0
 10
2096.992707213102
 20
154.342156888915
 30
0.0
  0
POINT
  5
52E
  8
DEFPOINTS
  6
CONTINUOUS
 62
     0
 10
2117.33613371623
 20
154.342156888915
 30
0.0
  0
ENDBLK
  5
530
  8
0
  6
CONTINUOUS
 62
    18
  0
BLOCK
  8
0
  2
*D4343
 70
     1
 10
0.0
 20
0.0
 30
0.0
  3
*D4343
  1

  0
LINE
  5
532
  8
回07-寸法
  6
CONTINUOUS
 62
     5
 10
2103.74383252855
 20
164.648917122974
 30
0.0
 11
2111.000028525634
 21
164.648917122974
 31
0.0
  0
LINE
  5
533
  8
回07-寸法
  6
CONTINUOUS
 62
     5
 10
2103.74383252855
 20
161.093282204363
 30
0.0
 11
2111.000028525634
 21
161.093282204363
 31
0.0
  0
LINE
  5
534
  8
回07-寸法
  6
CONTINUOUS
 62
     5
 10
2110.000028525634
 20
159.593282204363
 30
0.0
 11
2110.000028525634
 21
145.5004330728752
 31
0.0
  0
LINE
  5
535
  8
回07-寸法
  6
CONTINUOUS
 62
     5
 10
2110.000028525634
 20
164.648917122974
 30
0.0
 11
2110.000028525634
 21
161.093282204363
 31
0.0
  0
LINE
  5
536
  8
回07-寸法
  6
CONTINUOUS
 62
     5
 10
2110.000028525634
 20
166.1489171229741
 30
0.0
 11
2110.000028525634
 21
167.648917122974
 31
0.0
  0
INSERT
  5
537
  8
回07-寸法
  6
CONTINUOUS
 62
     5
  2
_OPEN
 10
2110.000028525634
 20
164.648917122974
 30
0.0
 41
1.5
 42
1.5
 43
1.5
 50
270.0
  0
INSERT
  5
538
  8
回07-寸法
  6
CONTINUOUS
 62
     5
  2
_OPEN
 10
2110.000028525634
 20
161.093282204363
 30
0.0
 41
1.5
 42
1.5
 43
1.5
 50
90.0
  0
TEXT
  5
539
  8
回07-寸法
  6
CONTINUOUS
 62
     5
 10
2109.500028525634
 20
145.2504330728752
 30
0.0
 40
5.0
  1
3.6
 50
90.0
  0
POINT
  5
53A
  8
DEFPOINTS
  6
CONTINUOUS
 62
     0
 10
2103.74383252855
 20
164.648917122974
 30
0.0
  0
POINT
  5
53B
  8
DEFPOINTS
  6
CONTINUOUS
 62
     0
 10
2103.74383252855
 20
161.093282204363
 30
0.0
  0
POINT
  5
53C
  8
DEFPOINTS
  6
CONTINUOUS
 62
     0
 10
2110.000028525634
 20
161.093282204363
 30
0.0
  0
ENDBLK
  5
53E
  8
0
  6
CONTINUOUS
 62
    18
  0
BLOCK
  8
0
  2
*D4444
 70
     1
 10
0.0
 20
0.0
 30
0.0
  3
*D4444
  1

  0
LINE
  5
540
  8
回07-寸法
  6
CONTINUOUS
 62
     5
 10
2040.74383252855
 20
164.6489171229745
 30
0.0
 11
2025.942133859209
 21
164.6489171229745
 31
0.0
  0
LINE
  5
541
  8
回07-寸法
  6
CONTINUOUS
 62
     5
 10
2054.492707213102
 20
147.2724014752668
 30
0.0
 11
2025.942133859209
 21
147.2724014752668
 31
0.0
  0
LINE
  5
542
  8
回07-寸法
  6
CONTINUOUS
 62
     5
 10
2026.942133859209
 20
163.1489171229746
 30
0.0
 11
2026.942133859209
 21
148.7724014752668
 31
0.0
  0
INSERT
  5
543
  8
回07-寸法
  6
CONTINUOUS
 62
     5
  2
_OPEN
 10
2026.942133859209
 20
164.6489171229745
 30
0.0
 41
1.5
 42
1.5
 43
1.5
 50
90.0
  0
INSERT
  5
544
  8
回07-寸法
  6
CONTINUOUS
 62
     5
  2
_OPEN
 10
2026.942133859209
 20
147.2724014752668
 30
0.0
 41
1.5
 42
1.5
 43
1.5
 50
270.0
  0
TEXT
  5
545
  8
回07-寸法
  6
CONTINUOUS
 62
     5
 10
2026.442133859209
 20
150.9995041471238
 30
0.0
 40
5.0
  1
17.4
 50
90.0
  0
POINT
  5
546
  8
DEFPOINTS
  6
CONTINUOUS
 62
     0
 10
2040.74383252855
 20
164.6489171229745
 30
0.0
  0
POINT
  5
547
  8
DEFPOINTS
  6
CONTINUOUS
 62
     0
 10
2054.492707213102
 20
147.2724014752668
 30
0.0
  0
POINT
  5
548
  8
DEFPOINTS
  6
CONTINUOUS
 62
     0
 10
2026.942133859209
 20
147.2724014752668
 30
0.0
  0
ENDBLK
  5
54A
  8
0
  6
CONTINUOUS
 62
    18
  0
BLOCK
  8
0
  2
*D4545
 70
     1
 10
0.0
 20
0.0
 30
0.0
  3
*D4545
  1

  0
LINE
  5
54C
  8
回07-寸法
  6
CONTINUOUS
 62
     5
 10
2040.74383252855
 20
164.6489171229745
 30
0.0
 11
2033.638810075182
 21
164.6489171229745
 31
0.0
  0
LINE
  5
54D
  8
回07-寸法
  6
CONTINUOUS
 62
     5
 10
2040.74383252855
 20
161.0212761598184
 30
0.0
 11
2033.638810075182
 21
161.0212761598184
 31
0.0
  0
LINE
  5
54E
  8
回07-寸法
  6
CONTINUOUS
 62
     5
 10
2034.638810075182
 20
159.5212761598184
 30
0.0
 11
2034.638810075182
 21
149.8951728407023
 31
0.0
  0
LINE
  5
54F
  8
回07-寸法
  6
CONTINUOUS
 62
     5
 10
2034.638810075182
 20
164.6489171229745
 30
0.0
 11
2034.638810075182
 21
161.0212761598184
 31
0.0
  0
LINE
  5
550
  8
回07-寸法
  6
CONTINUOUS
 62
     5
 10
2034.638810075182
 20
166.1489171229746
 30
0.0
 11
2034.638810075182
 21
167.6489171229746
 31
0.0
  0
INSERT
  5
551
  8
回07-寸法
  6
CONTINUOUS
 62
     5
  2
_OPEN
 10
2034.638810075182
 20
164.6489171229745
 30
0.0
 41
1.5
 42
1.5
 43
1.5
 50
270.0
  0
INSERT
  5
552
  8
回07-寸法
  6
CONTINUOUS
 62
     5
  2
_OPEN
 10
2034.638810075182
 20
161.0212761598184
 30
0.0
 41
1.5
 42
1.5
 43
1.5
 50
90.0
  0
TEXT
  5
553
  8
回07-寸法
  6
CONTINUOUS
 62
     5
 10
2034.138810075182
 20
149.6451728407023
 30
0.0
 40
5.0
  1
3.6
 50
90.0
  0
POINT
  5
554
  8
DEFPOINTS
  6
CONTINUOUS
 62
     0
 10
2040.74383252855
 20
164.6489171229745
 30
0.0
  0
POINT
  5
555
  8
DEFPOINTS
  6
CONTINUOUS
 62
     0
 10
2040.74383252855
 20
161.0212761598184
 30
0.0
  0
POINT
  5
556
  8
DEFPOINTS
  6
CONTINUOUS
 62
     0
 10
2034.638810075182
 20
161.0212761598184
 30
0.0
  0
ENDBLK
  5
558
  8
0
  6
CONTINUOUS
 62
    18
  0
BLOCK
  8
0
  2
*D4646
 70
     1
 10
0.0
 20
0.0
 30
0.0
  3
*D4646
  1

  0
LINE
  5
55A
  8
回07-寸法
  6
CONTINUOUS
 62
     5
 10
2071.992707213102
 20
65.1489171229748
 30
0.0
 11
2071.992707213102
 21
48.65296549378575
 31
0.0
  0
LINE
  5
55C
  8
回07-寸法
  6
CONTINUOUS
 62
     5
 10
2054.492707213102
 20
65.1489171229748
 30
0.0
 11
2054.492707213102
 21
48.65296549378575
 31
0.0
  0
LINE
  5
55D
  8
回07-寸法
  6
CONTINUOUS
 62
     5
 10
2073.492707213102
 20
49.65296549378575
 30
0.0
 11
2118.154810192214
 21
49.65296549378575
 31
0.0
  0
LINE
  5
55E
  8
回07-寸法
  6
CONTINUOUS
 62
     5
 10
2071.992707213102
 20
49.65296549378575
 30
0.0
 11
2054.492707213102
 21
49.65296549378575
 31
0.0
  0
LINE
  5
55F
  8
回07-寸法
  6
CONTINUOUS
 62
     5
 10
2052.992707213102
 20
49.65296549378575
 30
0.0
 11
2051.492707213102
 21
49.65296549378575
 31
0.0
  0
INSERT
  5
560
  8
回07-寸法
  6
CONTINUOUS
 62
     5
  2
_OPEN
 10
2071.992707213102
 20
49.65296549378575
 30
0.0
 41
1.5
 42
1.5
 43
1.5
 50
180.0
  0
INSERT
  5
561
  8
回07-寸法
  6
CONTINUOUS
 62
     5
  2
_OPEN
 10
2054.492707213102
 20
49.65296549378575
 30
0.0
 41
1.5
 42
1.5
 43
1.5
  0
INSERT
  5
562
  8
回07-寸法
  6
CONTINUOUS
 62
     5
 66
     1
  2
*X9494
 10
0.0
 20
0.0
 30
0.0
  0
SEQEND
  5
85A
  8
0
  6
CONTINUOUS
 62
    18
  0
POINT
  5
563
  8
DEFPOINTS
  6
CONTINUOUS
 62
     0
 10
2071.992707213102
 20
65.1489171229748
 30
0.0
  0
POINT
  5
564
  8
DEFPOINTS
  6
CONTINUOUS
 62
     0
 10
2054.492707213102
 20
65.1489171229748
 30
0.0
  0
POINT
  5
565
  8
DEFPOINTS
  6
CONTINUOUS
 62
     0
 10
2054.492707213102
 20
49.65296549378575
 30
0.0
  0
ENDBLK
  5
567
  8
0
  6
CONTINUOUS
 62
    18
  0
BLOCK
  8
0
  2
*D4747
 70
     1
 10
0.0
 20
0.0
 30
0.0
  3
*D4747
  1

  0
LINE
  5
569
  8
回07-寸法
  6
CONTINUOUS
 62
     5
 10
2096.992707213102
 20
65.1489171229739
 30
0.0
 11
2096.992707213102
 21
38.65824526564774
 31
0.0
  0
LINE
  5
56A
  8
回07-寸法
  6
CONTINUOUS
 62
     5
 10
2083.492707213102
 20
65.1489171229748
 30
0.0
 11
2083.492707213102
 21
38.65824526564774
 31
0.0
  0
LINE
  5
56B
  8
回07-寸法
  6
CONTINUOUS
 62
     5
 10
2098.492707213102
 20
39.65824526564773
 30
0.0
 11
2118.87281055956
 21
39.65824526564773
 31
0.0
  0
LINE
  5
56C
  8
回07-寸法
  6
CONTINUOUS
 62
     5
 10
2096.992707213102
 20
39.65824526564773
 30
0.0
 11
2083.492707213102
 21
39.65824526564773
 31
0.0
  0
LINE
  5
56D
  8
回07-寸法
  6
CONTINUOUS
 62
     5
 10
2081.992707213102
 20
39.65824526564773
 30
0.0
 11
2080.492707213102
 21
39.65824526564773
 31
0.0
  0
INSERT
  5
56E
  8
回07-寸法
  6
CONTINUOUS
 62
     5
  2
_OPEN
 10
2096.992707213102
 20
39.65824526564773
 30
0.0
 41
1.5
 42
1.5
 43
1.5
 50
180.0
  0
INSERT
  5
56F
  8
回07-寸法
  6
CONTINUOUS
 62
     5
  2
_OPEN
 10
2083.492707213102
 20
39.65824526564773
 30
0.0
 41
1.5
 42
1.5
 43
1.5
  0
INSERT
  5
570
  8
回07-寸法
  6
CONTINUOUS
 62
     5
 66
     1
  2
*X9595
 10
0.0
 20
0.0
 30
0.0
  0
SEQEND
  5
860
  8
0
  6
CONTINUOUS
 62
    18
  0
POINT
  5
571
  8
DEFPOINTS
  6
CONTINUOUS
 62
     0
 10
2096.992707213102
 20
65.1489171229739
 30
0.0
  0
POINT
  5
572
  8
DEFPOINTS
  6
CONTINUOUS
 62
     0
 10
2083.492707213102
 20
65.1489171229748
 30
0.0
  0
POINT
  5
573
  8
DEFPOINTS
  6
CONTINUOUS
 62
     0
 10
2083.492707213102
 20
39.65824526564773
 30
0.0
  0
ENDBLK
  5
575
  8
0
  6
CONTINUOUS
 62
    18
  0
BLOCK
  8
0
  2
*D4848
 70
     1
 10
0.0
 20
0.0
 30
0.0
  3
*D4848
  1

  0
LINE
  5
577
  8
回07-寸法
  6
CONTINUOUS
 62
     5
 10
2040.74383252855
 20
164.6489171229745
 30
0.0
 11
2010.487201153285
 21
164.6489171229745
 31
0.0
  0
LINE
  5
579
  8
回07-寸法
  6
CONTINUOUS
 62
     5
 10
2054.992707213102
 20
64.65296549378559
 30
0.0
 11
2010.487201153285
 21
64.65296549378559
 31
0.0
  0
LINE
  5
57A
  8
回07-寸法
  6
CONTINUOUS
 62
     5
 10
2011.487201153285
 20
163.1489171229746
 30
0.0
 11
2011.487201153285
 21
66.15296549378559
 31
0.0
  0
INSERT
  5
57B
  8
回07-寸法
  6
CONTINUOUS
 62
     5
  2
_OPEN
 10
2011.487201153285
 20
164.6489171229745
 30
0.0
 41
1.5
 42
1.5
 43
1.5
 50
90.0
  0
INSERT
  5
57C
  8
回07-寸法
  6
CONTINUOUS
 62
     5
  2
_OPEN
 10
2011.487201153285
 20
64.65296549378559
 30
0.0
 41
1.5
 42
1.5
 43
1.5
 50
270.0
  0
INSERT
  5
57D
  8
回07-寸法
  6
CONTINUOUS
 62
     5
 66
     1
  2
*X9696
 10
0.0
 20
0.0
 30
0.0
  0
SEQEND
  5
866
  8
0
  6
CONTINUOUS
 62
    18
  0
POINT
  5
57E
  8
DEFPOINTS
  6
CONTINUOUS
 62
     0
 10
2040.74383252855
 20
164.6489171229745
 30
0.0
  0
POINT
  5
57F
  8
DEFPOINTS
  6
CONTINUOUS
 62
     0
 10
2054.992707213102
 20
64.65296549378559
 30
0.0
  0
POINT
  5
580
  8
DEFPOINTS
  6
CONTINUOUS
 62
     0
 10
2011.487201153285
 20
64.65296549378559
 30
0.0
  0
ENDBLK
  5
582
  8
0
  6
CONTINUOUS
 62
    18
  0
BLOCK
  8
0
  2
*D4949
 70
     1
 10
0.0
 20
0.0
 30
0.0
  3
*D4949
  1

  0
LINE
  5
584
  8
回07-寸法
  6
CONTINUOUS
 62
     5
 10
2231.455115185108
 20
408.1489171229747
 30
0.0
 11
2231.455115185108
 21
460.7339171229744
 31
0.0
  0
LINE
  5
586
  8
回07-寸法
  6
CONTINUOUS
 62
     5
 10
2237.240115185107
 20
414.6489171229746
 30
0.0
 11
2237.240115185107
 21
460.7339171229744
 31
0.0
  0
LINE
  5
587
  8
回07-寸法
  6
CONTINUOUS
 62
     5
 10
2238.740115185107
 20
459.7339171229744
 30
0.0
 11
2292.496793029595
 21
459.7339171229744
 31
0.0
  0
LINE
  5
588
  8
回07-寸法
  6
CONTINUOUS
 62
     5
 10
2231.455115185108
 20
459.7339171229744
 30
0.0
 11
2237.240115185107
 21
459.7339171229744
 31
0.0
  0
LINE
  5
589
  8
回07-寸法
  6
CONTINUOUS
 62
     5
 10
2229.955115185108
 20
459.7339171229744
 30
0.0
 11
2228.455115185107
 21
459.7339171229744
 31
0.0
  0
INSERT
  5
58A
  8
回07-寸法
  6
CONTINUOUS
 62
     5
  2
_OPEN
 10
2231.455115185108
 20
459.7339171229744
 30
0.0
 41
1.5
 42
1.5
 43
1.5
  0
INSERT
  5
58B
  8
回07-寸法
  6
CONTINUOUS
 62
     5
  2
_OPEN
 10
2237.240115185107
 20
459.7339171229744
 30
0.0
 41
1.5
 42
1.5
 43
1.5
 50
180.0
  0
INSERT
  5
58C
  8
回07-寸法
  6
CONTINUOUS
 62
     5
 66
     1
  2
*X9797
 10
0.0
 20
0.0
 30
0.0
  0
SEQEND
  5
86C
  8
0
  6
CONTINUOUS
 62
    18
  0
POINT
  5
58D
  8
DEFPOINTS
  6
CONTINUOUS
 62
     0
 10
2231.455115185108
 20
408.1489171229747
 30
0.0
  0
POINT
  5
58E
  8
DEFPOINTS
  6
CONTINUOUS
 62
     0
 10
2237.240115185107
 20
414.6489171229746
 30
0.0
  0
POINT
  5
58F
  8
DEFPOINTS
  6
CONTINUOUS
 62
     0
 10
2237.240115185107
 20
459.7339171229744
 30
0.0
  0
ENDBLK
  5
591
  8
0
  6
CONTINUOUS
 62
    18
  0
BLOCK
  8
0
  2
*D5050
 70
     1
 10
0.0
 20
0.0
 30
0.0
  3
*D5050
  1

  0
LINE
  5
593
  8
回07-寸法
  6
CONTINUOUS
 62
     5
 10
2228.79011518511
 20
405.2489171229749
 30
0.0
 11
2228.79011518511
 21
436.7339171229744
 31
0.0
  0
LINE
  5
594
  8
回07-寸法
  6
CONTINUOUS
 62
     5
 10
2237.240115185107
 20
414.6489171229746
 30
0.0
 11
2237.240115185107
 21
436.7339171229744
 31
0.0
  0
LINE
  5
595
  8
回07-寸法
  6
CONTINUOUS
 62
     5
 10
2238.740115185107
 20
435.7339171229744
 30
0.0
 11
2256.236178177234
 21
435.7339171229744
 31
0.0
  0
LINE
  5
596
  8
回07-寸法
  6
CONTINUOUS
 62
     5
 10
2228.79011518511
 20
435.7339171229744
 30
0.0
 11
2237.240115185107
 21
435.7339171229744
 31
0.0
  0
LINE
  5
597
  8
回07-寸法
  6
CONTINUOUS
 62
     5
 10
2227.29011518511
 20
435.7339171229744
 30
0.0
 11
2225.79011518511
 21
435.7339171229744
 31
0.0
  0
INSERT
  5
598
  8
回07-寸法
  6
CONTINUOUS
 62
     5
  2
_OPEN
 10
2228.79011518511
 20
435.7339171229744
 30
0.0
 41
1.5
 42
1.5
 43
1.5
  0
INSERT
  5
599
  8
回07-寸法
  6
CONTINUOUS
 62
     5
  2
_OPEN
 10
2237.240115185107
 20
435.7339171229744
 30
0.0
 41
1.5
 42
1.5
 43
1.5
 50
180.0
  0
TEXT
  5
59A
  8
回07-寸法
  6
CONTINUOUS
 62
     5
 10
2239.98814668117
 20
436.4839171229744
 30
0.0
 40
5.0
  1
(8.45)
  0
POINT
  5
59B
  8
DEFPOINTS
  6
CONTINUOUS
 62
     0
 10
2228.79011518511
 20
405.2489171229749
 30
0.0
  0
POINT
  5
59C
  8
DEFPOINTS
  6
CONTINUOUS
 62
     0
 10
2237.240115185107
 20
414.6489171229746
 30
0.0
  0
POINT
  5
59D
  8
DEFPOINTS
  6
CONTINUOUS
 62
     0
 10
2237.240115185107
 20
435.7339171229744
 30
0.0
  0
ENDBLK
  5
59F
  8
0
  6
CONTINUOUS
 62
    18
  0
BLOCK
  8
0
  2
*D5151
 70
     1
 10
0.0
 20
0.0
 30
0.0
  3
*D5151
  1

  0
LINE
  5
5A1
  8
回07-寸法
  6
CONTINUOUS
 62
     5
 10
2230.955115185107
 20
407.6489171229747
 30
0.0
 11
2230.955115185107
 21
448.7339171229744
 31
0.0
  0
LINE
  5
5A2
  8
回07-寸法
  6
CONTINUOUS
 62
     5
 10
2237.240115185107
 20
414.6489171229746
 30
0.0
 11
2237.240115185107
 21
448.7339171229744
 31
0.0
  0
LINE
  5
5A3
  8
回07-寸法
  6
CONTINUOUS
 62
     5
 10
2238.740115185107
 20
447.7339171229744
 30
0.0
 11
2259.236178177233
 21
447.7339171229744
 31
0.0
  0
LINE
  5
5A4
  8
回07-寸法
  6
CONTINUOUS
 62
     5
 10
2230.955115185107
 20
447.7339171229744
 30
0.0
 11
2237.240115185107
 21
447.7339171229744
 31
0.0
  0
LINE
  5
5A5
  8
回07-寸法
  6
CONTINUOUS
 62
     5
 10
2229.455115185107
 20
447.7339171229744
 30
0.0
 11
2227.955115185107
 21
447.7339171229744
 31
0.0
  0
INSERT
  5
5A6
  8
回07-寸法
  6
CONTINUOUS
 62
     5
  2
_OPEN
 10
2230.955115185107
 20
447.7339171229744
 30
0.0
 41
1.5
 42
1.5
 43
1.5
  0
INSERT
  5
5A7
  8
回07-寸法
  6
CONTINUOUS
 62
     5
  2
_OPEN
 10
2237.240115185107
 20
447.7339171229744
 30
0.0
 41
1.5
 42
1.5
 43
1.5
 50
180.0
  0
TEXT
  5
5A8
  8
回07-寸法
  6
CONTINUOUS
 62
     5
 10
2239.98814668117
 20
448.4839171229744
 30
0.0
 40
5.0
  1
(6.285)
  0
POINT
  5
5A9
  8
DEFPOINTS
  6
CONTINUOUS
 62
     0
 10
2230.955115185107
 20
407.6489171229747
 30
0.0
  0
POINT
  5
5AA
  8
DEFPOINTS
  6
CONTINUOUS
 62
     0
 10
2237.240115185107
 20
414.6489171229746
 30
0.0
  0
POINT
  5
5AB
  8
DEFPOINTS
  6
CONTINUOUS
 62
     0
 10
2237.240115185107
 20
447.7339171229744
 30
0.0
  0
ENDBLK
  5
5AD
  8
0
  6
CONTINUOUS
 62
    18
  0
BLOCK
  8
0
  2
*D5252
 70
     1
 10
0.0
 20
0.0
 30
0.0
  3
*D5252
  1

  0
LINE
  5
5AF
  8
回07-寸法
  6
CONTINUOUS
 62
     5
 10
2231.455115185108
 20
408.1489171229747
 30
0.0
 11
2231.455115185108
 21
460.7339171229744
 31
0.0
  0
LINE
  5
5B0
  8
回07-寸法
  6
CONTINUOUS
 62
     5
 10
1922.025115185108
 20
408.1489171229748
 30
0.0
 11
1922.025115185108
 21
460.7339171229744
 31
0.0
  0
LINE
  5
5B1
  8
回07-寸法
  6
CONTINUOUS
 62
     5
 10
2229.955115185108
 20
459.7339171229744
 30
0.0
 11
1923.525115185108
 21
459.7339171229744
 31
0.0
  0
INSERT
  5
5B2
  8
回07-寸法
  6
CONTINUOUS
 62
     5
  2
_OPEN
 10
2231.455115185108
 20
459.7339171229744
 30
0.0
 41
1.5
 42
1.5
 43
1.5
 50
360.0
  0
INSERT
  5
5B3
  8
回07-寸法
  6
CONTINUOUS
 62
     5
  2
_OPEN
 10
1922.025115185108
 20
459.7339171229744
 30
0.0
 41
1.5
 42
1.5
 43
1.5
 50
180.0
  0
TEXT
  5
5B4
  8
回07-寸法
  6
CONTINUOUS
 62
     5
 10
2066.98108926379
 20
460.2339171229743
 30
0.0
 40
5.0
  1
309.43
  0
POINT
  5
5B5
  8
DEFPOINTS
  6
CONTINUOUS
 62
     0
 10
2231.455115185108
 20
408.1489171229747
 30
0.0
  0
POINT
  5
5B6
  8
DEFPOINTS
  6
CONTINUOUS
 62
     0
 10
1922.025115185108
 20
408.1489171229748
 30
0.0
  0
POINT
  5
5B7
  8
DEFPOINTS
  6
CONTINUOUS
 62
     0
 10
1922.025115185108
 20
459.7339171229744
 30
0.0
  0
ENDBLK
  5
5B9
  8
0
  6
CONTINUOUS
 62
    18
  0
BLOCK
  8
0
  2
*D5353
 70
     1
 10
0.0
 20
0.0
 30
0.0
  3
*D5353
  1

  0
LINE
  5
5BB
  8
回07-寸法
  6
CONTINUOUS
 62
     5
 10
1922.025115185108
 20
408.1489171229748
 30
0.0
 11
1922.025115185108
 21
460.7339171229744
 31
0.0
  0
LINE
  5
5BC
  8
回07-寸法
  6
CONTINUOUS
 62
     5
 10
1916.240115185107
 20
414.6489171229746
 30
0.0
 11
1916.240115185107
 21
460.7339171229744
 31
0.0
  0
LINE
  5
5BD
  8
回07-寸法
  6
CONTINUOUS
 62
     5
 10
1914.740115185107
 20
459.7339171229744
 30
0.0
 11
1864.981468836682
 21
459.7339171229744
 31
0.0
  0
LINE
  5
5BE
  8
回07-寸法
  6
CONTINUOUS
 62
     5
 10
1922.025115185108
 20
459.7339171229744
 30
0.0
 11
1916.240115185107
 21
459.7339171229744
 31
0.0
  0
LINE
  5
5BF
  8
回07-寸法
  6
CONTINUOUS
 62
     5
 10
1923.525115185108
 20
459.7339171229744
 30
0.0
 11
1925.025115185107
 21
459.7339171229744
 31
0.0
  0
INSERT
  5
5C0
  8
回07-寸法
  6
CONTINUOUS
 62
     5
  2
_OPEN
 10
1922.025115185108
 20
459.7339171229744
 30
0.0
 41
1.5
 42
1.5
 43
1.5
 50
180.0
  0
INSERT
  5
5C1
  8
回07-寸法
  6
CONTINUOUS
 62
     5
  2
_OPEN
 10
1916.240115185107
 20
459.7339171229744
 30
0.0
 41
1.5
 42
1.5
 43
1.5
  0
INSERT
  5
5C2
  8
回07-寸法
  6
CONTINUOUS
 62
     5
 66
     1
  2
*X9898
 10
0.0
 20
0.0
 30
0.0
  0
SEQEND
  5
872
  8
0
  6
CONTINUOUS
 62
    18
  0
POINT
  5
5C3
  8
DEFPOINTS
  6
CONTINUOUS
 62
     0
 10
1922.025115185108
 20
408.1489171229748
 30
0.0
  0
POINT
  5
5C4
  8
DEFPOINTS
  6
CONTINUOUS
 62
     0
 10
1916.240115185107
 20
414.6489171229746
 30
0.0
  0
POINT
  5
5C5
  8
DEFPOINTS
  6
CONTINUOUS
 62
     0
 10
1916.240115185107
 20
459.7339171229744
 30
0.0
  0
ENDBLK
  5
5C7
  8
0
  6
CONTINUOUS
 62
    18
  0
BLOCK
  8
0
  2
*D5454
 70
     1
 10
0.0
 20
0.0
 30
0.0
  3
*D5454
  1

  0
LINE
  5
5C9
  8
回07-寸法
  6
CONTINUOUS
 62
     5
 10
1922.525115185107
 20
407.6489171229744
 30
0.0
 11
1922.525115185107
 21
448.7339171229744
 31
0.0
  0
LINE
  5
5CA
  8
回07-寸法
  6
CONTINUOUS
 62
     5
 10
1916.240115185107
 20
414.6489171229737
 30
0.0
 11
1916.240115185107
 21
448.7339171229744
 31
0.0
  0
LINE
  5
5CB
  8
回07-寸法
  6
CONTINUOUS
 62
     5
 10
1914.740115185107
 20
447.7339171229744
 30
0.0
 11
1897.986955495301
 21
447.7339171229744
 31
0.0
  0
LINE
  5
5CC
  8
回07-寸法
  6
CONTINUOUS
 62
     5
 10
1922.525115185107
 20
447.7339171229744
 30
0.0
 11
1916.240115185107
 21
447.7339171229744
 31
0.0
  0
LINE
  5
5CD
  8
回07-寸法
  6
CONTINUOUS
 62
     5
 10
1924.025115185107
 20
447.7339171229744
 30
0.0
 11
1925.525115185108
 21
447.7339171229744
 31
0.0
  0
INSERT
  5
5CE
  8
回07-寸法
  6
CONTINUOUS
 62
     5
  2
_OPEN
 10
1922.525115185107
 20
447.7339171229744
 30
0.0
 41
1.5
 42
1.5
 43
1.5
 50
180.0
  0
INSERT
  5
5CF
  8
回07-寸法
  6
CONTINUOUS
 62
     5
  2
_OPEN
 10
1916.240115185107
 20
447.7339171229744
 30
0.0
 41
1.5
 42
1.5
 43
1.5
  0
TEXT
  5
5D0
  8
回07-寸法
  6
CONTINUOUS
 62
     5
 10
1897.736955495301
 20
448.2339171229744
 30
0.0
 40
5.0
  1
6.285
  0
POINT
  5
5D1
  8
DEFPOINTS
  6
CONTINUOUS
 62
     0
 10
1922.525115185107
 20
407.6489171229744
 30
0.0
  0
POINT
  5
5D2
  8
DEFPOINTS
  6
CONTINUOUS
 62
     0
 10
1916.240115185107
 20
414.6489171229737
 30
0.0
  0
POINT
  5
5D3
  8
DEFPOINTS
  6
CONTINUOUS
 62
     0
 10
1916.240115185107
 20
447.7339171229744
 30
0.0
  0
ENDBLK
  5
5D5
  8
0
  6
CONTINUOUS
 62
    18
  0
BLOCK
  8
0
  2
*D5555
 70
     1
 10
0.0
 20
0.0
 30
0.0
  3
*D5555
  1

  0
LINE
  5
5D7
  8
回07-寸法
  6
CONTINUOUS
 62
     5
 10
1924.690115195108
 20
405.2489171229749
 30
0.0
 11
1924.690115195108
 21
436.7339171229744
 31
0.0
  0
LINE
  5
5D8
  8
回07-寸法
  6
CONTINUOUS
 62
     5
 10
1916.240115185107
 20
414.6489171229737
 30
0.0
 11
1916.240115185107
 21
436.7339171229744
 31
0.0
  0
LINE
  5
5D9
  8
回07-寸法
  6
CONTINUOUS
 62
     5
 10
1914.740115185107
 20
435.7339171229744
 30
0.0
 11
1901.136561794514
 21
435.7339171229744
 31
0.0
  0
LINE
  5
5DA
  8
回07-寸法
  6
CONTINUOUS
 62
     5
 10
1924.690115195108
 20
435.7339171229744
 30
0.0
 11
1916.240115185107
 21
435.7339171229744
 31
0.0
  0
LINE
  5
5DB
  8
回07-寸法
  6
CONTINUOUS
 62
     5
 10
1926.190115195108
 20
435.7339171229744
 30
0.0
 11
1927.690115195108
 21
435.7339171229744
 31
0.0
  0
INSERT
  5
5DC
  8
回07-寸法
  6
CONTINUOUS
 62
     5
  2
_OPEN
 10
1924.690115195108
 20
435.7339171229744
 30
0.0
 41
1.5
 42
1.5
 43
1.5
 50
180.0
  0
INSERT
  5
5DD
  8
回07-寸法
  6
CONTINUOUS
 62
     5
  2
_OPEN
 10
1916.240115185107
 20
435.7339171229744
 30
0.0
 41
1.5
 42
1.5
 43
1.5
  0
TEXT
  5
5DE
  8
回07-寸法
  6
CONTINUOUS
 62
     5
 10
1900.886561794514
 20
436.2339171229744
 30
0.0
 40
5.0
  1
8.45
  0
POINT
  5
5DF
  8
DEFPOINTS
  6
CONTINUOUS
 62
     0
 10
1924.690115195108
 20
405.2489171229749
 30
0.0
  0
POINT
  5
5E0
  8
DEFPOINTS
  6
CONTINUOUS
 62
     0
 10
1916.240115185107
 20
414.6489171229737
 30
0.0
  0
POINT
  5
5E1
  8
DEFPOINTS
  6
CONTINUOUS
 62
     0
 10
1916.240115185107
 20
435.7339171229744
 30
0.0
  0
ENDBLK
  5
5E3
  8
0
  6
CONTINUOUS
 62
    18
  0
BLOCK
  8
0
  2
*D5656
 70
     1
 10
0.0
 20
0.0
 30
0.0
  3
*D5656
  1

  0
LINE
  5
5E5
  8
回07-寸法
  6
CONTINUOUS
 62
     5
 10
2237.240115185107
 20
414.6489171229746
 30
0.0
 11
2237.240115185107
 21
472.7339171229744
 31
0.0
  0
LINE
  5
5E6
  8
回07-寸法
  6
CONTINUOUS
 62
     5
 10
1916.240115185107
 20
414.6489171229737
 30
0.0
 11
1916.240115185107
 21
472.7339171229744
 31
0.0
  0
LINE
  5
5E7
  8
回07-寸法
  6
CONTINUOUS
 62
     5
 10
2235.740115185107
 20
471.7339171229744
 30
0.0
 11
1917.740115185107
 21
471.7339171229744
 31
0.0
  0
INSERT
  5
5E8
  8
回07-寸法
  6
CONTINUOUS
 62
     5
  2
_OPEN
 10
2237.240115185107
 20
471.7339171229744
 30
0.0
 41
1.5
 42
1.5
 43
1.5
  0
INSERT
  5
5E9
  8
回07-寸法
  6
CONTINUOUS
 62
     5
  2
_OPEN
 10
1916.240115185107
 20
471.7339171229744
 30
0.0
 41
1.5
 42
1.5
 43
1.5
 50
180.0
  0
INSERT
  5
5EA
  8
回07-寸法
  6
CONTINUOUS
 62
     5
 66
     1
  2
*X9999
 10
0.0
 20
0.0
 30
0.0
  0
SEQEND
  5
878
  8
0
  6
CONTINUOUS
 62
    18
  0
POINT
  5
5EB
  8
DEFPOINTS
  6
CONTINUOUS
 62
     0
 10
2237.240115185107
 20
414.6489171229746
 30
0.0
  0
POINT
  5
5EC
  8
DEFPOINTS
  6
CONTINUOUS
 62
     0
 10
1916.240115185107
 20
414.6489171229737
 30
0.0
  0
POINT
  5
5ED
  8
DEFPOINTS
  6
CONTINUOUS
 62
     0
 10
1916.240115185107
 20
471.7339171229744
 30
0.0
  0
ENDBLK
  5
5EF
  8
0
  6
CONTINUOUS
 62
    18
  0
BLOCK
  8
0
  2
*D5757
 70
     1
 10
0.0
 20
0.0
 30
0.0
  3
*D5757
  1

  0
LINE
  5
5F1
  8
回07-寸法
  6
CONTINUOUS
 62
     5
 10
1922.525115185107
 20
407.6489171229744
 30
0.0
 11
1922.525115185107
 21
448.7339171229744
 31
0.0
  0
LINE
  5
5F2
  8
回07-寸法
  6
CONTINUOUS
 62
     5
 10
2230.955115185107
 20
407.6489171229736
 30
0.0
 11
2230.955115185107
 21
448.7339171229744
 31
0.0
  0
LINE
  5
5F3
  8
回07-寸法
  6
CONTINUOUS
 62
     5
 10
1924.025115185107
 20
447.7339171229744
 30
0.0
 11
2229.455115185107
 21
447.7339171229744
 31
0.0
  0
INSERT
  5
5F4
  8
回07-寸法
  6
CONTINUOUS
 62
     5
  2
_OPEN
 10
1922.525115185107
 20
447.7339171229744
 30
0.0
 41
1.5
 42
1.5
 43
1.5
 50
180.0
  0
INSERT
  5
5F5
  8
回07-寸法
  6
CONTINUOUS
 62
     5
  2
_OPEN
 10
2230.955115185107
 20
447.7339171229744
 30
0.0
 41
1.5
 42
1.5
 43
1.5
  0
TEXT
  5
5F6
  8
回07-寸法
  6
CONTINUOUS
 62
     5
 10
2044.991099437076
 20
449.4839171229744
 30
0.0
 40
5.0
  1
308.43(Viewing Area)
  0
POINT
  5
5F7
  8
DEFPOINTS
  6
CONTINUOUS
 62
     0
 10
1922.525115185107
 20
407.6489171229744
 30
0.0
  0
POINT
  5
5F8
  8
DEFPOINTS
  6
CONTINUOUS
 62
     0
 10
2230.955115185107
 20
407.6489171229736
 30
0.0
  0
POINT
  5
5F9
  8
DEFPOINTS
  6
CONTINUOUS
 62
     0
 10
2230.955115185107
 20
447.7339171229744
 30
0.0
  0
ENDBLK
  5
5FB
  8
0
  6
CONTINUOUS
 62
    18
  0
BLOCK
  8
0
  2
*D5858
 70
     1
 10
0.0
 20
0.0
 30
0.0
  3
*D5858
  1

  0
LINE
  5
5FD
  8
回07-寸法
  6
CONTINUOUS
 62
     5
 10
2228.79011518511
 20
405.2489171229748
 30
0.0
 11
2228.79011518511
 21
436.7339171229744
 31
0.0
  0
LINE
  5
5FE
  8
回07-寸法
  6
CONTINUOUS
 62
     5
 10
1924.690115185107
 20
405.2489171229749
 30
0.0
 11
1924.690115185107
 21
436.7339171229744
 31
0.0
  0
LINE
  5
5FF
  8
回07-寸法
  6
CONTINUOUS
 62
     5
 10
2227.29011518511
 20
435.7339171229744
 30
0.0
 11
1926.190115185107
 21
435.7339171229744
 31
0.0
  0
INSERT
  5
600
  8
回07-寸法
  6
CONTINUOUS
 62
     5
  2
_OPEN
 10
2228.79011518511
 20
435.7339171229744
 30
0.0
 41
1.5
 42
1.5
 43
1.5
 50
360.0
  0
INSERT
  5
601
  8
回07-寸法
  6
CONTINUOUS
 62
     5
  2
_OPEN
 10
1924.690115185107
 20
435.7339171229744
 30
0.0
 41
1.5
 42
1.5
 43
1.5
 50
180.0
  0
TEXT
  5
602
  8
回07-寸法
  6
CONTINUOUS
 62
     5
 10
2048.991099437078
 20
436.4839171229744
 30
0.0
 40
5.0
  1
304.1(Active Area)
  0
POINT
  5
603
  8
DEFPOINTS
  6
CONTINUOUS
 62
     0
 10
2228.79011518511
 20
405.2489171229748
 30
0.0
  0
POINT
  5
604
  8
DEFPOINTS
  6
CONTINUOUS
 62
     0
 10
1924.690115185107
 20
405.2489171229749
 30
0.0
  0
POINT
  5
605
  8
DEFPOINTS
  6
CONTINUOUS
 62
     0
 10
1924.690115185107
 20
435.7339171229744
 30
0.0
  0
ENDBLK
  5
607
  8
0
  6
CONTINUOUS
 62
    18
  0
BLOCK
  8
0
  2
*D5959
 70
     1
 10
0.0
 20
0.0
 30
0.0
  3
*D5959
  1

  0
LINE
  5
609
  8
回07-寸法
  6
CONTINUOUS
 62
     5
 10
1922.025115185108
 20
408.1489171229748
 30
0.0
 11
1860.510115195107
 21
408.1489171229748
 31
0.0
  0
LINE
  5
60A
  8
回07-寸法
  6
CONTINUOUS
 62
     5
 10
1916.240115185107
 20
414.6489171229746
 30
0.0
 11
1860.510115195107
 21
414.6489171229746
 31
0.0
  0
LINE
  5
60B
  8
回07-寸法
  6
CONTINUOUS
 62
     5
 10
1861.510115195107
 20
416.1489171229747
 30
0.0
 11
1861.510115195107
 21
462.904132151518
 31
0.0
  0
LINE
  5
60C
  8
回07-寸法
  6
CONTINUOUS
 62
     5
 10
1861.510115195107
 20
408.1489171229748
 30
0.0
 11
1861.510115195107
 21
414.6489171229746
 31
0.0
  0
LINE
  5
60D
  8
回07-寸法
  6
CONTINUOUS
 62
     5
 10
1861.510115195107
 20
406.648917122975
 30
0.0
 11
1861.510115195107
 21
405.1489171229748
 31
0.0
  0
INSERT
  5
60E
  8
回07-寸法
  6
CONTINUOUS
 62
     5
  2
_OPEN
 10
1861.510115195107
 20
408.1489171229748
 30
0.0
 41
1.5
 42
1.5
 43
1.5
 50
90.0
  0
INSERT
  5
60F
  8
回07-寸法
  6
CONTINUOUS
 62
     5
  2
_OPEN
 10
1861.510115195107
 20
414.6489171229746
 30
0.0
 41
1.5
 42
1.5
 43
1.5
 50
270.0
  0
INSERT
  5
610
  8
回07-寸法
  6
CONTINUOUS
 62
     5
 66
     1
  2
*X100100
 10
0.0
 20
0.0
 30
0.0
  0
SEQEND
  5
87E
  8
0
  6
CONTINUOUS
 62
    18
  0
POINT
  5
611
  8
DEFPOINTS
  6
CONTINUOUS
 62
     0
 10
1922.025115185108
 20
408.1489171229748
 30
0.0
  0
POINT
  5
612
  8
DEFPOINTS
  6
CONTINUOUS
 62
     0
 10
1916.240115185107
 20
414.6489171229746
 30
0.0
  0
POINT
  5
613
  8
DEFPOINTS
  6
CONTINUOUS
 62
     0
 10
1861.510115195107
 20
414.6489171229746
 30
0.0
  0
ENDBLK
  5
615
  8
0
  6
CONTINUOUS
 62
    18
  0
BLOCK
  8
0
  2
*D6060
 70
     1
 10
0.0
 20
0.0
 30
0.0
  3
*D6060
  1

  0
LINE
  5
617
  8
回07-寸法
  6
CONTINUOUS
 62
     5
 10
1922.525115185107
 20
407.6489171229749
 30
0.0
 11
1872.510115195107
 21
407.6489171229749
 31
0.0
  0
LINE
  5
618
  8
回07-寸法
  6
CONTINUOUS
 62
     5
 10
1916.240115185107
 20
414.6489171229746
 30
0.0
 11
1872.510115195107
 21
414.6489171229746
 31
0.0
  0
LINE
  5
619
  8
回07-寸法
  6
CONTINUOUS
 62
     5
 10
1873.510115195108
 20
416.1489171229747
 30
0.0
 11
1873.510115195108
 21
424.644980115101
 31
0.0
  0
LINE
  5
61A
  8
回07-寸法
  6
CONTINUOUS
 62
     5
 10
1873.510115195108
 20
407.6489171229749
 30
0.0
 11
1873.510115195108
 21
414.6489171229746
 31
0.0
  0
LINE
  5
61B
  8
回07-寸法
  6
CONTINUOUS
 62
     5
 10
1873.510115195108
 20
406.148917122975
 30
0.0
 11
1873.510115195108
 21
404.6489171229748
 31
0.0
  0
INSERT
  5
61C
  8
回07-寸法
  6
CONTINUOUS
 62
     5
  2
_OPEN
 10
1873.510115195108
 20
407.6489171229749
 30
0.0
 41
1.5
 42
1.5
 43
1.5
 50
90.0
  0
INSERT
  5
61D
  8
回07-寸法
  6
CONTINUOUS
 62
     5
  2
_OPEN
 10
1873.510115195108
 20
414.6489171229746
 30
0.0
 41
1.5
 42
1.5
 43
1.5
 50
270.0
  0
TEXT
  5
61E
  8
回07-寸法
  6
CONTINUOUS
 62
     5
 10
1872.760115195108
 20
417.3969486190379
 30
0.0
 40
5.0
  1
(7)
 50
90.0
  0
POINT
  5
61F
  8
DEFPOINTS
  6
CONTINUOUS
 62
     0
 10
1922.525115185107
 20
407.6489171229749
 30
0.0
  0
POINT
  5
620
  8
DEFPOINTS
  6
CONTINUOUS
 62
     0
 10
1916.240115185107
 20
414.6489171229746
 30
0.0
  0
POINT
  5
621
  8
DEFPOINTS
  6
CONTINUOUS
 62
     0
 10
1873.510115195108
 20
414.6489171229746
 30
0.0
  0
ENDBLK
  5
623
  8
0
  6
CONTINUOUS
 62
    18
  0
BLOCK
  8
0
  2
*D6161
 70
     1
 10
0.0
 20
0.0
 30
0.0
  3
*D6161
  1

  0
LINE
  5
625
  8
回07-寸法
  6
CONTINUOUS
 62
     5
 10
1924.690115185107
 20
405.2489171229749
 30
0.0
 11
1884.510115195108
 21
405.2489171229749
 31
0.0
  0
LINE
  5
626
  8
回07-寸法
  6
CONTINUOUS
 62
     5
 10
1916.240115185107
 20
414.6489171229746
 30
0.0
 11
1884.510115195108
 21
414.6489171229746
 31
0.0
  0
LINE
  5
627
  8
回07-寸法
  6
CONTINUOUS
 62
     5
 10
1885.510115195107
 20
416.1489171229747
 30
0.0
 11
1885.510115195107
 21
430.1630319577354
 31
0.0
  0
LINE
  5
628
  8
回07-寸法
  6
CONTINUOUS
 62
     5
 10
1885.510115195107
 20
405.2489171229749
 30
0.0
 11
1885.510115195107
 21
414.6489171229746
 31
0.0
  0
LINE
  5
629
  8
回07-寸法
  6
CONTINUOUS
 62
     5
 10
1885.510115195107
 20
403.7489171229752
 30
0.0
 11
1885.510115195107
 21
402.2489171229751
 31
0.0
  0
INSERT
  5
62A
  8
回07-寸法
  6
CONTINUOUS
 62
     5
  2
_OPEN
 10
1885.510115195107
 20
405.2489171229749
 30
0.0
 41
1.5
 42
1.5
 43
1.5
 50
90.0
  0
INSERT
  5
62B
  8
回07-寸法
  6
CONTINUOUS
 62
     5
  2
_OPEN
 10
1885.510115195107
 20
414.6489171229746
 30
0.0
 41
1.5
 42
1.5
 43
1.5
 50
270.0
  0
TEXT
  5
62C
  8
回07-寸法
  6
CONTINUOUS
 62
     5
 10
1884.760115195107
 20
417.3969486190378
 30
0.0
 40
5.0
  1
(9.4)
 50
90.0
  0
POINT
  5
62D
  8
DEFPOINTS
  6
CONTINUOUS
 62
     0
 10
1924.690115185107
 20
405.2489171229749
 30
0.0
  0
POINT
  5
62E
  8
DEFPOINTS
  6
CONTINUOUS
 62
     0
 10
1916.240115185107
 20
414.6489171229746
 30
0.0
  0
POINT
  5
62F
  8
DEFPOINTS
  6
CONTINUOUS
 62
     0
 10
1885.510115195107
 20
414.6489171229746
 30
0.0
  0
ENDBLK
  5
631
  8
0
  6
CONTINUOUS
 62
    18
  0
BLOCK
  8
0
  2
*D6262
 70
     1
 10
0.0
 20
0.0
 30
0.0
  3
*D6262
  1

  0
LINE
  5
633
  8
回07-寸法
  6
CONTINUOUS
 62
     5
 10
1916.240115185107
 20
164.6489171229745
 30
0.0
 11
1916.240115185107
 21
38.65824526564774
 31
0.0
  0
LINE
  5
634
  8
回07-寸法
  6
CONTINUOUS
 62
     5
 10
2083.492707213102
 20
65.15296549378558
 30
0.0
 11
2083.492707213102
 21
38.65824526564774
 31
0.0
  0
LINE
  5
635
  8
回07-寸法
  6
CONTINUOUS
 62
     5
 10
1917.740115185107
 20
39.65824526564773
 30
0.0
 11
2081.992707213102
 21
39.65824526564773
 31
0.0
  0
INSERT
  5
636
  8
回07-寸法
  6
CONTINUOUS
 62
     5
  2
_OPEN
 10
1916.240115185107
 20
39.65824526564773
 30
0.0
 41
1.5
 42
1.5
 43
1.5
 50
180.0
  0
INSERT
  5
637
  8
回07-寸法
  6
CONTINUOUS
 62
     5
  2
_OPEN
 10
2083.492707213102
 20
39.65824526564773
 30
0.0
 41
1.5
 42
1.5
 43
1.5
  0
TEXT
  5
638
  8
回07-寸法
  6
CONTINUOUS
 62
     5
 10
1990.616411199104
 20
40.40824526564772
 30
0.0
 40
5.0
  1
(167.3)
  0
POINT
  5
639
  8
DEFPOINTS
  6
CONTINUOUS
 62
     0
 10
1916.240115185107
 20
164.6489171229745
 30
0.0
  0
POINT
  5
63A
  8
DEFPOINTS
  6
CONTINUOUS
 62
     0
 10
2083.492707213102
 20
65.15296549378558
 30
0.0
  0
POINT
  5
63B
  8
DEFPOINTS
  6
CONTINUOUS
 62
     0
 10
2083.492707213102
 20
39.65824526564773
 30
0.0
  0
ENDBLK
  5
63D
  8
0
  6
CONTINUOUS
 62
    18
  0
BLOCK
  8
0
  2
*D6363
 70
     1
 10
0.0
 20
0.0
 30
0.0
  3
*D6363
  1

  0
LINE
  5
63F
  8
回07-寸法
  6
CONTINUOUS
 62
     5
 10
2054.492723602677
 20
65.1489171229748
 30
0.0
 11
2054.492723602677
 21
48.65296549378575
 31
0.0
  0
LINE
  5
640
  8
回07-寸法
  6
CONTINUOUS
 62
     5
 10
1916.240115185107
 20
164.6489171229744
 30
0.0
 11
1916.240115185107
 21
48.65296549378577
 31
0.0
  0
LINE
  5
641
  8
回07-寸法
  6
CONTINUOUS
 62
     5
 10
2052.992723602677
 20
49.65296549378575
 30
0.0
 11
1917.740115185107
 21
49.65296549378577
 31
0.0
  0
INSERT
  5
642
  8
回07-寸法
  6
CONTINUOUS
 62
     5
  2
_OPEN
 10
2054.492723602677
 20
49.65296549378575
 30
0.0
 41
1.5
 42
1.5
 43
1.5
 50
360.0
  0
INSERT
  5
643
  8
回07-寸法
  6
CONTINUOUS
 62
     5
  2
_OPEN
 10
1916.240115185107
 20
49.65296549378577
 30
0.0
 41
1.5
 42
1.5
 43
1.5
 50
180.0
  0
TEXT
  5
644
  8
回07-寸法
  6
CONTINUOUS
 62
     5
 10
1976.116419393892
 20
50.40296549378577
 30
0.0
 40
5.0
  1
(138.3)
  0
POINT
  5
645
  8
DEFPOINTS
  6
CONTINUOUS
 62
     0
 10
2054.492723602677
 20
65.1489171229748
 30
0.0
  0
POINT
  5
646
  8
DEFPOINTS
  6
CONTINUOUS
 62
     0
 10
1916.240115185107
 20
164.6489171229744
 30
0.0
  0
POINT
  5
647
  8
DEFPOINTS
  6
CONTINUOUS
 62
     0
 10
1916.240115185107
 20
49.65296549378577
 30
0.0
  0
ENDBLK
  5
649
  8
0
  6
CONTINUOUS
 62
    18
  0
BLOCK
  8
0
  2
*D6464
 70
     1
 10
0.0
 20
0.0
 30
0.0
  3
*D6464
  1

  0
LINE
  5
64B
  8
回07-寸法
  6
CONTINUOUS
 62
     5
 10
1922.025115185108
 20
174.2489171229751
 30
0.0
 11
1860.510115195107
 21
174.2489171229751
 31
0.0
  0
LINE
  5
64C
  8
回07-寸法
  6
CONTINUOUS
 62
     5
 10
1916.240115185107
 20
164.6489171229745
 30
0.0
 11
1860.510115195107
 21
164.6489171229745
 31
0.0
  0
LINE
  5
64D
  8
回07-寸法
  6
CONTINUOUS
 62
     5
 10
1861.510115195107
 20
163.1489171229746
 30
0.0
 11
1861.510115195107
 21
120.2867173839564
 31
0.0
  0
LINE
  5
64E
  8
回07-寸法
  6
CONTINUOUS
 62
     5
 10
1861.510115195107
 20
174.2489171229751
 30
0.0
 11
1861.510115195107
 21
164.6489171229745
 31
0.0
  0
LINE
  5
64F
  8
回07-寸法
  6
CONTINUOUS
 62
     5
 10
1861.510115195107
 20
175.7489171229751
 30
0.0
 11
1861.510115195107
 21
177.2489171229751
 31
0.0
  0
INSERT
  5
650
  8
回07-寸法
  6
CONTINUOUS
 62
     5
  2
_OPEN
 10
1861.510115195107
 20
174.2489171229751
 30
0.0
 41
1.5
 42
1.5
 43
1.5
 50
270.0
  0
INSERT
  5
651
  8
回07-寸法
  6
CONTINUOUS
 62
     5
  2
_OPEN
 10
1861.510115195107
 20
164.6489171229745
 30
0.0
 41
1.5
 42
1.5
 43
1.5
 50
90.0
  0
INSERT
  5
652
  8
回07-寸法
  6
CONTINUOUS
 62
     5
 66
     1
  2
*X101101
 10
0.0
 20
0.0
 30
0.0
  0
SEQEND
  5
884
  8
0
  6
CONTINUOUS
 62
    18
  0
POINT
  5
653
  8
DEFPOINTS
  6
CONTINUOUS
 62
     0
 10
1922.025115185108
 20
174.2489171229751
 30
0.0
  0
POINT
  5
654
  8
DEFPOINTS
  6
CONTINUOUS
 62
     0
 10
1916.240115185107
 20
164.6489171229745
 30
0.0
  0
POINT
  5
655
  8
DEFPOINTS
  6
CONTINUOUS
 62
     0
 10
1861.510115195107
 20
164.6489171229745
 30
0.0
  0
ENDBLK
  5
657
  8
0
  6
CONTINUOUS
 62
    18
  0
BLOCK
  8
0
  2
*D6565
 70
     1
 10
0.0
 20
0.0
 30
0.0
  3
*D6565
  1

  0
LINE
  5
659
  8
回07-寸法
  6
CONTINUOUS
 62
     5
 10
1924.690115185107
 20
177.148917122975
 30
0.0
 11
1884.510115195107
 21
177.148917122975
 31
0.0
  0
LINE
  5
65A
  8
回07-寸法
  6
CONTINUOUS
 62
     5
 10
1916.240115185107
 20
164.6489171229745
 30
0.0
 11
1884.510115195107
 21
164.6489171229745
 31
0.0
  0
LINE
  5
65B
  8
回07-寸法
  6
CONTINUOUS
 62
     5
 10
1885.510115195107
 20
163.1489171229746
 30
0.0
 11
1885.510115195107
 21
151.0453637323815
 31
0.0
  0
LINE
  5
65C
  8
回07-寸法
  6
CONTINUOUS
 62
     5
 10
1885.510115195107
 20
177.148917122975
 30
0.0
 11
1885.510115195107
 21
164.6489171229745
 31
0.0
  0
LINE
  5
65D
  8
回07-寸法
  6
CONTINUOUS
 62
     5
 10
1885.510115195107
 20
178.648917122975
 30
0.0
 11
1885.510115195107
 21
180.148917122975
 31
0.0
  0
INSERT
  5
65E
  8
回07-寸法
  6
CONTINUOUS
 62
     5
  2
_OPEN
 10
1885.510115195107
 20
177.148917122975
 30
0.0
 41
1.5
 42
1.5
 43
1.5
 50
270.0
  0
INSERT
  5
65F
  8
回07-寸法
  6
CONTINUOUS
 62
     5
  2
_OPEN
 10
1885.510115195107
 20
164.6489171229745
 30
0.0
 41
1.5
 42
1.5
 43
1.5
 50
90.0
  0
TEXT
  5
660
  8
回07-寸法
  6
CONTINUOUS
 62
     5
 10
1885.010115195107
 20
150.7953637323814
 30
0.0
 40
5.0
  1
12.5
 50
90.0
  0
POINT
  5
661
  8
DEFPOINTS
  6
CONTINUOUS
 62
     0
 10
1924.690115185107
 20
177.148917122975
 30
0.0
  0
POINT
  5
662
  8
DEFPOINTS
  6
CONTINUOUS
 62
     0
 10
1916.240115185107
 20
164.6489171229745
 30
0.0
  0
POINT
  5
663
  8
DEFPOINTS
  6
CONTINUOUS
 62
     0
 10
1885.510115195107
 20
164.6489171229745
 30
0.0
  0
ENDBLK
  5
665
  8
0
  6
CONTINUOUS
 62
    18
  0
BLOCK
  8
0
  2
*D6666
 70
     1
 10
0.0
 20
0.0
 30
0.0
  3
*D6666
  1

  0
LINE
  5
667
  8
回07-寸法
  6
CONTINUOUS
 62
     5
 10
1922.525115185107
 20
174.7489171229751
 30
0.0
 11
1872.510115195107
 21
174.7489171229751
 31
0.0
  0
LINE
  5
668
  8
回07-寸法
  6
CONTINUOUS
 62
     5
 10
1916.240115185107
 20
164.6489171229745
 30
0.0
 11
1872.510115195107
 21
164.6489171229745
 31
0.0
  0
LINE
  5
669
  8
回07-寸法
  6
CONTINUOUS
 62
     5
 10
1873.510115195107
 20
163.1489171229746
 30
0.0
 11
1873.510115195107
 21
152.1489171229745
 31
0.0
  0
LINE
  5
66A
  8
回07-寸法
  6
CONTINUOUS
 62
     5
 10
1873.510115195107
 20
174.7489171229751
 30
0.0
 11
1873.510115195107
 21
164.6489171229745
 31
0.0
  0
LINE
  5
66B
  8
回07-寸法
  6
CONTINUOUS
 62
     5
 10
1873.510115195107
 20
176.248917122975
 30
0.0
 11
1873.510115195107
 21
177.7489171229751
 31
0.0
  0
INSERT
  5
66C
  8
回07-寸法
  6
CONTINUOUS
 62
     5
  2
_OPEN
 10
1873.510115195107
 20
174.7489171229751
 30
0.0
 41
1.5
 42
1.5
 43
1.5
 50
270.0
  0
INSERT
  5
66D
  8
回07-寸法
  6
CONTINUOUS
 62
     5
  2
_OPEN
 10
1873.510115195107
 20
164.6489171229745
 30
0.0
 41
1.5
 42
1.5
 43
1.5
 50
90.0
  0
TEXT
  5
66E
  8
回07-寸法
  6
CONTINUOUS
 62
     5
 10
1873.010115195107
 20
151.8989171229746
 30
0.0
 40
5.0
  1
10.1
 50
90.0
  0
POINT
  5
66F
  8
DEFPOINTS
  6
CONTINUOUS
 62
     0
 10
1922.525115185107
 20
174.7489171229751
 30
0.0
  0
POINT
  5
670
  8
DEFPOINTS
  6
CONTINUOUS
 62
     0
 10
1916.240115185107
 20
164.6489171229745
 30
0.0
  0
POINT
  5
671
  8
DEFPOINTS
  6
CONTINUOUS
 62
     0
 10
1873.510115195107
 20
164.6489171229745
 30
0.0
  0
ENDBLK
  5
673
  8
0
  6
CONTINUOUS
 62
    18
  0
BLOCK
  8
0
  2
*D6767
 70
     1
 10
0.0
 20
0.0
 30
0.0
  3
*D6767
  1

  0
LINE
  5
675
  8
回07-寸法
  6
CONTINUOUS
 62
     5
 10
1922.025115185108
 20
174.2489171229751
 30
0.0
 11
1860.510115195107
 21
174.2489171229751
 31
0.0
  0
LINE
  5
676
  8
回07-寸法
  6
CONTINUOUS
 62
     5
 10
1922.025115185108
 20
408.1489171229748
 30
0.0
 11
1860.510115195107
 21
408.1489171229748
 31
0.0
  0
LINE
  5
677
  8
回07-寸法
  6
CONTINUOUS
 62
     5
 10
1861.510115195107
 20
175.7489171229751
 30
0.0
 11
1861.510115195107
 21
406.648917122975
 31
0.0
  0
INSERT
  5
678
  8
回07-寸法
  6
CONTINUOUS
 62
     5
  2
_OPEN
 10
1861.510115195107
 20
174.2489171229751
 30
0.0
 41
1.5
 42
1.5
 43
1.5
 50
270.0
  0
INSERT
  5
679
  8
回07-寸法
  6
CONTINUOUS
 62
     5
  2
_OPEN
 10
1861.510115195107
 20
408.1489171229748
 30
0.0
 41
1.5
 42
1.5
 43
1.5
 50
90.0
  0
TEXT
  5
67A
  8
回07-寸法
  6
CONTINUOUS
 62
     5
 10
1861.010115195107
 20
283.4398912016575
 30
0.0
 40
5.0
  1
233.9
 50
90.0
  0
POINT
  5
67B
  8
DEFPOINTS
  6
CONTINUOUS
 62
     0
 10
1922.025115185108
 20
174.2489171229751
 30
0.0
  0
POINT
  5
67C
  8
DEFPOINTS
  6
CONTINUOUS
 62
     0
 10
1922.025115185108
 20
408.1489171229748
 30
0.0
  0
POINT
  5
67D
  8
DEFPOINTS
  6
CONTINUOUS
 62
     0
 10
1861.510115195107
 20
408.1489171229748
 30
0.0
  0
ENDBLK
  5
67F
  8
0
  6
CONTINUOUS
 62
    18
  0
BLOCK
  8
0
  2
*D6868
 70
     1
 10
0.0
 20
0.0
 30
0.0
  3
*D6868
  1

  0
LINE
  5
681
  8
回07-寸法
  6
CONTINUOUS
 62
     5
 10
1916.240115185107
 20
414.6489171229746
 30
0.0
 11
1848.510115195107
 21
414.6489171229746
 31
0.0
  0
LINE
  5
682
  8
回07-寸法
  6
CONTINUOUS
 62
     5
 10
1916.240115185107
 20
164.6489171229745
 30
0.0
 11
1848.510115195107
 21
164.6489171229745
 31
0.0
  0
LINE
  5
683
  8
回07-寸法
  6
CONTINUOUS
 62
     5
 10
1849.510115195107
 20
413.1489171229747
 30
0.0
 11
1849.510115195107
 21
166.1489171229746
 31
0.0
  0
INSERT
  5
684
  8
回07-寸法
  6
CONTINUOUS
 62
     5
  2
_OPEN
 10
1849.510115195107
 20
414.6489171229746
 30
0.0
 41
1.5
 42
1.5
 43
1.5
 50
90.0
  0
INSERT
  5
685
  8
回07-寸法
  6
CONTINUOUS
 62
     5
  2
_OPEN
 10
1849.510115195107
 20
164.6489171229745
 30
0.0
 41
1.5
 42
1.5
 43
1.5
 50
270.0
  0
INSERT
  5
686
  8
回07-寸法
  6
CONTINUOUS
 62
     5
 66
     1
  2
*X102102
 10
0.0
 20
0.0
 30
0.0
  0
SEQEND
  5
88A
  8
0
  6
CONTINUOUS
 62
    18
  0
POINT
  5
687
  8
DEFPOINTS
  6
CONTINUOUS
 62
     0
 10
1916.240115185107
 20
414.6489171229746
 30
0.0
  0
POINT
  5
688
  8
DEFPOINTS
  6
CONTINUOUS
 62
     0
 10
1916.240115185107
 20
164.6489171229745
 30
0.0
  0
POINT
  5
689
  8
DEFPOINTS
  6
CONTINUOUS
 62
     0
 10
1849.510115195107
 20
164.6489171229745
 30
0.0
  0
ENDBLK
  5
68B
  8
0
  6
CONTINUOUS
 62
    18
  0
BLOCK
  8
0
  2
*D6969
 70
     1
 10
0.0
 20
0.0
 30
0.0
  3
*D6969
  1

  0
LINE
  5
68D
  8
回07-寸法
  6
CONTINUOUS
 62
     5
 10
1922.525115185107
 20
407.6489171229749
 30
0.0
 11
1872.510115195107
 21
407.6489171229749
 31
0.0
  0
LINE
  5
68E
  8
回07-寸法
  6
CONTINUOUS
 62
     5
 10
1922.525115185108
 20
174.7489171229751
 30
0.0
 11
1872.510115195107
 21
174.7489171229751
 31
0.0
  0
LINE
  5
68F
  8
回07-寸法
  6
CONTINUOUS
 62
     5
 10
1873.510115195108
 20
406.148917122975
 30
0.0
 11
1873.510115195108
 21
176.248917122975
 31
0.0
  0
INSERT
  5
690
  8
回07-寸法
  6
CONTINUOUS
 62
     5
  2
_OPEN
 10
1873.510115195108
 20
407.6489171229749
 30
0.0
 41
1.5
 42
1.5
 43
1.5
 50
90.0
  0
INSERT
  5
691
  8
回07-寸法
  6
CONTINUOUS
 62
     5
  2
_OPEN
 10
1873.510115195108
 20
174.7489171229751
 30
0.0
 41
1.5
 42
1.5
 43
1.5
 50
270.0
  0
TEXT
  5
692
  8
回07-寸法
  6
CONTINUOUS
 62
     5
 10
1871.760115195107
 20
263.6908754536257
 30
0.0
 40
5.0
  1
232.9(Viewing Area)
 50
90.0
  0
POINT
  5
693
  8
DEFPOINTS
  6
CONTINUOUS
 62
     0
 10
1922.525115185107
 20
407.6489171229749
 30
0.0
  0
POINT
  5
694
  8
DEFPOINTS
  6
CONTINUOUS
 62
     0
 10
1922.525115185108
 20
174.7489171229751
 30
0.0
  0
POINT
  5
695
  8
DEFPOINTS
  6
CONTINUOUS
 62
     0
 10
1873.510115195108
 20
174.7489171229751
 30
0.0
  0
ENDBLK
  5
697
  8
0
  6
CONTINUOUS
 62
    18
  0
BLOCK
  8
0
  2
*D7070
 70
     1
 10
0.0
 20
0.0
 30
0.0
  3
*D7070
  1

  0
LINE
  5
699
  8
回07-寸法
  6
CONTINUOUS
 62
     5
 10
1924.690115185108
 20
177.1489171229752
 30
0.0
 11
1884.510115195108
 21
177.1489171229752
 31
0.0
  0
LINE
  5
69A
  8
回07-寸法
  6
CONTINUOUS
 62
     5
 10
1924.690115185107
 20
405.2489171229749
 30
0.0
 11
1884.510115195108
 21
405.2489171229749
 31
0.0
  0
LINE
  5
69B
  8
回07-寸法
  6
CONTINUOUS
 62
     5
 10
1885.510115195107
 20
178.6489171229752
 30
0.0
 11
1885.510115195107
 21
403.7489171229752
 31
0.0
  0
INSERT
  5
69C
  8
回07-寸法
  6
CONTINUOUS
 62
     5
  2
_OPEN
 10
1885.510115195107
 20
177.1489171229752
 30
0.0
 41
1.5
 42
1.5
 43
1.5
 50
270.0
  0
INSERT
  5
69D
  8
回07-寸法
  6
CONTINUOUS
 62
     5
  2
_OPEN
 10
1885.510115195107
 20
405.2489171229749
 30
0.0
 41
1.5
 42
1.5
 43
1.5
 50
90.0
  0
TEXT
  5
69E
  8
回07-寸法
  6
CONTINUOUS
 62
     5
 10
1884.760115195107
 20
265.9499013749432
 30
0.0
 40
5.0
  1
228.1(Active Area)
 50
90.0
  0
POINT
  5
69F
  8
DEFPOINTS
  6
CONTINUOUS
 62
     0
 10
1924.690115185108
 20
177.1489171229752
 30
0.0
  0
POINT
  5
6A0
  8
DEFPOINTS
  6
CONTINUOUS
 62
     0
 10
1924.690115185107
 20
405.2489171229749
 30
0.0
  0
POINT
  5
6A1
  8
DEFPOINTS
  6
CONTINUOUS
 62
     0
 10
1885.510115195107
 20
405.2489171229749
 30
0.0
  0
ENDBLK
  5
6A3
  8
0
  6
CONTINUOUS
 62
    18
  0
BLOCK
  8
0
  2
*D7171
 70
     1
 10
0.0
 20
0.0
 30
0.0
  3
*D7171
  1

  0
LINE
  5
6A5
  8
回08-記事
  6
CONTINUOUS
 62
     5
 10
2289.079616085464
 20
64.65296549378587
 30
0.0
 11
2289.079616085464
 21
47.86487105572422
 31
0.0
  0
LINE
  5
6A6
  8
回08-記事
  6
CONTINUOUS
 62
     5
 10
2291.579616085464
 20
64.65296549378587
 30
0.0
 11
2291.579616085464
 21
47.86487105572422
 31
0.0
  0
LINE
  5
6A7
  8
回08-記事
  6
CONTINUOUS
 62
     5
 10
2293.079616085464
 20
48.86487105572422
 30
0.0
 11
2313.167378093338
 21
48.86487105572422
 31
0.0
  0
LINE
  5
6A8
  8
回08-記事
  6
CONTINUOUS
 62
     5
 10
2289.079616085464
 20
48.86487105572422
 30
0.0
 11
2291.579616085464
 21
48.86487105572422
 31
0.0
  0
LINE
  5
6A9
  8
回08-記事
  6
CONTINUOUS
 62
     5
 10
2287.579616085464
 20
48.86487105572422
 30
0.0
 11
2286.079616085464
 21
48.86487105572422
 31
0.0
  0
INSERT
  5
6AA
  8
回08-記事
  6
CONTINUOUS
 62
     5
  2
_OPEN
 10
2289.079616085464
 20
48.86487105572422
 30
0.0
 41
1.5
 42
1.5
 43
1.5
  0
INSERT
  5
6AB
  8
回08-記事
  6
CONTINUOUS
 62
     5
  2
_OPEN
 10
2291.579616085464
 20
48.86487105572422
 30
0.0
 41
1.5
 42
1.5
 43
1.5
 50
180.0
  0
INSERT
  5
6AC
  8
回08-記事
  6
CONTINUOUS
 62
     5
 66
     1
  2
*X103103
 10
0.0
 20
0.0
 30
0.0
  0
SEQEND
  5
890
  8
0
  6
CONTINUOUS
 62
    18
  0
POINT
  5
6AD
  8
DEFPOINTS
  6
CONTINUOUS
 62
     0
 10
2289.079616085464
 20
64.65296549378587
 30
0.0
  0
POINT
  5
6AE
  8
DEFPOINTS
  6
CONTINUOUS
 62
     0
 10
2291.579616085464
 20
64.65296549378587
 30
0.0
  0
POINT
  5
6AF
  8
DEFPOINTS
  6
CONTINUOUS
 62
     0
 10
2291.579616085464
 20
48.86487105572422
 30
0.0
  0
ENDBLK
  5
6B1
  8
0
  6
CONTINUOUS
 62
    18
  0
BLOCK
  8
0
  2
*D7272
 70
     1
 10
0.0
 20
0.0
 30
0.0
  3
*D7272
  1

  0
LINE
  5
6B3
  8
回08-記事
  6
CONTINUOUS
 62
     5
 10
2284.186431866494
 20
64.65296549378587
 30
0.0
 11
2284.186431866494
 21
54.15198322848
 31
0.0
  0
LINE
  5
6B4
  8
回08-記事
  6
CONTINUOUS
 62
     5
 10
2281.686431866495
 20
64.65296549378587
 30
0.0
 11
2281.686431866495
 21
54.15198322848
 31
0.0
  0
LINE
  5
6B5
  8
回08-記事
  6
CONTINUOUS
 62
     5
 10
2280.186431866495
 20
55.15198322848
 30
0.0
 11
2260.098669858621
 21
55.15198322848
 31
0.0
  0
LINE
  5
6B6
  8
回08-記事
  6
CONTINUOUS
 62
     5
 10
2284.186431866494
 20
55.15198322848
 30
0.0
 11
2281.686431866495
 21
55.15198322848
 31
0.0
  0
LINE
  5
6B7
  8
回08-記事
  6
CONTINUOUS
 62
     5
 10
2285.686431866494
 20
55.15198322848
 30
0.0
 11
2287.186431866494
 21
55.15198322848
 31
0.0
  0
INSERT
  5
6B8
  8
回08-記事
  6
CONTINUOUS
 62
     5
  2
_OPEN
 10
2284.186431866494
 20
55.15198322848
 30
0.0
 41
1.5
 42
1.5
 43
1.5
 50
180.0
  0
INSERT
  5
6B9
  8
回08-記事
  6
CONTINUOUS
 62
     5
  2
_OPEN
 10
2281.686431866495
 20
55.15198322848
 30
0.0
 41
1.5
 42
1.5
 43
1.5
  0
INSERT
  5
6BA
  8
回08-記事
  6
CONTINUOUS
 62
     5
 66
     1
  2
*X104104
 10
0.0
 20
0.0
 30
0.0
  0
SEQEND
  5
896
  8
0
  6
CONTINUOUS
 62
    18
  0
POINT
  5
6BB
  8
DEFPOINTS
  6
CONTINUOUS
 62
     0
 10
2284.186431866494
 20
64.65296549378587
 30
0.0
  0
POINT
  5
6BC
  8
DEFPOINTS
  6
CONTINUOUS
 62
     0
 10
2281.686431866495
 20
64.65296549378587
 30
0.0
  0
POINT
  5
6BD
  8
DEFPOINTS
  6
CONTINUOUS
 62
     0
 10
2281.686431866495
 20
55.15198322848
 30
0.0
  0
ENDBLK
  5
6BF
  8
0
  6
CONTINUOUS
 62
    18
  0
BLOCK
  8
0
  2
*D7373
 70
     1
 10
0.0
 20
0.0
 30
0.0
  3
*D7373
  1

  0
LINE
  5
6C1
  8
回08-記事
  6
CONTINUOUS
 62
     5
 10
2284.186431866494
 20
74.65296549378587
 30
0.0
 11
2289.460964730857
 21
74.65296549378587
 31
0.0
  0
LINE
  5
6C2
  8
回08-記事
  6
CONTINUOUS
 62
     5
 10
2284.186431866494
 20
64.65296549378587
 30
0.0
 11
2289.460964730857
 21
64.65296549378587
 31
0.0
  0
LINE
  5
6C3
  8
回08-記事
  6
CONTINUOUS
 62
     5
 10
2288.460964730856
 20
73.15296549378587
 30
0.0
 11
2288.460964730856
 21
66.15296549378587
 31
0.0
  0
INSERT
  5
6C4
  8
回08-記事
  6
CONTINUOUS
 62
     5
  2
_OPEN
 10
2288.460964730856
 20
74.65296549378587
 30
0.0
 41
1.5
 42
1.5
 43
1.5
 50
90.0
  0
INSERT
  5
6C5
  8
回08-記事
  6
CONTINUOUS
 62
     5
  2
_OPEN
 10
2288.460964730856
 20
64.65296549378587
 30
0.0
 41
1.5
 42
1.5
 43
1.5
 50
270.0
  0
TEXT
  5
6C6
  8
回08-記事
  6
CONTINUOUS
 62
     5
 10
2287.794297230856
 20
66.31961549378593
 30
0.0
 40
3.333349999999998
  1
(10)
 50
90.0
  0
POINT
  5
6C7
  8
DEFPOINTS
  6
CONTINUOUS
 62
     0
 10
2284.186431866494
 20
74.65296549378587
 30
0.0
  0
POINT
  5
6C8
  8
DEFPOINTS
  6
CONTINUOUS
 62
     0
 10
2284.186431866494
 20
64.65296549378587
 30
0.0
  0
POINT
  5
6C9
  8
DEFPOINTS
  6
CONTINUOUS
 62
     0
 10
2288.460964730856
 20
64.65296549378587
 30
0.0
  0
ENDBLK
  5
6CB
  8
0
  6
CONTINUOUS
 62
    18
  0
BLOCK
  8
0
  2
*D7474
 70
     1
 10
0.0
 20
0.0
 30
0.0
  3
*D7474
  1

  0
LINE
  5
6CD
  8
回08-記事
  6
CONTINUOUS
 62
     5
 10
2291.579616085464
 20
64.65296549378587
 30
0.0
 11
2304.854201651382
 21
64.65296549378587
 31
0.0
  0
LINE
  5
6CE
  8
回08-記事
  6
CONTINUOUS
 62
     5
 10
2292.279616085465
 20
69.65296549378587
 30
0.0
 11
2304.854201651382
 21
69.65296549378587
 31
0.0
  0
LINE
  5
6CF
  8
回08-記事
  6
CONTINUOUS
 62
     5
 10
2303.854201651382
 20
66.15296549378587
 30
0.0
 11
2303.854201651382
 21
68.15296549378587
 31
0.0
  0
INSERT
  5
6D0
  8
回08-記事
  6
CONTINUOUS
 62
     5
  2
_OPEN
 10
2303.854201651382
 20
64.65296549378587
 30
0.0
 41
1.5
 42
1.5
 43
1.5
 50
270.0
  0
INSERT
  5
6D1
  8
回08-記事
  6
CONTINUOUS
 62
     5
  2
_OPEN
 10
2303.854201651382
 20
69.65296549378587
 30
0.0
 41
1.5
 42
1.5
 43
1.5
 50
90.0
  0
TEXT
  5
6D2
  8
回08-記事
  6
CONTINUOUS
 62
     5
 10
2303.354201651382
 20
65.40296549378581
 30
0.0
 40
5.0
  1
5
 50
90.0
  0
POINT
  5
6D3
  8
DEFPOINTS
  6
CONTINUOUS
 62
     0
 10
2291.579616085464
 20
64.65296549378587
 30
0.0
  0
POINT
  5
6D4
  8
DEFPOINTS
  6
CONTINUOUS
 62
     0
 10
2292.279616085465
 20
69.65296549378587
 30
0.0
  0
POINT
  5
6D5
  8
DEFPOINTS
  6
CONTINUOUS
 62
     0
 10
2303.854201651382
 20
69.65296549378587
 30
0.0
  0
ENDBLK
  5
6D7
  8
0
  6
CONTINUOUS
 62
    18
  0
BLOCK
  8
0
  2
*D7575
 70
     1
 10
0.0
 20
0.0
 30
0.0
  3
*D7575
  1

  0
LINE
  5
6D9
  8
回08-記事
  6
CONTINUOUS
 62
     5
 10
2281.686431866495
 20
64.65296549378587
 30
0.0
 11
2272.725021697523
 21
64.65296549378587
 31
0.0
  0
LINE
  5
6DA
  8
回08-記事
  6
CONTINUOUS
 62
     5
 10
2280.986431866494
 20
69.65296549378587
 30
0.0
 11
2272.725021697523
 21
69.65296549378587
 31
0.0
  0
LINE
  5
6DB
  8
回08-記事
  6
CONTINUOUS
 62
     5
 10
2273.725021697523
 20
66.15296549378587
 30
0.0
 11
2273.725021697523
 21
68.15296549378587
 31
0.0
  0
INSERT
  5
6DC
  8
回08-記事
  6
CONTINUOUS
 62
     5
  2
_OPEN
 10
2273.725021697523
 20
64.65296549378587
 30
0.0
 41
1.5
 42
1.5
 43
1.5
 50
270.0
  0
INSERT
  5
6DD
  8
回08-記事
  6
CONTINUOUS
 62
     5
  2
_OPEN
 10
2273.725021697523
 20
69.65296549378587
 30
0.0
 41
1.5
 42
1.5
 43
1.5
 50
90.0
  0
TEXT
  5
6DE
  8
回08-記事
  6
CONTINUOUS
 62
     5
 10
2273.225021697523
 20
65.40296549378581
 30
0.0
 40
5.0
  1
5
 50
90.0
  0
POINT
  5
6DF
  8
DEFPOINTS
  6
CONTINUOUS
 62
     0
 10
2281.686431866495
 20
64.65296549378587
 30
0.0
  0
POINT
  5
6E0
  8
DEFPOINTS
  6
CONTINUOUS
 62
     0
 10
2280.986431866494
 20
69.65296549378587
 30
0.0
  0
POINT
  5
6E1
  8
DEFPOINTS
  6
CONTINUOUS
 62
     0
 10
2273.725021697523
 20
69.65296549378587
 30
0.0
  0
ENDBLK
  5
6E3
  8
0
  6
CONTINUOUS
 62
    18
  0
BLOCK
  8
0
  2
*D7676
 70
     1
 10
0.0
 20
0.0
 30
0.0
  3
*D7676
  1

  0
LINE
  5
6E5
  8
回07-寸法
  6
CONTINUOUS
 62
     5
 10
2277.686431866495
 20
414.1489171229746
 30
0.0
 11
2277.686431866495
 21
420.5359333583692
 31
0.0
  0
LINE
  5
6E6
  8
回07-寸法
  6
CONTINUOUS
 62
     5
 10
2298.579616085465
 20
414.6489171229746
 30
0.0
 11
2298.579616085465
 21
420.5359333583692
 31
0.0
  0
LINE
  5
6E7
  8
回07-寸法
  6
CONTINUOUS
 62
     5
 10
2279.186431866495
 20
419.5359333583692
 30
0.0
 11
2297.079616085464
 21
419.5359333583692
 31
0.0
  0
INSERT
  5
6E8
  8
回07-寸法
  6
CONTINUOUS
 62
     5
  2
_OPEN
 10
2277.686431866495
 20
419.5359333583692
 30
0.0
 41
1.5
 42
1.5
 43
1.5
 50
180.0
  0
INSERT
  5
6E9
  8
回07-寸法
  6
CONTINUOUS
 62
     5
  2
_OPEN
 10
2298.579616085465
 20
419.5359333583692
 30
0.0
 41
1.5
 42
1.5
 43
1.5
  0
INSERT
  5
6EA
  8
回07-寸法
  6
CONTINUOUS
 62
     5
 66
     1
  2
*X105105
 10
0.0
 20
0.0
 30
0.0
  0
SEQEND
  5
89C
  8
0
  6
CONTINUOUS
 62
    18
  0
POINT
  5
6EB
  8
DEFPOINTS
  6
CONTINUOUS
 62
     0
 10
2277.686431866495
 20
414.1489171229746
 30
0.0
  0
POINT
  5
6EC
  8
DEFPOINTS
  6
CONTINUOUS
 62
     0
 10
2298.579616085465
 20
414.6489171229746
 30
0.0
  0
POINT
  5
6ED
  8
DEFPOINTS
  6
CONTINUOUS
 62
     0
 10
2298.579616085465
 20
419.5359333583692
 30
0.0
  0
ENDBLK
  5
6EF
  8
0
  6
CONTINUOUS
 62
    18
  0
BLOCK
  8
0
  2
*X7777
 70
     1
 10
0.0
 20
0.0
 30
0.0
  3
*X7777
  1

  0
LINE
  5
785
  8
回08-記事
  6
PHANTOM2
 62
     7
 10
2077.311634753904
 20
161.0172034225825
 30
0.0
 11
2077.243832528552
 21
161.0850056479355
 31
0.0
1001
GRADIENTCOLOR1ACI
1070
     5
1001
GRADIENTCOLOR2ACI
1070
     2
1001
ACAD
1010
0.0
1020
0.0
1030
0.0
  0
LINE
  5
786
  8
回08-記事
  6
PHANTOM2
 62
     7
 10
2079.556698784172
 20
161.0172034225824
 30
0.0
 11
2077.243832528552
 21
163.3300696782026
 31
0.0
1001
GRADIENTCOLOR1ACI
1070
     5
1001
GRADIENTCOLOR2ACI
1070
     2
1001
ACAD
1010
0.0
1020
0.0
1030
0.0
  0
LINE
  5
787
  8
回08-記事
  6
PHANTOM2
 62
     7
 10
2081.801762814439
 20
161.0172034225826
 30
0.0
 11
2077.243832528552
 21
165.5751337084699
 31
0.0
1001
GRADIENTCOLOR1ACI
1070
     5
1001
GRADIENTCOLOR2ACI
1070
     2
1001
ACAD
1010
0.0
1020
0.0
1030
0.0
  0
LINE
  5
788
  8
回08-記事
  6
PHANTOM2
 62
     7
 10
2084.046826844706
 20
161.0172034225825
 30
0.0
 11
2077.243832528552
 21
167.8201977387371
 31
0.0
1001
GRADIENTCOLOR1ACI
1070
     5
1001
GRADIENTCOLOR2ACI
1070
     2
1001
ACAD
1010
0.0
1020
0.0
1030
0.0
  0
LINE
  5
789
  8
回08-記事
  6
PHANTOM2
 62
     7
 10
2086.291890874973
 20
161.0172034225825
 30
0.0
 11
2079.091890874973
 21
168.2172034225823
 31
0.0
1001
GRADIENTCOLOR1ACI
1070
     5
1001
GRADIENTCOLOR2ACI
1070
     2
1001
ACAD
1010
0.0
1020
0.0
1030
0.0
  0
LINE
  5
78A
  8
回08-記事
  6
PHANTOM2
 62
     7
 10
2088.53695490524
 20
161.0172034225824
 30
0.0
 11
2081.33695490524
 21
168.2172034225822
 31
0.0
1001
GRADIENTCOLOR1ACI
1070
     5
1001
GRADIENTCOLOR2ACI
1070
     2
1001
ACAD
1010
0.0
1020
0.0
1030
0.0
  0
LINE
  5
78B
  8
回08-記事
  6
PHANTOM2
 62
     7
 10
2090.782018935508
 20
161.0172034225826
 30
0.0
 11
2083.582018935508
 21
168.2172034225824
 31
0.0
1001
GRADIENTCOLOR1ACI
1070
     5
1001
GRADIENTCOLOR2ACI
1070
     2
1001
ACAD
1010
0.0
1020
0.0
1030
0.0
  0
LINE
  5
78C
  8
回08-記事
  6
PHANTOM2
 62
     7
 10
2093.027082965775
 20
161.0172034225825
 30
0.0
 11
2085.827082965775
 21
168.2172034225822
 31
0.0
1001
GRADIENTCOLOR1ACI
1070
     5
1001
GRADIENTCOLOR2ACI
1070
     2
1001
ACAD
1010
0.0
1020
0.0
1030
0.0
  0
LINE
  5
78D
  8
回08-記事
  6
PHANTOM2
 62
     7
 10
2095.272146996043
 20
161.0172034225821
 30
0.0
 11
2088.072146996042
 21
168.2172034225823
 31
0.0
1001
GRADIENTCOLOR1ACI
1070
     5
1001
GRADIENTCOLOR2ACI
1070
     2
1001
ACAD
1010
0.0
1020
0.0
1030
0.0
  0
LINE
  5
78E
  8
回08-記事
  6
PHANTOM2
 62
     7
 10
2097.517211026309
 20
161.0172034225824
 30
0.0
 11
2090.317211026309
 21
168.2172034225824
 31
0.0
1001
GRADIENTCOLOR1ACI
1070
     5
1001
GRADIENTCOLOR2ACI
1070
     2
1001
ACAD
1010
0.0
1020
0.0
1030
0.0
  0
LINE
  5
78F
  8
回08-記事
  6
PHANTOM2
 62
     7
 10
2099.762275056576
 20
161.0172034225826
 30
0.0
 11
2092.562275056577
 21
168.2172034225824
 31
0.0
1001
GRADIENTCOLOR1ACI
1070
     5
1001
GRADIENTCOLOR2ACI
1070
     2
1001
ACAD
1010
0.0
1020
0.0
1030
0.0
  0
LINE
  5
790
  8
回08-記事
  6
PHANTOM2
 62
     7
 10
2102.007339086844
 20
161.0172034225824
 30
0.0
 11
2094.807339086844
 21
168.2172034225824
 31
0.0
1001
GRADIENTCOLOR1ACI
1070
     5
1001
GRADIENTCOLOR2ACI
1070
     2
1001
ACAD
1010
0.0
1020
0.0
1030
0.0
  0
LINE
  5
791
  8
回08-記事
  6
PHANTOM2
 62
     7
 10
2103.243832528551
 20
162.0257740111424
 30
0.0
 11
2097.052403117111
 21
168.2172034225823
 31
0.0
1001
GRADIENTCOLOR1ACI
1070
     5
1001
GRADIENTCOLOR2ACI
1070
     2
1001
ACAD
1010
0.0
1020
0.0
1030
0.0
  0
LINE
  5
792
  8
回08-記事
  6
PHANTOM2
 62
     7
 10
2103.243832528551
 20
164.2708380414096
 30
0.0
 11
2099.297467147378
 21
168.2172034225822
 31
0.0
1001
GRADIENTCOLOR1ACI
1070
     5
1001
GRADIENTCOLOR2ACI
1070
     2
1001
ACAD
1010
0.0
1020
0.0
1030
0.0
  0
LINE
  5
793
  8
回08-記事
  6
PHANTOM2
 62
     7
 10
2103.243832528551
 20
166.5159020716768
 30
0.0
 11
2101.542531177646
 21
168.2172034225823
 31
0.0
1001
GRADIENTCOLOR1ACI
1070
     5
1001
GRADIENTCOLOR2ACI
1070
     2
1001
ACAD
1010
0.0
1020
0.0
1030
0.0
  0
ENDBLK
  5
795
  8
0
  6
CONTINUOUS
 62
    18
  0
BLOCK
  8
0
  2
*X7878
 70
     1
 10
0.0
 20
0.0
 30
0.0
  3
*X7878
  1

  0
LINE
  5
798
  8
回08-記事
  6
PHANTOM2
 62
     7
 10
2041.390610269628
 20
161.0172034225824
 30
0.0
 11
2041.243832528551
 21
161.1639811636597
 31
0.0
1001
GRADIENTCOLOR1ACI
1070
     5
1001
GRADIENTCOLOR2ACI
1070
     2
1001
ACAD
1010
0.0
1020
0.0
1030
0.0
  0
LINE
  5
799
  8
回08-記事
  6
PHANTOM2
 62
     7
 10
2043.635674299896
 20
161.0172034225824
 30
0.0
 11
2041.243832528551
 21
163.4090451939268
 31
0.0
1001
GRADIENTCOLOR1ACI
1070
     5
1001
GRADIENTCOLOR2ACI
1070
     2
1001
ACAD
1010
0.0
1020
0.0
1030
0.0
  0
LINE
  5
79A
  8
回08-記事
  6
PHANTOM2
 62
     7
 10
2045.880738330163
 20
161.0172034225823
 30
0.0
 11
2041.243832528551
 21
165.654109224194
 31
0.0
1001
GRADIENTCOLOR1ACI
1070
     5
1001
GRADIENTCOLOR2ACI
1070
     2
1001
ACAD
1010
0.0
1020
0.0
1030
0.0
  0
LINE
  5
79B
  8
回08-記事
  6
PHANTOM2
 62
     7
 10
2048.12580236043
 20
161.0172034225821
 30
0.0
 11
2041.243832528551
 21
167.8991732544613
 31
0.0
1001
GRADIENTCOLOR1ACI
1070
     5
1001
GRADIENTCOLOR2ACI
1070
     2
1001
ACAD
1010
0.0
1020
0.0
1030
0.0
  0
LINE
  5
79C
  8
回08-記事
  6
PHANTOM2
 62
     7
 10
2050.370866390697
 20
161.0172034225821
 30
0.0
 11
2043.170866390697
 21
168.2172034225823
 31
0.0
1001
GRADIENTCOLOR1ACI
1070
     5
1001
GRADIENTCOLOR2ACI
1070
     2
1001
ACAD
1010
0.0
1020
0.0
1030
0.0
  0
LINE
  5
79D
  8
回08-記事
  6
PHANTOM2
 62
     7
 10
2052.615930420965
 20
161.0172034225821
 30
0.0
 11
2045.415930420965
 21
168.2172034225822
 31
0.0
1001
GRADIENTCOLOR1ACI
1070
     5
1001
GRADIENTCOLOR2ACI
1070
     2
1001
ACAD
1010
0.0
1020
0.0
1030
0.0
  0
LINE
  5
79E
  8
回08-記事
  6
PHANTOM2
 62
     7
 10
2054.860994451232
 20
161.0172034225826
 30
0.0
 11
2047.660994451232
 21
168.2172034225824
 31
0.0
1001
GRADIENTCOLOR1ACI
1070
     5
1001
GRADIENTCOLOR2ACI
1070
     2
1001
ACAD
1010
0.0
1020
0.0
1030
0.0
  0
LINE
  5
79F
  8
回08-記事
  6
PHANTOM2
 62
     7
 10
2057.106058481499
 20
161.0172034225824
 30
0.0
 11
2049.906058481499
 21
168.2172034225824
 31
0.0
1001
GRADIENTCOLOR1ACI
1070
     5
1001
GRADIENTCOLOR2ACI
1070
     2
1001
ACAD
1010
0.0
1020
0.0
1030
0.0
  0
LINE
  5
7A0
  8
回08-記事
  6
PHANTOM2
 62
     7
 10
2059.351122511766
 20
161.0172034225824
 30
0.0
 11
2052.151122511766
 21
168.2172034225826
 31
0.0
1001
GRADIENTCOLOR1ACI
1070
     5
1001
GRADIENTCOLOR2ACI
1070
     2
1001
ACAD
1010
0.0
1020
0.0
1030
0.0
  0
LINE
  5
7A1
  8
回08-記事
  6
PHANTOM2
 62
     7
 10
2061.596186542033
 20
161.0172034225824
 30
0.0
 11
2054.396186542033
 21
168.2172034225824
 31
0.0
1001
GRADIENTCOLOR1ACI
1070
     5
1001
GRADIENTCOLOR2ACI
1070
     2
1001
ACAD
1010
0.0
1020
0.0
1030
0.0
  0
LINE
  5
7A2
  8
回08-記事
  6
PHANTOM2
 62
     7
 10
2063.8412505723
 20
161.0172034225826
 30
0.0
 11
2056.641250572301
 21
168.2172034225824
 31
0.0
1001
GRADIENTCOLOR1ACI
1070
     5
1001
GRADIENTCOLOR2ACI
1070
     2
1001
ACAD
1010
0.0
1020
0.0
1030
0.0
  0
LINE
  5
7A3
  8
回08-記事
  6
PHANTOM2
 62
     7
 10
2066.086314602568
 20
161.0172034225824
 30
0.0
 11
2058.886314602568
 21
168.2172034225824
 31
0.0
1001
GRADIENTCOLOR1ACI
1070
     5
1001
GRADIENTCOLOR2ACI
1070
     2
1001
ACAD
1010
0.0
1020
0.0
1030
0.0
  0
LINE
  5
7A4
  8
回08-記事
  6
PHANTOM2
 62
     7
 10
2068.331378632835
 20
161.0172034225825
 30
0.0
 11
2061.131378632835
 21
168.2172034225823
 31
0.0
1001
GRADIENTCOLOR1ACI
1070
     5
1001
GRADIENTCOLOR2ACI
1070
     2
1001
ACAD
1010
0.0
1020
0.0
1030
0.0
  0
LINE
  5
7A5
  8
回08-記事
  6
PHANTOM2
 62
     7
 10
2070.576442663102
 20
161.0172034225824
 30
0.0
 11
2063.376442663102
 21
168.2172034225824
 31
0.0
1001
GRADIENTCOLOR1ACI
1070
     5
1001
GRADIENTCOLOR2ACI
1070
     2
1001
ACAD
1010
0.0
1020
0.0
1030
0.0
  0
LINE
  5
7A6
  8
回08-記事
  6
PHANTOM2
 62
     7
 10
2072.82150669337
 20
161.0172034225826
 30
0.0
 11
2065.62150669337
 21
168.2172034225824
 31
0.0
1001
GRADIENTCOLOR1ACI
1070
     5
1001
GRADIENTCOLOR2ACI
1070
     2
1001
ACAD
1010
0.0
1020
0.0
1030
0.0
  0
LINE
  5
7A7
  8
回08-記事
  6
PHANTOM2
 62
     7
 10
2075.066570723637
 20
161.0172034225825
 30
0.0
 11
2067.866570723637
 21
168.2172034225824
 31
0.0
1001
GRADIENTCOLOR1ACI
1070
     5
1001
GRADIENTCOLOR2ACI
1070
     2
1001
ACAD
1010
0.0
1020
0.0
1030
0.0
  0
LINE
  5
7A8
  8
回08-記事
  6
PHANTOM2
 62
     7
 10
2075.243832528551
 20
163.0850056479355
 30
0.0
 11
2070.111634753904
 21
168.2172034225823
 31
0.0
1001
GRADIENTCOLOR1ACI
1070
     5
1001
GRADIENTCOLOR2ACI
1070
     2
1001
ACAD
1010
0.0
1020
0.0
1030
0.0
  0
LINE
  5
7A9
  8
回08-記事
  6
PHANTOM2
 62
     7
 10
2075.243832528551
 20
165.3300696782025
 30
0.0
 11
2072.356698784171
 21
168.2172034225822
 31
0.0
1001
GRADIENTCOLOR1ACI
1070
     5
1001
GRADIENTCOLOR2ACI
1070
     2
1001
ACAD
1010
0.0
1020
0.0
1030
0.0
  0
LINE
  5
7AA
  8
回08-記事
  6
PHANTOM2
 62
     7
 10
2075.243832528551
 20
167.5751337084699
 30
0.0
 11
2074.601762814439
 21
168.2172034225824
 31
0.0
1001
GRADIENTCOLOR1ACI
1070
     5
1001
GRADIENTCOLOR2ACI
1070
     2
1001
ACAD
1010
0.0
1020
0.0
1030
0.0
  0
ENDBLK
  5
7AC
  8
0
  6
CONTINUOUS
 62
    18
  0
BLOCK
  8
0
  2
*X7979
 70
     1
 10
0.0
 20
0.0
 30
0.0
  3
*X7979
  1

  0
LINE
  5
7B4
  8
回08-記事
  6
CONTINUOUS
 62
     7
 10
2282.686431866494
 20
163.9695276547908
 30
0.0
 11
2283.665821334678
 21
164.9489171229749
 31
0.0
1001
GRADIENTCOLOR1ACI
1070
     5
1001
GRADIENTCOLOR2ACI
1070
     2
1001
ACAD
1010
0.0
1020
0.0
1030
0.0
  0
LINE
  5
7B5
  8
回08-記事
  6
CONTINUOUS
 62
     7
 10
2282.686431866494
 20
162.6224892366305
 30
0.0
 11
2283.386431866495
 21
163.3224892366311
 31
0.0
1001
GRADIENTCOLOR1ACI
1070
     5
1001
GRADIENTCOLOR2ACI
1070
     2
1001
ACAD
1010
0.0
1020
0.0
1030
0.0
  0
LINE
  5
7B6
  8
回08-記事
  6
CONTINUOUS
 62
     7
 10
2284.012859752838
 20
163.9489171229748
 30
0.0
 11
2285.012859752838
 21
164.9489171229748
 31
0.0
1001
GRADIENTCOLOR1ACI
1070
     5
1001
GRADIENTCOLOR2ACI
1070
     2
1001
ACAD
1010
0.0
1020
0.0
1030
0.0
  0
LINE
  5
7B7
  8
回08-記事
  6
CONTINUOUS
 62
     7
 10
2282.686431866494
 20
161.2754508184699
 30
0.0
 11
2283.386431866495
 21
161.9754508184709
 31
0.0
1001
GRADIENTCOLOR1ACI
1070
     5
1001
GRADIENTCOLOR2ACI
1070
     2
1001
ACAD
1010
0.0
1020
0.0
1030
0.0
  0
LINE
  5
7B8
  8
回08-記事
  6
CONTINUOUS
 62
     7
 10
2285.359898170998
 20
163.9489171229745
 30
0.0
 11
2286.359898170998
 21
164.9489171229745
 31
0.0
1001
GRADIENTCOLOR1ACI
1070
     5
1001
GRADIENTCOLOR2ACI
1070
     2
1001
ACAD
1010
0.0
1020
0.0
1030
0.0
  0
LINE
  5
7B9
  8
回08-記事
  6
CONTINUOUS
 62
     7
 10
2286.70693658916
 20
163.948917122975
 30
0.0
 11
2287.70693658916
 21
164.9489171229748
 31
0.0
1001
GRADIENTCOLOR1ACI
1070
     5
1001
GRADIENTCOLOR2ACI
1070
     2
1001
ACAD
1010
0.0
1020
0.0
1030
0.0
  0
LINE
  5
7BA
  8
回08-記事
  6
CONTINUOUS
 62
     7
 10
2288.053975007319
 20
163.9489171229748
 30
0.0
 11
2289.05397500732
 21
164.9489171229746
 31
0.0
1001
GRADIENTCOLOR1ACI
1070
     5
1001
GRADIENTCOLOR2ACI
1070
     2
1001
ACAD
1010
0.0
1020
0.0
1030
0.0
  0
LINE
  5
7BB
  8
回08-記事
  6
CONTINUOUS
 62
     7
 10
2289.40101342548
 20
163.9489171229748
 30
0.0
 11
2290.40101342548
 21
164.9489171229748
 31
0.0
1001
GRADIENTCOLOR1ACI
1070
     5
1001
GRADIENTCOLOR2ACI
1070
     2
1001
ACAD
1010
0.0
1020
0.0
1030
0.0
  0
LINE
  5
7BC
  8
回08-記事
  6
CONTINUOUS
 62
     7
 10
2292.279616085465
 20
164.1334429466391
 30
0.0
 11
2292.795090261801
 21
164.648917122975
 31
0.0
1001
GRADIENTCOLOR1ACI
1070
     5
1001
GRADIENTCOLOR2ACI
1070
     2
1001
ACAD
1010
0.0
1020
0.0
1030
0.0
  0
LINE
  5
7BD
  8
回08-記事
  6
CONTINUOUS
 62
     7
 10
2292.279616085465
 20
162.786404528478
 30
0.0
 11
2292.979616085464
 21
163.4864045284778
 31
0.0
1001
GRADIENTCOLOR1ACI
1070
     5
1001
GRADIENTCOLOR2ACI
1070
     2
1001
ACAD
1010
0.0
1020
0.0
1030
0.0
  0
LINE
  5
7BE
  8
回08-記事
  6
CONTINUOUS
 62
     7
 10
2293.442128679961
 20
163.9489171229746
 30
0.0
 11
2294.142128679961
 21
164.6489171229747
 31
0.0
1001
GRADIENTCOLOR1ACI
1070
     5
1001
GRADIENTCOLOR2ACI
1070
     2
1001
ACAD
1010
0.0
1020
0.0
1030
0.0
  0
LINE
  5
7BF
  8
回08-記事
  6
CONTINUOUS
 62
     7
 10
2292.279616085465
 20
161.4393661103179
 30
0.0
 11
2292.979616085464
 21
162.1393661103173
 31
0.0
1001
GRADIENTCOLOR1ACI
1070
     5
1001
GRADIENTCOLOR2ACI
1070
     2
1001
ACAD
1010
0.0
1020
0.0
1030
0.0
  0
LINE
  5
7C0
  8
回08-記事
  6
CONTINUOUS
 62
     7
 10
2294.789167098122
 20
163.9489171229747
 30
0.0
 11
2295.489167098121
 21
164.6489171229745
 31
0.0
1001
GRADIENTCOLOR1ACI
1070
     5
1001
GRADIENTCOLOR2ACI
1070
     2
1001
ACAD
1010
0.0
1020
0.0
1030
0.0
  0
LINE
  5
7C1
  8
回08-記事
  6
CONTINUOUS
 62
     7
 10
2298.579616085465
 20
167.7393661103176
 30
0.0
 11
2299.05745339773
 21
168.2172034225825
 31
0.0
1001
GRADIENTCOLOR1ACI
1070
     5
1001
GRADIENTCOLOR2ACI
1070
     2
1001
ACAD
1010
0.0
1020
0.0
1030
0.0
  0
LINE
  5
7C2
  8
回08-記事
  6
CONTINUOUS
 62
     7
 10
2296.136205516282
 20
163.9489171229748
 30
0.0
 11
2296.836205516282
 21
164.6489171229745
 31
0.0
1001
GRADIENTCOLOR1ACI
1070
     5
1001
GRADIENTCOLOR2ACI
1070
     2
1001
ACAD
1010
0.0
1020
0.0
1030
0.0
  0
LINE
  5
7C3
  8
回08-記事
  6
CONTINUOUS
 62
     7
 10
2298.579616085464
 20
166.3923276921565
 30
0.0
 11
2299.279616085465
 21
167.0923276921575
 31
0.0
1001
GRADIENTCOLOR1ACI
1070
     5
1001
GRADIENTCOLOR2ACI
1070
     2
1001
ACAD
1010
0.0
1020
0.0
1030
0.0
  0
LINE
  5
7C4
  8
回08-記事
  6
CONTINUOUS
 62
     7
 10
2297.483243934443
 20
163.9489171229747
 30
0.0
 11
2298.183243934443
 21
164.6489171229748
 31
0.0
1001
GRADIENTCOLOR1ACI
1070
     5
1001
GRADIENTCOLOR2ACI
1070
     2
1001
ACAD
1010
0.0
1020
0.0
1030
0.0
  0
LINE
  5
7C5
  8
回08-記事
  6
CONTINUOUS
 62
     7
 10
2298.579616085465
 20
165.0452892739965
 30
0.0
 11
2299.279616085466
 21
165.7452892739974
 31
0.0
1001
GRADIENTCOLOR1ACI
1070
     5
1001
GRADIENTCOLOR2ACI
1070
     2
1001
ACAD
1010
0.0
1020
0.0
1030
0.0
  0
LINE
  5
7C6
  8
回08-記事
  6
CONTINUOUS
 62
     7
 10
2298.830282352604
 20
163.9489171229746
 30
0.0
 11
2299.279616085465
 21
164.3982508558367
 31
0.0
1001
GRADIENTCOLOR1ACI
1070
     5
1001
GRADIENTCOLOR2ACI
1070
     2
1001
ACAD
1010
0.0
1020
0.0
1030
0.0
  0
ENDBLK
  5
7C8
  8
0
  6
CONTINUOUS
 62
    18
  0
BLOCK
  8
0
  2
*X8080
 70
     1
 10
0.0
 20
0.0
 30
0.0
  3
*X8080
  1

  0
TEXT
  5
802
  8
回07-寸法
  6
CONTINUOUS
 62
     5
 10
2020.714062079546
 20
177.835702306462
 30
0.0
 40
5.0
  1
100
 50
90.0
  0
TEXT
  5
803
  8
回07-寸法
  6
CONTINUOUS
 62
     5
 10
2020.714062079546
 20
187.335702306462
 30
0.0
 40
3.5
  1
±1
 50
90.0
  0
ENDBLK
  5
805
  8
0
  6
CONTINUOUS
 62
    18
  0
BLOCK
  8
0
  2
*X8181
 70
     1
 10
0.0
 20
0.0
 30
0.0
  3
*X8181
  1

  0
TEXT
  5
808
  8
回07-寸法
  6
CONTINUOUS
 62
     5
 10
2109.92467148582
 20
109.3095546345407
 30
0.0
 40
5.0
  1
13.5
  0
TEXT
  5
809
  8
回07-寸法
  6
CONTINUOUS
 62
     5
 10
2120.92467148582
 20
109.3095546345407
 30
0.0
 40
3.5
  1
±0.1
  0
ENDBLK
  5
80B
  8
0
  6
CONTINUOUS
 62
    18
  0
BLOCK
  8
0
  2
*X8282
 70
     1
 10
0.0
 20
0.0
 30
0.0
  3
*X8282
  1

  0
TEXT
  5
80E
  8
回07-寸法
  6
CONTINUOUS
 62
     5
 10
2109.206671118475
 20
119.3042748626787
 30
0.0
 40
5.0
  1
17.5
  0
TEXT
  5
80F
  8
回07-寸法
  6
CONTINUOUS
 62
     5
 10
2120.206671118475
 20
119.3042748626787
 30
0.0
 40
3.5
  1
±0.1
  0
ENDBLK
  5
811
  8
0
  6
CONTINUOUS
 62
    18
  0
BLOCK
  8
0
  2
*X8383
 70
     1
 10
0.0
 20
0.0
 30
0.0
  3
*X8383
  1

  0
TEXT
  5
814
  8
回07-寸法
  6
CONTINUOUS
 62
     5
 10
2134.95848337491
 20
176.8397506772728
 30
0.0
 40
5.0
  1
100
 50
90.0
  0
TEXT
  5
815
  8
回07-寸法
  6
CONTINUOUS
 62
     5
 10
2134.95848337491
 20
186.3397506772728
 30
0.0
 40
3.5
  1
±1
 50
90.0
  0
ENDBLK
  5
817
  8
0
  6
CONTINUOUS
 62
    18
  0
BLOCK
  8
0
  2
*X8484
 70
     1
 10
0.0
 20
0.0
 30
0.0
  3
*X8484
  1

  0
TEXT
  5
81A
  8
回07-寸法
  6
CONTINUOUS
 62
     5
 10
1870.486976121368
 20
486.5482579879311
 30
0.0
 40
5.0
  1
(6.5)
 50
90.0
  0
TEXT
  5
81B
  8
回07-寸法
  6
CONTINUOUS
 62
     5
 10
1870.486976121368
 20
499.0482579879311
 30
0.0
 40
3.333349999999998
  1
(Insulation area)
 50
90.0
  0
ENDBLK
  5
81D
  8
0
  6
CONTINUOUS
 62
    18
  0
BLOCK
  8
0
  2
*X8585
 70
     1
 10
0.0
 20
0.0
 30
0.0
  3
*X8585
  1

  0
TEXT
  5
820
  8
回07-寸法
  6
CONTINUOUS
 62
     5
 10
2077.404476111369
 20
541.3857186178518
 30
0.0
 40
5.0
  1
321
  0
TEXT
  5
821
  8
回07-寸法
  6
CONTINUOUS
 62
     5
 10
2086.904476111369
 20
541.3857186178518
 30
0.0
 40
3.5
  1
±0.3
  0
ENDBLK
  5
823
  8
0
  6
CONTINUOUS
 62
    18
  0
BLOCK
  8
0
  2
*X8686
 70
     1
 10
0.0
 20
0.0
 30
0.0
  3
*X8686
  1

  0
TEXT
  5
826
  8
回07-寸法
  6
CONTINUOUS
 62
     5
 10
1874.458329762943
 20
529.5519014918673
 30
0.0
 40
5.0
  1
5.785
  0
TEXT
  5
827
  8
回07-寸法
  6
CONTINUOUS
 62
     5
 10
1889.958329762943
 20
529.5519014918673
 30
0.0
 40
3.333499999999999
  1
(Insulation area)
  0
ENDBLK
  5
829
  8
0
  6
CONTINUOUS
 62
    18
  0
BLOCK
  8
0
  2
*X8787
 70
     1
 10
0.0
 20
0.0
 30
0.0
  3
*X8787
  1

  0
TEXT
  5
82C
  8
回07-寸法
  6
CONTINUOUS
 62
     5
 10
2249.715007607432
 20
529.6352264918676
 30
0.0
 40
5.0
  1
(5.785)
  0
TEXT
  5
82D
  8
回07-寸法
  6
CONTINUOUS
 62
     5
 10
2269.215007607431
 20
529.6352264918676
 30
0.0
 40
3.333499999999999
  1
(Insulation area)
  0
ENDBLK
  5
82F
  8
0
  6
CONTINUOUS
 62
    18
  0
BLOCK
  8
0
  2
*X8888
 70
     1
 10
0.0
 20
0.0
 30
0.0
  3
*X8888
  1

  0
TEXT
  5
832
  8
回07-寸法
  6
CONTINUOUS
 62
     5
 10
1858.736483995385
 20
351.1877264918674
 30
0.0
 40
5.0
  1
250
 50
90.0
  0
TEXT
  5
833
  8
回07-寸法
  6
CONTINUOUS
 62
     5
 10
1858.736483995385
 20
361.6877264918674
 30
0.0
 40
3.5
  1
±0.3
 50
90.0
  0
ENDBLK
  5
835
  8
0
  6
CONTINUOUS
 62
    18
  0
BLOCK
  8
0
  2
*X8989
 70
     1
 10
0.0
 20
0.0
 30
0.0
  3
*X8989
  1

  0
TEXT
  5
838
  8
回07-寸法
  6
CONTINUOUS
 62
     5
 10
1870.570301121369
 20
189.1699749102147
 30
0.0
 40
5.0
  1
9.6
 50
90.0
  0
TEXT
  5
839
  8
回07-寸法
  6
CONTINUOUS
 62
     5
 10
1870.570301121369
 20
197.6880267528495
 30
0.0
 40
3.333499999999999
  1
(Insulation area)
 50
90.0
  0
ENDBLK
  5
83B
  8
0
  6
CONTINUOUS
 62
    18
  0
BLOCK
  8
0
  2
*X9090
 70
     1
 10
0.0
 20
0.0
 30
0.0
  3
*X9090
  1

  0
TEXT
  5
83E
  8
回07-寸法
  6
CONTINUOUS
 62
     5
 10
2289.984328844548
 20
489.1877348532466
 30
0.0
 40
5.0
  1
2.1
  0
TEXT
  5
83F
  8
回07-寸法
  6
CONTINUOUS
 62
     5
 10
2297.484328844547
 20
489.1877348532466
 30
0.0
 40
3.333499999999999
  1
±0.2
  0
ENDBLK
  5
841
  8
0
  6
CONTINUOUS
 62
    18
  0
BLOCK
  8
0
  2
*X9191
 70
     1
 10
0.0
 20
0.0
 30
0.0
  3
*X9191
  1

  0
TEXT
  5
844
  8
回08-記事
  6
CONTINUOUS
 62
     5
 10
2269.510428747247
 20
124.803292597373
 30
0.0
 40
5.0
  1
0.3
  0
TEXT
  5
845
  8
回08-記事
  6
CONTINUOUS
 62
     5
 10
2278.010428747247
 20
124.803292597373
 30
0.0
 40
3.333499999999999
  1
±0.05
  0
ENDBLK
  5
847
  8
0
  6
CONTINUOUS
 62
    18
  0
BLOCK
  8
0
  2
*X9292
 70
     1
 10
0.0
 20
0.0
 30
0.0
  3
*X9292
  1

  0
TEXT
  5
84A
  8
回08-記事
  6
CONTINUOUS
 62
     5
 10
2304.129453065109
 20
118.5161804246172
 30
0.0
 40
5.0
  1
0.3
  0
TEXT
  5
84B
  8
回08-記事
  6
CONTINUOUS
 62
     5
 10
2312.629453065108
 20
118.5161804246172
 30
0.0
 40
3.333499999999999
  1
±0.05
  0
ENDBLK
  5
84D
  8
0
  6
CONTINUOUS
 62
    18
  0
BLOCK
  8
0
  2
*X9393
 70
     1
 10
0.0
 20
0.0
 30
0.0
  3
*X9393
  1

  0
TEXT
  5
850
  8
回07-寸法
  6
CONTINUOUS
 62
     5
 10
2125.23162244865
 20
107.6884413083794
 30
0.0
 40
5.0
  1
100
 50
90.0
  0
TEXT
  5
851
  8
回07-寸法
  6
CONTINUOUS
 62
     5
 10
2125.23162244865
 20
117.1884413083794
 30
0.0
 40
3.5
  1
±1
 50
90.0
  0
ENDBLK
  5
853
  8
0
  6
CONTINUOUS
 62
    18
  0
BLOCK
  8
0
  2
*X9494
 70
     1
 10
0.0
 20
0.0
 30
0.0
  3
*X9494
  1

  0
TEXT
  5
856
  8
回07-寸法
  6
CONTINUOUS
 62
     5
 10
2099.479810192214
 20
50.15296549378575
 30
0.0
 40
5.0
  1
17.5
  0
TEXT
  5
857
  8
回07-寸法
  6
CONTINUOUS
 62
     5
 10
2110.479810192214
 20
50.15296549378575
 30
0.0
 40
3.5
  1
±0.1
  0
ENDBLK
  5
859
  8
0
  6
CONTINUOUS
 62
    18
  0
BLOCK
  8
0
  2
*X9595
 70
     1
 10
0.0
 20
0.0
 30
0.0
  3
*X9595
  1

  0
TEXT
  5
85C
  8
回07-寸法
  6
CONTINUOUS
 62
     5
 10
2100.197810559559
 20
40.15824526564773
 30
0.0
 40
5.0
  1
13.5
  0
TEXT
  5
85D
  8
回07-寸法
  6
CONTINUOUS
 62
     5
 10
2111.197810559559
 20
40.15824526564773
 30
0.0
 40
3.5
  1
±0.1
  0
ENDBLK
  5
85F
  8
0
  6
CONTINUOUS
 62
    18
  0
BLOCK
  8
0
  2
*X9696
 70
     1
 10
0.0
 20
0.0
 30
0.0
  3
*X9696
  1

  0
TEXT
  5
862
  8
回07-寸法
  6
CONTINUOUS
 62
     5
 10
2010.987201153285
 20
108.6843929375691
 30
0.0
 40
5.0
  1
100
 50
90.0
  0
TEXT
  5
863
  8
回07-寸法
  6
CONTINUOUS
 62
     5
 10
2010.987201153285
 20
118.1843929375691
 30
0.0
 40
3.5
  1
±1
 50
90.0
  0
ENDBLK
  5
865
  8
0
  6
CONTINUOUS
 62
    18
  0
BLOCK
  8
0
  2
*X9797
 70
     1
 10
0.0
 20
0.0
 30
0.0
  3
*X9797
  1

  0
TEXT
  5
868
  8
回07-寸法
  6
CONTINUOUS
 62
     5
 10
2239.98814668117
 20
460.4839171229746
 30
0.0
 40
5.0
  1
(5.785)
  0
TEXT
  5
869
  8
回07-寸法
  6
CONTINUOUS
 62
     5
 10
2259.48814668117
 20
460.4839171229746
 30
0.0
 40
3.333499999999999
  1
(Insulation area)
  0
ENDBLK
  5
86B
  8
0
  6
CONTINUOUS
 62
    18
  0
BLOCK
  8
0
  2
*X9898
 70
     1
 10
0.0
 20
0.0
 30
0.0
  3
*X9898
  1

  0
TEXT
  5
86E
  8
回07-寸法
  6
CONTINUOUS
 62
     5
 10
1864.731468836682
 20
460.4005921229746
 30
0.0
 40
5.0
  1
5.785
  0
TEXT
  5
86F
  8
回07-寸法
  6
CONTINUOUS
 62
     5
 10
1880.231468836682
 20
460.4005921229746
 30
0.0
 40
3.333499999999999
  1
(Insulation area)
  0
ENDBLK
  5
871
  8
0
  6
CONTINUOUS
 62
    18
  0
BLOCK
  8
0
  2
*X9999
 70
     1
 10
0.0
 20
0.0
 30
0.0
  3
*X9999
  1

  0
TEXT
  5
874
  8
回07-寸法
  6
CONTINUOUS
 62
     5
 10
2067.677615185107
 20
472.2339171229744
 30
0.0
 40
5.0
  1
321
  0
TEXT
  5
875
  8
回07-寸法
  6
CONTINUOUS
 62
     5
 10
2077.177615185107
 20
472.2339171229744
 30
0.0
 40
3.5
  1
±0.3
  0
ENDBLK
  5
877
  8
0
  6
CONTINUOUS
 62
    18
  0
BLOCK
  8
0
  2
*X100100
 70
     1
 10
0.0
 20
0.0
 30
0.0
  3
*X100100
  1

  0
TEXT
  5
87A
  8
回07-寸法
  6
CONTINUOUS
 62
     5
 10
1860.760115195107
 20
417.3969486190378
 30
0.0
 40
5.0
  1
(6.5)
 50
90.0
  0
TEXT
  5
87B
  8
回07-寸法
  6
CONTINUOUS
 62
     5
 10
1860.760115195107
 20
429.8969486190379
 30
0.0
 40
3.333349999999998
  1
(Insulation area)
 50
90.0
  0
ENDBLK
  5
87D
  8
0
  6
CONTINUOUS
 62
    18
  0
BLOCK
  8
0
  2
*X101101
 70
     1
 10
0.0
 20
0.0
 30
0.0
  3
*X101101
  1

  0
TEXT
  5
880
  8
回07-寸法
  6
CONTINUOUS
 62
     5
 10
1860.843440195107
 20
120.0186655413215
 30
0.0
 40
5.0
  1
9.6
 50
90.0
  0
TEXT
  5
881
  8
回07-寸法
  6
CONTINUOUS
 62
     5
 10
1860.843440195107
 20
128.5367173839563
 30
0.0
 40
3.333499999999999
  1
(Insulation area)
 50
90.0
  0
ENDBLK
  5
883
  8
0
  6
CONTINUOUS
 62
    18
  0
BLOCK
  8
0
  2
*X102102
 70
     1
 10
0.0
 20
0.0
 30
0.0
  3
*X102102
  1

  0
TEXT
  5
886
  8
回07-寸法
  6
CONTINUOUS
 62
     5
 10
1849.010115195108
 20
282.0364171229743
 30
0.0
 40
5.0
  1
250
 50
90.0
  0
TEXT
  5
887
  8
回07-寸法
  6
CONTINUOUS
 62
     5
 10
1849.010115195108
 20
292.5364171229743
 30
0.0
 40
3.5
  1
±0.3
 50
90.0
  0
ENDBLK
  5
889
  8
0
  6
CONTINUOUS
 62
    18
  0
BLOCK
  8
0
  2
*X103103
 70
     1
 10
0.0
 20
0.0
 30
0.0
  3
*X103103
  1

  0
TEXT
  5
88C
  8
回08-記事
  6
CONTINUOUS
 62
     5
 10
2294.333553093338
 20
49.36487105572422
 30
0.0
 40
5.0
  1
0.3
  0
TEXT
  5
88D
  8
回08-記事
  6
CONTINUOUS
 62
     5
 10
2302.833553093338
 20
49.36487105572422
 30
0.0
 40
3.333499999999999
  1
±0.05
  0
ENDBLK
  5
88F
  8
0
  6
CONTINUOUS
 62
    18
  0
BLOCK
  8
0
  2
*X104104
 70
     1
 10
0.0
 20
0.0
 30
0.0
  3
*X104104
  1

  0
TEXT
  5
892
  8
回08-記事
  6
CONTINUOUS
 62
     5
 10
2259.852606866494
 20
55.65198322848
 30
0.0
 40
5.0
  1
0.3
  0
TEXT
  5
893
  8
回08-記事
  6
CONTINUOUS
 62
     5
 10
2268.352606866494
 20
55.65198322848
 30
0.0
 40
3.333499999999999
  1
±0.05
  0
ENDBLK
  5
895
  8
0
  6
CONTINUOUS
 62
    18
  0
BLOCK
  8
0
  2
*X105105
 70
     1
 10
0.0
 20
0.0
 30
0.0
  3
*X105105
  1

  0
TEXT
  5
898
  8
回07-寸法
  6
CONTINUOUS
 62
     5
 10
2280.257467918286
 20
420.0359333583692
 30
0.0
 40
5.0
  1
2.1
  0
TEXT
  5
899
  8
回07-寸法
  6
CONTINUOUS
 62
     5
 10
2287.757467918285
 20
420.0359333583692
 30
0.0
 40
3.333499999999999
  1
±0.2
  0
ENDBLK
  5
89B
  8
0
  6
CONTINUOUS
 62
    18
  0
ENDSEC
  0
SECTION
  2
ENTITIES
  0
TEXT
  5
5E
  8
回03-記事
  6
CONTINUOUS
 62
     5
 10
2109.283165652175
 20
-14.56852724518023
 30
0.0
 40
5.529600000000002
  1
without affecting product specification.
  0
TEXT
  5
60
  8
回03-記事
  6
CONTINUOUS
 62
     5
 10
2109.283165652175
 20
-4.869026262421839
 30
0.0
 40
5.529600000000002
  1
Edges and corners of ITO glass may be chamfered 
  0
TEXT
  5
61
  8
回03-記事
  6
CONTINUOUS
 62
     5
 10
2109.283165652175
 20
4.830474720336296
 30
0.0
 40
5.529600000000002
  1
Unit: mm
  0
TEXT
  5
62
  8
回03-記事
  6
CONTINUOUS
 62
     5
 10
2109.283165652175
 20
14.52997570309443
 30
0.0
 40
5.529600000000002
  1
EXCEPT WHERE INDICATED
  0
TEXT
  5
63
  8
回03-記事
  6
CONTINUOUS
 62
     5
 10
2109.283165652175
 20
24.22947668585243
 30
0.0
 40
5.529600000000002
  1
TOLERANCE=±0.5mm
  0
TEXT
  5
64
  8
回08-記事
  6
CONTINUOUS
 62
     7
 10
2098.018945751483
 20
57.56064887538485
 30
0.0
 40
2.5
  1
(Conductor side near side)
  0
TEXT
  5
69
  8
回08-記事
  6
CONTINUOUS
 62
     7
 10
2019.453274842915
 20
57.44402165966829
 30
0.0
 40
2.5
  1
(Conductor side far side)
 41
0.9
  0
TEXT
  5
6A
  8
回08-記事
  6
CONTINUOUS
 62
     7
 10
2098.835505290271
 20
60.7603911580124
 30
0.0
 40
2.399999999999999
  1
Tail-1
  0
TEXT
  5
6B
  8
回08-記事
  6
CONTINUOUS
 62
     7
 10
2043.023221241285
 20
60.75180169963886
 30
0.0
 40
2.399999999999999
  1
Tail-2
  0
TEXT
  5
6C
  8
回08-記事
  6
CONTINUOUS
 62
     7
 10
2421.931213256204
 20
19.63088929051201
 30
0.0
 40
4.5
  1
PROTECTION TAPE
  0
TEXT
  5
6D
  8
回08-記事
  6
CONTINUOUS
 62
     7
 10
2413.67366682794
 20
19.70781803218818
 30
0.0
 40
4.679999999999999
  1
6
  0
LINE
  5
6E
  8
回08-記事
  6
CONTINUOUS
 62
     7
 10
2411.282629460435
 20
18.36405647065129
 30
0.0
 11
2505.376442315597
 21
18.36405647065129
 31
0.0
  0
TEXT
  5
6F
  8
回08-記事
  6
CONTINUOUS
 62
     7
 10
2421.628703429894
 20
27.05989822030131
 30
0.0
 40
4.679999999999999
  1
STIFFENER
  0
TEXT
  5
70
  8
回08-記事
  6
CONTINUOUS
 62
     7
 10
2421.628703429894
 20
34.85989822030138
 30
0.0
 40
4.679999999999999
  1
REINFORCEMENT FILM
  0
LINE
  5
71
  8
回08-記事
  6
CONTINUOUS
 62
     7
 10
2505.376442315597
 20
18.36405647065129
 30
0.0
 11
2505.376442315597
 21
65.16405647065136
 31
0.0
  0
TEXT
  5
72
  8
回08-記事
  6
CONTINUOUS
 62
     7
 10
2413.67366682794
 20
43.10781803218821
 30
0.0
 40
4.679999999999999
  1
3
  0
TEXT
  5
73
  8
回08-記事
  6
CONTINUOUS
 62
     7
 10
2413.67366682794
 20
35.30781803218832
 30
0.0
 40
4.679999999999999
  1
4
  0
TEXT
  5
74
  8
回08-記事
  6
CONTINUOUS
 62
     7
 10
2413.67366682794
 20
50.90781803218829
 30
0.0
 40
4.679999999999999
  1
2
  0
TEXT
  5
75
  8
回08-記事
  6
CONTINUOUS
 62
     7
 10
2413.67366682794
 20
27.50781803218826
 30
0.0
 40
4.679999999999999
  1
5
  0
LINE
  5
76
  8
回08-記事
  6
CONTINUOUS
 62
     7
 10
2419.398224029301
 20
65.16405647065136
 30
0.0
 11
2419.398224029301
 21
18.36405647065129
 31
0.0
  0
LINE
  5
77
  8
回08-記事
  6
CONTINUOUS
 62
     7
 10
2411.282629460435
 20
65.16405647065136
 30
0.0
 11
2411.282629460435
 21
18.36405647065129
 31
0.0
  0
TEXT
  5
78
  8
回08-記事
  6
CONTINUOUS
 62
     7
 10
2413.67366682794
 20
58.70781803218818
 30
0.0
 40
4.679999999999999
  1
1
  0
LINE
  5
79
  8
回08-記事
  6
CONTINUOUS
 62
     7
 10
2411.282629460435
 20
26.1640564706512
 30
0.0
 11
2505.376442315597
 21
26.1640564706512
 31
0.0
  0
LINE
  5
7A
  8
回08-記事
  6
CONTINUOUS
 62
     7
 10
2411.282629460435
 20
57.36405647065126
 30
0.0
 11
2505.376442315597
 21
57.36405647065126
 31
0.0
  0
LINE
  5
7B
  8
回08-記事
  6
CONTINUOUS
 62
     7
 10
2411.282629460435
 20
65.16405647065136
 30
0.0
 11
2505.376442315597
 21
65.16405647065136
 31
0.0
  0
LINE
  5
7C
  8
回08-記事
  6
CONTINUOUS
 62
     7
 10
2411.282629460435
 20
33.96405647065129
 30
0.0
 11
2505.376442315597
 21
33.96405647065129
 31
0.0
  0
LINE
  5
7D
  8
回08-記事
  6
CONTINUOUS
 62
     7
 10
2411.282629460435
 20
41.76405647065116
 30
0.0
 11
2505.376442315597
 21
41.76405647065116
 31
0.0
  0
LINE
  5
7E
  8
回08-記事
  6
CONTINUOUS
 62
     7
 10
2411.282629460435
 20
49.56405647065118
 30
0.0
 11
2505.376442315597
 21
49.56405647065118
 31
0.0
  0
TEXT
  5
7F
  8
回08-記事
  6
CONTINUOUS
 62
     7
 10
2421.628703429894
 20
58.25989822030141
 30
0.0
 40
4.679999999999999
  1
ITO FILM (ANTI-GLARE)
  0
TEXT
  5
80
  8
回08-記事
  6
CONTINUOUS
 62
     7
 10
2421.628703429894
 20
50.45989822030134
 30
0.0
 40
4.679999999999999
  1
ITO GLASS
  0
TEXT
  5
81
  8
回08-記事
  6
CONTINUOUS
 62
     7
 10
2421.628703429894
 20
42.65989822030127
 30
0.0
 40
4.679999999999999
  1
FPC
  0
TEXT
  5
82
  8
回08-記事
  6
CONTINUOUS
 62
     7
 10
2267.965869895306
 20
301.5195574861098
 30
0.0
 40
4.0
  1
1
  0
TEXT
  5
83
  8
回08-記事
  6
CONTINUOUS
 62
     7
 10
2307.097397173761
 20
291.5209262132644
 30
0.0
 40
4.0
  1
2
  0
TEXT
  5
84
  8
回08-記事
  6
CONTINUOUS
 62
     7
 10
2305.068570876067
 20
156.3030317255252
 30
0.0
 40
4.0
  1
6
  0
LINE
  5
85
  8
回08-記事
  6
CONTINUOUS
 62
     7
 10
2305.465309371823
 20
293.8035822345349
 30
0.0
 11
2296.665856822608
 21
296.581274038605
 31
0.0
  0
LINE
  5
86
  8
回08-記事
  6
CONTINUOUS
 62
     7
 10
2271.876774499423
 20
303.813333092295
 30
0.0
 11
2279.841159963811
 21
300.8789406913332
 31
0.0
  0
LINE
  5
87
  8
回08-記事
  6
CONTINUOUS
 62
     7
 10
2287.022759730335
 20
80.91775580828203
 30
0.0
 11
2283.436431866494
 21
74.19616063018843
 31
0.0
  0
LINE
  5
88
  8
回08-記事
  6
CONTINUOUS
 62
     7
 10
2290.120931801186
 20
74.09626076758701
 30
0.0
 11
2287.022759730335
 21
80.91775580828203
 31
0.0
  0
TEXT
  5
89
  8
回08-記事
  6
CONTINUOUS
 62
     7
 10
2285.835423749643
 20
81.01306836866848
 30
0.0
 40
3.0
  1
5
  0
LINE
  5
8A
  8
回08-記事
  6
CONTINUOUS
 62
     7
 10
2274.195551533782
 20
146.6959368016938
 30
0.0
 11
2291.052225721122
 21
155.0817901646269
 31
0.0
  0
LINE
  5
8B
  8
回08-記事
  6
CONTINUOUS
 62
     7
 10
2282.238535604748
 20
144.6291621804931
 30
0.0
 11
2274.195551533782
 21
146.6959368016938
 31
0.0
  0
TEXT
  5
8C
  8
回08-記事
  6
CONTINUOUS
 62
     7
 10
2269.57792176072
 20
144.7282920931248
 30
0.0
 40
4.0
  1
3
  0
LINE
  5
8D
  8
回08-記事
  6
CONTINUOUS
 62
     7
 10
2302.803204525008
 20
103.9417757278398
 30
0.0
 11
2291.846724415144
 21
110.2925975335984
 31
0.0
  0
LINE
  5
8E
  8
回08-記事
  6
CONTINUOUS
 62
     7
 10
2281.305822928439
 20
103.3632185408069
 30
0.0
 11
2302.803204525008
 21
103.9417757278398
 31
0.0
  0
TEXT
  5
8F
  8
回08-記事
  6
CONTINUOUS
 62
     7
 10
2302.850934593738
 20
102.0748535951507
 30
0.0
 40
4.0
  1
4
  0
LINE
  5
90
  8
回08-記事
  6
CONTINUOUS
 62
     7
 10
2305.285303518969
 20
158.5532180423984
 30
0.0
 11
2286.41233560049
 21
164.328798313889
 31
0.0
  0
LINE
  5
91
  8
回08-記事
  6
CONTINUOUS
 62
     7
 10
2298.987352910847
 20
165.0451514747774
 30
0.0
 11
2305.285303518969
 21
158.5532180423984
 31
0.0
  0
TEXT
  5
92
  8
回08-記事
  6
CONTINUOUS
 62
     7
 10
2432.174752589404
 20
444.1862657178208
 30
0.0
 40
3.5
  1
PIN ASSIGNMENT
  0
TEXT
  5
93
  8
回90-枠2
 10
2443.627449089745
 20
-1.601699951442526
 30
0.0
 40
5.877614223360004
  1
Oct/12/2023
  0
TEXT
  5
97
  8
回90-枠2
 10
2358.952144163537
 20
-1.601699951442526
 30
0.0
 40
5.877614223360004
  1
MTR-G150B100B
  0
LINE
  5
98
  8
回90-枠2
  6
CONTINUOUS
 62
     7
 10
2345.919348852164
 20
12.71679717449973
 30
0.0
 11
2510.492547106244
 21
12.71679717449973
 31
0.0
  0
TEXT
  5
99
  8
回90-枠2
 10
2457.682917832557
 20
8.03331179462333
 30
0.0
 40
4.114329956352001
  1
DATE
  0
LINE
  5
9A
  8
回90-枠2
  6
CONTINUOUS
 62
     7
 10
2345.919348852164
 20
12.71679717449973
 30
0.0
 11
2510.492547106244
 21
12.71679717449973
 31
0.0
  0
TEXT
  5
9B
  8
回90-枠2
 10
2444.909564932082
 20
-16.82756129776754
 30
0.0
 40
5.877614223360004
  1
DMC Co., Ltd.
  0
LINE
  5
9C
  8
回90-枠2
 10
2422.328333755845
 20
12.71679717449973
 30
0.0
 11
2422.328333755845
 21
-22.54888816566
 31
0.0
  0
TEXT
  5
9D
  8
回90-枠2
 10
2363.995239390835
 20
-15.43399729182812
 30
0.0
 40
3.526568534016003
  1
Multi Touch Resistive
  0
LINE
  5
9E
  8
回90-枠2
 10
2345.919348852164
 20
12.71679717449973
 30
0.0
 11
2345.919348852164
 21
-22.54888816566
 31
0.0
  0
TEXT
  5
9F
  8
回90-枠2
 10
2378.866780266712
 20
-9.739396863690499
 30
0.0
 40
3.526568534016003
  1
TYPE
  0
LINE
  5
A0
  8
回90-枠2
 10
2349.445917386181
 20
-16.67127394230016
 30
0.0
 11
2418.801765221828
 21
-16.67127394230016
 31
0.0
  0
TEXT
  5
A1
  8
回90-枠2
 10
2361.285423868235
 20
-21.71258597387605
 30
0.0
 40
3.526568534016003
  1
DIMENSIONAL DRAWING
  0
TEXT
  5
A2
  8
回90-枠2
 10
2373.893602713398
 20
7.853190872216316
 30
0.0
 40
4.114329956352001
  1
PART No.
  0
LINE
  5
A3
  8
回90-枠2
 10
2345.919348852164
 20
-4.916045495580021
 30
0.0
 11
2510.492547106244
 21
-4.916045495580021
 31
0.0
  0
LINE
  5
A4
  8
回90-枠2
 10
2345.919348852164
 20
-10.79365971894009
 30
0.0
 11
2422.328333755845
 21
-10.79365971894009
 31
0.0
  0
LINE
  5
A5
  8
回90-枠2
 10
2345.919348852164
 20
6.839182951139888
 30
0.0
 11
2510.492547106244
 21
6.839182951139888
 31
0.0
  0
POLYLINE
  5
A6
  8
回03-下ER
  6
CONTINUOUS
 62
     7
 66
     1
 10
0.0
 20
0.0
 30
0.0
 70
     1
  0
VERTEX
  5
AD2
  8
回03-下ER
  6
CONTINUOUS
 62
     7
 10
2208.890115185111
 20
177.148917122975
 30
0.0
  0
VERTEX
  5
AD4
  8
回03-下ER
  6
CONTINUOUS
 62
     7
 10
2228.79011518511
 20
177.148917122975
 30
0.0
  0
VERTEX
  5
AD5
  8
回03-下ER
  6
CONTINUOUS
 62
     7
 10
2228.79011518511
 20
405.2489171229749
 30
0.0
  0
VERTEX
  5
AD6
  8
回03-下ER
  6
CONTINUOUS
 62
     7
 10
2208.890115185111
 20
405.2489171229749
 30
0.0
  0
SEQEND
  5
AD3
  8
0
  6
CONTINUOUS
 62
    18
  0
POLYLINE
  5
AA
  8
回03-下ER
  6
CONTINUOUS
 62
     7
 66
     1
 10
0.0
 20
0.0
 30
0.0
 70
     1
  0
VERTEX
  5
AD7
  8
回03-下ER
  6
CONTINUOUS
 62
     7
 10
2188.59011518511
 20
177.148917122975
 30
0.0
  0
VERTEX
  5
AD9
  8
回03-下ER
  6
CONTINUOUS
 62
     7
 10
2208.49011518511
 20
177.148917122975
 30
0.0
  0
VERTEX
  5
ADA
  8
回03-下ER
  6
CONTINUOUS
 62
     7
 10
2208.49011518511
 20
405.2489171229749
 30
0.0
  0
VERTEX
  5
ADB
  8
回03-下ER
  6
CONTINUOUS
 62
     7
 10
2188.59011518511
 20
405.2489171229749
 30
0.0
  0
SEQEND
  5
AD8
  8
0
  6
CONTINUOUS
 62
    18
  0
POLYLINE
  5
AB
  8
回03-下ER
  6
CONTINUOUS
 62
     7
 66
     1
 10
0.0
 20
0.0
 30
0.0
 70
     1
  0
VERTEX
  5
ADC
  8
回03-下ER
  6
CONTINUOUS
 62
     7
 10
2168.29011518511
 20
177.148917122975
 30
0.0
  0
VERTEX
  5
ADE
  8
回03-下ER
  6
CONTINUOUS
 62
     7
 10
2188.19011518511
 20
177.148917122975
 30
0.0
  0
VERTEX
  5
ADF
  8
回03-下ER
  6
CONTINUOUS
 62
     7
 10
2188.19011518511
 20
405.2489171229749
 30
0.0
  0
VERTEX
  5
AE0
  8
回03-下ER
  6
CONTINUOUS
 62
     7
 10
2168.29011518511
 20
405.2489171229749
 30
0.0
  0
SEQEND
  5
ADD
  8
0
  6
CONTINUOUS
 62
    18
  0
POLYLINE
  5
AC
  8
回03-下ER
  6
CONTINUOUS
 62
     7
 66
     1
 10
0.0
 20
0.0
 30
0.0
 70
     1
  0
VERTEX
  5
AE1
  8
回03-下ER
  6
CONTINUOUS
 62
     7
 10
2147.99011518511
 20
177.148917122975
 30
0.0
  0
VERTEX
  5
AE3
  8
回03-下ER
  6
CONTINUOUS
 62
     7
 10
2167.89011518511
 20
177.148917122975
 30
0.0
  0
VERTEX
  5
AE4
  8
回03-下ER
  6
CONTINUOUS
 62
     7
 10
2167.89011518511
 20
405.2489171229749
 30
0.0
  0
VERTEX
  5
AE5
  8
回03-下ER
  6
CONTINUOUS
 62
     7
 10
2147.99011518511
 20
405.2489171229749
 30
0.0
  0
SEQEND
  5
AE2
  8
0
  6
CONTINUOUS
 62
    18
  0
POLYLINE
  5
AD
  8
回03-下ER
  6
CONTINUOUS
 62
     7
 66
     1
 10
0.0
 20
0.0
 30
0.0
 70
     1
  0
VERTEX
  5
AE6
  8
回03-下ER
  6
CONTINUOUS
 62
     7
 10
2127.69011518511
 20
177.148917122975
 30
0.0
  0
VERTEX
  5
AE8
  8
回03-下ER
  6
CONTINUOUS
 62
     7
 10
2147.59011518511
 20
177.148917122975
 30
0.0
  0
VERTEX
  5
AE9
  8
回03-下ER
  6
CONTINUOUS
 62
     7
 10
2147.59011518511
 20
405.2489171229749
 30
0.0
  0
VERTEX
  5
AEA
  8
回03-下ER
  6
CONTINUOUS
 62
     7
 10
2127.69011518511
 20
405.2489171229749
 30
0.0
  0
SEQEND
  5
AE7
  8
0
  6
CONTINUOUS
 62
    18
  0
POLYLINE
  5
AE
  8
回03-下ER
  6
CONTINUOUS
 62
     7
 66
     1
 10
0.0
 20
0.0
 30
0.0
 70
     1
  0
VERTEX
  5
AEB
  8
回03-下ER
  6
CONTINUOUS
 62
     7
 10
2107.390115185109
 20
177.148917122975
 30
0.0
  0
VERTEX
  5
AED
  8
回03-下ER
  6
CONTINUOUS
 62
     7
 10
2127.290115185109
 20
177.148917122975
 30
0.0
  0
VERTEX
  5
AEE
  8
回03-下ER
  6
CONTINUOUS
 62
     7
 10
2127.290115185109
 20
405.2489171229749
 30
0.0
  0
VERTEX
  5
AEF
  8
回03-下ER
  6
CONTINUOUS
 62
     7
 10
2107.390115185109
 20
405.2489171229749
 30
0.0
  0
SEQEND
  5
AEC
  8
0
  6
CONTINUOUS
 62
    18
  0
POLYLINE
  5
AF
  8
回03-下ER
  6
CONTINUOUS
 62
     7
 66
     1
 10
0.0
 20
0.0
 30
0.0
 70
     1
  0
VERTEX
  5
AF0
  8
回03-下ER
  6
CONTINUOUS
 62
     7
 10
2087.090115185109
 20
177.148917122975
 30
0.0
  0
VERTEX
  5
AF2
  8
回03-下ER
  6
CONTINUOUS
 62
     7
 10
2106.990115185109
 20
177.148917122975
 30
0.0
  0
VERTEX
  5
AF3
  8
回03-下ER
  6
CONTINUOUS
 62
     7
 10
2106.990115185109
 20
405.2489171229749
 30
0.0
  0
VERTEX
  5
AF4
  8
回03-下ER
  6
CONTINUOUS
 62
     7
 10
2087.090115185109
 20
405.2489171229749
 30
0.0
  0
SEQEND
  5
AF1
  8
0
  6
CONTINUOUS
 62
    18
  0
POLYLINE
  5
B0
  8
回03-下ER
  6
CONTINUOUS
 62
     7
 66
     1
 10
0.0
 20
0.0
 30
0.0
 70
     1
  0
VERTEX
  5
AF5
  8
回03-下ER
  6
CONTINUOUS
 62
     7
 10
2066.79011518511
 20
177.148917122975
 30
0.0
  0
VERTEX
  5
AF7
  8
回03-下ER
  6
CONTINUOUS
 62
     7
 10
2086.690115185109
 20
177.148917122975
 30
0.0
  0
VERTEX
  5
AF8
  8
回03-下ER
  6
CONTINUOUS
 62
     7
 10
2086.690115185109
 20
405.2489171229749
 30
0.0
  0
VERTEX
  5
AF9
  8
回03-下ER
  6
CONTINUOUS
 62
     7
 10
2066.79011518511
 20
405.2489171229749
 30
0.0
  0
SEQEND
  5
AF6
  8
0
  6
CONTINUOUS
 62
    18
  0
POLYLINE
  5
B1
  8
回03-下ER
  6
CONTINUOUS
 62
     7
 66
     1
 10
0.0
 20
0.0
 30
0.0
 70
     1
  0
VERTEX
  5
AFA
  8
回03-下ER
  6
CONTINUOUS
 62
     7
 10
2046.490115185109
 20
177.148917122975
 30
0.0
  0
VERTEX
  5
AFC
  8
回03-下ER
  6
CONTINUOUS
 62
     7
 10
2066.390115185109
 20
177.148917122975
 30
0.0
  0
VERTEX
  5
AFD
  8
回03-下ER
  6
CONTINUOUS
 62
     7
 10
2066.390115185109
 20
405.2489171229749
 30
0.0
  0
VERTEX
  5
AFE
  8
回03-下ER
  6
CONTINUOUS
 62
     7
 10
2046.490115185109
 20
405.2489171229749
 30
0.0
  0
SEQEND
  5
AFB
  8
0
  6
CONTINUOUS
 62
    18
  0
POLYLINE
  5
B2
  8
回03-下ER
  6
CONTINUOUS
 62
     7
 66
     1
 10
0.0
 20
0.0
 30
0.0
 70
     1
  0
VERTEX
  5
AFF
  8
回03-下ER
  6
CONTINUOUS
 62
     7
 10
2026.190115185109
 20
177.148917122975
 30
0.0
  0
VERTEX
  5
B01
  8
回03-下ER
  6
CONTINUOUS
 62
     7
 10
2046.090115185108
 20
177.148917122975
 30
0.0
  0
VERTEX
  5
B02
  8
回03-下ER
  6
CONTINUOUS
 62
     7
 10
2046.090115185108
 20
405.2489171229749
 30
0.0
  0
VERTEX
  5
B03
  8
回03-下ER
  6
CONTINUOUS
 62
     7
 10
2026.190115185109
 20
405.2489171229749
 30
0.0
  0
SEQEND
  5
B00
  8
0
  6
CONTINUOUS
 62
    18
  0
POLYLINE
  5
B3
  8
回03-下ER
  6
CONTINUOUS
 62
     7
 66
     1
 10
0.0
 20
0.0
 30
0.0
 70
     1
  0
VERTEX
  5
B04
  8
回03-下ER
  6
CONTINUOUS
 62
     7
 10
2005.890115185108
 20
177.148917122975
 30
0.0
  0
VERTEX
  5
B06
  8
回03-下ER
  6
CONTINUOUS
 62
     7
 10
2025.790115185108
 20
177.148917122975
 30
0.0
  0
VERTEX
  5
B07
  8
回03-下ER
  6
CONTINUOUS
 62
     7
 10
2025.790115185108
 20
405.2489171229749
 30
0.0
  0
VERTEX
  5
B08
  8
回03-下ER
  6
CONTINUOUS
 62
     7
 10
2005.890115185108
 20
405.2489171229749
 30
0.0
  0
SEQEND
  5
B05
  8
0
  6
CONTINUOUS
 62
    18
  0
POLYLINE
  5
B4
  8
回03-下ER
  6
CONTINUOUS
 62
     7
 66
     1
 10
0.0
 20
0.0
 30
0.0
 70
     1
  0
VERTEX
  5
B09
  8
回03-下ER
  6
CONTINUOUS
 62
     7
 10
1985.590115185108
 20
177.148917122975
 30
0.0
  0
VERTEX
  5
B0B
  8
回03-下ER
  6
CONTINUOUS
 62
     7
 10
2005.490115185108
 20
177.148917122975
 30
0.0
  0
VERTEX
  5
B0C
  8
回03-下ER
  6
CONTINUOUS
 62
     7
 10
2005.490115185108
 20
405.2489171229749
 30
0.0
  0
VERTEX
  5
B0D
  8
回03-下ER
  6
CONTINUOUS
 62
     7
 10
1985.590115185108
 20
405.2489171229749
 30
0.0
  0
SEQEND
  5
B0A
  8
0
  6
CONTINUOUS
 62
    18
  0
POLYLINE
  5
B5
  8
回03-下ER
  6
CONTINUOUS
 62
     7
 66
     1
 10
0.0
 20
0.0
 30
0.0
 70
     1
  0
VERTEX
  5
B0E
  8
回03-下ER
  6
CONTINUOUS
 62
     7
 10
1965.290115185108
 20
177.148917122975
 30
0.0
  0
VERTEX
  5
B10
  8
回03-下ER
  6
CONTINUOUS
 62
     7
 10
1985.190115185108
 20
177.148917122975
 30
0.0
  0
VERTEX
  5
B11
  8
回03-下ER
  6
CONTINUOUS
 62
     7
 10
1985.190115185108
 20
405.2489171229749
 30
0.0
  0
VERTEX
  5
B12
  8
回03-下ER
  6
CONTINUOUS
 62
     7
 10
1965.290115185108
 20
405.2489171229749
 30
0.0
  0
SEQEND
  5
B0F
  8
0
  6
CONTINUOUS
 62
    18
  0
POLYLINE
  5
B6
  8
回03-下ER
  6
CONTINUOUS
 62
     7
 66
     1
 10
0.0
 20
0.0
 30
0.0
 70
     1
  0
VERTEX
  5
B13
  8
回03-下ER
  6
CONTINUOUS
 62
     7
 10
1944.990115185107
 20
177.148917122975
 30
0.0
  0
VERTEX
  5
B15
  8
回03-下ER
  6
CONTINUOUS
 62
     7
 10
1964.890115185108
 20
177.148917122975
 30
0.0
  0
VERTEX
  5
B16
  8
回03-下ER
  6
CONTINUOUS
 62
     7
 10
1964.890115185108
 20
405.2489171229749
 30
0.0
  0
VERTEX
  5
B17
  8
回03-下ER
  6
CONTINUOUS
 62
     7
 10
1944.990115185107
 20
405.2489171229749
 30
0.0
  0
SEQEND
  5
B14
  8
0
  6
CONTINUOUS
 62
    18
  0
POLYLINE
  5
B7
  8
回03-下ER
  6
CONTINUOUS
 62
     7
 66
     1
 10
0.0
 20
0.0
 30
0.0
 70
     1
  0
VERTEX
  5
B18
  8
回03-下ER
  6
CONTINUOUS
 62
     7
 10
1924.690115185107
 20
177.148917122975
 30
0.0
  0
VERTEX
  5
B1A
  8
回03-下ER
  6
CONTINUOUS
 62
     7
 10
1944.590115185107
 20
177.148917122975
 30
0.0
  0
VERTEX
  5
B1B
  8
回03-下ER
  6
CONTINUOUS
 62
     7
 10
1944.590115185107
 20
405.2489171229749
 30
0.0
  0
VERTEX
  5
B1C
  8
回03-下ER
  6
CONTINUOUS
 62
     7
 10
1924.690115185107
 20
405.2489171229749
 30
0.0
  0
SEQEND
  5
B19
  8
0
  6
CONTINUOUS
 62
    18
  0
POLYLINE
  5
B8
  8
回01-上ER
  6
CONTINUOUS
 62
     7
 66
     1
 10
0.0
 20
0.0
 30
0.0
 70
     1
  0
VERTEX
  5
B1D
  8
回01-上ER
  6
CONTINUOUS
 62
     7
 10
1924.690115185107
 20
405.2389171229744
 30
0.0
  0
VERTEX
  5
B1F
  8
回01-上ER
  6
CONTINUOUS
 62
     7
 10
2228.79011518511
 20
405.2389171229744
 30
0.0
  0
VERTEX
  5
B20
  8
回01-上ER
  6
CONTINUOUS
 62
     7
 10
2228.79011518511
 20
386.5989171229746
 30
0.0
  0
VERTEX
  5
B21
  8
回01-上ER
  6
CONTINUOUS
 62
     7
 10
1924.690115185107
 20
386.5989171229746
 30
0.0
  0
SEQEND
  5
B1E
  8
0
  6
CONTINUOUS
 62
    18
  0
POLYLINE
  5
BC
  8
回01-上ER
  6
CONTINUOUS
 62
     7
 66
     1
 10
0.0
 20
0.0
 30
0.0
 70
     1
  0
VERTEX
  5
B22
  8
回01-上ER
  6
CONTINUOUS
 62
     7
 10
1924.690115185107
 20
386.1989171229747
 30
0.0
  0
VERTEX
  5
B24
  8
回01-上ER
  6
CONTINUOUS
 62
     7
 10
2228.79011518511
 20
386.1989171229747
 30
0.0
  0
VERTEX
  5
B25
  8
回01-上ER
  6
CONTINUOUS
 62
     7
 10
2228.79011518511
 20
367.5589171229746
 30
0.0
  0
VERTEX
  5
B26
  8
回01-上ER
  6
CONTINUOUS
 62
     7
 10
1924.690115185107
 20
367.5589171229746
 30
0.0
  0
SEQEND
  5
B23
  8
0
  6
CONTINUOUS
 62
    18
  0
POLYLINE
  5
BD
  8
回01-上ER
  6
CONTINUOUS
 62
     7
 66
     1
 10
0.0
 20
0.0
 30
0.0
 70
     1
  0
VERTEX
  5
B27
  8
回01-上ER
  6
CONTINUOUS
 62
     7
 10
1924.690115185107
 20
367.1589171229746
 30
0.0
  0
VERTEX
  5
B29
  8
回01-上ER
  6
CONTINUOUS
 62
     7
 10
2228.79011518511
 20
367.1589171229746
 30
0.0
  0
VERTEX
  5
B2A
  8
回01-上ER
  6
CONTINUOUS
 62
     7
 10
2228.79011518511
 20
348.5189171229746
 30
0.0
  0
VERTEX
  5
B2B
  8
回01-上ER
  6
CONTINUOUS
 62
     7
 10
1924.690115185107
 20
348.5189171229746
 30
0.0
  0
SEQEND
  5
B28
  8
0
  6
CONTINUOUS
 62
    18
  0
POLYLINE
  5
BE
  8
回01-上ER
  6
CONTINUOUS
 62
     7
 66
     1
 10
0.0
 20
0.0
 30
0.0
 70
     1
  0
VERTEX
  5
B2C
  8
回01-上ER
  6
CONTINUOUS
 62
     7
 10
1924.690115185107
 20
348.1189171229747
 30
0.0
  0
VERTEX
  5
B2E
  8
回01-上ER
  6
CONTINUOUS
 62
     7
 10
2228.79011518511
 20
348.1189171229747
 30
0.0
  0
VERTEX
  5
B2F
  8
回01-上ER
  6
CONTINUOUS
 62
     7
 10
2228.79011518511
 20
329.4789171229747
 30
0.0
  0
VERTEX
  5
B30
  8
回01-上ER
  6
CONTINUOUS
 62
     7
 10
1924.690115185107
 20
329.4789171229747
 30
0.0
  0
SEQEND
  5
B2D
  8
0
  6
CONTINUOUS
 62
    18
  0
POLYLINE
  5
BF
  8
回01-上ER
  6
CONTINUOUS
 62
     7
 66
     1
 10
0.0
 20
0.0
 30
0.0
 70
     1
  0
VERTEX
  5
B31
  8
回01-上ER
  6
CONTINUOUS
 62
     7
 10
1924.690115185107
 20
329.0789171229747
 30
0.0
  0
VERTEX
  5
B33
  8
回01-上ER
  6
CONTINUOUS
 62
     7
 10
2228.79011518511
 20
329.0789171229747
 30
0.0
  0
VERTEX
  5
B34
  8
回01-上ER
  6
CONTINUOUS
 62
     7
 10
2228.79011518511
 20
310.4389171229747
 30
0.0
  0
VERTEX
  5
B35
  8
回01-上ER
  6
CONTINUOUS
 62
     7
 10
1924.690115185107
 20
310.4389171229747
 30
0.0
  0
SEQEND
  5
B32
  8
0
  6
CONTINUOUS
 62
    18
  0
POLYLINE
  5
C0
  8
回01-上ER
  6
CONTINUOUS
 62
     7
 66
     1
 10
0.0
 20
0.0
 30
0.0
 70
     1
  0
VERTEX
  5
B36
  8
回01-上ER
  6
CONTINUOUS
 62
     7
 10
1924.690115185107
 20
310.0389171229747
 30
0.0
  0
VERTEX
  5
B38
  8
回01-上ER
  6
CONTINUOUS
 62
     7
 10
2228.79011518511
 20
310.0389171229747
 30
0.0
  0
VERTEX
  5
B39
  8
回01-上ER
  6
CONTINUOUS
 62
     7
 10
2228.79011518511
 20
291.3989171229748
 30
0.0
  0
VERTEX
  5
B3A
  8
回01-上ER
  6
CONTINUOUS
 62
     7
 10
1924.690115185107
 20
291.3989171229748
 30
0.0
  0
SEQEND
  5
B37
  8
0
  6
CONTINUOUS
 62
    18
  0
POLYLINE
  5
C1
  8
回01-上ER
  6
CONTINUOUS
 62
     7
 66
     1
 10
0.0
 20
0.0
 30
0.0
 70
     1
  0
VERTEX
  5
B3B
  8
回01-上ER
  6
CONTINUOUS
 62
     7
 10
1924.690115185107
 20
290.9989171229748
 30
0.0
  0
VERTEX
  5
B3D
  8
回01-上ER
  6
CONTINUOUS
 62
     7
 10
2228.79011518511
 20
290.9989171229748
 30
0.0
  0
VERTEX
  5
B3E
  8
回01-上ER
  6
CONTINUOUS
 62
     7
 10
2228.79011518511
 20
272.3589171229748
 30
0.0
  0
VERTEX
  5
B3F
  8
回01-上ER
  6
CONTINUOUS
 62
     7
 10
1924.690115185107
 20
272.3589171229748
 30
0.0
  0
SEQEND
  5
B3C
  8
0
  6
CONTINUOUS
 62
    18
  0
POLYLINE
  5
C2
  8
回01-上ER
  6
CONTINUOUS
 62
     7
 66
     1
 10
0.0
 20
0.0
 30
0.0
 70
     1
  0
VERTEX
  5
B40
  8
回01-上ER
  6
CONTINUOUS
 62
     7
 10
1924.690115185107
 20
271.9589171229748
 30
0.0
  0
VERTEX
  5
B42
  8
回01-上ER
  6
CONTINUOUS
 62
     7
 10
2228.79011518511
 20
271.9589171229748
 30
0.0
  0
VERTEX
  5
B43
  8
回01-上ER
  6
CONTINUOUS
 62
     7
 10
2228.79011518511
 20
253.3189171229748
 30
0.0
  0
VERTEX
  5
B44
  8
回01-上ER
  6
CONTINUOUS
 62
     7
 10
1924.690115185107
 20
253.3189171229748
 30
0.0
  0
SEQEND
  5
B41
  8
0
  6
CONTINUOUS
 62
    18
  0
POLYLINE
  5
C3
  8
回01-上ER
  6
CONTINUOUS
 62
     7
 66
     1
 10
0.0
 20
0.0
 30
0.0
 70
     1
  0
VERTEX
  5
B45
  8
回01-上ER
  6
CONTINUOUS
 62
     7
 10
1924.690115185107
 20
252.9189171229749
 30
0.0
  0
VERTEX
  5
B47
  8
回01-上ER
  6
CONTINUOUS
 62
     7
 10
2228.79011518511
 20
252.9189171229749
 30
0.0
  0
VERTEX
  5
B48
  8
回01-上ER
  6
CONTINUOUS
 62
     7
 10
2228.79011518511
 20
234.2789171229749
 30
0.0
  0
VERTEX
  5
B49
  8
回01-上ER
  6
CONTINUOUS
 62
     7
 10
1924.690115185107
 20
234.2789171229749
 30
0.0
  0
SEQEND
  5
B46
  8
0
  6
CONTINUOUS
 62
    18
  0
POLYLINE
  5
C4
  8
回01-上ER
  6
CONTINUOUS
 62
     7
 66
     1
 10
0.0
 20
0.0
 30
0.0
 70
     1
  0
VERTEX
  5
B4A
  8
回01-上ER
  6
CONTINUOUS
 62
     7
 10
1924.690115185107
 20
233.8789171229749
 30
0.0
  0
VERTEX
  5
B4C
  8
回01-上ER
  6
CONTINUOUS
 62
     7
 10
2228.79011518511
 20
233.8789171229749
 30
0.0
  0
VERTEX
  5
B4D
  8
回01-上ER
  6
CONTINUOUS
 62
     7
 10
2228.79011518511
 20
215.2389171229749
 30
0.0
  0
VERTEX
  5
B4E
  8
回01-上ER
  6
CONTINUOUS
 62
     7
 10
1924.690115185107
 20
215.2389171229749
 30
0.0
  0
SEQEND
  5
B4B
  8
0
  6
CONTINUOUS
 62
    18
  0
POLYLINE
  5
C5
  8
回01-上ER
  6
CONTINUOUS
 62
     7
 66
     1
 10
0.0
 20
0.0
 30
0.0
 70
     1
  0
VERTEX
  5
B4F
  8
回01-上ER
  6
CONTINUOUS
 62
     7
 10
1924.690115185107
 20
214.8389171229749
 30
0.0
  0
VERTEX
  5
B51
  8
回01-上ER
  6
CONTINUOUS
 62
     7
 10
2228.79011518511
 20
214.8389171229749
 30
0.0
  0
VERTEX
  5
B52
  8
回01-上ER
  6
CONTINUOUS
 62
     7
 10
2228.79011518511
 20
196.1989171229749
 30
0.0
  0
VERTEX
  5
B53
  8
回01-上ER
  6
CONTINUOUS
 62
     7
 10
1924.690115185107
 20
196.1989171229749
 30
0.0
  0
SEQEND
  5
B50
  8
0
  6
CONTINUOUS
 62
    18
  0
POLYLINE
  5
C6
  8
回01-上ER
  6
CONTINUOUS
 62
     7
 66
     1
 10
0.0
 20
0.0
 30
0.0
 70
     1
  0
VERTEX
  5
B54
  8
回01-上ER
  6
CONTINUOUS
 62
     7
 10
1924.690115185107
 20
195.7989171229749
 30
0.0
  0
VERTEX
  5
B56
  8
回01-上ER
  6
CONTINUOUS
 62
     7
 10
2228.79011518511
 20
195.7989171229749
 30
0.0
  0
VERTEX
  5
B57
  8
回01-上ER
  6
CONTINUOUS
 62
     7
 10
2228.79011518511
 20
177.158917122975
 30
0.0
  0
VERTEX
  5
B58
  8
回01-上ER
  6
CONTINUOUS
 62
     7
 10
1924.690115185107
 20
177.158917122975
 30
0.0
  0
SEQEND
  5
B55
  8
0
  6
CONTINUOUS
 62
    18
  0
TEXT
  5
C7
  8
回08-記事
  6
CONTINUOUS
 62
     7
 10
2049.733357527977
 20
65.61894349483913
 30
0.0
 40
3.0
  1
60
  0
TEXT
  5
C8
  8
回08-記事
  6
CONTINUOUS
 62
     7
 10
2072.495375160034
 20
65.61894349483913
 30
0.0
 40
3.0
  1
27
  0
TEXT
  5
C9
  8
回08-記事
  6
CONTINUOUS
 62
     7
 10
2078.788234045823
 20
65.61894349483913
 30
0.0
 40
3.0
  1
26
  0
TEXT
  5
CA
  8
回08-記事
  6
CONTINUOUS
 62
     7
 10
2097.997996204877
 20
65.61894349483913
 30
0.0
 40
3.0
  1
1
  0
POLYLINE
  5
CB
  8
回08-記事
  6
DASHED2
 62
     7
 66
     1
 10
0.0
 20
0.0
 30
0.0
 70
     1
1001
ACAD
1000
ASC_BOUNDS
1002
{
1070
    19
1005
CE
1002
}
  0
VERTEX
  5
B59
  8
回08-記事
  6
DASHED2
 62
     7
 10
2077.243832528552
 20
161.0172034225823
 30
0.0
  0
VERTEX
  5
B5B
  8
回08-記事
  6
DASHED2
 62
     7
 10
2103.243832528551
 20
161.0172034225823
 30
0.0
  0
VERTEX
  5
B5C
  8
回08-記事
  6
DASHED2
 62
     7
 10
2103.243832528551
 20
168.2172034225823
 30
0.0
  0
VERTEX
  5
B5D
  8
回08-記事
  6
DASHED2
 62
     7
 10
2077.243832528552
 20
168.2172034225823
 30
0.0
  0
SEQEND
  5
B5A
  8
0
  6
CONTINUOUS
 62
    18
  0
POLYLINE
  5
CD
  8
回08-記事
  6
DASHED2
 62
     7
 66
     1
 10
0.0
 20
0.0
 30
0.0
 70
     1
1001
ACAD
1000
ASC_BOUNDS
1002
{
1070
    19
1005
D2
1002
}
  0
VERTEX
  5
B5E
  8
回08-記事
  6
DASHED2
 62
     7
 10
2041.243832528551
 20
161.0172034225823
 30
0.0
  0
VERTEX
  5
B60
  8
回08-記事
  6
DASHED2
 62
     7
 10
2075.243832528551
 20
161.0172034225823
 30
0.0
  0
VERTEX
  5
B61
  8
回08-記事
  6
DASHED2
 62
     7
 10
2075.243832528551
 20
168.2172034225823
 30
0.0
  0
VERTEX
  5
B62
  8
回08-記事
  6
DASHED2
 62
     7
 10
2041.243832528551
 20
168.2172034225823
 30
0.0
  0
SEQEND
  5
B5F
  8
0
  6
CONTINUOUS
 62
    18
  0
INSERT
  5
CE
  8
回08-記事
  6
PHANTOM2
 62
     7
 66
     1
  2
*X7777
 10
0.0
 20
0.0
 30
0.0
1001
GRADIENTCOLOR1ACI
1070
     5
1001
GRADIENTCOLOR2ACI
1070
     2
1001
ACAD
1010
0.0
1020
0.0
1030
0.0
  0
SEQEND
  5
796
  8
0
  6
CONTINUOUS
 62
    18
  0
INSERT
  5
D2
  8
回08-記事
  6
PHANTOM2
 62
     7
 66
     1
  2
*X7878
 10
0.0
 20
0.0
 30
0.0
1001
GRADIENTCOLOR1ACI
1070
     5
1001
GRADIENTCOLOR2ACI
1070
     2
1001
ACAD
1010
0.0
1020
0.0
1030
0.0
  0
SEQEND
  5
7AD
  8
0
  6
CONTINUOUS
 62
    18
  0
POLYLINE
  5
D3
  8
回08-記事
  6
CONTINUOUS
 62
     7
 66
     1
 10
0.0
 20
0.0
 30
0.0
 70
     1
  0
VERTEX
  5
B63
  8
回08-記事
  6
CONTINUOUS
 62
     7
 10
1924.690115185107
 20
177.148917122975
 30
0.0
  0
VERTEX
  5
B65
  8
回08-記事
  6
CONTINUOUS
 62
     7
 10
2228.790115185107
 20
177.148917122975
 30
0.0
  0
VERTEX
  5
B66
  8
回08-記事
  6
CONTINUOUS
 62
     7
 10
2228.790115185107
 20
405.2489171229749
 30
0.0
  0
VERTEX
  5
B67
  8
回08-記事
  6
CONTINUOUS
 62
     7
 10
1924.690115185107
 20
405.2489171229749
 30
0.0
  0
SEQEND
  5
B64
  8
0
  6
CONTINUOUS
 62
    18
  0
LINE
  5
D4
  8
回07-寸法
  6
CENTER2
 62
     5
 10
2076.740115185107
 20
173.7489171229751
 30
0.0
 11
2076.740115185107
 21
408.6489171229748
 31
0.0
  0
LINE
  5
D9
  8
回07-寸法
  6
CENTER2
 62
     5
 10
1921.525115185107
 20
291.198917122975
 30
0.0
 11
2231.955115185107
 21
291.198917122975
 31
0.0
  0
TEXT
  5
DA
  8
回08-記事
  6
CONTINUOUS
 62
     7
 10
2472.377474547216
 20
239.2647861564029
 30
0.0
 40
3.42144
  1
NC
  0
TEXT
  5
DB
  8
回08-記事
  6
CONTINUOUS
 62
     7
 10
2472.377474547216
 20
336.205586156403
 30
0.0
 40
3.42144
  1
NC
  0
TEXT
  5
DC
  8
回08-記事
  6
CONTINUOUS
 62
     7
 10
2472.377474547216
 20
427.4439861564029
 30
0.0
 40
3.42144
  1
U9
  0
TEXT
  5
DD
  8
回08-記事
  6
CONTINUOUS
 62
     7
 10
2472.713430148019
 20
244.9671861564031
 30
0.0
 40
3.42144
  1
U8
  0
LINE
  5
DE
  8
回08-記事
  6
CONTINUOUS
 62
     7
 10
2458.735802634757
 20
240.8038646658282
 30
0.0
 11
2471.119906431426
 21
240.8038646658282
 31
0.0
  0
LINE
  5
DF
  8
回08-記事
  6
CONTINUOUS
 62
     7
 10
2458.735802634757
 20
246.5062646658282
 30
0.0
 11
2471.119906431426
 21
246.5062646658282
 31
0.0
  0
TEXT
  5
E0
  8
回08-記事
  6
CONTINUOUS
 62
     7
 10
2453.693350107379
 20
239.2647861564031
 30
0.0
 40
3.42144
  1
60
  0
TEXT
  5
E1
  8
回08-記事
  6
CONTINUOUS
 62
     7
 10
2453.693350107379
 20
244.9671861564031
 30
0.0
 40
3.42144
  1
59
  0
TEXT
  5
E2
  8
回08-記事
  6
CONTINUOUS
 62
     7
 10
2472.377474547216
 20
273.4791861564031
 30
0.0
 40
3.42144
  1
U3
  0
TEXT
  5
E3
  8
回08-記事
  6
CONTINUOUS
 62
     7
 10
2472.713430148019
 20
250.669586156403
 30
0.0
 40
3.42144
  1
U7
  0
TEXT
  5
E4
  8
回08-記事
  6
CONTINUOUS
 62
     7
 10
2472.713430148019
 20
256.3719861564031
 30
0.0
 40
3.42144
  1
U6
  0
TEXT
  5
E5
  8
回08-記事
  6
CONTINUOUS
 62
     7
 10
2472.713430148019
 20
262.0743861564029
 30
0.0
 40
3.42144
  1
U5
  0
TEXT
  5
E6
  8
回08-記事
  6
CONTINUOUS
 62
     7
 10
2472.713430148019
 20
267.7767861564031
 30
0.0
 40
3.42144
  1
U4
  0
LINE
  5
E7
  8
回08-記事
  6
CONTINUOUS
 62
     7
 10
2458.735802634757
 20
252.2086646658282
 30
0.0
 11
2471.119906431426
 21
252.2086646658282
 31
0.0
  0
LINE
  5
E8
  8
回08-記事
  6
CONTINUOUS
 62
     7
 10
2458.735802634757
 20
257.9110646658282
 30
0.0
 11
2471.119906431426
 21
257.9110646658282
 31
0.0
  0
LINE
  5
E9
  8
回08-記事
  6
CONTINUOUS
 62
     7
 10
2458.735802634757
 20
263.6134646658281
 30
0.0
 11
2471.119906431426
 21
263.6134646658281
 31
0.0
  0
LINE
  5
EA
  8
回08-記事
  6
CONTINUOUS
 62
     7
 10
2458.735802634757
 20
269.3158646658281
 30
0.0
 11
2471.119906431426
 21
269.3158646658281
 31
0.0
  0
LINE
  5
EB
  8
回08-記事
  6
CONTINUOUS
 62
     7
 10
2458.735802634757
 20
275.0182646658282
 30
0.0
 11
2471.119906431426
 21
275.0182646658282
 31
0.0
  0
LINE
  5
EC
  8
回08-記事
  6
CONTINUOUS
 62
     7
 10
2458.735802634757
 20
280.7206646658282
 30
0.0
 11
2471.119906431426
 21
280.7206646658282
 31
0.0
  0
TEXT
  5
ED
  8
回08-記事
  6
CONTINUOUS
 62
     7
 10
2453.693350107379
 20
250.669586156403
 30
0.0
 40
3.42144
  1
58
  0
TEXT
  5
EE
  8
回08-記事
  6
CONTINUOUS
 62
     7
 10
2453.693350107379
 20
256.3719861564031
 30
0.0
 40
3.42144
  1
57
  0
TEXT
  5
EF
  8
回08-記事
  6
CONTINUOUS
 62
     7
 10
2453.693350107379
 20
262.0743861564029
 30
0.0
 40
3.42144
  1
56
  0
TEXT
  5
F0
  8
回08-記事
  6
CONTINUOUS
 62
     7
 10
2453.693350107379
 20
267.7767861564031
 30
0.0
 40
3.42144
  1
55
  0
TEXT
  5
F1
  8
回08-記事
  6
CONTINUOUS
 62
     7
 10
2453.693350107379
 20
273.4791861564031
 30
0.0
 40
3.42144
  1
54
  0
TEXT
  5
F2
  8
回08-記事
  6
CONTINUOUS
 62
     7
 10
2453.693350107379
 20
279.181586156403
 30
0.0
 40
3.42144
  1
53
  0
TEXT
  5
F3
  8
回08-記事
  6
CONTINUOUS
 62
     7
 10
2472.713430148019
 20
279.181586156403
 30
0.0
 40
3.42144
  1
U2
  0
TEXT
  5
F4
  8
回08-記事
  6
CONTINUOUS
 62
     7
 10
2472.713430148019
 20
290.586386156403
 30
0.0
 40
3.42144
  1
SDL
  0
TEXT
  5
F5
  8
回08-記事
  6
CONTINUOUS
 62
     7
 10
2472.377474547216
 20
416.0391861564031
 30
0.0
 40
3.42144
  1
U11
  0
TEXT
  5
F6
  8
回08-記事
  6
CONTINUOUS
 62
     7
 10
2472.713430148019
 20
284.883986156403
 30
0.0
 40
3.42144
  1
U1
  0
LINE
  5
F7
  8
回08-記事
  6
CONTINUOUS
 62
     7
 10
2458.735802634757
 20
286.4230646658281
 30
0.0
 11
2471.119906431426
 21
286.4230646658281
 31
0.0
  0
LINE
  5
F8
  8
回08-記事
  6
CONTINUOUS
 62
     7
 10
2458.735802634757
 20
292.1254646658282
 30
0.0
 11
2471.119906431426
 21
292.1254646658282
 31
0.0
  0
TEXT
  5
F9
  8
回08-記事
  6
CONTINUOUS
 62
     7
 10
2453.693350107379
 20
284.883986156403
 30
0.0
 40
3.42144
  1
52
  0
TEXT
  5
FA
  8
回08-記事
  6
CONTINUOUS
 62
     7
 10
2453.693350107379
 20
290.586386156403
 30
0.0
 40
3.42144
  1
51
  0
TEXT
  5
FB
  8
回08-記事
  6
CONTINUOUS
 62
     7
 10
2472.377474547216
 20
359.015186156403
 30
0.0
 40
3.42144
  1
D11
  0
TEXT
  5
FC
  8
回08-記事
  6
CONTINUOUS
 62
     7
 10
2472.377474547216
 20
421.7415861564031
 30
0.0
 40
3.42144
  1
U10
  0
TEXT
  5
FD
  8
回08-記事
  6
CONTINUOUS
 62
     7
 10
2472.377474547216
 20
319.0983861564031
 30
0.0
 40
3.42144
  1
D5
  0
TEXT
  5
FE
  8
回08-記事
  6
CONTINUOUS
 62
     7
 10
2472.377474547216
 20
324.8007861564031
 30
0.0
 40
3.42144
  1
D6
  0
TEXT
  5
FF
  8
回08-記事
  6
CONTINUOUS
 62
     7
 10
2472.377474547216
 20
330.5031861564031
 30
0.0
 40
3.42144
  1
D7
  0
TEXT
  5
100
  8
回08-記事
  6
CONTINUOUS
 62
     7
 10
2472.377474547216
 20
370.4199861564029
 30
0.0
 40
3.42144
  1
D13
  0
TEXT
  5
101
  8
回08-記事
  6
CONTINUOUS
 62
     7
 10
2472.377474547216
 20
376.122386156403
 30
0.0
 40
3.42144
  1
D14
  0
TEXT
  5
102
  8
回08-記事
  6
CONTINUOUS
 62
     7
 10
2472.377474547216
 20
381.824786156403
 30
0.0
 40
3.42144
  1
D15
  0
TEXT
  5
103
  8
回08-記事
  6
CONTINUOUS
 62
     7
 10
2472.377474547216
 20
387.527186156403
 30
0.0
 40
3.42144
  1
SUR
  0
TEXT
  5
104
  8
回08-記事
  6
CONTINUOUS
 62
     7
 10
2472.377474547216
 20
393.2295861564031
 30
0.0
 40
3.42144
  1
U15
  0
TEXT
  5
105
  8
回08-記事
  6
CONTINUOUS
 62
     7
 10
2472.377474547216
 20
398.9319861564031
 30
0.0
 40
3.42144
  1
U14
  0
TEXT
  5
106
  8
回08-記事
  6
CONTINUOUS
 62
     7
 10
2472.377474547216
 20
404.6343861564031
 30
0.0
 40
3.42144
  1
U13
  0
TEXT
  5
107
  8
回08-記事
  6
CONTINUOUS
 62
     7
 10
2472.377474547216
 20
410.3367861564031
 30
0.0
 40
3.42144
  1
U12
  0
LINE
  5
108
  8
回08-記事
  6
CONTINUOUS
 62
     7
 10
2458.735802634757
 20
428.9830646658281
 30
0.0
 11
2471.119906431426
 21
428.9830646658281
 31
0.0
  0
TEXT
  5
109
  8
回08-記事
  6
CONTINUOUS
 62
     7
 10
2453.969540641216
 20
427.4439861564029
 30
0.0
 40
3.42144
  1
27
  0
LINE
  5
10A
  8
回08-記事
  6
CONTINUOUS
 62
     7
 10
2458.735802634757
 20
423.280664665828
 30
0.0
 11
2471.119906431426
 21
423.280664665828
 31
0.0
  0
TEXT
  5
10B
  8
回08-記事
  6
CONTINUOUS
 62
     7
 10
2453.969540641216
 20
421.7415861564031
 30
0.0
 40
3.42144
  1
28
  0
LINE
  5
10C
  8
回08-記事
  6
CONTINUOUS
 62
     7
 10
2458.735802634757
 20
417.5782646658281
 30
0.0
 11
2471.119906431426
 21
417.5782646658281
 31
0.0
  0
TEXT
  5
10D
  8
回08-記事
  6
CONTINUOUS
 62
     7
 10
2453.969540641216
 20
416.0391861564031
 30
0.0
 40
3.42144
  1
29
  0
LINE
  5
10E
  8
回08-記事
  6
CONTINUOUS
 62
     7
 10
2458.735802634757
 20
411.8758646658281
 30
0.0
 11
2471.119906431426
 21
411.8758646658281
 31
0.0
  0
TEXT
  5
10F
  8
回08-記事
  6
CONTINUOUS
 62
     7
 10
2453.973164820312
 20
410.3367861564031
 30
0.0
 40
3.42144
  1
30
  0
LINE
  5
110
  8
回08-記事
  6
CONTINUOUS
 62
     7
 10
2458.735802634757
 20
406.1734646658281
 30
0.0
 11
2471.119906431426
 21
406.1734646658281
 31
0.0
  0
TEXT
  5
111
  8
回08-記事
  6
CONTINUOUS
 62
     7
 10
2453.973164820312
 20
404.6343861564031
 30
0.0
 40
3.42144
  1
31
  0
LINE
  5
112
  8
回08-記事
  6
CONTINUOUS
 62
     7
 10
2458.735802634757
 20
400.4710646658283
 30
0.0
 11
2471.119906431426
 21
400.4710646658283
 31
0.0
  0
TEXT
  5
113
  8
回08-記事
  6
CONTINUOUS
 62
     7
 10
2453.973164820312
 20
398.9319861564031
 30
0.0
 40
3.42144
  1
32
  0
LINE
  5
114
  8
回08-記事
  6
CONTINUOUS
 62
     7
 10
2458.735802634757
 20
394.7686646658283
 30
0.0
 11
2471.119906431426
 21
394.7686646658283
 31
0.0
  0
TEXT
  5
115
  8
回08-記事
  6
CONTINUOUS
 62
     7
 10
2453.997761912129
 20
393.2295861564031
 30
0.0
 40
3.42144
  1
33
  0
LINE
  5
116
  8
回08-記事
  6
CONTINUOUS
 62
     7
 10
2458.735802634757
 20
389.0662646658283
 30
0.0
 11
2471.119906431426
 21
389.0662646658283
 31
0.0
  0
TEXT
  5
117
  8
回08-記事
  6
CONTINUOUS
 62
     7
 10
2453.997761912129
 20
387.527186156403
 30
0.0
 40
3.42144
  1
34
  0
TEXT
  5
118
  8
回08-記事
  6
CONTINUOUS
 62
     7
 10
2472.713430148019
 20
296.2887861564031
 30
0.0
 40
3.42144
  1
D1
  0
TEXT
  5
119
  8
回08-記事
  6
CONTINUOUS
 62
     7
 10
2472.713430148019
 20
301.991186156403
 30
0.0
 40
3.42144
  1
D2
  0
TEXT
  5
11A
  8
回08-記事
  6
CONTINUOUS
 62
     7
 10
2472.713430148019
 20
307.693586156403
 30
0.0
 40
3.42144
  1
D3
  0
TEXT
  5
11B
  8
回08-記事
  6
CONTINUOUS
 62
     7
 10
2472.713430148019
 20
313.3959861564031
 30
0.0
 40
3.42144
  1
D4
  0
TEXT
  5
11C
  8
回08-記事
  6
CONTINUOUS
 62
     7
 10
2472.377474547216
 20
341.907986156403
 30
0.0
 40
3.42144
  1
D8
  0
TEXT
  5
11D
  8
回08-記事
  6
CONTINUOUS
 62
     7
 10
2472.377474547216
 20
347.610386156403
 30
0.0
 40
3.42144
  1
D9
  0
TEXT
  5
11E
  8
回08-記事
  6
CONTINUOUS
 62
     7
 10
2472.377474547216
 20
353.312786156403
 30
0.0
 40
3.42144
  1
D10
  0
TEXT
  5
11F
  8
回08-記事
  6
CONTINUOUS
 62
     7
 10
2472.377474547216
 20
364.7175861564032
 30
0.0
 40
3.42144
  1
D12
  0
LINE
  5
120
  8
回08-記事
  6
CONTINUOUS
 62
     7
 10
2458.735802634757
 20
297.8278646658282
 30
0.0
 11
2471.119906431426
 21
297.8278646658282
 31
0.0
  0
LINE
  5
121
  8
回08-記事
  6
CONTINUOUS
 62
     7
 10
2458.735802634757
 20
303.5302646658282
 30
0.0
 11
2471.119906431426
 21
303.5302646658282
 31
0.0
  0
LINE
  5
122
  8
回08-記事
  6
CONTINUOUS
 62
     7
 10
2458.735802634757
 20
309.2326646658282
 30
0.0
 11
2471.119906431426
 21
309.2326646658282
 31
0.0
  0
LINE
  5
123
  8
回08-記事
  6
CONTINUOUS
 62
     7
 10
2458.735802634757
 20
314.9350646658283
 30
0.0
 11
2471.119906431426
 21
314.9350646658283
 31
0.0
  0
LINE
  5
124
  8
回08-記事
  6
CONTINUOUS
 62
     7
 10
2458.735802634757
 20
320.6374646658283
 30
0.0
 11
2471.119906431426
 21
320.6374646658283
 31
0.0
  0
LINE
  5
125
  8
回08-記事
  6
CONTINUOUS
 62
     7
 10
2458.735802634757
 20
326.3398646658282
 30
0.0
 11
2471.119906431426
 21
326.3398646658282
 31
0.0
  0
LINE
  5
126
  8
回08-記事
  6
CONTINUOUS
 62
     7
 10
2458.735802634757
 20
332.0422646658283
 30
0.0
 11
2471.119906431426
 21
332.0422646658283
 31
0.0
  0
LINE
  5
127
  8
回08-記事
  6
CONTINUOUS
 62
     7
 10
2458.735802634757
 20
337.7446646658283
 30
0.0
 11
2471.119906431426
 21
337.7446646658283
 31
0.0
  0
LINE
  5
128
  8
回08-記事
  6
CONTINUOUS
 62
     7
 10
2458.735802634757
 20
343.4470646658283
 30
0.0
 11
2471.119906431426
 21
343.4470646658283
 31
0.0
  0
LINE
  5
129
  8
回08-記事
  6
CONTINUOUS
 62
     7
 10
2458.735802634757
 20
349.1494646658283
 30
0.0
 11
2471.119906431426
 21
349.1494646658283
 31
0.0
  0
LINE
  5
12A
  8
回08-記事
  6
CONTINUOUS
 62
     7
 10
2458.735802634757
 20
354.8518646658283
 30
0.0
 11
2471.119906431426
 21
354.8518646658283
 31
0.0
  0
LINE
  5
12B
  8
回08-記事
  6
CONTINUOUS
 62
     7
 10
2458.735802634757
 20
360.5542646658283
 30
0.0
 11
2471.119906431426
 21
360.5542646658283
 31
0.0
  0
LINE
  5
12C
  8
回08-記事
  6
CONTINUOUS
 62
     7
 10
2458.735802634757
 20
366.2566646658283
 30
0.0
 11
2471.119906431426
 21
366.2566646658283
 31
0.0
  0
LINE
  5
12D
  8
回08-記事
  6
CONTINUOUS
 62
     7
 10
2458.735802634757
 20
371.9590646658283
 30
0.0
 11
2471.119906431426
 21
371.9590646658283
 31
0.0
  0
LINE
  5
12E
  8
回08-記事
  6
CONTINUOUS
 62
     7
 10
2458.735802634757
 20
377.6614646658284
 30
0.0
 11
2471.119906431426
 21
377.6614646658284
 31
0.0
  0
LINE
  5
12F
  8
回08-記事
  6
CONTINUOUS
 62
     7
 10
2458.735802634757
 20
383.3638646658283
 30
0.0
 11
2471.119906431426
 21
383.3638646658283
 31
0.0
  0
TEXT
  5
130
  8
回08-記事
  6
CONTINUOUS
 62
     7
 10
2453.693350107379
 20
296.2887861564031
 30
0.0
 40
3.42144
  1
50
  0
TEXT
  5
131
  8
回08-記事
  6
CONTINUOUS
 62
     7
 10
2453.396534820937
 20
301.991186156403
 30
0.0
 40
3.42144
  1
49
  0
TEXT
  5
132
  8
回08-記事
  6
CONTINUOUS
 62
     7
 10
2453.430702983671
 20
307.693586156403
 30
0.0
 40
3.42144
  1
48
  0
TEXT
  5
133
  8
回08-記事
  6
CONTINUOUS
 62
     7
 10
2453.393477309018
 20
313.3959861564031
 30
0.0
 40
3.42144
  1
47
  0
TEXT
  5
134
  8
回08-記事
  6
CONTINUOUS
 62
     7
 10
2453.393477309018
 20
319.0983861564031
 30
0.0
 40
3.42144
  1
46
  0
TEXT
  5
135
  8
回08-記事
  6
CONTINUOUS
 62
     7
 10
2453.361662994564
 20
324.8007861564031
 30
0.0
 40
3.42144
  1
45
  0
TEXT
  5
136
  8
回08-記事
  6
CONTINUOUS
 62
     7
 10
2453.361662994564
 20
330.5031861564031
 30
0.0
 40
3.42144
  1
44
  0
TEXT
  5
137
  8
回08-記事
  6
CONTINUOUS
 62
     7
 10
2453.352515367253
 20
336.2055861564031
 30
0.0
 40
3.42144
  1
43
  0
TEXT
  5
138
  8
回08-記事
  6
CONTINUOUS
 62
     7
 10
2453.352515367253
 20
341.907986156403
 30
0.0
 40
3.42144
  1
42
  0
TEXT
  5
139
  8
回08-記事
  6
CONTINUOUS
 62
     7
 10
2453.487476454542
 20
347.610386156403
 30
0.0
 40
3.42144
  1
41
  0
TEXT
  5
13A
  8
回08-記事
  6
CONTINUOUS
 62
     7
 10
2453.487476454542
 20
353.312786156403
 30
0.0
 40
3.42144
  1
40
  0
TEXT
  5
13B
  8
回08-記事
  6
CONTINUOUS
 62
     7
 10
2453.823858809694
 20
359.015186156403
 30
0.0
 40
3.42144
  1
39
  0
TEXT
  5
13C
  8
回08-記事
  6
CONTINUOUS
 62
     7
 10
2453.823858809694
 20
364.7175861564032
 30
0.0
 40
3.42144
  1
38
  0
TEXT
  5
13D
  8
回08-記事
  6
CONTINUOUS
 62
     7
 10
2453.82364708789
 20
370.4199861564029
 30
0.0
 40
3.42144
  1
37
  0
TEXT
  5
13E
  8
回08-記事
  6
CONTINUOUS
 62
     7
 10
2453.82364708789
 20
376.122386156403
 30
0.0
 40
3.42144
  1
36
  0
TEXT
  5
13F
  8
回08-記事
  6
CONTINUOUS
 62
     7
 10
2453.997761912129
 20
381.824786156403
 30
0.0
 40
3.42144
  1
35
  0
TEXT
  5
140
  8
回08-記事
  6
CONTINUOUS
 62
     7
 10
2436.798551568101
 20
284.883986156403
 30
0.0
 40
3.42144
  1
SUL
  0
TEXT
  5
141
  8
回08-記事
  6
CONTINUOUS
 62
     7
 10
2436.798551568101
 20
296.2887861564031
 30
0.0
 40
3.42144
  1
L2
  0
TEXT
  5
142
  8
回08-記事
  6
CONTINUOUS
 62
     7
 10
2436.4625959673
 20
416.0391861564031
 30
0.0
 40
3.42144
  1
R3
  0
TEXT
  5
143
  8
回08-記事
  6
CONTINUOUS
 62
     7
 10
2436.798551568101
 20
290.586386156403
 30
0.0
 40
3.42144
  1
L1
  0
LINE
  5
144
  8
回08-記事
  6
CONTINUOUS
 62
     7
 10
2422.820924054839
 20
286.4230646658281
 30
0.0
 11
2435.205027851509
 21
286.4230646658281
 31
0.0
  0
LINE
  5
145
  8
回08-記事
  6
CONTINUOUS
 62
     7
 10
2422.820924054839
 20
292.1254646658282
 30
0.0
 11
2435.205027851509
 21
292.1254646658282
 31
0.0
  0
TEXT
  5
146
  8
回08-記事
  6
CONTINUOUS
 62
     7
 10
2417.778471527462
 20
284.883986156403
 30
0.0
 40
3.42144
  1
26
  0
TEXT
  5
147
  8
回08-記事
  6
CONTINUOUS
 62
     7
 10
2417.778471527462
 20
290.586386156403
 30
0.0
 40
3.42144
  1
25
  0
TEXT
  5
148
  8
回08-記事
  6
CONTINUOUS
 62
     7
 10
2436.4625959673
 20
359.015186156403
 30
0.0
 40
3.42144
  1
SDR
  0
TEXT
  5
149
  8
回08-記事
  6
CONTINUOUS
 62
     7
 10
2436.4625959673
 20
421.7415861564031
 30
0.0
 40
3.42144
  1
R2
  0
TEXT
  5
14A
  8
回08-記事
  6
CONTINUOUS
 62
     7
 10
2436.4625959673
 20
324.8007861564031
 30
0.0
 40
3.42144
  1
L7
  0
TEXT
  5
14B
  8
回08-記事
  6
CONTINUOUS
 62
     7
 10
2436.4625959673
 20
330.5031861564031
 30
0.0
 40
3.42144
  1
L8
  0
TEXT
  5
14C
  8
回08-記事
  6
CONTINUOUS
 62
     7
 10
2436.4625959673
 20
336.2055861564031
 30
0.0
 40
3.42144
  1
L9
  0
TEXT
  5
14D
  8
回08-記事
  6
CONTINUOUS
 62
     7
 10
2436.4625959673
 20
370.4199861564029
 30
0.0
 40
3.42144
  1
R11
  0
TEXT
  5
14E
  8
回08-記事
  6
CONTINUOUS
 62
     7
 10
2436.4625959673
 20
376.122386156403
 30
0.0
 40
3.42144
  1
R10
  0
TEXT
  5
14F
  8
回08-記事
  6
CONTINUOUS
 62
     7
 10
2436.4625959673
 20
381.824786156403
 30
0.0
 40
3.42144
  1
R9
  0
TEXT
  5
150
  8
回08-記事
  6
CONTINUOUS
 62
     7
 10
2436.4625959673
 20
387.527186156403
 30
0.0
 40
3.42144
  1
R8
  0
TEXT
  5
151
  8
回08-記事
  6
CONTINUOUS
 62
     7
 10
2436.4625959673
 20
393.2295861564031
 30
0.0
 40
3.42144
  1
R7
  0
TEXT
  5
152
  8
回08-記事
  6
CONTINUOUS
 62
     7
 10
2436.4625959673
 20
398.9319861564031
 30
0.0
 40
3.42144
  1
R6
  0
TEXT
  5
153
  8
回08-記事
  6
CONTINUOUS
 62
     7
 10
2436.4625959673
 20
404.6343861564031
 30
0.0
 40
3.42144
  1
R5
  0
TEXT
  5
154
  8
回08-記事
  6
CONTINUOUS
 62
     7
 10
2436.4625959673
 20
410.3367861564031
 30
0.0
 40
3.42144
  1
R4
  0
TEXT
  5
155
  8
回08-記事
  6
CONTINUOUS
 62
     7
 10
2436.4625959673
 20
427.4439861564029
 30
0.0
 40
3.42144
  1
R1
  0
TEXT
  5
156
  8
回08-記事
  6
CONTINUOUS
 62
     7
 10
2421.671495157757
 20
435.3379713547608
 30
0.0
 40
3.5
  1
Tail-1
  0
TEXT
  5
157
  8
回08-記事
  6
CONTINUOUS
 62
     7
 10
2458.342202683335
 20
435.3379713547608
 30
0.0
 40
3.5
  1
Tail-2
  0
LINE
  5
158
  8
回08-記事
  6
CONTINUOUS
 62
     7
 10
2422.820924054839
 20
428.9830646658281
 30
0.0
 11
2435.205027851509
 21
428.9830646658281
 31
0.0
  0
TEXT
  5
159
  8
回08-記事
  6
CONTINUOUS
 62
     7
 10
2419.185268943434
 20
427.4439861564029
 30
0.0
 40
3.42144
  1
1
  0
LINE
  5
15A
  8
回08-記事
  6
CONTINUOUS
 62
     7
 10
2422.820924054839
 20
423.280664665828
 30
0.0
 11
2435.205027851509
 21
423.280664665828
 31
0.0
  0
TEXT
  5
15B
  8
回08-記事
  6
CONTINUOUS
 62
     7
 10
2419.185268943434
 20
421.7415861564031
 30
0.0
 40
3.42144
  1
2
  0
LINE
  5
15C
  8
回08-記事
  6
CONTINUOUS
 62
     7
 10
2422.820924054839
 20
417.5782646658281
 30
0.0
 11
2435.205027851509
 21
417.5782646658281
 31
0.0
  0
TEXT
  5
15D
  8
回08-記事
  6
CONTINUOUS
 62
     7
 10
2419.185268943434
 20
416.0391861564031
 30
0.0
 40
3.42144
  1
3
  0
LINE
  5
15E
  8
回08-記事
  6
CONTINUOUS
 62
     7
 10
2422.820924054839
 20
411.8758646658281
 30
0.0
 11
2435.205027851509
 21
411.8758646658281
 31
0.0
  0
TEXT
  5
15F
  8
回08-記事
  6
CONTINUOUS
 62
     7
 10
2419.185268943434
 20
410.3367861564031
 30
0.0
 40
3.42144
  1
4
  0
LINE
  5
160
  8
回08-記事
  6
CONTINUOUS
 62
     7
 10
2422.820924054839
 20
406.1734646658281
 30
0.0
 11
2435.205027851509
 21
406.1734646658281
 31
0.0
  0
TEXT
  5
161
  8
回08-記事
  6
CONTINUOUS
 62
     7
 10
2419.185268943434
 20
404.6343861564031
 30
0.0
 40
3.42144
  1
5
  0
LINE
  5
162
  8
回08-記事
  6
CONTINUOUS
 62
     7
 10
2422.820924054839
 20
400.4710646658283
 30
0.0
 11
2435.205027851509
 21
400.4710646658283
 31
0.0
  0
TEXT
  5
163
  8
回08-記事
  6
CONTINUOUS
 62
     7
 10
2419.185268943434
 20
398.9319861564031
 30
0.0
 40
3.42144
  1
6
  0
LINE
  5
164
  8
回08-記事
  6
CONTINUOUS
 62
     7
 10
2422.820924054839
 20
394.7686646658283
 30
0.0
 11
2435.205027851509
 21
394.7686646658283
 31
0.0
  0
TEXT
  5
165
  8
回08-記事
  6
CONTINUOUS
 62
     7
 10
2419.185268943434
 20
393.2295861564031
 30
0.0
 40
3.42144
  1
7
  0
LINE
  5
166
  8
回08-記事
  6
CONTINUOUS
 62
     7
 10
2422.820924054839
 20
389.0662646658283
 30
0.0
 11
2435.205027851509
 21
389.0662646658283
 31
0.0
  0
TEXT
  5
167
  8
回08-記事
  6
CONTINUOUS
 62
     7
 10
2419.185268943434
 20
387.527186156403
 30
0.0
 40
3.42144
  1
8
  0
TEXT
  5
168
  8
回08-記事
  6
CONTINUOUS
 62
     7
 10
2436.798551568101
 20
301.991186156403
 30
0.0
 40
3.42144
  1
L3
  0
TEXT
  5
169
  8
回08-記事
  6
CONTINUOUS
 62
     7
 10
2436.798551568101
 20
307.693586156403
 30
0.0
 40
3.42144
  1
L4
  0
TEXT
  5
16A
  8
回08-記事
  6
CONTINUOUS
 62
     7
 10
2436.798551568101
 20
313.3959861564031
 30
0.0
 40
3.42144
  1
L5
  0
TEXT
  5
16B
  8
回08-記事
  6
CONTINUOUS
 62
     7
 10
2436.798551568101
 20
319.0983861564031
 30
0.0
 40
3.42144
  1
L6
  0
TEXT
  5
16C
  8
回08-記事
  6
CONTINUOUS
 62
     7
 10
2436.4625959673
 20
341.907986156403
 30
0.0
 40
3.42144
  1
L10
  0
TEXT
  5
16D
  8
回08-記事
  6
CONTINUOUS
 62
     7
 10
2436.4625959673
 20
347.610386156403
 30
0.0
 40
3.42144
  1
L11
  0
TEXT
  5
16E
  8
回08-記事
  6
CONTINUOUS
 62
     7
 10
2436.4625959673
 20
353.312786156403
 30
0.0
 40
3.42144
  1
L12
  0
TEXT
  5
16F
  8
回08-記事
  6
CONTINUOUS
 62
     7
 10
2436.4625959673
 20
364.7175861564032
 30
0.0
 40
3.42144
  1
R12
  0
LINE
  5
170
  8
回08-記事
  6
CONTINUOUS
 62
     7
 10
2422.820924054839
 20
297.8278646658282
 30
0.0
 11
2435.205027851509
 21
297.8278646658282
 31
0.0
  0
LINE
  5
171
  8
回08-記事
  6
CONTINUOUS
 62
     7
 10
2422.820924054839
 20
303.5302646658282
 30
0.0
 11
2435.205027851509
 21
303.5302646658282
 31
0.0
  0
LINE
  5
172
  8
回08-記事
  6
CONTINUOUS
 62
     7
 10
2422.820924054839
 20
309.2326646658282
 30
0.0
 11
2435.205027851509
 21
309.2326646658282
 31
0.0
  0
LINE
  5
173
  8
回08-記事
  6
CONTINUOUS
 62
     7
 10
2422.820924054839
 20
314.9350646658283
 30
0.0
 11
2435.205027851509
 21
314.9350646658283
 31
0.0
  0
LINE
  5
174
  8
回08-記事
  6
CONTINUOUS
 62
     7
 10
2422.820924054839
 20
320.6374646658283
 30
0.0
 11
2435.205027851509
 21
320.6374646658283
 31
0.0
  0
LINE
  5
175
  8
回08-記事
  6
CONTINUOUS
 62
     7
 10
2422.820924054839
 20
326.3398646658282
 30
0.0
 11
2435.205027851509
 21
326.3398646658282
 31
0.0
  0
LINE
  5
176
  8
回08-記事
  6
CONTINUOUS
 62
     7
 10
2422.820924054839
 20
332.0422646658283
 30
0.0
 11
2435.205027851509
 21
332.0422646658283
 31
0.0
  0
LINE
  5
177
  8
回08-記事
  6
CONTINUOUS
 62
     7
 10
2422.820924054839
 20
337.7446646658283
 30
0.0
 11
2435.205027851509
 21
337.7446646658283
 31
0.0
  0
LINE
  5
178
  8
回08-記事
  6
CONTINUOUS
 62
     7
 10
2422.820924054839
 20
343.4470646658283
 30
0.0
 11
2435.205027851509
 21
343.4470646658283
 31
0.0
  0
LINE
  5
179
  8
回08-記事
  6
CONTINUOUS
 62
     7
 10
2422.820924054839
 20
349.1494646658283
 30
0.0
 11
2435.205027851509
 21
349.1494646658283
 31
0.0
  0
LINE
  5
17A
  8
回08-記事
  6
CONTINUOUS
 62
     7
 10
2422.820924054839
 20
354.8518646658283
 30
0.0
 11
2435.205027851509
 21
354.8518646658283
 31
0.0
  0
LINE
  5
17B
  8
回08-記事
  6
CONTINUOUS
 62
     7
 10
2422.820924054839
 20
360.5542646658283
 30
0.0
 11
2435.205027851509
 21
360.5542646658283
 31
0.0
  0
LINE
  5
17C
  8
回08-記事
  6
CONTINUOUS
 62
     7
 10
2422.820924054839
 20
366.2566646658283
 30
0.0
 11
2435.205027851509
 21
366.2566646658283
 31
0.0
  0
LINE
  5
17D
  8
回08-記事
  6
CONTINUOUS
 62
     7
 10
2422.820924054839
 20
371.9590646658283
 30
0.0
 11
2435.205027851509
 21
371.9590646658283
 31
0.0
  0
LINE
  5
17E
  8
回08-記事
  6
CONTINUOUS
 62
     7
 10
2422.820924054839
 20
377.6614646658284
 30
0.0
 11
2435.205027851509
 21
377.6614646658284
 31
0.0
  0
LINE
  5
17F
  8
回08-記事
  6
CONTINUOUS
 62
     7
 10
2422.820924054839
 20
383.3638646658283
 30
0.0
 11
2435.205027851509
 21
383.3638646658283
 31
0.0
  0
TEXT
  5
180
  8
回08-記事
  6
CONTINUOUS
 62
     7
 10
2417.778471527462
 20
296.2887861564031
 30
0.0
 40
3.42144
  1
24
  0
TEXT
  5
181
  8
回08-記事
  6
CONTINUOUS
 62
     7
 10
2417.778471527462
 20
301.991186156403
 30
0.0
 40
3.42144
  1
23
  0
TEXT
  5
182
  8
回08-記事
  6
CONTINUOUS
 62
     7
 10
2417.778471527462
 20
307.693586156403
 30
0.0
 40
3.42144
  1
22
  0
TEXT
  5
183
  8
回08-記事
  6
CONTINUOUS
 62
     7
 10
2417.778471527462
 20
313.3959861564031
 30
0.0
 40
3.42144
  1
21
  0
TEXT
  5
184
  8
回08-記事
  6
CONTINUOUS
 62
     7
 10
2417.778471527462
 20
319.0983861564031
 30
0.0
 40
3.42144
  1
20
  0
TEXT
  5
185
  8
回08-記事
  6
CONTINUOUS
 62
     7
 10
2417.778471527462
 20
324.8007861564031
 30
0.0
 40
3.42144
  1
19
  0
TEXT
  5
186
  8
回08-記事
  6
CONTINUOUS
 62
     7
 10
2417.778471527462
 20
330.5031861564031
 30
0.0
 40
3.42144
  1
18
  0
TEXT
  5
187
  8
回08-記事
  6
CONTINUOUS
 62
     7
 10
2417.778471527462
 20
336.2055861564031
 30
0.0
 40
3.42144
  1
17
  0
TEXT
  5
188
  8
回08-記事
  6
CONTINUOUS
 62
     7
 10
2417.778471527462
 20
341.907986156403
 30
0.0
 40
3.42144
  1
16
  0
TEXT
  5
189
  8
回08-記事
  6
CONTINUOUS
 62
     7
 10
2417.572597874626
 20
347.610386156403
 30
0.0
 40
3.42144
  1
15
  0
TEXT
  5
18A
  8
回08-記事
  6
CONTINUOUS
 62
     7
 10
2417.572597874626
 20
353.312786156403
 30
0.0
 40
3.42144
  1
14
  0
TEXT
  5
18B
  8
回08-記事
  6
CONTINUOUS
 62
     7
 10
2417.572597874626
 20
359.015186156403
 30
0.0
 40
3.42144
  1
13
  0
TEXT
  5
18C
  8
回08-記事
  6
CONTINUOUS
 62
     7
 10
2417.572597874626
 20
364.7175861564032
 30
0.0
 40
3.42144
  1
12
  0
TEXT
  5
18D
  8
回08-記事
  6
CONTINUOUS
 62
     7
 10
2417.572597874626
 20
370.4199861564029
 30
0.0
 40
3.42144
  1
11
  0
TEXT
  5
18E
  8
回08-記事
  6
CONTINUOUS
 62
     7
 10
2417.572597874626
 20
376.122386156403
 30
0.0
 40
3.42144
  1
10
  0
TEXT
  5
18F
  8
回08-記事
  6
CONTINUOUS
 62
     7
 10
2419.185268943434
 20
381.824786156403
 30
0.0
 40
3.42144
  1
9
  0
DIMENSION
  5
190
  8
回07-寸法
  6
CONTINUOUS
 62
    18
  2
*D3939
 10
2125.731622448649
 20
164.6489171229743
 30
0.0
 11
2122.731622448649
 21
114.6509413083795
 31
0.0
 70
    32
  3
DMC
 13
2096.492707213102
 23
64.65296549378468
 33
0.0
 14
2103.74383252855
 24
164.6489171229743
 34
0.0
 50
90.0
1001
ACAD
1000
DSTYLE
1002
{
1070
    41
1040
1.5
1070
    47
1040
1.0
1070
    48
1040
1.0
1070
    71
1070
     1
1070
   141
1040
1.5
1070
   271
1070
     0
1070
   272
1070
     3
1070
   371
1070
     0
1070
   372
1070
     0
1002
}
  0
DIMENSION
  5
1A0
  8
回07-寸法
  6
CONTINUOUS
 62
     1
  2
*D4040
 10
2103.74383252855
 20
132.5946645450432
 30
0.0
 11
2110.057316780519
 21
132.5946645450432
 31
0.0
 70
   160
  3
DMC
 13
2076.74383252855
 23
161.5034473959256
 33
0.0
 14
2103.74383252855
 24
161.5074957667364
 34
0.0
1001
ACAD
1000
DSTYLE
1002
{
1070
    41
1040
1.5
1070
    47
1040
0.2
1070
    48
1040
0.2
1070
   141
1040
1.5
1070
   271
1070
     1
1070
   272
1070
     3
1070
   371
1070
     0
1070
   372
1070
     0
1002
}
  0
DIMENSION
  5
1B1
  8
回07-寸法
  6
CONTINUOUS
 62
     1
  2
*D4141
 10
2040.74383252855
 20
139.0133217867197
 30
0.0
 11
2034.089137837444
 21
139.0133217867197
 31
0.0
 70
   160
  3
DMC
 13
2075.74383252855
 23
161.4314413513809
 33
0.0
 14
2040.74383252855
 24
161.4354897221917
 34
0.0
1001
ACAD
1000
DSTYLE
1002
{
1070
    41
1040
1.5
1070
    47
1040
0.2
1070
    48
1040
0.2
1070
   141
1040
1.5
1070
   271
1070
     1
1070
   272
1070
     3
1070
   371
1070
     0
1070
   372
1070
     0
1002
}
  0
DIMENSION
  5
1C2
  8
回07-寸法
  6
CONTINUOUS
 62
     1
  2
*D4242
 10
2117.33613371623
 20
154.342156888915
 30
0.0
 11
2117.33613371623
 21
145.9886034983219
 31
0.0
 70
   160
  3
DMC
 13
2103.74383252855
 23
164.648917122974
 33
0.0
 14
2096.992707213102
 24
154.342156888915
 34
0.0
 50
90.0
1001
ACAD
1000
DSTYLE
1002
{
1070
    41
1040
1.5
1070
    47
1040
0.2
1070
    48
1040
0.2
1070
   141
1040
1.5
1070
   271
1070
     1
1070
   272
1070
     3
1070
   371
1070
     0
1070
   372
1070
     0
1002
}
  0
DIMENSION
  5
1D3
  8
回07-寸法
  6
CONTINUOUS
 62
     1
  2
*D4343
 10
2110.000028525634
 20
161.093282204363
 30
0.0
 11
2110.000028525634
 21
149.50252064396
 31
0.0
 70
   160
  3
DMC
 13
2103.74383252855
 23
164.648917122974
 33
0.0
 14
2103.74383252855
 24
161.093282204363
 34
0.0
 50
90.0
1001
ACAD
1000
DSTYLE
1002
{
1070
    41
1040
1.5
1070
    47
1040
0.2
1070
    48
1040
0.2
1070
   141
1040
1.5
1070
   271
1070
     1
1070
   272
1070
     3
1070
   371
1070
     0
1070
   372
1070
     0
1002
}
  0
DIMENSION
  5
1E4
  8
回07-寸法
  6
CONTINUOUS
 62
     1
  2
*D4444
 10
2026.942133859209
 20
147.2724014752668
 30
0.0
 11
2026.942133859209
 21
156.7495041471238
 31
0.0
 70
   160
  3
DMC
 13
2040.74383252855
 23
164.6489171229745
 33
0.0
 14
2054.492707213102
 24
147.2724014752668
 34
0.0
 50
90.0
1001
ACAD
1000
DSTYLE
1002
{
1070
    41
1040
1.5
1070
    47
1040
0.2
1070
    48
1040
0.2
1070
   141
1040
1.5
1070
   271
1070
     1
1070
   272
1070
     3
1070
   371
1070
     0
1070
   372
1070
     0
1002
}
  0
DIMENSION
  5
1F3
  8
回07-寸法
  6
CONTINUOUS
 62
     1
  2
*D4545
 10
2034.638810075182
 20
161.0212761598184
 30
0.0
 11
2034.638810075182
 21
153.8972604117871
 31
0.0
 70
   160
  3
DMC
 13
2040.74383252855
 23
164.6489171229745
 33
0.0
 14
2040.74383252855
 24
161.0212761598184
 34
0.0
 50
90.0
1001
ACAD
1000
DSTYLE
1002
{
1070
    41
1040
1.5
1070
    47
1040
0.2
1070
    48
1040
0.2
1070
   141
1040
1.5
1070
   271
1070
     1
1070
   272
1070
     3
1070
   371
1070
     0
1070
   372
1070
     0
1002
}
  0
DIMENSION
  5
204
  8
回07-寸法
  6
CONTINUOUS
 62
     6
  2
*D4646
 10
2054.492707213102
 20
49.65296549378575
 30
0.0
 11
2108.942310192214
 21
49.65296549378575
 31
0.0
 70
   160
  3
DMC
 13
2071.992707213102
 23
65.1489171229748
 33
0.0
 14
2054.492707213102
 24
65.1489171229748
 34
0.0
 50
180.0
1001
ACAD
1000
DSTYLE
1002
{
1070
    41
1040
1.5
1070
    47
1040
0.1
1070
    48
1040
0.1
1070
    71
1070
     1
1070
   141
1040
1.5
1070
   271
1070
     3
1070
   272
1070
     3
1070
   371
1070
     0
1070
   372
1070
     0
1002
}
  0
DIMENSION
  5
215
  8
回07-寸法
  6
CONTINUOUS
 62
     6
  2
*D4747
 10
2083.492707213102
 20
39.65824526564773
 30
0.0
 11
2109.660310559559
 21
39.65824526564773
 31
0.0
 70
   160
  3
DMC
 13
2096.992707213102
 23
65.1489171229739
 33
0.0
 14
2083.492707213102
 24
65.1489171229748
 34
0.0
 50
180.0
1001
ACAD
1000
DSTYLE
1002
{
1070
    41
1040
1.5
1070
    47
1040
0.1
1070
    48
1040
0.1
1070
    71
1070
     1
1070
   141
1040
1.5
1070
   271
1070
     3
1070
   272
1070
     3
1070
   371
1070
     0
1070
   372
1070
     0
1002
}
  0
DIMENSION
  5
226
  8
回07-寸法
  6
CONTINUOUS
 62
     5
  2
*D4848
 10
2011.487201153285
 20
64.65296549378559
 30
0.0
 11
2011.487201153285
 21
115.6468929375692
 31
0.0
 70
   160
  3
DMC
 13
2040.74383252855
 23
164.6489171229745
 33
0.0
 14
2054.992707213102
 24
64.65296549378559
 34
0.0
 50
270.0
1001
ACAD
1000
DSTYLE
1002
{
1070
    41
1040
1.5
1070
    47
1040
1.0
1070
    48
1040
1.0
1070
    71
1070
     1
1070
   141
1040
1.5
1070
   271
1070
     0
1070
   272
1070
     3
1070
   371
1070
     0
1070
   372
1070
     0
1002
}
  0
DIMENSION
  5
235
  8
回07-寸法
  6
CONTINUOUS
 62
     7
  2
*D4949
 10
2237.240115185107
 20
459.7339171229744
 30
0.0
 11
2266.368454107351
 21
462.9839171229744
 31
0.0
 70
    32
  1
(<>){\H0.6667x;(Insulation area)}
  3
DMC
 13
2231.455115185108
 23
408.1489171229747
 33
0.0
 14
2237.240115185107
 24
414.6489171229746
 34
0.0
 50
180.0
1001
ACADSTRINGINFO
1000
MIFCodePage
1070
     1
1001
ACAD
1000
DSTYLE
1002
{
1070
    41
1040
1.5
1070
    47
1040
0.2
1070
    48
1040
0.2
1070
   141
1040
1.5
1070
   271
1070
     3
1070
   272
1070
     3
1070
   371
1070
     0
1070
   372
1070
     0
1002
}
  0
DIMENSION
  5
246
  8
回07-寸法
  6
CONTINUOUS
 62
     5
  2
*D5050
 10
2237.240115185107
 20
435.7339171229744
 30
0.0
 11
2248.23814668117
 21
435.7339171229744
 31
0.0
 70
   160
  1
(<>)
  3
DMC
 13
2228.79011518511
 23
405.2489171229749
 33
0.0
 14
2237.240115185107
 24
414.6489171229746
 34
0.0
 50
180.0
1001
ACAD
1000
DSTYLE
1002
{
1070
    41
1040
1.5
1070
    47
1040
0.2
1070
    48
1040
0.2
1070
   141
1040
1.5
1070
   271
1070
     3
1070
   272
1070
     3
1070
   371
1070
     0
1070
   372
1070
     0
1002
}
  0
DIMENSION
  5
257
  8
回07-寸法
  6
CONTINUOUS
 62
     5
  2
*D5151
 10
2237.240115185107
 20
447.7339171229744
 30
0.0
 11
2249.738146681171
 21
450.9839171229744
 31
0.0
 70
    32
  1
(<>)
  3
DMC
 13
2230.955115185107
 23
407.6489171229747
 33
0.0
 14
2237.240115185107
 24
414.6489171229746
 34
0.0
 50
180.0
1001
ACAD
1000
DSTYLE
1002
{
1070
    41
1040
1.5
1070
    47
1040
0.2
1070
    48
1040
0.2
1070
   141
1040
1.5
1070
   271
1070
     3
1070
   272
1070
     3
1070
   371
1070
     0
1070
   372
1070
     0
1002
}
  0
DIMENSION
  5
268
  8
回07-寸法
  6
CONTINUOUS
 62
     7
  2
*D5252
 10
1922.025115185108
 20
459.7339171229744
 30
0.0
 11
2076.740115185107
 21
462.7339171229744
 31
0.0
 70
    32
  3
DMC
 13
2231.455115185108
 23
408.1489171229747
 33
0.0
 14
1922.025115185108
 24
408.1489171229748
 34
0.0
 50
180.0
1001
ACAD
1000
DSTYLE
1002
{
1070
    41
1040
1.5
1070
    47
1040
0.2
1070
    48
1040
0.2
1070
   141
1040
1.5
1070
   271
1070
     3
1070
   272
1070
     3
1070
   371
1070
     0
1070
   372
1070
     0
1002
}
  0
DIMENSION
  5
277
  8
回07-寸法
  6
CONTINUOUS
 62
     7
  2
*D5353
 10
1916.240115185107
 20
459.7339171229744
 30
0.0
 11
1889.110792010894
 21
462.8172546229746
 31
0.0
 70
    32
  1
<>{\H0.6667x;(Insulation area)}
  3
DMC
 13
1922.025115185108
 23
408.1489171229748
 33
0.0
 14
1916.240115185107
 24
414.6489171229746
 34
0.0
 50
180.0
1001
ACADSTRINGINFO
1000
MIFCodePage
1070
     1
1001
ACAD
1000
DSTYLE
1002
{
1070
    41
1040
1.5
1070
    47
1040
0.2
1070
    48
1040
0.2
1070
   141
1040
1.5
1070
   271
1070
     3
1070
   272
1070
     3
1070
   371
1070
     0
1070
   372
1070
     0
1002
}
  0
DIMENSION
  5
288
  8
回07-寸法
  6
CONTINUOUS
 62
     5
  2
*D5454
 10
1916.240115185107
 20
447.7339171229744
 30
0.0
 11
1905.486955495301
 21
447.7339171229744
 31
0.0
 70
   160
  3
DMC
 13
1922.525115185107
 23
407.6489171229744
 33
0.0
 14
1916.240115185107
 24
414.6489171229737
 34
0.0
 50
180.0
1001
ACAD
1000
DSTYLE
1002
{
1070
    41
1040
1.5
1070
    47
1040
0.2
1070
    48
1040
0.2
1070
   141
1040
1.5
1070
   271
1070
     3
1070
   272
1070
     3
1070
   371
1070
     0
1070
   372
1070
     0
1002
}
  0
DIMENSION
  5
299
  8
回07-寸法
  6
CONTINUOUS
 62
     5
  2
*D5555
 10
1916.240115185107
 20
435.7339171229744
 30
0.0
 11
1907.136561794514
 21
435.7339171229744
 31
0.0
 70
   160
  3
DMC
 13
1924.690115195108
 23
405.2489171229749
 33
0.0
 14
1916.240115185107
 24
414.6489171229737
 34
0.0
 50
180.0
1001
ACAD
1000
DSTYLE
1002
{
1070
    41
1040
1.5
1070
    47
1040
0.2
1070
    48
1040
0.2
1070
   141
1040
1.5
1070
   271
1070
     3
1070
   272
1070
     3
1070
   371
1070
     0
1070
   372
1070
     0
1002
}
  0
DIMENSION
  5
2AA
  8
回07-寸法
  6
CONTINUOUS
 62
     5
  2
*D5656
 10
1916.240115185107
 20
471.7339171229744
 30
0.0
 11
2076.740115185107
 21
471.7339171229744
 31
0.0
 70
   160
  3
DMC
 13
2237.240115185107
 23
414.6489171229746
 33
0.0
 14
1916.240115185107
 24
414.6489171229737
 34
0.0
 50
180.0
1001
ACAD
1000
DSTYLE
1002
{
1070
   147
1040
0.5
1070
    72
1070
     0
1070
    71
1070
     1
1070
    41
1040
1.5
1070
    47
1040
0.3
1070
    48
1040
0.3
1070
   141
1040
1.5
1070
   271
1070
     3
1070
   272
1070
     3
1070
   371
1070
     0
1070
   372
1070
     0
1002
}
  0
DIMENSION
  5
2B9
  8
回07-寸法
  6
CONTINUOUS
 62
     5
  2
*D5757
 10
2230.955115185107
 20
447.7339171229744
 30
0.0
 11
2076.740115185107
 21
447.7339171229744
 31
0.0
 70
   160
  1
<>(Viewing Area)
  3
DMC
 13
1922.525115185107
 23
407.6489171229744
 33
0.0
 14
2230.955115185107
 24
407.6489171229736
 34
0.0
 50
180.0
1001
ACAD
1000
DSTYLE
1002
{
1070
    41
1040
1.5
1070
    47
1040
0.2
1070
    48
1040
0.2
1070
   141
1040
1.5
1070
   271
1070
     3
1070
   272
1070
     3
1070
   371
1070
     0
1070
   372
1070
     0
1002
}
  0
DIMENSION
  5
2C8
  8
回07-寸法
  6
CONTINUOUS
 62
     5
  2
*D5858
 10
1924.690115185107
 20
435.7339171229744
 30
0.0
 11
2076.740115185109
 21
438.9839171229744
 31
0.0
 70
    32
  1
<>(Active Area)
  3
DMC
 13
2228.79011518511
 23
405.2489171229748
 33
0.0
 14
1924.690115185107
 24
405.2489171229749
 34
0.0
 50
180.0
1001
ACAD
1000
DSTYLE
1002
{
1070
    41
1040
1.5
1070
    47
1040
0.2
1070
    48
1040
0.2
1070
   141
1040
1.5
1070
   271
1070
     3
1070
   272
1070
     3
1070
   371
1070
     0
1070
   372
1070
     0
1002
}
  0
DIMENSION
  5
2D7
  8
回07-寸法
  6
CONTINUOUS
 62
     7
  2
*D5959
 10
1861.510115195107
 20
414.6489171229746
 30
0.0
 11
1858.260115195107
 21
440.2765246372464
 31
0.0
 70
    32
  1
(<>){\H0.66667x;(Insulation area)}
  3
DMC
 13
1922.025115185108
 23
408.1489171229748
 33
0.0
 14
1916.240115185107
 24
414.6489171229746
 34
0.0
 50
90.0
1001
ACAD
1000
DSTYLE
1002
{
1070
    41
1040
1.5
1070
    47
1040
0.2
1070
    48
1040
0.2
1070
   141
1040
1.5
1070
   271
1070
     3
1070
   272
1070
     3
1070
   371
1070
     0
1070
   372
1070
     0
1002
}
  0
DIMENSION
  5
2E8
  8
回07-寸法
  6
CONTINUOUS
 62
     7
  2
*D6060
 10
1873.510115195108
 20
414.6489171229746
 30
0.0
 11
1873.510115195108
 21
421.146948619038
 31
0.0
 70
   160
  1
(<>)
  3
DMC
 13
1922.525115185107
 23
407.6489171229749
 33
0.0
 14
1916.240115185107
 24
414.6489171229746
 34
0.0
 50
90.0
1001
ACAD
1000
DSTYLE
1002
{
1070
    41
1040
1.5
1070
    47
1040
0.2
1070
    48
1040
0.2
1070
   141
1040
1.5
1070
   271
1070
     3
1070
   272
1070
     3
1070
   371
1070
     0
1070
   372
1070
     0
1002
}
  0
DIMENSION
  5
2F9
  8
回07-寸法
  6
CONTINUOUS
 62
     7
  2
*D6161
 10
1885.510115195107
 20
414.6489171229746
 30
0.0
 11
1885.510115195107
 21
423.9059745403549
 31
0.0
 70
   160
  1
(<>)
  3
DMC
 13
1924.690115185107
 23
405.2489171229749
 33
0.0
 14
1916.240115185107
 24
414.6489171229746
 34
0.0
 50
90.0
1001
ACAD
1000
DSTYLE
1002
{
1070
    41
1040
1.5
1070
    47
1040
0.2
1070
    48
1040
0.2
1070
   141
1040
1.5
1070
   271
1070
     3
1070
   272
1070
     3
1070
   371
1070
     0
1070
   372
1070
     0
1002
}
  0
DIMENSION
  5
30A
  8
回07-寸法
  6
CONTINUOUS
 62
    18
  2
*D6262
 10
2083.492707213102
 20
39.65824526564773
 30
0.0
 11
1999.866411199105
 21
42.90824526564772
 31
0.0
 70
    32
  1
(<>)
  3
DMC
 13
1916.240115185107
 23
164.6489171229745
 33
0.0
 14
2083.492707213102
 24
65.15296549378558
 34
0.0
1001
ACAD
1000
DSTYLE
1002
{
1070
    41
1040
1.5
1070
    47
1040
0.2
1070
    48
1040
0.2
1070
   141
1040
1.5
1070
   271
1070
     1
1070
   272
1070
     3
1070
   371
1070
     0
1070
   372
1070
     0
1002
}
  0
DIMENSION
  5
319
  8
回07-寸法
  6
CONTINUOUS
 62
     6
  2
*D6363
 10
1916.240115185107
 20
49.65296549378577
 30
0.0
 11
1985.366419393892
 21
52.90296549378577
 31
0.0
 70
    32
  1
(<>)
  3
DMC
 13
2054.492723602677
 23
65.1489171229748
 33
0.0
 14
1916.240115185107
 24
164.6489171229744
 34
0.0
 50
180.0
1001
ACAD
1000
DSTYLE
1002
{
1070
    41
1040
1.5
1070
    47
1040
0.2
1070
    48
1040
0.2
1070
   141
1040
1.5
1070
   271
1070
     1
1070
   272
1070
     3
1070
   371
1070
     0
1070
   372
1070
     0
1002
}
  0
DIMENSION
  5
328
  8
回07-寸法
  6
CONTINUOUS
 62
     7
  2
*D6464
 10
1861.510115195107
 20
164.6489171229745
 30
0.0
 11
1861.510115195107
 21
140.9160405581691
 31
0.0
 70
   160
  1
<>{\H0.6667x;(Insulation area)}
  3
DMC
 13
1922.025115185108
 23
174.2489171229751
 33
0.0
 14
1916.240115185107
 24
164.6489171229745
 34
0.0
 50
270.0
1001
ACADSTRINGINFO
1000
MIFCodePage
1070
     1
1001
ACAD
1000
DSTYLE
1002
{
1070
    41
1040
1.5
1070
    47
1040
0.2
1070
    48
1040
0.2
1070
   141
1040
1.5
1070
   271
1070
     3
1070
   272
1070
     3
1070
   371
1070
     0
1070
   372
1070
     0
1002
}
  0
DIMENSION
  5
339
  8
回07-寸法
  6
CONTINUOUS
 62
     5
  2
*D6565
 10
1885.510115195107
 20
164.6489171229745
 30
0.0
 11
1885.510115195107
 21
156.2953637323815
 31
0.0
 70
   160
  3
DMC
 13
1924.690115185107
 23
177.148917122975
 33
0.0
 14
1916.240115185107
 24
164.6489171229745
 34
0.0
 50
270.0
1001
ACAD
1000
DSTYLE
1002
{
1070
    41
1040
1.5
1070
    47
1040
0.2
1070
    48
1040
0.2
1070
   141
1040
1.5
1070
   271
1070
     3
1070
   272
1070
     3
1070
   371
1070
     0
1070
   372
1070
     0
1002
}
  0
DIMENSION
  5
34A
  8
回07-寸法
  6
CONTINUOUS
 62
     5
  2
*D6666
 10
1873.510115195107
 20
164.6489171229745
 30
0.0
 11
1873.510115195107
 21
156.8989171229746
 31
0.0
 70
   160
  3
DMC
 13
1922.525115185107
 23
174.7489171229751
 33
0.0
 14
1916.240115185107
 24
164.6489171229745
 34
0.0
 50
270.0
1001
ACAD
1000
DSTYLE
1002
{
1070
    41
1040
1.5
1070
    47
1040
0.2
1070
    48
1040
0.2
1070
   141
1040
1.5
1070
   271
1070
     3
1070
   272
1070
     3
1070
   371
1070
     0
1070
   372
1070
     0
1002
}
  0
DIMENSION
  5
35B
  8
回07-寸法
  6
CONTINUOUS
 62
     7
  2
*D6767
 10
1861.510115195107
 20
408.1489171229748
 30
0.0
 11
1858.510115195107
 21
291.198917122975
 31
0.0
 70
    32
  3
DMC
 13
1922.025115185108
 23
174.2489171229751
 33
0.0
 14
1922.025115185108
 24
408.1489171229748
 34
0.0
 50
270.0
1001
ACAD
1000
DSTYLE
1002
{
1070
    41
1040
1.5
1070
    47
1040
0.2
1070
    48
1040
0.2
1070
   141
1040
1.5
1070
   271
1070
     3
1070
   272
1070
     3
1070
   371
1070
     0
1070
   372
1070
     0
1002
}
  0
DIMENSION
  5
36A
  8
回07-寸法
  6
CONTINUOUS
 62
     5
  2
*D6868
 10
1849.510115195107
 20
164.6489171229745
 30
0.0
 11
1849.510115195107
 21
291.5989171229743
 31
0.0
 70
   160
  3
DMC
 13
1916.240115185107
 23
414.6489171229746
 33
0.0
 14
1916.240115185107
 24
164.6489171229745
 34
0.0
 50
270.0
1001
ACAD
1000
DSTYLE
1002
{
1070
    41
1040
1.5
1070
    47
1040
0.3
1070
    48
1040
0.3
1070
    71
1070
     1
1070
   141
1040
1.5
1070
   271
1070
     3
1070
   272
1070
     3
1070
   371
1070
     0
1070
   372
1070
     0
1002
}
  0
DIMENSION
  5
379
  8
回07-寸法
  6
CONTINUOUS
 62
     5
  2
*D6969
 10
1873.510115195108
 20
174.7489171229751
 30
0.0
 11
1873.510115195108
 21
293.4489171229747
 31
0.0
 70
   160
  1
<>(Viewing Area)
  3
DMC
 13
1922.525115185107
 23
407.6489171229749
 33
0.0
 14
1922.525115185108
 24
174.7489171229751
 34
0.0
 50
270.0
1001
ACAD
1000
DSTYLE
1002
{
1070
    41
1040
1.5
1070
    47
1040
0.2
1070
    48
1040
0.2
1070
   141
1040
1.5
1070
   271
1070
     3
1070
   272
1070
     3
1070
   371
1070
     0
1070
   372
1070
     0
1002
}
  0
DIMENSION
  5
388
  8
回07-寸法
  6
CONTINUOUS
 62
     5
  2
*D7070
 10
1885.510115195107
 20
405.2489171229749
 30
0.0
 11
1885.510115195107
 21
293.4489171229747
 31
0.0
 70
   160
  1
<>(Active Area)
  3
DMC
 13
1924.690115185108
 23
177.1489171229752
 33
0.0
 14
1924.690115185107
 24
405.2489171229749
 34
0.0
 50
270.0
1001
ACAD
1000
DSTYLE
1002
{
1070
    41
1040
1.5
1070
    47
1040
0.2
1070
    48
1040
0.2
1070
   141
1040
1.5
1070
   271
1070
     3
1070
   272
1070
     3
1070
   371
1070
     0
1070
   372
1070
     0
1002
}
  0
ARC
  5
397
  8
回08-記事
  6
CONTINUOUS
 62
     7
 10
2291.579616085464
 20
406.3639171229747
 30
0.0
 40
0.416177340283639
 50
90.0
 51
270.0
  0
ARC
  5
398
  8
回08-記事
  6
CONTINUOUS
 62
     7
 10
2291.579616085464
 20
402.8639171229746
 30
0.0
 40
0.416177340283639
 50
90.0
 51
270.0
  0
ARC
  5
399
  8
回08-記事
  6
CONTINUOUS
 62
     7
 10
2291.579616085464
 20
399.3639171229748
 30
0.0
 40
0.416177340283639
 50
90.0
 51
270.0
  0
ARC
  5
39A
  8
回08-記事
  6
CONTINUOUS
 62
     7
 10
2291.579616085464
 20
395.8639171229748
 30
0.0
 40
0.416177340283639
 50
90.0
 51
270.0
  0
ARC
  5
39B
  8
回08-記事
  6
CONTINUOUS
 62
     7
 10
2291.579616085464
 20
392.3639171229748
 30
0.0
 40
0.416177340283639
 50
90.0
 51
270.0
  0
ARC
  5
39C
  8
回08-記事
  6
CONTINUOUS
 62
     7
 10
2291.579616085464
 20
388.8639171229748
 30
0.0
 40
0.416177340283639
 50
90.0
 51
270.0
  0
ARC
  5
39D
  8
回08-記事
  6
CONTINUOUS
 62
     7
 10
2291.579616085464
 20
385.3639171229748
 30
0.0
 40
0.416177340283639
 50
90.0
 51
270.0
  0
ARC
  5
39E
  8
回08-記事
  6
CONTINUOUS
 62
     7
 10
2291.579616085464
 20
381.8639171229748
 30
0.0
 40
0.416177340283639
 50
90.0
 51
270.0
  0
ARC
  5
39F
  8
回08-記事
  6
CONTINUOUS
 62
     7
 10
2291.579616085464
 20
378.3639171229748
 30
0.0
 40
0.416177340283639
 50
90.0
 51
270.0
  0
ARC
  5
3A0
  8
回08-記事
  6
CONTINUOUS
 62
     7
 10
2291.579616085464
 20
374.8639171229748
 30
0.0
 40
0.416177340283639
 50
90.0
 51
270.0
  0
LINE
  5
3A1
  8
回08-記事
  6
CONTINUOUS
 62
     7
 10
2287.022759730337
 20
80.91775580828203
 30
0.0
 11
2283.436431866494
 21
74.19616063018843
 31
0.0
  0
LINE
  5
3A2
  8
回08-記事
  6
CONTINUOUS
 62
     7
 10
2290.120931801187
 20
74.09626076758701
 30
0.0
 11
2287.022759730337
 21
80.91775580828203
 31
0.0
  0
TEXT
  5
3A3
  8
回08-記事
  6
CONTINUOUS
 62
     7
 10
2285.835423749643
 20
81.01306836866848
 30
0.0
 40
3.0
  1
5
  0
ARC
  5
3A4
  8
回08-記事
  6
CONTINUOUS
 62
     7
 10
2291.579616085464
 20
192.863917122975
 30
0.0
 40
0.416177340283639
 50
90.0
 51
270.0
  0
ARC
  5
3A5
  8
回08-記事
  6
CONTINUOUS
 62
     7
 10
2291.579616085464
 20
189.363917122975
 30
0.0
 40
0.416177340283639
 50
90.0
 51
270.0
  0
ARC
  5
3A6
  8
回08-記事
  6
CONTINUOUS
 62
     7
 10
2291.579616085464
 20
185.863917122975
 30
0.0
 40
0.416177340283639
 50
90.0
 51
270.0
  0
ARC
  5
3A7
  8
回08-記事
  6
CONTINUOUS
 62
     7
 10
2291.579616085464
 20
182.363917122975
 30
0.0
 40
0.416177340283639
 50
90.0
 51
270.0
  0
ARC
  5
3A8
  8
回08-記事
  6
CONTINUOUS
 62
     7
 10
2291.579616085464
 20
178.863917122975
 30
0.0
 40
0.416177340283639
 50
90.0
 51
270.0
  0
ARC
  5
3A9
  8
回08-記事
  6
CONTINUOUS
 62
     7
 10
2291.579616085464
 20
175.363917122975
 30
0.0
 40
0.416177340283639
 50
90.0
 51
270.0
  0
ARC
  5
3AA
  8
回08-記事
  6
CONTINUOUS
 62
     7
 10
2291.579616085464
 20
203.363917122975
 30
0.0
 40
0.416177340283639
 50
90.0
 51
270.0
  0
ARC
  5
3AB
  8
回08-記事
  6
CONTINUOUS
 62
     7
 10
2291.579616085464
 20
199.863917122975
 30
0.0
 40
0.416177340283639
 50
90.0
 51
270.0
  0
ARC
  5
3AC
  8
回08-記事
  6
CONTINUOUS
 62
     7
 10
2291.579616085464
 20
196.363917122975
 30
0.0
 40
0.416177340283639
 50
90.0
 51
270.0
  0
ARC
  5
3AD
  8
回08-記事
  6
CONTINUOUS
 62
     7
 10
2291.579616085464
 20
371.3639171229748
 30
0.0
 40
0.416177340283639
 50
90.0
 51
270.0
  0
ARC
  5
3AE
  8
回08-記事
  6
CONTINUOUS
 62
     7
 10
2291.579616085464
 20
367.8639171229748
 30
0.0
 40
0.416177340283639
 50
90.0
 51
270.0
  0
ARC
  5
3AF
  8
回08-記事
  6
CONTINUOUS
 62
     7
 10
2291.579616085464
 20
364.3639171229748
 30
0.0
 40
0.416177340283639
 50
90.0
 51
270.0
  0
ARC
  5
3B0
  8
回08-記事
  6
CONTINUOUS
 62
     7
 10
2291.579616085464
 20
360.8639171229748
 30
0.0
 40
0.416177340283639
 50
90.0
 51
270.0
  0
ARC
  5
3B1
  8
回08-記事
  6
CONTINUOUS
 62
     7
 10
2291.579616085464
 20
357.3639171229748
 30
0.0
 40
0.416177340283639
 50
90.0
 51
270.0
  0
ARC
  5
3B2
  8
回08-記事
  6
CONTINUOUS
 62
     7
 10
2291.579616085464
 20
353.8639171229748
 30
0.0
 40
0.416177340283639
 50
90.0
 51
270.0
  0
ARC
  5
3B3
  8
回08-記事
  6
CONTINUOUS
 62
     7
 10
2291.579616085464
 20
350.3639171229748
 30
0.0
 40
0.416177340283639
 50
90.0
 51
270.0
  0
ARC
  5
3B4
  8
回08-記事
  6
CONTINUOUS
 62
     7
 10
2291.579616085464
 20
224.363917122975
 30
0.0
 40
0.416177340283639
 50
90.0
 51
270.0
  0
ARC
  5
3B5
  8
回08-記事
  6
CONTINUOUS
 62
     7
 10
2291.579616085464
 20
220.863917122975
 30
0.0
 40
0.416177340283639
 50
90.0
 51
270.0
  0
ARC
  5
3B6
  8
回08-記事
  6
CONTINUOUS
 62
     7
 10
2291.579616085464
 20
217.363917122975
 30
0.0
 40
0.416177340283639
 50
90.0
 51
270.0
  0
ARC
  5
3B7
  8
回08-記事
  6
CONTINUOUS
 62
     7
 10
2291.579616085464
 20
213.863917122975
 30
0.0
 40
0.416177340283639
 50
90.0
 51
270.0
  0
ARC
  5
3B8
  8
回08-記事
  6
CONTINUOUS
 62
     7
 10
2291.579616085464
 20
210.363917122975
 30
0.0
 40
0.416177340283639
 50
90.0
 51
270.0
  0
ARC
  5
3B9
  8
回08-記事
  6
CONTINUOUS
 62
     7
 10
2291.579616085464
 20
206.863917122975
 30
0.0
 40
0.416177340283639
 50
90.0
 51
270.0
  0
ARC
  5
3BA
  8
回08-記事
  6
CONTINUOUS
 62
     7
 10
2291.579616085464
 20
203.363917122975
 30
0.0
 40
0.416177340283639
 50
90.0
 51
270.0
  0
ARC
  5
3BB
  8
回08-記事
  6
CONTINUOUS
 62
     7
 10
2291.579616085464
 20
269.863917122975
 30
0.0
 40
0.416177340283639
 50
90.0
 51
270.0
  0
ARC
  5
3BC
  8
回08-記事
  6
CONTINUOUS
 62
     7
 10
2291.579616085464
 20
266.363917122975
 30
0.0
 40
0.416177340283639
 50
90.0
 51
270.0
  0
ARC
  5
3BD
  8
回08-記事
  6
CONTINUOUS
 62
     7
 10
2291.579616085464
 20
262.863917122975
 30
0.0
 40
0.416177340283639
 50
90.0
 51
270.0
  0
ARC
  5
3BE
  8
回08-記事
  6
CONTINUOUS
 62
     7
 10
2291.579616085464
 20
259.363917122975
 30
0.0
 40
0.416177340283639
 50
90.0
 51
270.0
  0
ARC
  5
3BF
  8
回08-記事
  6
CONTINUOUS
 62
     7
 10
2291.579616085464
 20
255.863917122975
 30
0.0
 40
0.416177340283639
 50
90.0
 51
270.0
  0
ARC
  5
3C0
  8
回08-記事
  6
CONTINUOUS
 62
     7
 10
2291.579616085464
 20
252.363917122975
 30
0.0
 40
0.416177340283639
 50
90.0
 51
270.0
  0
ARC
  5
3C1
  8
回08-記事
  6
CONTINUOUS
 62
     7
 10
2291.579616085464
 20
248.863917122975
 30
0.0
 40
0.416177340283639
 50
90.0
 51
270.0
  0
ARC
  5
3C2
  8
回08-記事
  6
CONTINUOUS
 62
     7
 10
2291.579616085464
 20
245.363917122975
 30
0.0
 40
0.416177340283639
 50
90.0
 51
270.0
  0
ARC
  5
3C3
  8
回08-記事
  6
CONTINUOUS
 62
     7
 10
2291.579616085464
 20
241.863917122975
 30
0.0
 40
0.416177340283639
 50
90.0
 51
270.0
  0
ARC
  5
3C4
  8
回08-記事
  6
CONTINUOUS
 62
     7
 10
2291.579616085464
 20
238.363917122975
 30
0.0
 40
0.416177340283639
 50
90.0
 51
270.0
  0
ARC
  5
3C5
  8
回08-記事
  6
CONTINUOUS
 62
     7
 10
2291.579616085464
 20
234.863917122975
 30
0.0
 40
0.416177340283639
 50
90.0
 51
270.0
  0
ARC
  5
3C6
  8
回08-記事
  6
CONTINUOUS
 62
     7
 10
2291.579616085464
 20
231.363917122975
 30
0.0
 40
0.416177340283639
 50
90.0
 51
270.0
  0
ARC
  5
3C7
  8
回08-記事
  6
CONTINUOUS
 62
     7
 10
2291.579616085464
 20
227.863917122975
 30
0.0
 40
0.416177340283639
 50
90.0
 51
270.0
  0
ARC
  5
3C8
  8
回08-記事
  6
CONTINUOUS
 62
     7
 10
2291.579616085464
 20
346.8639171229748
 30
0.0
 40
0.416177340283639
 50
90.0
 51
270.0
  0
ARC
  5
3C9
  8
回08-記事
  6
CONTINUOUS
 62
     7
 10
2291.579616085464
 20
343.3639171229748
 30
0.0
 40
0.416177340283639
 50
90.0
 51
270.0
  0
ARC
  5
3CA
  8
回08-記事
  6
CONTINUOUS
 62
     7
 10
2291.579616085464
 20
339.8639171229748
 30
0.0
 40
0.416177340283639
 50
90.0
 51
270.0
  0
ARC
  5
3CB
  8
回08-記事
  6
CONTINUOUS
 62
     7
 10
2291.579616085464
 20
336.3639171229749
 30
0.0
 40
0.416177340283639
 50
90.0
 51
270.0
  0
ARC
  5
3CC
  8
回08-記事
  6
CONTINUOUS
 62
     7
 10
2291.579616085464
 20
332.8639171229748
 30
0.0
 40
0.416177340283639
 50
90.0
 51
270.0
  0
ARC
  5
3CD
  8
回08-記事
  6
CONTINUOUS
 62
     7
 10
2291.579616085464
 20
329.3639171229748
 30
0.0
 40
0.416177340283639
 50
90.0
 51
270.0
  0
ARC
  5
3CE
  8
回08-記事
  6
CONTINUOUS
 62
     7
 10
2291.579616085464
 20
325.8639171229749
 30
0.0
 40
0.416177340283639
 50
90.0
 51
270.0
  0
ARC
  5
3CF
  8
回08-記事
  6
CONTINUOUS
 62
     7
 10
2291.579616085464
 20
322.3639171229748
 30
0.0
 40
0.416177340283639
 50
90.0
 51
270.0
  0
ARC
  5
3D0
  8
回08-記事
  6
CONTINUOUS
 62
     7
 10
2291.579616085464
 20
318.8639171229748
 30
0.0
 40
0.416177340283639
 50
90.0
 51
270.0
  0
ARC
  5
3D1
  8
回08-記事
  6
CONTINUOUS
 62
     7
 10
2291.579616085464
 20
315.3639171229749
 30
0.0
 40
0.416177340283639
 50
90.0
 51
270.0
  0
ARC
  5
3D2
  8
回08-記事
  6
CONTINUOUS
 62
     7
 10
2291.579616085464
 20
311.8639171229748
 30
0.0
 40
0.416177340283639
 50
90.0
 51
270.0
  0
ARC
  5
3D3
  8
回08-記事
  6
CONTINUOUS
 62
     7
 10
2291.579616085464
 20
308.3639171229748
 30
0.0
 40
0.416177340283639
 50
90.0
 51
270.0
  0
ARC
  5
3D4
  8
回08-記事
  6
CONTINUOUS
 62
     7
 10
2291.579616085464
 20
304.8639171229748
 30
0.0
 40
0.416177340283639
 50
90.0
 51
270.0
  0
ARC
  5
3D5
  8
回08-記事
  6
CONTINUOUS
 62
     7
 10
2291.579616085464
 20
301.3639171229749
 30
0.0
 40
0.416177340283639
 50
90.0
 51
270.0
  0
ARC
  5
3D6
  8
回08-記事
  6
CONTINUOUS
 62
     7
 10
2291.579616085464
 20
297.8639171229748
 30
0.0
 40
0.416177340283639
 50
90.0
 51
270.0
  0
ARC
  5
3D7
  8
回08-記事
  6
CONTINUOUS
 62
     7
 10
2291.579616085464
 20
294.3639171229748
 30
0.0
 40
0.416177340283639
 50
90.0
 51
270.0
  0
ARC
  5
3D8
  8
回08-記事
  6
CONTINUOUS
 62
     7
 10
2291.579616085464
 20
290.8639171229749
 30
0.0
 40
0.416177340283639
 50
90.0
 51
270.0
  0
ARC
  5
3D9
  8
回08-記事
  6
CONTINUOUS
 62
     7
 10
2291.579616085464
 20
287.3639171229748
 30
0.0
 40
0.416177340283639
 50
90.0
 51
270.0
  0
ARC
  5
3DA
  8
回08-記事
  6
CONTINUOUS
 62
     7
 10
2291.579616085464
 20
283.8639171229748
 30
0.0
 40
0.416177340283639
 50
90.0
 51
270.0
  0
ARC
  5
3DB
  8
回08-記事
  6
CONTINUOUS
 62
     7
 10
2291.579616085464
 20
280.3639171229749
 30
0.0
 40
0.416177340283639
 50
90.0
 51
270.0
  0
ARC
  5
3DC
  8
回08-記事
  6
CONTINUOUS
 62
     7
 10
2291.579616085464
 20
276.863917122975
 30
0.0
 40
0.416177340283639
 50
90.0
 51
270.0
  0
ARC
  5
3DD
  8
回08-記事
  6
CONTINUOUS
 62
     7
 10
2291.579616085464
 20
273.363917122975
 30
0.0
 40
0.416177340283639
 50
90.0
 51
270.0
  0
LINE
  5
3DE
  8
回08-記事
  6
CONTINUOUS
 62
     7
 10
2292.279616085465
 20
164.6489171229745
 30
0.0
 11
2292.279616085465
 21
161.0172034225823
 31
0.0
1001
ACAD
1000
ASC_BOUNDS
1002
{
1070
    19
1005
3EC
1002
}
  0
LINE
  5
3DF
  8
回08-記事
  6
CONTINUOUS
 62
     7
 10
2298.579616085465
 20
164.6489171229745
 30
0.0
 11
2292.279616085465
 21
164.6489171229745
 31
0.0
1001
ACAD
1000
ASC_BOUNDS
1002
{
1070
    19
1005
3EC
1002
}
  0
LINE
  5
3E0
  8
回08-記事
  6
CONTINUOUS
 62
     7
 10
2298.579616085465
 20
168.2172034225823
 30
0.0
 11
2298.579616085465
 21
164.6489171229745
 31
0.0
1001
ACAD
1000
ASC_BOUNDS
1002
{
1070
    19
1005
3EC
1002
}
  0
LINE
  5
3E1
  8
回08-記事
  6
CONTINUOUS
 62
     7
 10
2299.279616085465
 20
168.2172034225823
 30
0.0
 11
2298.579616085465
 21
168.2172034225823
 31
0.0
1001
ACAD
1000
ASC_BOUNDS
1002
{
1070
    19
1005
3EC
1002
}
  0
LINE
  5
3E2
  8
回08-記事
  6
CONTINUOUS
 62
     7
 10
2299.279616085465
 20
163.9489171229748
 30
0.0
 11
2299.279616085465
 21
168.2172034225823
 31
0.0
1001
ACAD
1000
ASC_BOUNDS
1002
{
1070
    19
1005
3EC
1002
}
  0
LINE
  5
3E3
  8
回08-記事
  6
CONTINUOUS
 62
     7
 10
2292.979616085466
 20
163.9489171229748
 30
0.0
 11
2299.279616085465
 21
163.9489171229748
 31
0.0
1001
ACAD
1000
ASC_BOUNDS
1002
{
1070
    19
1005
3EC
1002
}
  0
LINE
  5
3E4
  8
回08-記事
  6
CONTINUOUS
 62
     7
 10
2292.979616085464
 20
161.0172034225823
 30
0.0
 11
2292.979616085464
 21
163.9489171229748
 31
0.0
1001
ACAD
1000
ASC_BOUNDS
1002
{
1070
    19
1005
3EC
1002
}
  0
LINE
  5
3E5
  8
回08-記事
  6
CONTINUOUS
 62
     7
 10
2292.279616085464
 20
161.0172034225823
 30
0.0
 11
2292.979616085464
 21
161.0172034225823
 31
0.0
1001
ACAD
1000
ASC_BOUNDS
1002
{
1070
    19
1005
3EC
1002
}
  0
LINE
  5
3E6
  8
回08-記事
  6
CONTINUOUS
 62
     7
 10
2283.386431866495
 20
161.0172034225823
 30
0.0
 11
2282.686431866494
 21
161.0172034225823
 31
0.0
1001
ACAD
1000
ASC_BOUNDS
1002
{
1070
    19
1005
3EC
1002
}
  0
LINE
  5
3E7
  8
回08-記事
  6
CONTINUOUS
 62
     7
 10
2283.386431866495
 20
163.9489171229748
 30
0.0
 11
2283.386431866495
 21
161.0172034225823
 31
0.0
1001
ACAD
1000
ASC_BOUNDS
1002
{
1070
    19
1005
3EC
1002
}
  0
LINE
  5
3E8
  8
回08-記事
  6
CONTINUOUS
 62
     7
 10
2290.579616085464
 20
163.9489171229748
 30
0.0
 11
2283.386431866495
 21
163.9489171229748
 31
0.0
1001
ACAD
1000
ASC_BOUNDS
1002
{
1070
    19
1005
3EC
1002
}
  0
LINE
  5
3E9
  8
回08-記事
  6
CONTINUOUS
 62
     7
 10
2290.579616085464
 20
164.9489171229748
 30
0.0
 11
2290.579616085464
 21
163.9489171229748
 31
0.0
1001
ACAD
1000
ASC_BOUNDS
1002
{
1070
    19
1005
3EC
1002
}
  0
LINE
  5
3EA
  8
回08-記事
  6
CONTINUOUS
 62
     7
 10
2282.686431866494
 20
164.9489171229748
 30
0.0
 11
2290.579616085464
 21
164.9489171229748
 31
0.0
1001
ACAD
1000
ASC_BOUNDS
1002
{
1070
    19
1005
3EC
1002
}
  0
LINE
  5
3EB
  8
回08-記事
  6
CONTINUOUS
 62
     7
 10
2282.686431866494
 20
161.0172034225823
 30
0.0
 11
2282.686431866494
 21
164.9489171229748
 31
0.0
1001
ACAD
1000
ASC_BOUNDS
1002
{
1070
    19
1005
3EC
1002
}
  0
INSERT
  5
3EC
  8
回08-記事
  6
CONTINUOUS
 62
     7
 66
     1
  2
*X7979
 10
0.0
 20
0.0
 30
0.0
1001
GRADIENTCOLOR1ACI
1070
     5
1001
GRADIENTCOLOR2ACI
1070
     2
1001
ACAD
1010
0.0
1020
0.0
1030
0.0
  0
SEQEND
  5
7C9
  8
0
  6
CONTINUOUS
 62
    18
  0
DIMENSION
  5
3ED
  8
回08-記事
  6
CONTINUOUS
 62
     7
  2
*D7171
 10
2291.579616085464
 20
48.86487105572422
 30
0.0
 11
2303.873497089401
 21
51.86487105572422
 31
0.0
 70
    32
  1
0.3{\H0.6667x;±0.05}
  3
DMC
 13
2289.079616085464
 23
64.65296549378587
 33
0.0
 14
2291.579616085464
 24
64.65296549378587
 34
0.0
1001
ACADSTRINGINFO
1000
MIFCodePage
1070
     1
1001
ACAD
1000
DSTYLE
1002
{
1070
    41
1040
1.5
1070
    47
1040
0.2
1070
    48
1040
0.2
1070
   141
1040
1.5
1070
   271
1070
     3
1070
   272
1070
     3
1070
   371
1070
     0
1070
   372
1070
     0
1002
}
  0
DIMENSION
  5
3FE
  8
回08-記事
  6
CONTINUOUS
 62
     7
  2
*D7272
 10
2281.686431866495
 20
55.15198322848
 30
0.0
 11
2269.392550862557
 21
58.15198322848
 31
0.0
 70
    32
  1
0.3{\H0.6667x;±0.05}
  3
DMC
 13
2284.186431866494
 23
64.65296549378587
 33
0.0
 14
2281.686431866495
 24
64.65296549378587
 34
0.0
1001
ACADSTRINGINFO
1000
MIFCodePage
1070
     1
1001
ACAD
1000
DSTYLE
1002
{
1070
    41
1040
1.5
1070
    47
1040
0.2
1070
    48
1040
0.2
1070
   141
1040
1.5
1070
   271
1070
     3
1070
   272
1070
     3
1070
   371
1070
     0
1070
   372
1070
     0
1002
}
  0
DIMENSION
  5
40F
  8
回08-記事
  6
CONTINUOUS
 62
     7
  2
*D7373
 10
2288.460964730856
 20
64.65296549378587
 30
0.0
 11
2288.460964730856
 21
69.65296549378587
 31
0.0
 70
   160
  1
{\H0.66667x;(<>)}
  3
DMC
 13
2284.186431866494
 23
74.65296549378587
 33
0.0
 14
2284.186431866494
 24
64.65296549378587
 34
0.0
 50
90.0
1001
ACAD
1000
DSTYLE
1002
{
1070
    41
1040
1.5
1070
    47
1040
0.2
1070
    48
1040
0.2
1070
   141
1040
1.5
1070
   371
1070
    13
1070
   372
1070
    13
1002
}
  0
DIMENSION
  5
41E
  8
回08-記事
  6
CONTINUOUS
 62
     7
  2
*D7474
 10
2303.854201651382
 20
69.65296549378587
 30
0.0
 11
2300.854201651382
 21
67.15296549378587
 31
0.0
 70
    32
  3
DMC
 13
2291.579616085464
 23
64.65296549378587
 33
0.0
 14
2292.279616085465
 24
69.65296549378587
 34
0.0
 50
90.0
1001
ACAD
1000
DSTYLE
1002
{
1070
    41
1040
1.5
1070
    47
1040
0.2
1070
    48
1040
0.2
1070
   141
1040
1.5
1070
   271
1070
     3
1070
   272
1070
     3
1070
   371
1070
     0
1070
   372
1070
     0
1002
}
  0
DIMENSION
  5
42D
  8
回08-記事
  6
CONTINUOUS
 62
     7
  2
*D7575
 10
2273.725021697523
 20
69.65296549378587
 30
0.0
 11
2273.725021697523
 21
67.15296549378587
 31
0.0
 70
   160
  3
DMC
 13
2281.686431866495
 23
64.65296549378587
 33
0.0
 14
2280.986431866494
 24
69.65296549378587
 34
0.0
 50
90.0
1001
ACAD
1000
DSTYLE
1002
{
1070
    41
1040
1.5
1070
    47
1040
0.2
1070
    48
1040
0.2
1070
   141
1040
1.5
1070
   271
1070
     3
1070
   272
1070
     3
1070
   371
1070
     0
1070
   372
1070
     0
1002
}
  0
DIMENSION
  5
43C
  8
回07-寸法
  6
CONTINUOUS
 62
     7
  2
*D7676
 10
2298.579616085465
 20
419.5359333583692
 30
0.0
 11
2288.133023975979
 21
419.5359333583692
 31
0.0
 70
   160
  1
2.1{\H0.6667x;±0.2}
  3
DMC
 13
2277.686431866495
 23
414.1489171229746
 33
0.0
 14
2298.579616085465
 24
414.6489171229746
 34
0.0
1001
ACADSTRINGINFO
1000
MIFCodePage
1070
     1
1001
ACAD
1000
DSTYLE
1002
{
1070
    41
1040
1.5
1070
    47
1040
0.2
1070
    48
1040
0.2
1070
   141
1040
1.5
1070
   271
1070
     3
1070
   272
1070
     3
1070
   371
1070
     0
1070
   372
1070
     0
1002
}
  0
LINE
  5
44B
  8
回08-記事
  6
CONTINUOUS
 62
     7
 10
2281.686431866495
 20
408.1489171229748
 30
0.0
 11
2291.579616085464
 21
408.1489171229748
 31
0.0
  0
LINE
  5
44C
  8
回08-記事
  6
CONTINUOUS
 62
     7
 10
2281.686431866495
 20
174.2489171229751
 30
0.0
 11
2291.579616085464
 21
174.2489171229751
 31
0.0
  0
LINE
  5
44D
  8
回08-記事
  6
CONTINUOUS
 62
     7
 10
2282.686431866494
 20
164.9489171229748
 30
0.0
 11
2290.579616085464
 21
164.9489171229748
 31
0.0
  0
LINE
  5
44E
  8
回08-記事
  6
CONTINUOUS
 62
     7
 10
2281.686431866495
 20
414.1489171229746
 30
0.0
 11
2291.579616085465
 21
414.1489171229746
 31
0.0
  0
POLYLINE
  5
44F
  8
回08-記事
  6
CONTINUOUS
 62
     7
 66
     1
 10
0.0
 20
0.0
 30
0.0
 70
     1
  0
VERTEX
  5
B68
  8
回08-記事
  6
CONTINUOUS
 62
     7
 10
2292.279616085465
 20
69.65296549378587
 30
0.0
  0
VERTEX
  5
B6A
  8
回08-記事
  6
CONTINUOUS
 62
     7
 10
2291.579616085464
 20
69.65296549378587
 30
0.0
  0
VERTEX
  5
B6B
  8
回08-記事
  6
CONTINUOUS
 62
     7
 10
2291.579616085464
 20
164.6489171229745
 30
0.0
  0
VERTEX
  5
B6C
  8
回08-記事
  6
CONTINUOUS
 62
     7
 10
2292.279616085465
 20
164.6489171229745
 30
0.0
  0
SEQEND
  5
B69
  8
0
  6
CONTINUOUS
 62
    18
  0
POLYLINE
  5
450
  8
回08-記事
  6
CONTINUOUS
 62
     7
 66
     1
 10
0.0
 20
0.0
 30
0.0
 70
     1
  0
VERTEX
  5
B6D
  8
回08-記事
  6
CONTINUOUS
 62
     7
 10
2280.986431866494
 20
165.1489171229746
 30
0.0
  0
VERTEX
  5
B6F
  8
回08-記事
  6
CONTINUOUS
 62
     7
 10
2281.686431866495
 20
165.1489171229746
 30
0.0
  0
VERTEX
  5
B70
  8
回08-記事
  6
CONTINUOUS
 62
     7
 10
2281.686431866495
 20
69.65296549378587
 30
0.0
  0
VERTEX
  5
B71
  8
回08-記事
  6
CONTINUOUS
 62
     7
 10
2280.986431866494
 20
69.65296549378587
 30
0.0
  0
SEQEND
  5
B6E
  8
0
  6
CONTINUOUS
 62
    18
  0
POLYLINE
  5
451
  8
回08-記事
  6
CONTINUOUS
 62
     7
 66
     1
 10
0.0
 20
0.0
 30
0.0
 70
     1
  0
VERTEX
  5
B72
  8
回08-記事
  6
CONTINUOUS
 62
     7
 10
2289.079616085464
 20
74.65296549378587
 30
0.0
  0
VERTEX
  5
B74
  8
回08-記事
  6
CONTINUOUS
 62
     7
 10
2290.579616085464
 20
74.65296549378587
 30
0.0
  0
VERTEX
  5
B75
  8
回08-記事
  6
CONTINUOUS
 62
     7
 10
2290.579616085464
 20
64.65296549378587
 30
0.0
  0
VERTEX
  5
B76
  8
回08-記事
  6
CONTINUOUS
 62
     7
 10
2289.079616085464
 20
64.65296549378587
 30
0.0
  0
SEQEND
  5
B73
  8
0
  6
CONTINUOUS
 62
    18
  0
POLYLINE
  5
452
  8
回08-記事
  6
CONTINUOUS
 62
     7
 66
     1
 10
0.0
 20
0.0
 30
0.0
 70
     1
  0
VERTEX
  5
B77
  8
回08-記事
  6
CONTINUOUS
 62
     7
 10
2282.686431866494
 20
74.65296549378587
 30
0.0
  0
VERTEX
  5
B79
  8
回08-記事
  6
CONTINUOUS
 62
     7
 10
2284.186431866494
 20
74.65296549378587
 30
0.0
  0
VERTEX
  5
B7A
  8
回08-記事
  6
CONTINUOUS
 62
     7
 10
2284.186431866494
 20
64.65296549378587
 30
0.0
  0
VERTEX
  5
B7B
  8
回08-記事
  6
CONTINUOUS
 62
     7
 10
2282.686431866494
 20
64.65296549378587
 30
0.0
  0
SEQEND
  5
B78
  8
0
  6
CONTINUOUS
 62
    18
  0
POLYLINE
  5
453
  8
回08-記事
  6
CONTINUOUS
 62
     7
 66
     1
 10
0.0
 20
0.0
 30
0.0
 70
     1
  0
VERTEX
  5
B7C
  8
回08-記事
  6
CONTINUOUS
 62
     7
 10
2290.579616085464
 20
167.7989171229747
 30
0.0
  0
VERTEX
  5
B7E
  8
回08-記事
  6
CONTINUOUS
 62
     7
 10
2291.579616085464
 20
167.7989171229747
 30
0.0
  0
VERTEX
  5
B7F
  8
回08-記事
  6
CONTINUOUS
 62
     7
 10
2291.579616085464
 20
64.65296549378587
 30
0.0
  0
VERTEX
  5
B80
  8
回08-記事
  6
CONTINUOUS
 62
     7
 10
2290.579616085464
 20
64.65296549378587
 30
0.0
  0
SEQEND
  5
B7D
  8
0
  6
CONTINUOUS
 62
    18
  0
POLYLINE
  5
454
  8
回08-記事
  6
CONTINUOUS
 62
     7
 66
     1
 10
0.0
 20
0.0
 30
0.0
 70
     1
  0
VERTEX
  5
B81
  8
回08-記事
  6
CONTINUOUS
 62
     7
 10
2281.686431866495
 20
167.7989171229747
 30
0.0
  0
VERTEX
  5
B83
  8
回08-記事
  6
CONTINUOUS
 62
     7
 10
2282.686431866494
 20
167.7989171229747
 30
0.0
  0
VERTEX
  5
B84
  8
回08-記事
  6
CONTINUOUS
 62
     7
 10
2282.686431866494
 20
64.65296549378587
 30
0.0
  0
VERTEX
  5
B85
  8
回08-記事
  6
CONTINUOUS
 62
     7
 10
2281.686431866495
 20
64.65296549378587
 30
0.0
  0
SEQEND
  5
B82
  8
0
  6
CONTINUOUS
 62
    18
  0
POLYLINE
  5
455
  8
回08-記事
  6
CONTINUOUS
 62
     7
 66
     1
 10
0.0
 20
0.0
 30
0.0
 70
     1
  0
VERTEX
  5
B86
  8
回08-記事
  6
CONTINUOUS
 62
     7
 10
2277.686431866495
 20
414.1489171229746
 30
0.0
  0
VERTEX
  5
B88
  8
回08-記事
  6
CONTINUOUS
 62
     7
 10
2281.686431866495
 20
414.1489171229746
 30
0.0
  0
VERTEX
  5
B89
  8
回08-記事
  6
CONTINUOUS
 62
     7
 10
2281.686431866495
 20
165.1489171229748
 30
0.0
  0
VERTEX
  5
B8A
  8
回08-記事
  6
CONTINUOUS
 62
     7
 10
2277.686431866495
 20
165.1489171229748
 30
0.0
  0
SEQEND
  5
B87
  8
0
  6
CONTINUOUS
 62
    18
  0
POLYLINE
  5
456
  8
回08-記事
  6
CONTINUOUS
 62
     7
 66
     1
 10
0.0
 20
0.0
 30
0.0
 70
     1
  0
VERTEX
  5
B8B
  8
回08-記事
  6
CONTINUOUS
 62
     7
 10
2291.579616085464
 20
414.6489171229746
 30
0.0
  0
VERTEX
  5
B8D
  8
回08-記事
  6
CONTINUOUS
 62
     7
 10
2298.579616085465
 20
414.6489171229746
 30
0.0
  0
VERTEX
  5
B8E
  8
回08-記事
  6
CONTINUOUS
 62
     7
 10
2298.579616085465
 20
164.6489171229745
 30
0.0
  0
VERTEX
  5
B8F
  8
回08-記事
  6
CONTINUOUS
 62
     7
 10
2291.579616085464
 20
164.6489171229745
 30
0.0
  0
SEQEND
  5
B8C
  8
0
  6
CONTINUOUS
 62
    18
  0
TEXT
  5
457
  8
回90-枠1
 10
2469.221932411897
 20
517.8235349603911
 30
0.0
 40
4.0
  1
J
  0
LINE
  5
459
  8
回90-枠1
 10
2430.492547106244
 20
522.45111183434
 30
0.0
 11
2430.492547106244
 21
517.45111183434
 31
0.0
  0
TEXT
  5
45A
  8
回90-枠1
 10
2389.221932411897
 20
517.8235349603911
 30
0.0
 40
4.0
  1
I
  0
LINE
  5
45B
  8
回90-枠1
 10
2350.492547106244
 20
522.45111183434
 30
0.0
 11
2350.492547106244
 21
517.45111183434
 31
0.0
  0
TEXT
  5
45C
  8
回90-枠1
 10
2511.896968109903
 20
470.2397991301991
 30
0.0
 40
4.0
  1
1
  0
LINE
  5
45D
  8
回90-枠1
 10
2515.492547106245
 20
427.45111183434
 30
0.0
 11
2510.492547106244
 21
427.45111183434
 31
0.0
  0
TEXT
  5
45E
  8
回90-枠1
 10
2511.595469406601
 20
380.2397991301993
 30
0.0
 40
4.0
  1
2
  0
LINE
  5
45F
  8
回90-枠1
 10
2515.492547106245
 20
337.45111183434
 30
0.0
 11
2510.492547106244
 21
337.45111183434
 31
0.0
  0
TEXT
  5
460
  8
回90-枠1
 10
2511.589988562402
 20
290.2397991301993
 30
0.0
 40
4.0
  1
3
  0
LINE
  5
461
  8
回90-枠1
 10
2515.492547106245
 20
247.45111183434
 30
0.0
 11
2510.492547106244
 21
247.45111183434
 31
0.0
  0
TEXT
  5
462
  8
回90-枠1
 10
2511.51689644232
 20
200.2397991301993
 30
0.0
 40
4.0
  1
4
  0
LINE
  5
463
  8
回90-枠1
 10
2515.492547106245
 20
157.45111183434
 30
0.0
 11
2510.492547106244
 21
157.45111183434
 31
0.0
  0
TEXT
  5
464
  8
回90-枠1
 10
2511.51689644232
 20
110.2397991301993
 30
0.0
 40
4.0
  1
5
  0
LINE
  5
465
  8
回90-枠1
 10
2515.492547106245
 20
67.45111183434
 30
0.0
 11
2510.492547106244
 21
67.45111183434
 31
0.0
  0
TEXT
  5
466
  8
回90-枠1
 10
2511.51689644232
 20
20.23979913019929
 30
0.0
 40
4.0
  1
6
  0
TEXT
  5
467
  8
回90-枠1
 10
2469.221932411897
 20
-27.17646503960879
 30
0.0
 40
4.0
  1
J
  0
LINE
  5
468
  8
回90-枠1
 10
2430.492547106244
 20
-22.54888816566
 30
0.0
 11
2430.492547106244
 21
-27.54888816566
 31
0.0
  0
TEXT
  5
469
  8
回90-枠1
 10
2389.221932411897
 20
-27.17646503960879
 30
0.0
 40
4.0
  1
I
  0
LINE
  5
46A
  8
回90-枠1
 10
2350.492547106244
 20
-22.54888816566
 30
0.0
 11
2350.492547106244
 21
-27.54888816566
 31
0.0
  0
LINE
  5
46B
  8
回90-枠1
 10
2510.492547106244
 20
517.45111183434
 30
0.0
 11
2510.492547106244
 21
-22.54888816566
 31
0.0
  0
LINE
  5
46C
  8
回90-枠1
 10
2515.492547106245
 20
-27.54888816566
 30
0.0
 11
2515.492547106245
 21
522.45111183434
 31
0.0
  0
TEXT
  5
46D
  8
回90-枠1
 10
2309.221932411897
 20
517.8235349603911
 30
0.0
 40
4.0
  1
H
  0
LINE
  5
46E
  8
回90-枠1
 10
2270.492547106244
 20
522.45111183434
 30
0.0
 11
2270.492547106244
 21
517.45111183434
 31
0.0
  0
TEXT
  5
46F
  8
回90-枠1
 10
2229.221932411897
 20
517.8235349603911
 30
0.0
 40
4.0
  1
G
  0
LINE
  5
470
  8
回90-枠1
 10
2190.492547106245
 20
522.45111183434
 30
0.0
 11
2190.492547106245
 21
517.45111183434
 31
0.0
  0
TEXT
  5
471
  8
回90-枠1
 10
2149.221932411897
 20
517.8235349603911
 30
0.0
 40
4.0
  1
F
  0
LINE
  5
472
  8
回90-枠1
 10
2110.492547106245
 20
522.45111183434
 30
0.0
 11
2110.492547106245
 21
517.45111183434
 31
0.0
  0
TEXT
  5
473
  8
回90-枠1
 10
2069.221932411897
 20
517.8235349603911
 30
0.0
 40
4.0
  1
E
  0
LINE
  5
474
  8
回90-枠1
 10
2030.492547106244
 20
522.45111183434
 30
0.0
 11
2030.492547106244
 21
517.45111183434
 31
0.0
  0
TEXT
  5
475
  8
回90-枠1
 10
1989.221932411896
 20
517.8235349603911
 30
0.0
 40
4.0
  1
D
  0
LINE
  5
476
  8
回90-枠1
 10
1950.492547106244
 20
522.45111183434
 30
0.0
 11
1950.492547106244
 21
517.45111183434
 31
0.0
  0
TEXT
  5
477
  8
回90-枠1
 10
1909.221932411896
 20
517.8235349603911
 30
0.0
 40
4.0
  1
C
  0
LINE
  5
478
  8
回90-枠1
 10
1870.492547106244
 20
522.45111183434
 30
0.0
 11
1870.492547106244
 21
517.45111183434
 31
0.0
  0
TEXT
  5
479
  8
回90-枠1
 10
1829.221932411896
 20
517.8235349603911
 30
0.0
 40
4.0
  1
B
  0
LINE
  5
47A
  8
回90-枠1
 10
1790.492547106244
 20
522.45111183434
 30
0.0
 11
1790.492547106244
 21
517.45111183434
 31
0.0
  0
TEXT
  5
47B
  8
回90-枠1
 10
1749.221932411896
 20
517.8235349603911
 30
0.0
 40
4.0
  1
A
  0
TEXT
  5
47C
  8
回90-枠1
 10
1706.896968109903
 20
470.2397991301991
 30
0.0
 40
4.0
  1
1
  0
LINE
  5
47D
  8
回90-枠1
 10
1710.492547106244
 20
427.45111183434
 30
0.0
 11
1705.492547106244
 21
427.45111183434
 31
0.0
  0
TEXT
  5
47E
  8
回90-枠1
 10
1706.5954694066
 20
380.2397991301993
 30
0.0
 40
4.0
  1
2
  0
LINE
  5
47F
  8
回90-枠1
 10
1710.492547106244
 20
337.45111183434
 30
0.0
 11
1705.492547106244
 21
337.45111183434
 31
0.0
  0
TEXT
  5
480
  8
回90-枠1
 10
1706.589988562401
 20
290.2397991301993
 30
0.0
 40
4.0
  1
3
  0
LINE
  5
481
  8
回90-枠1
 10
1710.492547106244
 20
247.45111183434
 30
0.0
 11
1705.492547106244
 21
247.45111183434
 31
0.0
  0
TEXT
  5
482
  8
回90-枠1
 10
1706.51689644232
 20
200.2397991301993
 30
0.0
 40
4.0
  1
4
  0
LINE
  5
483
  8
回90-枠1
 10
1710.492547106244
 20
157.45111183434
 30
0.0
 11
1705.492547106244
 21
157.45111183434
 31
0.0
  0
TEXT
  5
484
  8
回90-枠1
 10
1706.51689644232
 20
110.2397991301993
 30
0.0
 40
4.0
  1
5
  0
TEXT
  5
485
  8
回90-枠1
 10
2309.221932411897
 20
-27.17646503960879
 30
0.0
 40
4.0
  1
H
  0
LINE
  5
486
  8
回90-枠1
 10
2270.492547106244
 20
-22.54888816566
 30
0.0
 11
2270.492547106244
 21
-27.54888816566
 31
0.0
  0
TEXT
  5
487
  8
回90-枠1
 10
2229.221932411897
 20
-27.17646503960879
 30
0.0
 40
4.0
  1
G
  0
LINE
  5
488
  8
回90-枠1
 10
2190.492547106245
 20
-22.54888816566
 30
0.0
 11
2190.492547106245
 21
-27.54888816566
 31
0.0
  0
TEXT
  5
489
  8
回90-枠1
 10
2149.221932411897
 20
-27.17646503960879
 30
0.0
 40
4.0
  1
F
  0
LINE
  5
48A
  8
回90-枠1
 10
2110.492547106245
 20
-22.54888816566
 30
0.0
 11
2110.492547106245
 21
-27.54888816566
 31
0.0
  0
TEXT
  5
48B
  8
回90-枠1
 10
2069.221932411897
 20
-27.17646503960879
 30
0.0
 40
4.0
  1
E
  0
LINE
  5
48C
  8
回90-枠1
 10
2030.492547106244
 20
-22.54888816566
 30
0.0
 11
2030.492547106244
 21
-27.54888816566
 31
0.0
  0
TEXT
  5
48D
  8
回90-枠1
 10
1989.221932411896
 20
-27.17646503960879
 30
0.0
 40
4.0
  1
D
  0
LINE
  5
48E
  8
回90-枠1
 10
1950.492547106244
 20
-22.54888816566
 30
0.0
 11
1950.492547106244
 21
-27.54888816566
 31
0.0
  0
TEXT
  5
48F
  8
回90-枠1
 10
1909.221932411896
 20
-27.17646503960879
 30
0.0
 40
4.0
  1
C
  0
LINE
  5
490
  8
回90-枠1
 10
1870.492547106244
 20
-22.54888816566
 30
0.0
 11
1870.492547106244
 21
-27.54888816566
 31
0.0
  0
LINE
  5
491
  8
回90-枠1
 10
1710.492547106244
 20
67.45111183434
 30
0.0
 11
1705.492547106244
 21
67.45111183434
 31
0.0
  0
TEXT
  5
492
  8
回90-枠1
 10
1706.51689644232
 20
20.23979913019929
 30
0.0
 40
4.0
  1
6
  0
TEXT
  5
493
  8
回90-枠1
 10
1829.221932411896
 20
-27.17646503960879
 30
0.0
 40
4.0
  1
B
  0
LINE
  5
494
  8
回90-枠1
 10
1790.492547106244
 20
-22.54888816566
 30
0.0
 11
1790.492547106244
 21
-27.54888816566
 31
0.0
  0
TEXT
  5
495
  8
回90-枠1
 10
1749.221932411896
 20
-27.17646503960879
 30
0.0
 40
4.0
  1
A
  0
LINE
  5
496
  8
回90-枠1
 10
1710.492547106244
 20
517.45111183434
 30
0.0
 11
1710.492547106244
 21
-22.54888816566
 31
0.0
  0
LINE
  5
497
  8
回90-枠1
 10
1705.492547106244
 20
-27.54888816566
 30
0.0
 11
1705.492547106244
 21
522.45111183434
 31
0.0
  0
LINE
  5
498
  8
回90-枠1
 10
1710.492547106244
 20
-22.54888816566
 30
0.0
 11
2510.492547106244
 21
-22.54888816566
 31
0.0
  0
LINE
  5
499
  8
回90-枠1
 10
2515.492547106245
 20
-27.54888816566
 30
0.0
 11
1705.492547106244
 21
-27.54888816566
 31
0.0
  0
LINE
  5
49A
  8
回90-枠1
 10
1710.492547106244
 20
517.45111183434
 30
0.0
 11
2510.492547106244
 21
517.45111183434
 31
0.0
  0
LINE
  5
49B
  8
回90-枠1
 10
2515.492547106245
 20
522.45111183434
 30
0.0
 11
1705.492547106244
 21
522.45111183434
 31
0.0
  0
POLYLINE
  5
49C
  8
回08-記事
  6
PHANTOM2
 62
     7
 66
     1
 10
0.0
 20
0.0
 30
0.0
 70
     1
  0
VERTEX
  5
B90
  8
回08-記事
  6
PHANTOM2
 62
     7
 10
1922.025115185108
 20
408.1489171229748
 30
0.0
  0
VERTEX
  5
B92
  8
回08-記事
  6
PHANTOM2
 62
     7
 10
2231.455115185108
 20
408.1489171229748
 30
0.0
  0
VERTEX
  5
B93
  8
回08-記事
  6
PHANTOM2
 62
     7
 10
2231.455115185108
 20
174.2489171229751
 30
0.0
  0
VERTEX
  5
B94
  8
回08-記事
  6
PHANTOM2
 62
     7
 10
1922.025115185108
 20
174.2489171229751
 30
0.0
  0
SEQEND
  5
B91
  8
0
  6
CONTINUOUS
 62
    18
  0
POLYLINE
  5
49D
  8
回04-下接
  6
CONTINUOUS
 62
     7
 66
     1
 10
0.0
 20
0.0
 30
0.0
 70
     1
  0
VERTEX
  5
B95
  8
回04-下接
  6
CONTINUOUS
 62
     7
 10
1916.240115185107
 20
414.6489171229746
 30
0.0
  0
VERTEX
  5
B97
  8
回04-下接
  6
CONTINUOUS
 62
     7
 10
2237.240115185107
 20
414.6489171229746
 30
0.0
  0
VERTEX
  5
B98
  8
回04-下接
  6
CONTINUOUS
 62
     7
 10
2237.240115185107
 20
164.6489171229745
 30
0.0
  0
VERTEX
  5
B99
  8
回04-下接
  6
CONTINUOUS
 62
     7
 10
1916.240115185107
 20
164.6489171229745
 30
0.0
  0
SEQEND
  5
B96
  8
0
  6
CONTINUOUS
 62
    18
  0
LINE
  5
4A1
  8
回05-ﾃｰﾙ
  6
CONTINUOUS
 62
     7
 10
2075.450939309737
 20
160.7283829410051
 30
0.0
 11
2072.285600431916
 21
157.5630440631839
 31
0.0
  0
ARC
  5
4A5
  8
回05-ﾃｰﾙ
  6
CONTINUOUS
 62
     7
 10
2053.492707213102
 20
146.8581879128941
 30
0.0
 40
1.0
 50
0.0
 51
45.0000000000087
  0
LINE
  5
4A6
  8
回05-ﾃｰﾙ
  6
CONTINUOUS
 62
     7
 10
2041.036725747364
 20
160.7283829410051
 30
0.0
 11
2054.199813994288
 21
147.5652946940808
 31
0.0
  0
ARC
  5
4A7
  8
回05-ﾃｰﾙ
  6
CONTINUOUS
 62
     7
 10
2041.743832528551
 20
161.4354897221919
 30
0.0
 40
1.0
 50
180.0
 51
225.0000000000087
  0
LINE
  5
4A8
  8
回05-ﾃｰﾙ
  6
CONTINUOUS
 62
     7
 10
2040.74383252855
 20
164.6489171229745
 30
0.0
 11
2040.74383252855
 21
161.4354897221919
 31
0.0
  0
ARC
  5
4A9
  8
回05-ﾃｰﾙ
  6
CONTINUOUS
 62
     7
 10
2074.74383252855
 20
161.4354897221919
 30
0.0
 40
1.0
 50
314.9999999999913
 51
0.0
  0
LINE
  5
4AA
  8
回05-ﾃｰﾙ
  6
CONTINUOUS
 62
     7
 10
2075.74383252855
 20
161.4354897221919
 30
0.0
 11
2075.74383252855
 21
164.6489171229745
 31
0.0
  0
ARC
  5
4AB
  8
回05-ﾃｰﾙ
  6
CONTINUOUS
 62
     7
 10
2054.992707213102
 20
65.15296549378575
 30
0.0
 40
0.5
 50
180.0
 51
270.0
  0
LINE
  5
4AC
  8
回05-ﾃｰﾙ
  6
CONTINUOUS
 62
     7
 10
2054.492707213102
 20
146.8581879128941
 30
0.0
 11
2054.492707213102
 21
65.15296549378575
 31
0.0
  0
LINE
  5
4AD
  8
回05-ﾃｰﾙ
  6
CONTINUOUS
 62
     7
 10
2054.992707213102
 20
64.65296549378575
 30
0.0
 11
2071.492707213102
 21
64.65296549378575
 31
0.0
  0
ARC
  5
4AE
  8
回05-ﾃｰﾙ
  6
CONTINUOUS
 62
     7
 10
2071.492707213102
 20
65.15296549378575
 30
0.0
 40
0.5
 50
270.0
 51
0.0
  0
ARC
  5
4AF
  8
回05-ﾃｰﾙ
  6
CONTINUOUS
 62
     7
 10
2072.992707213102
 20
156.8559372819971
 30
0.0
 40
1.0
 50
134.9999999999913
 51
180.0
  0
LINE
  5
4B0
  8
回05-ﾃｰﾙ
  6
CONTINUOUS
 62
     7
 10
2071.992707213102
 20
65.15296549378575
 30
0.0
 11
2071.992707213102
 21
156.8559372819971
 31
0.0
  0
ARC
  5
4B1
  8
回05-ﾃｰﾙ
  6
CONTINUOUS
 62
     7
 10
2097.992707213102
 20
153.9279433265418
 30
0.0
 40
1.0
 50
134.9999999999913
 51
180.0
  0
LINE
  5
4B2
  8
回05-ﾃｰﾙ
  6
CONTINUOUS
 62
     7
 10
2097.285600431916
 20
154.6350501077285
 30
0.0
 11
2103.450939309737
 21
160.8003889855499
 31
0.0
  0
ARC
  5
4B3
  8
回05-ﾃｰﾙ
  6
CONTINUOUS
 62
     7
 10
2082.492707213102
 20
153.9301939574397
 30
0.0
 40
1.0
 50
0.0
 51
45.0000000000087
  0
LINE
  5
4B4
  8
回05-ﾃｰﾙ
  6
CONTINUOUS
 62
     7
 10
2083.199813994288
 20
154.6373007386254
 30
0.0
 11
2077.036725747364
 21
160.8003889855508
 31
0.0
  0
ARC
  5
4B5
  8
回05-ﾃｰﾙ
  6
CONTINUOUS
 62
     7
 10
2077.74383252855
 20
161.5074957667365
 30
0.0
 40
1.0
 50
180.0
 51
225.0000000000087
  0
LINE
  5
4B6
  8
回05-ﾃｰﾙ
  6
CONTINUOUS
 62
     7
 10
2076.74383252855
 20
161.5074957667365
 30
0.0
 11
2076.74383252855
 21
164.6489171229745
 31
0.0
  0
ARC
  5
4B7
  8
回05-ﾃｰﾙ
  6
CONTINUOUS
 62
     7
 10
2102.74383252855
 20
161.5074957667365
 30
0.0
 40
1.0
 50
314.9999999999913
 51
0.0
  0
LINE
  5
4B8
  8
回05-ﾃｰﾙ
  6
CONTINUOUS
 62
     7
 10
2103.74383252855
 20
161.5074957667365
 30
0.0
 11
2103.74383252855
 21
164.6489171229745
 31
0.0
  0
ARC
  5
4B9
  8
回05-ﾃｰﾙ
  6
CONTINUOUS
 62
     7
 10
2083.992707213102
 20
65.15296549378575
 30
0.0
 40
0.5
 50
180.0
 51
270.0
  0
LINE
  5
4BA
  8
回05-ﾃｰﾙ
  6
CONTINUOUS
 62
     7
 10
2083.492707213102
 20
65.15296549378575
 30
0.0
 11
2083.492707213102
 21
153.9301939574397
 31
0.0
  0
LINE
  5
4BB
  8
回05-ﾃｰﾙ
  6
CONTINUOUS
 62
     7
 10
2083.992707213102
 20
64.65296549378575
 30
0.0
 11
2096.492707213102
 21
64.65296549378575
 31
0.0
  0
ARC
  5
4BC
  8
回05-ﾃｰﾙ
  6
CONTINUOUS
 62
     7
 10
2096.492707213102
 20
65.15296549378485
 30
0.0
 40
0.5
 50
270.0
 51
0.0
  0
LINE
  5
4BD
  8
回05-ﾃｰﾙ
  6
CONTINUOUS
 62
     7
 10
2096.992707213102
 20
65.15296549378485
 30
0.0
 11
2096.992707213102
 21
153.9279433265418
 31
0.0
  0
TEXT
  5
4BE
  8
回08-記事
  6
CONTINUOUS
 62
     7
 10
2223.91670646963
 20
178.9135875943688
 30
0.0
 40
2.0
  1
SDR
  0
TEXT
  5
4BF
  8
回08-記事
  6
CONTINUOUS
 62
     7
 10
2224.466108487962
 20
186.0376460266899
 30
0.0
 40
2.0
  1
R12
  0
TEXT
  5
4C0
  8
回08-記事
  6
CONTINUOUS
 62
     7
 10
1925.322531650766
 20
185.7409442508519
 30
0.0
 40
2.0
  1
L12
  0
TEXT
  5
4C1
  8
回08-記事
  6
CONTINUOUS
 62
     7
 10
2224.466108487962
 20
205.0004918960977
 30
0.0
 40
2.0
  1
R11
  0
TEXT
  5
4C2
  8
回08-記事
  6
CONTINUOUS
 62
     7
 10
1925.322531650766
 20
205.425400828425
 30
0.0
 40
2.0
  1
L11
  0
TEXT
  5
4C3
  8
回08-記事
  6
CONTINUOUS
 62
     7
 10
2224.466108487962
 20
223.501086064783
 30
0.0
 40
2.0
  1
R10
  0
TEXT
  5
4C4
  8
回08-記事
  6
CONTINUOUS
 62
     7
 10
1925.322531650766
 20
224.1034727508524
 30
0.0
 40
2.0
  1
L10
  0
TEXT
  5
4C5
  8
回08-記事
  6
CONTINUOUS
 62
     7
 10
2225.085292550484
 20
243.7815962457915
 30
0.0
 40
2.0
  1
R9
  0
TEXT
  5
4C6
  8
回08-記事
  6
CONTINUOUS
 62
     7
 10
1925.573083277301
 20
243.9074611148728
 30
0.0
 40
2.0
  1
L9
  0
TEXT
  5
4C7
  8
回08-記事
  6
CONTINUOUS
 62
     7
 10
2225.085292550484
 20
262.5004463651978
 30
0.0
 40
2.0
  1
R8
  0
TEXT
  5
4C8
  8
回08-記事
  6
CONTINUOUS
 62
     7
 10
1925.573083277301
 20
262.7163519213578
 30
0.0
 40
2.0
  1
L8
  0
TEXT
  5
4C9
  8
回08-記事
  6
CONTINUOUS
 62
     7
 10
2225.085292550484
 20
280.3342718411702
 30
0.0
 40
2.0
  1
R7
  0
TEXT
  5
4CA
  8
回08-記事
  6
CONTINUOUS
 62
     7
 10
1925.573083277301
 20
281.4242540303293
 30
0.0
 40
2.0
  1
L7
  0
TEXT
  5
4CB
  8
回08-記事
  6
CONTINUOUS
 62
     7
 10
2225.085292550484
 20
299.4385384041775
 30
0.0
 40
2.0
  1
R6
  0
TEXT
  5
4CC
  8
回08-記事
  6
CONTINUOUS
 62
     7
 10
1925.573083277301
 20
300.4418565505861
 30
0.0
 40
2.0
  1
L6
  0
TEXT
  5
4CD
  8
回08-記事
  6
CONTINUOUS
 62
     7
 10
2225.085292550484
 20
319.3850002919111
 30
0.0
 40
2.0
  1
R5
  0
TEXT
  5
4CE
  8
回08-記事
  6
CONTINUOUS
 62
     7
 10
1925.573083277301
 20
320.155154508043
 30
0.0
 40
2.0
  1
L5
  0
TEXT
  5
4CF
  8
回08-記事
  6
CONTINUOUS
 62
     7
 10
2225.085292550484
 20
337.3679292758238
 30
0.0
 40
2.0
  1
R4
  0
TEXT
  5
4D0
  8
回08-記事
  6
CONTINUOUS
 62
     7
 10
1925.573083277301
 20
339.0431877871908
 30
0.0
 40
2.0
  1
L4
  0
TEXT
  5
4D1
  8
回08-記事
  6
CONTINUOUS
 62
     7
 10
2225.085292550484
 20
356.8836698277375
 30
0.0
 40
2.0
  1
R3
  0
TEXT
  5
4D2
  8
回08-記事
  6
CONTINUOUS
 62
     7
 10
1925.573083277301
 20
357.6464755742265
 30
0.0
 40
2.0
  1
L3
  0
TEXT
  5
4D3
  8
回08-記事
  6
CONTINUOUS
 62
     7
 10
2225.085292550484
 20
376.4749153716968
 30
0.0
 40
2.0
  1
R2
  0
TEXT
  5
4D4
  8
回08-記事
  6
CONTINUOUS
 62
     7
 10
1925.573083277301
 20
376.5283080634057
 30
0.0
 40
2.0
  1
L2
  0
TEXT
  5
4D5
  8
回08-記事
  6
CONTINUOUS
 62
     7
 10
2218.128339332828
 20
178.3512091102324
 30
0.0
 40
2.0
  1
D15
  0
TEXT
  5
4D6
  8
回08-記事
  6
CONTINUOUS
 62
     7
 10
2217.488586293089
 20
402.368351913765
 30
0.0
 40
2.0
  1
U15
  0
TEXT
  5
4D7
  8
回08-記事
  6
CONTINUOUS
 62
     7
 10
2196.705851491378
 20
178.3512091102324
 30
0.0
 40
2.0
  1
D14
  0
TEXT
  5
4D8
  8
回08-記事
  6
CONTINUOUS
 62
     7
 10
2197.258632201569
 20
402.368351913765
 30
0.0
 40
2.0
  1
U14
  0
TEXT
  5
4D9
  8
回08-記事
  6
CONTINUOUS
 62
     7
 10
2176.953867726806
 20
178.3512091102324
 30
0.0
 40
2.0
  1
D13
  0
TEXT
  5
4DA
  8
回08-記事
  6
CONTINUOUS
 62
     7
 10
2176.795418800644
 20
402.368351913765
 30
0.0
 40
2.0
  1
U13
  0
TEXT
  5
4DB
  8
回08-記事
  6
CONTINUOUS
 62
     7
 10
2156.979749025431
 20
178.3512091102324
 30
0.0
 40
2.0
  1
D12
  0
TEXT
  5
4DC
  8
回08-記事
  6
CONTINUOUS
 62
     7
 10
2156.565464709123
 20
402.368351913765
 30
0.0
 40
2.0
  1
U12
  0
TEXT
  5
4DD
  8
回08-記事
  6
CONTINUOUS
 62
     7
 10
2136.117105684644
 20
178.3512091102324
 30
0.0
 40
2.0
  1
D11
  0
TEXT
  5
4DE
  8
回08-記事
  6
CONTINUOUS
 62
     7
 10
2136.151517825695
 20
402.368351913765
 30
0.0
 40
2.0
  1
U11
  0
TEXT
  5
4DF
  8
回08-記事
  6
CONTINUOUS
 62
     7
 10
2115.698722145598
 20
178.3512091102324
 30
0.0
 40
2.0
  1
D10
  0
TEXT
  5
4E0
  8
回08-記事
  6
CONTINUOUS
 62
     7
 10
2115.668870765259
 20
402.368351913765
 30
0.0
 40
2.0
  1
U10
  0
TEXT
  5
4E1
  8
回08-記事
  6
CONTINUOUS
 62
     7
 10
2096.390998182766
 20
178.3512091102324
 30
0.0
 40
2.0
  1
D9
  0
TEXT
  5
4E2
  8
回08-記事
  6
CONTINUOUS
 62
     7
 10
2095.947752224619
 20
402.368351913765
 30
0.0
 40
2.0
  1
U9
  0
TEXT
  5
4E3
  8
回08-記事
  6
CONTINUOUS
 62
     7
 10
2072.915190913582
 20
178.3512091102324
 30
0.0
 40
2.0
  1
D8
  0
TEXT
  5
4E4
  8
回08-記事
  6
CONTINUOUS
 62
     7
 10
2072.876974851084
 20
402.368351913765
 30
0.0
 40
2.0
  1
U8
  0
TEXT
  5
4E5
  8
回08-記事
  6
CONTINUOUS
 62
     7
 10
2055.772795566069
 20
178.3512091102324
 30
0.0
 40
2.0
  1
D7
  0
TEXT
  5
4E6
  8
回08-記事
  6
CONTINUOUS
 62
     7
 10
2055.581195103092
 20
402.368351913765
 30
0.0
 40
2.0
  1
U7
  0
TEXT
  5
4E7
  8
回08-記事
  6
CONTINUOUS
 62
     7
 10
2035.350886874998
 20
178.3512091102324
 30
0.0
 40
2.0
  1
D6
  0
TEXT
  5
4E8
  8
回08-記事
  6
CONTINUOUS
 62
     7
 10
2035.015147981709
 20
402.368351913765
 30
0.0
 40
2.0
  1
U6
  0
TEXT
  5
4E9
  8
回08-記事
  6
CONTINUOUS
 62
     7
 10
2014.928630704658
 20
178.3512091102324
 30
0.0
 40
2.0
  1
D5
  0
TEXT
  5
4EA
  8
回08-記事
  6
CONTINUOUS
 62
     7
 10
2014.87140903682
 20
402.368351913765
 30
0.0
 40
2.0
  1
U5
  0
TEXT
  5
4EB
  8
回08-記事
  6
CONTINUOUS
 62
     7
 10
1994.951067426162
 20
178.3512091102324
 30
0.0
 40
2.0
  1
D4
  0
TEXT
  5
4EC
  8
回08-記事
  6
CONTINUOUS
 62
     7
 10
1994.805394658122
 20
402.368351913765
 30
0.0
 40
2.0
  1
U4
  0
TEXT
  5
4ED
  8
回08-記事
  6
CONTINUOUS
 62
     7
 10
1973.861766882121
 20
178.3512091102324
 30
0.0
 40
2.0
  1
D3
  0
TEXT
  5
4EE
  8
回08-記事
  6
CONTINUOUS
 62
     7
 10
1973.976492058132
 20
402.368351913765
 30
0.0
 40
2.0
  1
U3
  0
TEXT
  5
4EF
  8
回08-記事
  6
CONTINUOUS
 62
     7
 10
1954.106560121413
 20
178.3512091102324
 30
0.0
 40
2.0
  1
D2
  0
TEXT
  5
4F0
  8
回08-記事
  6
CONTINUOUS
 62
     7
 10
1954.228441356033
 20
402.368351913765
 30
0.0
 40
2.0
  1
U2
  0
TEXT
  5
4F1
  8
回08-記事
  6
CONTINUOUS
 62
     7
 10
1925.111462577395
 20
401.3612035092334
 30
0.0
 40
2.0
  1
SUL
  0
TEXT
  5
4F2
  8
回08-記事
  6
CONTINUOUS
 62
     7
 10
2222.835442266875
 20
402.9357236715364
 30
0.0
 40
2.0
  1
SUR
  0
TEXT
  5
4F3
  8
回08-記事
  6
CONTINUOUS
 62
     7
 10
1927.456222446383
 20
177.7509757896975
 30
0.0
 40
2.0
  1
SDL
  0
TEXT
  5
4F4
  8
回08-記事
  6
CONTINUOUS
 62
     7
 10
1933.585695377109
 20
178.3512091102324
 30
0.0
 40
2.0
  1
D1
  0
TEXT
  5
4F5
  8
回08-記事
  6
CONTINUOUS
 62
     7
 10
2225.085292550484
 20
395.2279137038559
 30
0.0
 40
2.0
  1
R1
  0
TEXT
  5
4F6
  8
回08-記事
  6
CONTINUOUS
 62
     7
 10
1925.573083277301
 20
396.2884759308171
 30
0.0
 40
2.0
  1
L1
  0
TEXT
  5
4F7
  8
回08-記事
  6
CONTINUOUS
 62
     7
 10
1933.292409386046
 20
402.368351913765
 30
0.0
 40
2.0
  1
U1
  0
POLYLINE
  5
4F8
  8
回08-記事
  6
CONTINUOUS
 62
     7
 66
     1
 10
0.0
 20
0.0
 30
0.0
 70
     1
  0
VERTEX
  5
B9A
  8
回08-記事
  6
CONTINUOUS
 62
     7
 10
2230.955115185107
 20
407.6489171229749
 30
0.0
  0
VERTEX
  5
B9C
  8
回08-記事
  6
CONTINUOUS
 62
     7
 10
1922.525115185107
 20
407.6489171229749
 30
0.0
  0
VERTEX
  5
B9D
  8
回08-記事
  6
CONTINUOUS
 62
     7
 10
1922.525115185107
 20
174.7489171229751
 30
0.0
  0
VERTEX
  5
B9E
  8
回08-記事
  6
CONTINUOUS
 62
     7
 10
2230.955115185107
 20
174.7489171229751
 30
0.0
  0
SEQEND
  5
B9B
  8
0
  6
CONTINUOUS
 62
    18
  0
ENDSEC
  0
EOF
