  0
SECTION
  2
HEADER
  9
$ACADVER
  1
AC1009
  9
$INSBASE
 10
0.0
 20
0.0
 30
0.0
  9
$EXTMIN
 10
2.21448274714362
 20
9.338385612885474
 30
0.0
  9
$EXTMAX
 10
812.2144827471435
 20
559.3383856128855
 30
0.0
  9
$LIMMIN
 10
0.0
 20
0.0
  9
$LIMMAX
 10
3000.0
 20
2500.0
  9
$ORTHOMODE
 70
     0
  9
$REGENMODE
 70
     1
  9
$FILLMODE
 70
     1
  9
$QTEXTMODE
 70
     0
  9
$MIRRTEXT
 70
     1
  9
$DRAGMODE
 70
     2
  9
$LTSCALE
 40
10.0
  9
$OSMODE
 70
    37
  9
$ATTMODE
 70
     1
  9
$TEXTSIZE
 40
5.0
  9
$TRACEWID
 40
1.0
  9
$TEXTSTYLE
  7
STANDARD
  9
$CLAYER
  8
0
  9
$CELTYPE
  6
CONTINUOUS
  9
$CECOLOR
 62
     7
  9
$DIMSCALE
 40
1.0
  9
$DIMASZ
 40
1.5
  9
$DIMEXO
 40
0.0
  9
$DIMDLI
 40
0.0
  9
$DIMRND
 40
0.0
  9
$DIMDLE
 40
0.0
  9
$DIMEXE
 40
1.0
  9
$DIMTP
 40
0.2
  9
$DIMTM
 40
0.2
  9
$DIMTXT
 40
3.0
  9
$DIMCEN
 40
1.5
  9
$DIMTSZ
 40
0.0
  9
$DIMTOL
 70
     0
  9
$DIMLIM
 70
     0
  9
$DIMTIH
 70
     0
  9
$DIMTOH
 70
     0
  9
$DIMSE1
 70
     0
  9
$DIMSE2
 70
     0
  9
$DIMTAD
 70
     3
  9
$DIMZIN
 70
     8
  9
$DIMBLK
  1
OPEN
  9
$DIMASO
 70
     1
  9
$DIMSHO
 70
     1
  9
$DIMPOST
  1

  9
$DIMAPOST
  1

  9
$DIMALT
 70
     0
  9
$DIMALTD
 70
     3
  9
$DIMALTF
 40
0.03937007874016
  9
$DIMLFAC
 40
1.0
  9
$DIMTOFL
 70
     1
  9
$DIMTVP
 40
0.0
  9
$DIMTIX
 70
     0
  9
$DIMSOXD
 70
     0
  9
$DIMSAH
 70
     0
  9
$DIMBLK1
  1

  9
$DIMBLK2
  1

  9
$DIMSTYLE
  2
DMC
  9
$DIMCLRD
 70
     5
  9
$DIMCLRE
 70
     5
  9
$DIMCLRT
 70
     5
  9
$DIMTFAC
 40
0.7
  9
$DIMGAP
 40
0.5
  9
$LUNITS
 70
     2
  9
$LUPREC
 70
     4
  9
$SKETCHINC
 40
1.0
  9
$FILLETRAD
 40
0.5
  9
$AUNITS
 70
     0
  9
$AUPREC
 70
     0
  9
$MENU
  1
.
  9
$ELEVATION
 40
0.0
  9
$PELEVATION
 40
0.0
  9
$THICKNESS
 40
0.0
  9
$LIMCHECK
 70
     0
  9
$BLIPMODE
 70
     0
  9
$CHAMFERA
 40
10.0
  9
$CHAMFERB
 40
10.0
  9
$SKPOLY
 70
     0
  9
$TDCREATE
 40
2451810.404221065
  9
$TDUPDATE
 40
2460230.385077604
  9
$TDINDWG
 40
4.404140336
  9
$TDUSRTIMER
 40
4.404138715
  9
$USRTIMER
 70
     1
  9
$ANGBASE
 50
0.0
  9
$ANGDIR
 70
     0
  9
$PDMODE
 70
     0
  9
$PDSIZE
 40
0.0
  9
$PLINEWID
 40
0.5
  9
$COORDS
 70
     0
  9
$SPLFRAME
 70
     0
  9
$SPLINETYPE
 70
     6
  9
$SPLINESEGS
 70
     8
  9
$ATTDIA
 70
     1
  9
$ATTREQ
 70
     1
  9
$HANDLING
 70
     1
  9
$HANDSEED
  5
B7D
  9
$SURFTAB1
 70
     6
  9
$SURFTAB2
 70
     6
  9
$SURFTYPE
 70
     6
  9
$SURFU
 70
     6
  9
$SURFV
 70
     6
  9
$UCSNAME
  2

  9
$UCSORG
 10
0.0
 20
0.0
 30
0.0
  9
$UCSXDIR
 10
1.0
 20
0.0
 30
0.0
  9
$UCSYDIR
 10
0.0
 20
1.0
 30
0.0
  9
$PUCSNAME
  2

  9
$PUCSORG
 10
0.0
 20
0.0
 30
0.0
  9
$PUCSXDIR
 10
1.0
 20
0.0
 30
0.0
  9
$PUCSYDIR
 10
0.0
 20
1.0
 30
0.0
  9
$USERI1
 70
     0
  9
$USERI2
 70
     0
  9
$USERI3
 70
     0
  9
$USERI4
 70
     0
  9
$USERI5
 70
     0
  9
$USERR1
 40
0.0
  9
$USERR2
 40
0.0
  9
$USERR3
 40
0.0
  9
$USERR4
 40
0.0
  9
$USERR5
 40
0.0
  9
$WORLDVIEW
 70
     1
  9
$SHADEDGE
 70
     3
  9
$SHADEDIF
 70
    70
  9
$TILEMODE
 70
     1
  9
$MAXACTVP
 70
    64
  9
$PLIMCHECK
 70
     0
  9
$PEXTMIN
 10
1.000000000000000E+20
 20
1.000000000000000E+20
 30
1.000000000000000E+20
  9
$PEXTMAX
 10
-1.000000000000000E+20
 20
-1.000000000000000E+20
 30
-1.000000000000000E+20
  9
$PLIMMIN
 10
0.0
 20
0.0
  9
$PLIMMAX
 10
420.0
 20
297.0
  9
$UNITMODE
 70
     0
  9
$VISRETAIN
 70
     1
  9
$PLINEGEN
 70
     0
  9
$PSLTSCALE
 70
     1
  0
ENDSEC
  0
SECTION
  2
TABLES
  0
TABLE
  2
VPORT
 70
     1
  0
VPORT
  2
*ACTIVE
 70
     0
 10
0.0
 20
0.0
 11
1.0
 21
1.0
 12
414.6024331931538
 22
226.140990963814
 13
0.0
 23
0.0
 14
10.0
 24
10.0
 15
10.0
 25
10.0
 16
0.0
 26
0.0
 36
1.0
 17
0.0
 27
0.0
 37
0.0
 40
812.1062403388886
 41
1.853689567430025
 42
50.0
 43
0.0
 44
0.0
 50
0.0
 51
0.0
 71
     0
 72
   500
 73
     1
 74
     3
 75
     0
 76
     0
 77
     0
 78
     0
  0
ENDTAB
  0
TABLE
  2
LTYPE
 70
     4
  0
LTYPE
  2
CONTINUOUS
 70
     0
  3
Solid line
 72
    65
 73
     0
 40
0.0
  0
LTYPE
  2
CENTER2
 70
     0
  3
Center (.5x) ___ _ ___ _ ___ _ ___ _ ___ _ ___
 72
    65
 73
     4
 40
28.575
 49
19.05
 49
-3.174999999999998
 49
3.174999999999998
 49
-3.174999999999998
  0
LTYPE
  2
PHANTOM2
 70
     0
  3
___ _ _ ___ _ _ ___ _ _ ___ _ _ ___ _ _ ___ _ _
 72
    65
 73
     6
 40
1.25
 49
0.625
 49
-0.125
 49
0.125
 49
-0.125
 49
0.125
 49
-0.125
  0
LTYPE
  2
DASHED2
 70
     0
  3
Dashed (.5x) _ _ _ _ _ _ _ _ _ _ _ _ _ _ _ _ _
 72
    65
 73
     2
 40
9.524999999999996
 49
6.349999999999998
 49
-3.174999999999998
  0
ENDTAB
  0
TABLE
  2
LAYER
 70
    11
  0
LAYER
  2
0
 70
     0
 62
     7
  6
CONTINUOUS
  0
LAYER
  2
DEFPOINTS
 70
     0
 62
     7
  6
CONTINUOUS
  0
LAYER
  2
回07-寸法
 70
     0
 62
     7
  6
CONTINUOUS
  0
LAYER
  2
回03-下ER
 70
     0
 62
     7
  6
CONTINUOUS
  0
LAYER
  2
回04-下接
 70
     0
 62
     7
  6
CONTINUOUS
  0
LAYER
  2
回01-上ER
 70
     0
 62
     7
  6
CONTINUOUS
  0
LAYER
  2
回90-枠1
 70
     0
 62
     7
  6
CONTINUOUS
  0
LAYER
  2
回08-記事
 70
     0
 62
     7
  6
CONTINUOUS
  0
LAYER
  2
回05-ﾃｰﾙ
 70
     0
 62
     7
  6
CONTINUOUS
  0
LAYER
  2
回90-枠2
 70
     0
 62
     7
  6
CONTINUOUS
  0
LAYER
  2
回03-記事
 70
     0
 62
     7
  6
CONTINUOUS
  0
ENDTAB
  0
TABLE
  2
STYLE
 70
     2
  0
STYLE
  2
STANDARD
 70
     0
 40
5.0
 41
1.0
 50
0.0
 71
     0
 42
5.0
  3
isocp.shx
  4
bigfont.shx
  0
STYLE
  2
ANNOTATIVE
 70
     0
 40
0.0
 41
1.0
 50
0.0
 71
     0
 42
0.2
  3
txt.shx
  4

  0
ENDTAB
  0
TABLE
  2
VIEW
 70
     0
  0
ENDTAB
  0
TABLE
  2
UCS
 70
     0
  0
ENDTAB
  0
TABLE
  2
APPID
 70
     7
  0
APPID
  2
ACAD
 70
     0
  0
APPID
  2
ACADANNOTATIVE
 70
     0
  0
APPID
  2
ACAD_PSEXT
 70
     0
  0
APPID
  2
GRADIENTCOLOR1ACI
 70
     0
  0
APPID
  2
GRADIENTCOLOR2ACI
 70
     0
  0
APPID
  2
ACAD_NAV_VCDISPLAY
 70
     0
  0
APPID
  2
ACADSTRINGINFO
 70
     0
  0
ENDTAB
  0
TABLE
  2
DIMSTYLE
 70
     1
  0
DIMSTYLE
  2
DMC
 70
     0
  3

  4

  5
OPEN
  6

  7

 40
1.0
 41
2.0
 42
0.0
 43
0.0
 44
1.0
 45
0.0
 46
0.0
 47
0.0
 48
0.0
140
3.0
141
2.0
142
0.0
143
0.03937007874016
144
1.0
145
0.0
146
0.7
147
0.5
 71
     0
 72
     0
 73
     0
 74
     0
 75
     0
 76
     0
 77
     3
 78
     8
170
     0
171
     3
172
     1
173
     0
174
     0
175
     0
176
     5
177
     5
178
     5
  0
ENDTAB
  0
ENDSEC
  0
SECTION
  2
BLOCKS
  0
BLOCK
  8
0
  2
$MODEL_SPACE
 70
     0
 10
0.0
 20
0.0
 30
0.0
  3
$MODEL_SPACE
  1

  0
ENDBLK
  8
0
  5
1D
  0
BLOCK
 67
     1
  8
0
  2
$PAPER_SPACE
 70
     0
 10
0.0
 20
0.0
 30
0.0
  3
$PAPER_SPACE
  1

  0
ENDBLK
  5
23
 67
     1
  8
0
  0
BLOCK
  8
0
  2
_OPEN
 70
     0
 10
0.0
 20
0.0
 30
0.0
  3
_OPEN
  1

  0
LINE
  5
8E2
  8
0
  6
BYBLOCK
 62
     0
 10
-1.0
 20
0.166667
 30
0.0
 11
0.0
 21
0.0
 31
0.0
  0
LINE
  5
8E3
  8
0
  6
BYBLOCK
 62
     0
 10
-1.0
 20
-0.166667
 30
0.0
 11
0.0
 21
0.0
 31
0.0
  0
LINE
  5
8E4
  8
0
  6
BYBLOCK
 62
     0
 10
0.0
 20
0.0
 30
0.0
 11
-1.0
 21
0.0
 31
0.0
  0
LINE
  5
11
  8
0
  6
CONTINUOUS
 62
     0
 10
-1.0
 20
0.1666666666666666
 30
0.0
 11
0.0
 21
0.0
 31
0.0
  0
LINE
  5
12
  8
0
  6
CONTINUOUS
 62
     0
 10
-1.0
 20
-0.1666666666666666
 30
0.0
 11
0.0
 21
0.0
 31
0.0
  0
LINE
  5
13
  8
0
  6
CONTINUOUS
 62
     0
 10
0.0
 20
0.0
 30
0.0
 11
-1.0
 21
0.0
 31
0.0
  0
ENDBLK
  5
14
  8
0
  0
BLOCK
  8
0
  2
*D11
 70
     1
 10
0.0
 20
0.0
 30
0.0
  3
*D11
  1

  0
LINE
  5
136
  8
回07-寸法
  6
CONTINUOUS
 62
     5
 10
386.2537266609909
 20
178.9734541309669
 30
0.0
 11
416.3949904026468
 21
178.9734541309669
 31
0.0
  0
LINE
  5
137
  8
回07-寸法
  6
CONTINUOUS
 62
     5
 10
393.5048519764393
 20
278.9694057601566
 30
0.0
 11
416.3949904026468
 21
278.9694057601566
 31
0.0
  0
LINE
  5
138
  8
回07-寸法
  6
CONTINUOUS
 62
     5
 10
415.3949904026468
 20
180.4734541309669
 30
0.0
 11
415.3949904026468
 21
277.4694057601566
 31
0.0
  0
INSERT
  5
139
  8
回07-寸法
  6
CONTINUOUS
 62
     5
 66
     1
  2
_OPEN
 10
415.3949904026468
 20
178.9734541309669
 30
0.0
 41
1.5
 42
1.5
 43
1.5
 50
270.0
  0
SEQEND
  5
13A
  8
0
  6
CONTINUOUS
 62
     7
  0
INSERT
  5
13B
  8
回07-寸法
  6
CONTINUOUS
 62
     5
 66
     1
  2
_OPEN
 10
415.3949904026468
 20
278.9694057601566
 30
0.0
 41
1.5
 42
1.5
 43
1.5
 50
90.0
  0
SEQEND
  5
13C
  8
0
  6
CONTINUOUS
 62
     7
  0
INSERT
  5
13D
  8
回07-寸法
  6
CONTINUOUS
 62
     5
 66
     1
  2
*X8080
 10
0.0
 20
0.0
 30
0.0
  0
SEQEND
  5
7E4
  8
0
  6
CONTINUOUS
 62
     7
  0
POINT
  5
13E
  8
DEFPOINTS
  6
CONTINUOUS
 62
     0
 10
386.2537266609909
 20
178.9734541309669
 30
0.0
  0
POINT
  5
13F
  8
DEFPOINTS
  6
CONTINUOUS
 62
     0
 10
393.5048519764393
 20
278.9694057601566
 30
0.0
  0
POINT
  5
140
  8
DEFPOINTS
  6
CONTINUOUS
 62
     0
 10
415.3949904026468
 20
278.9694057601566
 30
0.0
  0
ENDBLK
  5
141
  8
0
 62
     5
  0
BLOCK
  8
0
  2
*D22
 70
     1
 10
0.0
 20
0.0
 30
0.0
  3
*D22
  1

  0
LINE
  5
126
  8
回07-寸法
  6
CONTINUOUS
 62
     5
 10
186.8037266609904
 20
278.9694057601572
 30
0.0
 11
186.8037266609904
 21
152.9787339028296
 31
0.0
  0
LINE
  5
127
  8
回07-寸法
  6
CONTINUOUS
 62
     5
 10
373.2537266609906
 20
179.4734541309676
 30
0.0
 11
373.2537266609906
 21
152.9787339028296
 31
0.0
  0
LINE
  5
128
  8
回07-寸法
  6
CONTINUOUS
 62
     5
 10
188.3037266609903
 20
153.9787339028297
 30
0.0
 11
371.7537266609907
 21
153.9787339028297
 31
0.0
  0
INSERT
  5
129
  8
回07-寸法
  6
CONTINUOUS
 62
     5
 66
     1
  2
_OPEN
 10
186.8037266609904
 20
153.9787339028297
 30
0.0
 41
1.5
 42
1.5
 43
1.5
 50
180.0
  0
SEQEND
  5
12A
  8
0
  6
CONTINUOUS
 62
     7
  0
INSERT
  5
12B
  8
回07-寸法
  6
CONTINUOUS
 62
     5
 66
     1
  2
_OPEN
 10
373.2537266609906
 20
153.9787339028297
 30
0.0
 41
1.5
 42
1.5
 43
1.5
  0
SEQEND
  5
12C
  8
0
  6
CONTINUOUS
 62
     7
  0
TEXT
  5
12D
  8
回07-寸法
  6
CONTINUOUS
 62
     5
 10
268.7787266609904
 20
154.7287339028297
 30
0.0
 40
5.0
  1
(186.45)
1001
ACAD
1000
MTEXTBEGIN
1070
    73
1070
     1
1070
    44
1040
1.0
1070
    74
1070
     0
1000
MTEXTEND
  0
POINT
  5
12E
  8
DEFPOINTS
  6
CONTINUOUS
 62
     0
 10
186.8037266609904
 20
278.9694057601572
 30
0.0
  0
POINT
  5
130
  8
DEFPOINTS
  6
CONTINUOUS
 62
     0
 10
373.2537266609906
 20
179.4734541309676
 30
0.0
  0
POINT
  5
131
  8
DEFPOINTS
  6
CONTINUOUS
 62
     0
 10
373.2537266609906
 20
153.9787339028297
 30
0.0
  0
ENDBLK
  5
132
  8
0
 62
     5
  0
BLOCK
  8
0
  2
*D33
 70
     1
 10
0.0
 20
0.0
 30
0.0
  3
*D33
  1

  0
LINE
  5
3FF
  8
回07-寸法
  6
CONTINUOUS
 62
     5
 10
194.5337266609905
 20
485.299405760157
 30
0.0
 11
161.8037266609903
 21
485.299405760157
 31
0.0
  0
LINE
  5
400
  8
回07-寸法
  6
CONTINUOUS
 62
     5
 10
186.8037266609904
 20
493.3644057601561
 30
0.0
 11
161.8037266609903
 21
493.3644057601561
 31
0.0
  0
LINE
  5
401
  8
回07-寸法
  6
CONTINUOUS
 62
     5
 10
162.8037266609902
 20
483.799405760157
 30
0.0
 11
162.8037266609902
 21
482.2994057601571
 31
0.0
  0
LINE
  5
402
  8
回07-寸法
  6
CONTINUOUS
 62
     5
 10
162.8037266609902
 20
494.8644057601561
 30
0.0
 11
162.8037266609902
 21
511.8604687522823
 31
0.0
  0
LINE
  5
403
  8
回07-寸法
  6
CONTINUOUS
 62
     5
 10
162.8037266609902
 20
485.299405760157
 30
0.0
 11
162.8037266609902
 21
493.3644057601561
 31
0.0
  0
INSERT
  5
404
  8
回07-寸法
  6
CONTINUOUS
 62
     5
 66
     1
  2
_OPEN
 10
162.8037266609902
 20
485.299405760157
 30
0.0
 41
1.5
 42
1.5
 43
1.5
 50
90.0
  0
SEQEND
  5
405
  8
0
  6
CONTINUOUS
 62
     7
  0
INSERT
  5
406
  8
回07-寸法
  6
CONTINUOUS
 62
     5
 66
     1
  2
_OPEN
 10
162.8037266609902
 20
493.3644057601561
 30
0.0
 41
1.5
 42
1.5
 43
1.5
 50
270.0
  0
SEQEND
  5
407
  8
0
  6
CONTINUOUS
 62
     7
  0
TEXT
  5
408
  8
回07-寸法
  6
CONTINUOUS
 62
     5
 10
162.0537266609904
 20
496.112437256219
 30
0.0
 40
5.0
  1
(8.07)
 50
90.0
1001
ACAD
1000
MTEXTBEGIN
1070
    73
1070
     1
1070
    44
1040
1.0
1070
    74
1070
     0
1000
MTEXTEND
  0
POINT
  5
409
  8
DEFPOINTS
  6
CONTINUOUS
 62
     0
 10
194.5337266609905
 20
485.299405760157
 30
0.0
  0
POINT
  5
40A
  8
DEFPOINTS
  6
CONTINUOUS
 62
     0
 10
186.8037266609904
 20
493.3644057601561
 30
0.0
  0
POINT
  5
40B
  8
DEFPOINTS
  6
CONTINUOUS
 62
     0
 10
162.8037266609902
 20
493.3644057601561
 30
0.0
  0
ENDBLK
  5
40C
  8
0
 62
     5
  0
BLOCK
  8
0
  2
*D44
 70
     1
 10
0.0
 20
0.0
 30
0.0
  3
*D44
  1

  0
LINE
  5
3EE
  8
回07-寸法
  6
CONTINUOUS
 62
     5
 10
192.5337266609905
 20
487.299405760157
 30
0.0
 11
148.8037266609901
 21
487.299405760157
 31
0.0
  0
LINE
  5
3EF
  8
回07-寸法
  6
CONTINUOUS
 62
     5
 10
186.8037266609904
 20
493.364405760157
 30
0.0
 11
148.8037266609901
 21
493.364405760157
 31
0.0
  0
LINE
  5
3F0
  8
回07-寸法
  6
CONTINUOUS
 62
     5
 10
149.8037266609902
 20
485.7994057601571
 30
0.0
 11
149.8037266609902
 21
484.299405760157
 31
0.0
  0
LINE
  5
3F1
  8
回07-寸法
  6
CONTINUOUS
 62
     5
 10
149.8037266609902
 20
494.8644057601572
 30
0.0
 11
149.8037266609902
 21
511.8604687522831
 31
0.0
  0
LINE
  5
3F2
  8
回07-寸法
  6
CONTINUOUS
 62
     5
 10
149.8037266609902
 20
487.299405760157
 30
0.0
 11
149.8037266609902
 21
493.364405760157
 31
0.0
  0
INSERT
  5
3F3
  8
回07-寸法
  6
CONTINUOUS
 62
     5
 66
     1
  2
_OPEN
 10
149.8037266609902
 20
487.299405760157
 30
0.0
 41
1.5
 42
1.5
 43
1.5
 50
90.0
  0
SEQEND
  5
3F4
  8
0
  6
CONTINUOUS
 62
     7
  0
INSERT
  5
3F5
  8
回07-寸法
  6
CONTINUOUS
 62
     5
 66
     1
  2
_OPEN
 10
149.8037266609902
 20
493.364405760157
 30
0.0
 41
1.5
 42
1.5
 43
1.5
 50
270.0
  0
SEQEND
  5
3F6
  8
0
  6
CONTINUOUS
 62
     7
  0
TEXT
  5
3F7
  8
回07-寸法
  6
CONTINUOUS
 62
     5
 10
149.0537266609903
 20
496.11243725622
 30
0.0
 40
5.0
  1
(6.07)
 50
90.0
1001
ACAD
1000
MTEXTBEGIN
1070
    73
1070
     1
1070
    44
1040
1.0
1070
    74
1070
     0
1000
MTEXTEND
  0
POINT
  5
3F8
  8
DEFPOINTS
  6
CONTINUOUS
 62
     0
 10
192.5337266609905
 20
487.299405760157
 30
0.0
  0
POINT
  5
3F9
  8
DEFPOINTS
  6
CONTINUOUS
 62
     0
 10
186.8037266609904
 20
493.364405760157
 30
0.0
  0
POINT
  5
3FA
  8
DEFPOINTS
  6
CONTINUOUS
 62
     0
 10
149.8037266609902
 20
493.364405760157
 30
0.0
  0
ENDBLK
  5
3FB
  8
0
 62
     5
  0
BLOCK
  8
0
  2
*D55
 70
     1
 10
0.0
 20
0.0
 30
0.0
  3
*D55
  1

  0
LINE
  5
3DD
  8
回07-寸法
  6
CONTINUOUS
 62
     5
 10
542.4737266609907
 20
487.299405760156
 30
0.0
 11
542.4737266609907
 21
528.3844057601568
 31
0.0
  0
LINE
  5
3DE
  8
回07-寸法
  6
CONTINUOUS
 62
     5
 10
548.2037266609909
 20
493.364405760156
 30
0.0
 11
548.2037266609909
 21
528.3844057601568
 31
0.0
  0
LINE
  5
3DF
  8
回07-寸法
  6
CONTINUOUS
 62
     5
 10
540.9737266609909
 20
527.3844057601568
 30
0.0
 11
539.4737266609909
 21
527.3844057601568
 31
0.0
  0
LINE
  5
3E0
  8
回07-寸法
  6
CONTINUOUS
 62
     5
 10
549.7037266609908
 20
527.3844057601568
 30
0.0
 11
566.6997896531169
 21
527.3844057601568
 31
0.0
  0
LINE
  5
3E1
  8
回07-寸法
  6
CONTINUOUS
 62
     5
 10
542.4737266609907
 20
527.3844057601568
 30
0.0
 11
548.2037266609909
 21
527.3844057601568
 31
0.0
  0
INSERT
  5
3E2
  8
回07-寸法
  6
CONTINUOUS
 62
     5
 66
     1
  2
_OPEN
 10
542.4737266609907
 20
527.3844057601568
 30
0.0
 41
1.5
 42
1.5
 43
1.5
  0
SEQEND
  5
3E3
  8
0
  6
CONTINUOUS
 62
     7
  0
INSERT
  5
3E4
  8
回07-寸法
  6
CONTINUOUS
 62
     5
 66
     1
  2
_OPEN
 10
548.2037266609909
 20
527.3844057601568
 30
0.0
 41
1.5
 42
1.5
 43
1.5
 50
180.0
  0
SEQEND
  5
3E5
  8
0
  6
CONTINUOUS
 62
     7
  0
TEXT
  5
3E6
  8
回07-寸法
  6
CONTINUOUS
 62
     5
 10
550.9517581570539
 20
528.1344057601568
 30
0.0
 40
5.0
  1
(5.73)
1001
ACAD
1000
MTEXTBEGIN
1070
    73
1070
     1
1070
    44
1040
1.0
1070
    74
1070
     0
1000
MTEXTEND
  0
POINT
  5
3E7
  8
DEFPOINTS
  6
CONTINUOUS
 62
     0
 10
542.4737266609907
 20
487.299405760156
 30
0.0
  0
POINT
  5
3E8
  8
DEFPOINTS
  6
CONTINUOUS
 62
     0
 10
548.2037266609909
 20
493.364405760156
 30
0.0
  0
POINT
  5
3E9
  8
DEFPOINTS
  6
CONTINUOUS
 62
     0
 10
548.2037266609909
 20
527.3844057601568
 30
0.0
  0
ENDBLK
  5
3EA
  8
0
 62
     5
  0
BLOCK
  8
0
  2
*D66
 70
     1
 10
0.0
 20
0.0
 30
0.0
  3
*D66
  1

  0
LINE
  5
3CC
  8
回07-寸法
  6
CONTINUOUS
 62
     5
 10
540.4737266709912
 20
485.2994057601568
 30
0.0
 11
540.4737266709912
 21
516.3844057601568
 31
0.0
  0
LINE
  5
3CD
  8
回07-寸法
  6
CONTINUOUS
 62
     5
 10
548.2037266609909
 20
493.364405760156
 30
0.0
 11
548.2037266609909
 21
516.3844057601568
 31
0.0
  0
LINE
  5
3CE
  8
回07-寸法
  6
CONTINUOUS
 62
     5
 10
538.9737266709913
 20
515.3844057601568
 30
0.0
 11
537.4737266709912
 21
515.3844057601568
 31
0.0
  0
LINE
  5
3CF
  8
回07-寸法
  6
CONTINUOUS
 62
     5
 10
549.7037266609908
 20
515.3844057601568
 30
0.0
 11
566.6997896531169
 21
515.3844057601568
 31
0.0
  0
LINE
  5
3D0
  8
回07-寸法
  6
CONTINUOUS
 62
     5
 10
540.4737266709912
 20
515.3844057601568
 30
0.0
 11
548.2037266609909
 21
515.3844057601568
 31
0.0
  0
INSERT
  5
3D1
  8
回07-寸法
  6
CONTINUOUS
 62
     5
 66
     1
  2
_OPEN
 10
540.4737266709912
 20
515.3844057601568
 30
0.0
 41
1.5
 42
1.5
 43
1.5
  0
SEQEND
  5
3D2
  8
0
  6
CONTINUOUS
 62
     7
  0
INSERT
  5
3D3
  8
回07-寸法
  6
CONTINUOUS
 62
     5
 66
     1
  2
_OPEN
 10
548.2037266609909
 20
515.3844057601568
 30
0.0
 41
1.5
 42
1.5
 43
1.5
 50
180.0
  0
SEQEND
  5
3D4
  8
0
  6
CONTINUOUS
 62
     7
  0
TEXT
  5
3D5
  8
回07-寸法
  6
CONTINUOUS
 62
     5
 10
550.9517581570539
 20
516.1344057601568
 30
0.0
 40
5.0
  1
(7.73)
1001
ACAD
1000
MTEXTBEGIN
1070
    73
1070
     1
1070
    44
1040
1.0
1070
    74
1070
     0
1000
MTEXTEND
  0
POINT
  5
3D6
  8
DEFPOINTS
  6
CONTINUOUS
 62
     0
 10
540.4737266709912
 20
485.2994057601568
 30
0.0
  0
POINT
  5
3D7
  8
DEFPOINTS
  6
CONTINUOUS
 62
     0
 10
548.2037266609909
 20
493.364405760156
 30
0.0
  0
POINT
  5
3D8
  8
DEFPOINTS
  6
CONTINUOUS
 62
     0
 10
548.2037266609909
 20
515.3844057601568
 30
0.0
  0
ENDBLK
  5
3D9
  8
0
 62
     5
  0
BLOCK
  8
0
  2
*D77
 70
     1
 10
0.0
 20
0.0
 30
0.0
  3
*D77
  1

  0
LINE
  5
3BB
  8
回07-寸法
  6
CONTINUOUS
 62
     5
 10
194.5337266609904
 20
485.2994057601568
 30
0.0
 11
194.5337266609904
 21
516.3844057601568
 31
0.0
  0
LINE
  5
3BC
  8
回07-寸法
  6
CONTINUOUS
 62
     5
 10
186.8037266609904
 20
493.364405760156
 30
0.0
 11
186.8037266609904
 21
516.3844057601568
 31
0.0
  0
LINE
  5
3BD
  8
回07-寸法
  6
CONTINUOUS
 62
     5
 10
196.0337266609904
 20
515.3844057601568
 30
0.0
 11
197.5337266609904
 21
515.3844057601568
 31
0.0
  0
LINE
  5
3BE
  8
回07-寸法
  6
CONTINUOUS
 62
     5
 10
185.3037266609904
 20
515.3844057601568
 30
0.0
 11
172.0966198798038
 21
515.3844057601568
 31
0.0
  0
LINE
  5
3BF
  8
回07-寸法
  6
CONTINUOUS
 62
     5
 10
194.5337266609904
 20
515.3844057601568
 30
0.0
 11
186.8037266609904
 21
515.3844057601568
 31
0.0
  0
INSERT
  5
3C0
  8
回07-寸法
  6
CONTINUOUS
 62
     5
 66
     1
  2
_OPEN
 10
194.5337266609904
 20
515.3844057601568
 30
0.0
 41
1.5
 42
1.5
 43
1.5
 50
180.0
  0
SEQEND
  5
3C1
  8
0
  6
CONTINUOUS
 62
     7
  0
INSERT
  5
3C2
  8
回07-寸法
  6
CONTINUOUS
 62
     5
 66
     1
  2
_OPEN
 10
186.8037266609904
 20
515.3844057601568
 30
0.0
 41
1.5
 42
1.5
 43
1.5
  0
SEQEND
  5
3C3
  8
0
  6
CONTINUOUS
 62
     7
  0
TEXT
  5
3C4
  8
回07-寸法
  6
CONTINUOUS
 62
     5
 10
171.9501732703971
 20
515.8844057601568
 30
0.0
 40
5.0
  1
7.73
1001
ACAD
1000
MTEXTBEGIN
1070
    73
1070
     1
1070
    44
1040
1.0
1070
    74
1070
     0
1000
MTEXTEND
  0
POINT
  5
3C5
  8
DEFPOINTS
  6
CONTINUOUS
 62
     0
 10
194.5337266609904
 20
485.2994057601568
 30
0.0
  0
POINT
  5
3C6
  8
DEFPOINTS
  6
CONTINUOUS
 62
     0
 10
186.8037266609904
 20
493.364405760156
 30
0.0
  0
POINT
  5
3C7
  8
DEFPOINTS
  6
CONTINUOUS
 62
     0
 10
186.8037266609904
 20
515.3844057601568
 30
0.0
  0
ENDBLK
  5
3C8
  8
0
 62
     5
  0
BLOCK
  8
0
  2
*D88
 70
     1
 10
0.0
 20
0.0
 30
0.0
  3
*D88
  1

  0
LINE
  5
3AA
  8
回07-寸法
  6
CONTINUOUS
 62
     5
 10
192.5337266609904
 20
487.2994057601568
 30
0.0
 11
192.5337266609904
 21
528.3844057601568
 31
0.0
  0
LINE
  5
3AB
  8
回07-寸法
  6
CONTINUOUS
 62
     5
 10
186.8037266609904
 20
493.364405760156
 30
0.0
 11
186.8037266609904
 21
528.3844057601568
 31
0.0
  0
LINE
  5
3AC
  8
回07-寸法
  6
CONTINUOUS
 62
     5
 10
194.0337266609904
 20
527.3844057601568
 30
0.0
 11
195.5337266609904
 21
527.3844057601568
 31
0.0
  0
LINE
  5
3AD
  8
回07-寸法
  6
CONTINUOUS
 62
     5
 10
185.3037266609904
 20
527.3844057601568
 30
0.0
 11
172.0966198798038
 21
527.3844057601568
 31
0.0
  0
LINE
  5
3AE
  8
回07-寸法
  6
CONTINUOUS
 62
     5
 10
192.5337266609904
 20
527.3844057601568
 30
0.0
 11
186.8037266609904
 21
527.3844057601568
 31
0.0
  0
INSERT
  5
3AF
  8
回07-寸法
  6
CONTINUOUS
 62
     5
 66
     1
  2
_OPEN
 10
192.5337266609904
 20
527.3844057601568
 30
0.0
 41
1.5
 42
1.5
 43
1.5
 50
180.0
  0
SEQEND
  5
3B0
  8
0
  6
CONTINUOUS
 62
     7
  0
INSERT
  5
3B1
  8
回07-寸法
  6
CONTINUOUS
 62
     5
 66
     1
  2
_OPEN
 10
186.8037266609904
 20
527.3844057601568
 30
0.0
 41
1.5
 42
1.5
 43
1.5
  0
SEQEND
  5
3B2
  8
0
  6
CONTINUOUS
 62
     7
  0
TEXT
  5
3B3
  8
回07-寸法
  6
CONTINUOUS
 62
     5
 10
171.9501732703971
 20
527.8844057601568
 30
0.0
 40
5.0
  1
5.73
1001
ACAD
1000
MTEXTBEGIN
1070
    73
1070
     1
1070
    44
1040
1.0
1070
    74
1070
     0
1000
MTEXTEND
  0
POINT
  5
3B4
  8
DEFPOINTS
  6
CONTINUOUS
 62
     0
 10
192.5337266609904
 20
487.2994057601568
 30
0.0
  0
POINT
  5
3B5
  8
DEFPOINTS
  6
CONTINUOUS
 62
     0
 10
186.8037266609904
 20
493.364405760156
 30
0.0
  0
POINT
  5
3B6
  8
DEFPOINTS
  6
CONTINUOUS
 62
     0
 10
186.8037266609904
 20
527.3844057601568
 30
0.0
  0
ENDBLK
  5
3B7
  8
0
 62
     5
  0
BLOCK
  8
0
  2
*D99
 70
     1
 10
0.0
 20
0.0
 30
0.0
  3
*D99
  1

  0
LINE
  5
39B
  8
回07-寸法
  6
CONTINUOUS
 62
     5
 10
330.5048519764392
 20
278.9694057601569
 30
0.0
 11
302.7370951488178
 21
278.9694057601569
 31
0.0
  0
LINE
  5
39C
  8
回07-寸法
  6
CONTINUOUS
 62
     5
 10
344.7537266609908
 20
178.9734541309678
 30
0.0
 11
302.7370951488178
 21
178.9734541309678
 31
0.0
  0
LINE
  5
39D
  8
回07-寸法
  6
CONTINUOUS
 62
     5
 10
303.7370951488179
 20
277.4694057601569
 30
0.0
 11
303.7370951488179
 21
180.4734541309676
 31
0.0
  0
INSERT
  5
39E
  8
回07-寸法
  6
CONTINUOUS
 62
     5
 66
     1
  2
_OPEN
 10
303.7370951488179
 20
278.9694057601569
 30
0.0
 41
1.5
 42
1.5
 43
1.5
 50
90.0
  0
SEQEND
  5
39F
  8
0
  6
CONTINUOUS
 62
     7
  0
INSERT
  5
3A0
  8
回07-寸法
  6
CONTINUOUS
 62
     5
 66
     1
  2
_OPEN
 10
303.7370951488179
 20
178.9734541309678
 30
0.0
 41
1.5
 42
1.5
 43
1.5
 50
270.0
  0
SEQEND
  5
3A1
  8
0
  6
CONTINUOUS
 62
     7
  0
INSERT
  5
3A2
  8
回07-寸法
  6
CONTINUOUS
 62
     5
 66
     1
  2
*X8181
 10
0.0
 20
0.0
 30
0.0
  0
SEQEND
  5
7EA
  8
0
  6
CONTINUOUS
 62
     7
  0
POINT
  5
3A3
  8
DEFPOINTS
  6
CONTINUOUS
 62
     0
 10
330.5048519764392
 20
278.9694057601569
 30
0.0
  0
POINT
  5
3A4
  8
DEFPOINTS
  6
CONTINUOUS
 62
     0
 10
344.7537266609908
 20
178.9734541309678
 30
0.0
  0
POINT
  5
3A5
  8
DEFPOINTS
  6
CONTINUOUS
 62
     0
 10
303.7370951488179
 20
178.9734541309678
 30
0.0
  0
ENDBLK
  5
3A6
  8
0
 62
     5
  0
BLOCK
  8
0
  2
*D1010
 70
     1
 10
0.0
 20
0.0
 30
0.0
  3
*D1010
  1

  0
LINE
  5
38A
  8
回07-寸法
  6
CONTINUOUS
 62
     5
 10
386.7537266609907
 20
179.4694057601559
 30
0.0
 11
386.7537266609907
 21
152.9787339028296
 31
0.0
  0
LINE
  5
38B
  8
回07-寸法
  6
CONTINUOUS
 62
     5
 10
373.2537266609906
 20
179.4694057601569
 30
0.0
 11
373.2537266609906
 21
152.9787339028296
 31
0.0
  0
LINE
  5
38C
  8
回07-寸法
  6
CONTINUOUS
 62
     5
 10
371.7537266609907
 20
153.9787339028297
 30
0.0
 11
370.2537266609907
 21
153.9787339028297
 31
0.0
  0
LINE
  5
38D
  8
回07-寸法
  6
CONTINUOUS
 62
     5
 10
388.2537266609907
 20
153.9787339028297
 30
0.0
 11
408.6338300074472
 21
153.9787339028297
 31
0.0
  0
LINE
  5
38E
  8
回07-寸法
  6
CONTINUOUS
 62
     5
 10
373.2537266609906
 20
153.9787339028297
 30
0.0
 11
386.7537266609907
 21
153.9787339028297
 31
0.0
  0
INSERT
  5
38F
  8
回07-寸法
  6
CONTINUOUS
 62
     5
 66
     1
  2
_OPEN
 10
373.2537266609906
 20
153.9787339028297
 30
0.0
 41
1.5
 42
1.5
 43
1.5
  0
SEQEND
  5
390
  8
0
  6
CONTINUOUS
 62
     7
  0
INSERT
  5
391
  8
回07-寸法
  6
CONTINUOUS
 62
     5
 66
     1
  2
_OPEN
 10
386.7537266609907
 20
153.9787339028297
 30
0.0
 41
1.5
 42
1.5
 43
1.5
 50
180.0
  0
SEQEND
  5
392
  8
0
  6
CONTINUOUS
 62
     7
  0
INSERT
  5
393
  8
回07-寸法
  6
CONTINUOUS
 62
     5
 66
     1
  2
*X8282
 10
0.0
 20
0.0
 30
0.0
  0
SEQEND
  5
7F0
  8
0
  6
CONTINUOUS
 62
     7
  0
POINT
  5
394
  8
DEFPOINTS
  6
CONTINUOUS
 62
     0
 10
386.7537266609907
 20
179.4694057601559
 30
0.0
  0
POINT
  5
395
  8
DEFPOINTS
  6
CONTINUOUS
 62
     0
 10
373.2537266609906
 20
179.4694057601569
 30
0.0
  0
POINT
  5
396
  8
DEFPOINTS
  6
CONTINUOUS
 62
     0
 10
373.2537266609906
 20
153.9787339028297
 30
0.0
  0
ENDBLK
  5
397
  8
0
 62
     5
  0
BLOCK
  8
0
  2
*D1111
 70
     1
 10
0.0
 20
0.0
 30
0.0
  3
*D1111
  1

  0
LINE
  5
379
  8
回07-寸法
  6
CONTINUOUS
 62
     5
 10
361.7537266609907
 20
179.4694057601569
 30
0.0
 11
361.7537266609907
 21
162.9734541309678
 31
0.0
  0
LINE
  5
37A
  8
回07-寸法
  6
CONTINUOUS
 62
     5
 10
344.2537266609904
 20
179.4694057601569
 30
0.0
 11
344.2537266609904
 21
162.9734541309678
 31
0.0
  0
LINE
  5
37B
  8
回07-寸法
  6
CONTINUOUS
 62
     5
 10
342.7537266609903
 20
163.9734541309678
 30
0.0
 11
341.2537266609904
 21
163.9734541309678
 31
0.0
  0
LINE
  5
37C
  8
回07-寸法
  6
CONTINUOUS
 62
     5
 10
363.2537266609907
 20
163.9734541309678
 30
0.0
 11
406.9652397951854
 21
163.9734541309678
 31
0.0
  0
LINE
  5
37D
  8
回07-寸法
  6
CONTINUOUS
 62
     5
 10
344.2537266609904
 20
163.9734541309678
 30
0.0
 11
361.7537266609907
 21
163.9734541309678
 31
0.0
  0
INSERT
  5
37E
  8
回07-寸法
  6
CONTINUOUS
 62
     5
 66
     1
  2
_OPEN
 10
344.2537266609904
 20
163.9734541309678
 30
0.0
 41
1.5
 42
1.5
 43
1.5
  0
SEQEND
  5
37F
  8
0
  6
CONTINUOUS
 62
     7
  0
INSERT
  5
380
  8
回07-寸法
  6
CONTINUOUS
 62
     5
 66
     1
  2
_OPEN
 10
361.7537266609907
 20
163.9734541309678
 30
0.0
 41
1.5
 42
1.5
 43
1.5
 50
180.0
  0
SEQEND
  5
381
  8
0
  6
CONTINUOUS
 62
     7
  0
INSERT
  5
382
  8
回07-寸法
  6
CONTINUOUS
 62
     5
 66
     1
  2
*X8383
 10
0.0
 20
0.0
 30
0.0
  0
SEQEND
  5
7F6
  8
0
  6
CONTINUOUS
 62
     7
  0
POINT
  5
383
  8
DEFPOINTS
  6
CONTINUOUS
 62
     0
 10
361.7537266609907
 20
179.4694057601569
 30
0.0
  0
POINT
  5
384
  8
DEFPOINTS
  6
CONTINUOUS
 62
     0
 10
344.2537266609904
 20
179.4694057601569
 30
0.0
  0
POINT
  5
385
  8
DEFPOINTS
  6
CONTINUOUS
 62
     0
 10
344.2537266609904
 20
163.9734541309678
 30
0.0
  0
ENDBLK
  5
386
  8
0
 62
     5
  0
BLOCK
  8
0
  2
*D1212
 70
     1
 10
0.0
 20
0.0
 30
0.0
  3
*D1212
  1

  0
LINE
  5
36A
  8
回07-寸法
  6
CONTINUOUS
 62
     5
 10
344.2537266609904
 20
179.4694057601569
 30
0.0
 11
344.2537266609904
 21
162.9734541309677
 31
0.0
  0
LINE
  5
36B
  8
回07-寸法
  6
CONTINUOUS
 62
     5
 10
186.8037266609904
 20
278.969405760157
 30
0.0
 11
186.8037266609904
 21
162.9734541309677
 31
0.0
  0
LINE
  5
36C
  8
回07-寸法
  6
CONTINUOUS
 62
     5
 10
342.7537266609903
 20
163.9734541309677
 30
0.0
 11
188.3037266609903
 21
163.9734541309677
 31
0.0
  0
INSERT
  5
36D
  8
回07-寸法
  6
CONTINUOUS
 62
     5
 66
     1
  2
_OPEN
 10
344.2537266609904
 20
163.9734541309677
 30
0.0
 41
1.5
 42
1.5
 43
1.5
  0
SEQEND
  5
36E
  8
0
  6
CONTINUOUS
 62
     7
  0
INSERT
  5
36F
  8
回07-寸法
  6
CONTINUOUS
 62
     5
 66
     1
  2
_OPEN
 10
186.8037266609904
 20
163.9734541309677
 30
0.0
 41
1.5
 42
1.5
 43
1.5
 50
180.0
  0
SEQEND
  5
370
  8
0
  6
CONTINUOUS
 62
     7
  0
TEXT
  5
371
  8
回07-寸法
  6
CONTINUOUS
 62
     5
 10
254.2787266609904
 20
164.7234541309678
 30
0.0
 40
5.0
  1
(157.45)
1001
ACAD
1000
MTEXTBEGIN
1070
    73
1070
     1
1070
    44
1040
1.0
1070
    74
1070
     0
1000
MTEXTEND
  0
POINT
  5
372
  8
DEFPOINTS
  6
CONTINUOUS
 62
     0
 10
344.2537266609904
 20
179.4694057601569
 30
0.0
  0
POINT
  5
373
  8
DEFPOINTS
  6
CONTINUOUS
 62
     0
 10
186.8037266609904
 20
278.969405760157
 30
0.0
  0
POINT
  5
374
  8
DEFPOINTS
  6
CONTINUOUS
 62
     0
 10
186.8037266609904
 20
163.9734541309677
 30
0.0
  0
ENDBLK
  5
375
  8
0
 62
     5
  0
BLOCK
  8
0
  2
*D1313
 70
     1
 10
0.0
 20
0.0
 30
0.0
  3
*D1313
  1

  0
LINE
  5
34F
  8
回07-寸法
  6
CONTINUOUS
 62
     5
 10
588.6500433423774
 20
491.8844057601559
 30
0.0
 11
588.6500433423774
 21
503.3837292236281
 31
0.0
  0
LINE
  5
350
  8
回07-寸法
  6
CONTINUOUS
 62
     5
 10
609.5432275613481
 20
492.384405760156
 30
0.0
 11
609.5432275613481
 21
503.3837292236281
 31
0.0
  0
LINE
  5
351
  8
回07-寸法
  6
CONTINUOUS
 62
     5
 10
590.1500433423774
 20
502.3837292236281
 30
0.0
 11
608.0432275613478
 21
502.3837292236281
 31
0.0
  0
INSERT
  5
352
  8
回07-寸法
  6
CONTINUOUS
 62
     5
 66
     1
  2
_OPEN
 10
588.6500433423774
 20
502.3837292236281
 30
0.0
 41
1.5
 42
1.5
 43
1.5
 50
180.0
  0
SEQEND
  5
353
  8
0
  6
CONTINUOUS
 62
     7
  0
INSERT
  5
354
  8
回07-寸法
  6
CONTINUOUS
 62
     5
 66
     1
  2
_OPEN
 10
609.5432275613481
 20
502.3837292236281
 30
0.0
 41
1.5
 42
1.5
 43
1.5
  0
SEQEND
  5
355
  8
0
  6
CONTINUOUS
 62
     7
  0
INSERT
  5
356
  8
回07-寸法
  6
CONTINUOUS
 62
     5
 66
     1
  2
*X8484
 10
0.0
 20
0.0
 30
0.0
  0
SEQEND
  5
7FC
  8
0
  6
CONTINUOUS
 62
     7
  0
POINT
  5
357
  8
DEFPOINTS
  6
CONTINUOUS
 62
     0
 10
588.6500433423774
 20
491.8844057601559
 30
0.0
  0
POINT
  5
358
  8
DEFPOINTS
  6
CONTINUOUS
 62
     0
 10
609.5432275613481
 20
492.384405760156
 30
0.0
  0
POINT
  5
359
  8
DEFPOINTS
  6
CONTINUOUS
 62
     0
 10
609.5432275613481
 20
502.3837292236281
 30
0.0
  0
ENDBLK
  5
35A
  8
0
 62
     5
  0
BLOCK
  8
0
  2
*D1414
 70
     1
 10
0.0
 20
0.0
 30
0.0
  3
*D1414
  1

  0
LINE
  5
340
  8
回08-記事
  6
CONTINUOUS
 62
     5
 10
592.6500433423777
 20
178.9734541309673
 30
0.0
 11
583.6886331734062
 21
178.9734541309673
 31
0.0
  0
LINE
  5
341
  8
回08-記事
  6
CONTINUOUS
 62
     5
 10
591.9500433423778
 20
183.9734541309673
 30
0.0
 11
583.6886331734062
 21
183.9734541309673
 31
0.0
  0
LINE
  5
342
  8
回08-記事
  6
CONTINUOUS
 62
     5
 10
584.6886331734062
 20
180.4734541309673
 30
0.0
 11
584.6886331734062
 21
182.4734541309673
 31
0.0
  0
INSERT
  5
343
  8
回08-記事
  6
CONTINUOUS
 62
     5
 66
     1
  2
_OPEN
 10
584.6886331734062
 20
178.9734541309673
 30
0.0
 41
1.5
 42
1.5
 43
1.5
 50
270.0
  0
SEQEND
  5
344
  8
0
  6
CONTINUOUS
 62
     7
  0
INSERT
  5
345
  8
回08-記事
  6
CONTINUOUS
 62
     5
 66
     1
  2
_OPEN
 10
584.6886331734062
 20
183.9734541309673
 30
0.0
 41
1.5
 42
1.5
 43
1.5
 50
90.0
  0
SEQEND
  5
346
  8
0
  6
CONTINUOUS
 62
     7
  0
TEXT
  5
347
  8
回08-記事
  6
CONTINUOUS
 62
     5
 10
584.1886331734059
 20
179.7234541309673
 30
0.0
 40
5.0
  1
5
 50
90.0
1001
ACAD
1000
MTEXTBEGIN
1070
    73
1070
     1
1070
    44
1040
1.0
1070
    74
1070
     0
1000
MTEXTEND
  0
POINT
  5
348
  8
DEFPOINTS
  6
CONTINUOUS
 62
     0
 10
592.6500433423777
 20
178.9734541309673
 30
0.0
  0
POINT
  5
349
  8
DEFPOINTS
  6
CONTINUOUS
 62
     0
 10
591.9500433423778
 20
183.9734541309673
 30
0.0
  0
POINT
  5
34A
  8
DEFPOINTS
  6
CONTINUOUS
 62
     0
 10
584.6886331734062
 20
183.9734541309673
 30
0.0
  0
ENDBLK
  5
34B
  8
0
 62
     5
  0
BLOCK
  8
0
  2
*D1515
 70
     1
 10
0.0
 20
0.0
 30
0.0
  3
*D1515
  1

  0
LINE
  5
331
  8
回08-記事
  6
CONTINUOUS
 62
     5
 10
602.5432275613483
 20
178.9734541309673
 30
0.0
 11
615.8178131272658
 21
178.9734541309673
 31
0.0
  0
LINE
  5
332
  8
回08-記事
  6
CONTINUOUS
 62
     5
 10
603.2432275613484
 20
183.9734541309673
 30
0.0
 11
615.8178131272658
 21
183.9734541309673
 31
0.0
  0
LINE
  5
333
  8
回08-記事
  6
CONTINUOUS
 62
     5
 10
614.8178131272658
 20
180.4734541309673
 30
0.0
 11
614.8178131272658
 21
182.4734541309673
 31
0.0
  0
INSERT
  5
334
  8
回08-記事
  6
CONTINUOUS
 62
     5
 66
     1
  2
_OPEN
 10
614.8178131272658
 20
178.9734541309673
 30
0.0
 41
1.5
 42
1.5
 43
1.5
 50
270.0
  0
SEQEND
  5
335
  8
0
  6
CONTINUOUS
 62
     7
  0
INSERT
  5
336
  8
回08-記事
  6
CONTINUOUS
 62
     5
 66
     1
  2
_OPEN
 10
614.8178131272658
 20
183.9734541309673
 30
0.0
 41
1.5
 42
1.5
 43
1.5
 50
90.0
  0
SEQEND
  5
337
  8
0
  6
CONTINUOUS
 62
     7
  0
TEXT
  5
338
  8
回08-記事
  6
CONTINUOUS
 62
     5
 10
614.3178131272653
 20
179.7234541309672
 30
0.0
 40
5.0
  1
5
 50
90.0
1001
ACAD
1000
MTEXTBEGIN
1070
    73
1070
     1
1070
    44
1040
1.0
1070
    74
1070
     0
1000
MTEXTEND
  0
POINT
  5
339
  8
DEFPOINTS
  6
CONTINUOUS
 62
     0
 10
602.5432275613483
 20
178.9734541309673
 30
0.0
  0
POINT
  5
33A
  8
DEFPOINTS
  6
CONTINUOUS
 62
     0
 10
603.2432275613484
 20
183.9734541309673
 30
0.0
  0
POINT
  5
33B
  8
DEFPOINTS
  6
CONTINUOUS
 62
     0
 10
614.8178131272658
 20
183.9734541309673
 30
0.0
  0
ENDBLK
  5
33C
  8
0
 62
     5
  0
BLOCK
  8
0
  2
*D1616
 70
     1
 10
0.0
 20
0.0
 30
0.0
  3
*D1616
  1

  0
LINE
  5
322
  8
回08-記事
  6
CONTINUOUS
 62
     5
 10
595.1500433423777
 20
188.9734541309673
 30
0.0
 11
600.4245762067395
 21
188.9734541309673
 31
0.0
  0
LINE
  5
323
  8
回08-記事
  6
CONTINUOUS
 62
     5
 10
595.1500433423777
 20
178.9734541309673
 30
0.0
 11
600.4245762067395
 21
178.9734541309673
 31
0.0
  0
LINE
  5
324
  8
回08-記事
  6
CONTINUOUS
 62
     5
 10
599.4245762067395
 20
187.4734541309673
 30
0.0
 11
599.4245762067395
 21
180.4734541309673
 31
0.0
  0
INSERT
  5
325
  8
回08-記事
  6
CONTINUOUS
 62
     5
 66
     1
  2
_OPEN
 10
599.4245762067395
 20
188.9734541309673
 30
0.0
 41
1.5
 42
1.5
 43
1.5
 50
90.0
  0
SEQEND
  5
326
  8
0
  6
CONTINUOUS
 62
     7
  0
INSERT
  5
327
  8
回08-記事
  6
CONTINUOUS
 62
     5
 66
     1
  2
_OPEN
 10
599.4245762067395
 20
178.9734541309673
 30
0.0
 41
1.5
 42
1.5
 43
1.5
 50
270.0
  0
SEQEND
  5
328
  8
0
  6
CONTINUOUS
 62
     7
  0
TEXT
  5
329
  8
回08-記事
  6
CONTINUOUS
 62
     5
 10
598.7579087067395
 20
180.6401041309673
 30
0.0
 40
3.333349999999998
  1
(10)
 50
90.0
1001
ACAD
1000
MTEXTBEGIN
1070
    73
1070
     1
1070
    44
1040
1.0
1070
    74
1070
     0
1000
MTEXTEND
  0
POINT
  5
32A
  8
DEFPOINTS
  6
CONTINUOUS
 62
     0
 10
595.1500433423777
 20
188.9734541309673
 30
0.0
  0
POINT
  5
32B
  8
DEFPOINTS
  6
CONTINUOUS
 62
     0
 10
595.1500433423777
 20
178.9734541309673
 30
0.0
  0
POINT
  5
32C
  8
DEFPOINTS
  6
CONTINUOUS
 62
     0
 10
599.4245762067395
 20
178.9734541309673
 30
0.0
  0
ENDBLK
  5
32D
  8
0
 62
     5
  0
BLOCK
  8
0
  2
*D1717
 70
     1
 10
0.0
 20
0.0
 30
0.0
  3
*D1717
  1

  0
LINE
  5
311
  8
回08-記事
  6
CONTINUOUS
 62
     5
 10
595.1500433423774
 20
178.9734541309673
 30
0.0
 11
595.1500433423774
 21
168.4724718656614
 31
0.0
  0
LINE
  5
312
  8
回08-記事
  6
CONTINUOUS
 62
     5
 10
592.6500433423774
 20
178.9734541309673
 30
0.0
 11
592.6500433423774
 21
168.4724718656614
 31
0.0
  0
LINE
  5
313
  8
回08-記事
  6
CONTINUOUS
 62
     5
 10
596.6500433423774
 20
169.4724718656614
 30
0.0
 11
598.1500433423774
 21
169.4724718656614
 31
0.0
  0
LINE
  5
314
  8
回08-記事
  6
CONTINUOUS
 62
     5
 10
591.1500433423774
 20
169.4724718656614
 30
0.0
 11
570.9242032434864
 21
169.4724718656614
 31
0.0
  0
LINE
  5
315
  8
回08-記事
  6
CONTINUOUS
 62
     5
 10
595.1500433423774
 20
169.4724718656614
 30
0.0
 11
592.6500433423774
 21
169.4724718656614
 31
0.0
  0
INSERT
  5
316
  8
回08-記事
  6
CONTINUOUS
 62
     5
 66
     1
  2
_OPEN
 10
595.1500433423774
 20
169.4724718656614
 30
0.0
 41
1.5
 42
1.5
 43
1.5
 50
180.0
  0
SEQEND
  5
317
  8
0
  6
CONTINUOUS
 62
     7
  0
INSERT
  5
318
  8
回08-記事
  6
CONTINUOUS
 62
     5
 66
     1
  2
_OPEN
 10
592.6500433423774
 20
169.4724718656614
 30
0.0
 41
1.5
 42
1.5
 43
1.5
  0
SEQEND
  5
319
  8
0
  6
CONTINUOUS
 62
     7
  0
INSERT
  5
31A
  8
回08-記事
  6
CONTINUOUS
 62
     5
 66
     1
  2
*X8585
 10
0.0
 20
0.0
 30
0.0
  0
SEQEND
  5
802
  8
0
  6
CONTINUOUS
 62
     7
  0
POINT
  5
31B
  8
DEFPOINTS
  6
CONTINUOUS
 62
     0
 10
595.1500433423774
 20
178.9734541309673
 30
0.0
  0
POINT
  5
31C
  8
DEFPOINTS
  6
CONTINUOUS
 62
     0
 10
592.6500433423774
 20
178.9734541309673
 30
0.0
  0
POINT
  5
31D
  8
DEFPOINTS
  6
CONTINUOUS
 62
     0
 10
592.6500433423774
 20
169.4724718656614
 30
0.0
  0
ENDBLK
  5
31E
  8
0
 62
     5
  0
BLOCK
  8
0
  2
*D1818
 70
     1
 10
0.0
 20
0.0
 30
0.0
  3
*D1818
  1

  0
LINE
  5
300
  8
回08-記事
  6
CONTINUOUS
 62
     5
 10
600.0432275613478
 20
178.9734541309673
 30
0.0
 11
600.0432275613478
 21
162.1853596929056
 31
0.0
  0
LINE
  5
301
  8
回08-記事
  6
CONTINUOUS
 62
     5
 10
602.5432275613479
 20
178.9734541309673
 30
0.0
 11
602.5432275613479
 21
162.1853596929056
 31
0.0
  0
LINE
  5
302
  8
回08-記事
  6
CONTINUOUS
 62
     5
 10
598.5432275613479
 20
163.1853596929056
 30
0.0
 11
597.0432275613481
 21
163.1853596929056
 31
0.0
  0
LINE
  5
303
  8
回08-記事
  6
CONTINUOUS
 62
     5
 10
604.0432275613478
 20
163.1853596929056
 30
0.0
 11
624.2690676602391
 21
163.1853596929056
 31
0.0
  0
LINE
  5
304
  8
回08-記事
  6
CONTINUOUS
 62
     5
 10
600.0432275613478
 20
163.1853596929056
 30
0.0
 11
602.5432275613479
 21
163.1853596929056
 31
0.0
  0
INSERT
  5
305
  8
回08-記事
  6
CONTINUOUS
 62
     5
 66
     1
  2
_OPEN
 10
600.0432275613478
 20
163.1853596929056
 30
0.0
 41
1.5
 42
1.5
 43
1.5
  0
SEQEND
  5
306
  8
0
  6
CONTINUOUS
 62
     7
  0
INSERT
  5
307
  8
回08-記事
  6
CONTINUOUS
 62
     5
 66
     1
  2
_OPEN
 10
602.5432275613479
 20
163.1853596929056
 30
0.0
 41
1.5
 42
1.5
 43
1.5
 50
180.0
  0
SEQEND
  5
308
  8
0
  6
CONTINUOUS
 62
     7
  0
INSERT
  5
309
  8
回08-記事
  6
CONTINUOUS
 62
     5
 66
     1
  2
*X8686
 10
0.0
 20
0.0
 30
0.0
  0
SEQEND
  5
808
  8
0
  6
CONTINUOUS
 62
     7
  0
POINT
  5
30A
  8
DEFPOINTS
  6
CONTINUOUS
 62
     0
 10
600.0432275613478
 20
178.9734541309673
 30
0.0
  0
POINT
  5
30B
  8
DEFPOINTS
  6
CONTINUOUS
 62
     0
 10
602.5432275613479
 20
178.9734541309673
 30
0.0
  0
POINT
  5
30C
  8
DEFPOINTS
  6
CONTINUOUS
 62
     0
 10
602.5432275613479
 20
163.1853596929056
 30
0.0
  0
ENDBLK
  5
30D
  8
0
 62
     5
  0
BLOCK
  8
0
  2
*D1919
 70
     1
 10
0.0
 20
0.0
 30
0.0
  3
*D1919
  1

  0
LINE
  5
2DE
  8
回07-寸法
  6
CONTINUOUS
 62
     5
 10
330.5048519764392
 20
278.9694057601569
 30
0.0
 11
322.260932512675
 21
278.9694057601569
 31
0.0
  0
LINE
  5
2DF
  8
回07-寸法
  6
CONTINUOUS
 62
     5
 10
330.5048519764392
 20
275.3417647970007
 30
0.0
 11
322.260932512675
 21
275.3417647970007
 31
0.0
  0
LINE
  5
2E0
  8
回07-寸法
  6
CONTINUOUS
 62
     5
 10
323.260932512675
 20
280.4694057601569
 30
0.0
 11
323.260932512675
 21
281.9694057601568
 31
0.0
  0
LINE
  5
2E1
  8
回07-寸法
  6
CONTINUOUS
 62
     5
 10
323.260932512675
 20
273.8417647970007
 30
0.0
 11
323.260932512675
 21
262.364195658376
 31
0.0
  0
LINE
  5
2E2
  8
回07-寸法
  6
CONTINUOUS
 62
     5
 10
323.260932512675
 20
278.9694057601569
 30
0.0
 11
323.260932512675
 21
275.3417647970007
 31
0.0
  0
INSERT
  5
2E3
  8
回07-寸法
  6
CONTINUOUS
 62
     5
 66
     1
  2
_OPEN
 10
323.260932512675
 20
278.9694057601569
 30
0.0
 41
1.5
 42
1.5
 43
1.5
 50
270.0
  0
SEQEND
  5
2E4
  8
0
  6
CONTINUOUS
 62
     7
  0
INSERT
  5
2E5
  8
回07-寸法
  6
CONTINUOUS
 62
     5
 66
     1
  2
_OPEN
 10
323.260932512675
 20
275.3417647970007
 30
0.0
 41
1.5
 42
1.5
 43
1.5
 50
90.0
  0
SEQEND
  5
2E6
  8
0
  6
CONTINUOUS
 62
     7
  0
TEXT
  5
2E7
  8
回07-寸法
  6
CONTINUOUS
 62
     5
 10
322.760932512675
 20
262.2361238353226
 30
0.0
 40
5.0
  1
3.6
 50
90.0
1001
ACAD
1000
MTEXTBEGIN
1070
    73
1070
     1
1070
    44
1040
1.0
1070
    74
1070
     0
1000
MTEXTEND
  0
POINT
  5
2E8
  8
DEFPOINTS
  6
CONTINUOUS
 62
     0
 10
330.5048519764392
 20
278.9694057601569
 30
0.0
  0
POINT
  5
2E9
  8
DEFPOINTS
  6
CONTINUOUS
 62
     0
 10
330.5048519764392
 20
275.3417647970007
 30
0.0
  0
POINT
  5
2EA
  8
DEFPOINTS
  6
CONTINUOUS
 62
     0
 10
323.260932512675
 20
275.3417647970007
 30
0.0
  0
ENDBLK
  5
2EB
  8
0
 62
     5
  0
BLOCK
  8
0
  2
*D2020
 70
     1
 10
0.0
 20
0.0
 30
0.0
  3
*D2020
  1

  0
LINE
  5
2CF
  8
回07-寸法
  6
CONTINUOUS
 62
     5
 10
330.5048519764392
 20
278.9694057601569
 30
0.0
 11
315.7031533070977
 21
278.9694057601569
 31
0.0
  0
LINE
  5
2D0
  8
回07-寸法
  6
CONTINUOUS
 62
     5
 10
344.2537266609908
 20
261.5928901124491
 30
0.0
 11
315.7031533070977
 21
261.5928901124491
 31
0.0
  0
LINE
  5
2D1
  8
回07-寸法
  6
CONTINUOUS
 62
     5
 10
316.7031533070976
 20
277.4694057601569
 30
0.0
 11
316.7031533070976
 21
263.0928901124491
 31
0.0
  0
INSERT
  5
2D2
  8
回07-寸法
  6
CONTINUOUS
 62
     5
 66
     1
  2
_OPEN
 10
316.7031533070976
 20
278.9694057601569
 30
0.0
 41
1.5
 42
1.5
 43
1.5
 50
90.0
  0
SEQEND
  5
2D3
  8
0
  6
CONTINUOUS
 62
     7
  0
INSERT
  5
2D4
  8
回07-寸法
  6
CONTINUOUS
 62
     5
 66
     1
  2
_OPEN
 10
316.7031533070976
 20
261.5928901124491
 30
0.0
 41
1.5
 42
1.5
 43
1.5
 50
270.0
  0
SEQEND
  5
2D5
  8
0
  6
CONTINUOUS
 62
     7
  0
TEXT
  5
2D6
  8
回07-寸法
  6
CONTINUOUS
 62
     5
 10
316.2031533070976
 20
265.319992784306
 30
0.0
 40
5.0
  1
17.4
 50
90.0
1001
ACAD
1000
MTEXTBEGIN
1070
    73
1070
     1
1070
    44
1040
1.0
1070
    74
1070
     0
1000
MTEXTEND
  0
POINT
  5
2D7
  8
DEFPOINTS
  6
CONTINUOUS
 62
     0
 10
330.5048519764392
 20
278.9694057601569
 30
0.0
  0
POINT
  5
2D8
  8
DEFPOINTS
  6
CONTINUOUS
 62
     0
 10
344.2537266609908
 20
261.5928901124491
 30
0.0
  0
POINT
  5
2D9
  8
DEFPOINTS
  6
CONTINUOUS
 62
     0
 10
316.7031533070976
 20
261.5928901124491
 30
0.0
  0
ENDBLK
  5
2DA
  8
0
 62
     5
  0
BLOCK
  8
0
  2
*D2121
 70
     1
 10
0.0
 20
0.0
 30
0.0
  3
*D2121
  1

  0
LINE
  5
2BE
  8
回07-寸法
  6
CONTINUOUS
 62
     5
 10
393.5048519764393
 20
278.9694057601563
 30
0.0
 11
400.7610479735227
 21
278.9694057601563
 31
0.0
  0
LINE
  5
2BF
  8
回07-寸法
  6
CONTINUOUS
 62
     5
 10
393.5048519764393
 20
275.4137708415453
 30
0.0
 11
400.7610479735227
 21
275.4137708415453
 31
0.0
  0
LINE
  5
2C0
  8
回07-寸法
  6
CONTINUOUS
 62
     5
 10
399.7610479735227
 20
280.4694057601563
 30
0.0
 11
399.7610479735227
 21
281.9694057601564
 31
0.0
  0
LINE
  5
2C1
  8
回07-寸法
  6
CONTINUOUS
 62
     5
 10
399.7610479735227
 20
273.9137708415453
 30
0.0
 11
399.7610479735227
 21
259.6989935331109
 31
0.0
  0
LINE
  5
2C2
  8
回07-寸法
  6
CONTINUOUS
 62
     5
 10
399.7610479735227
 20
278.9694057601563
 30
0.0
 11
399.7610479735227
 21
275.4137708415453
 31
0.0
  0
INSERT
  5
2C3
  8
回07-寸法
  6
CONTINUOUS
 62
     5
 66
     1
  2
_OPEN
 10
399.7610479735227
 20
278.9694057601563
 30
0.0
 41
1.5
 42
1.5
 43
1.5
 50
270.0
  0
SEQEND
  5
2C4
  8
0
  6
CONTINUOUS
 62
     7
  0
INSERT
  5
2C5
  8
回07-寸法
  6
CONTINUOUS
 62
     5
 66
     1
  2
_OPEN
 10
399.7610479735227
 20
275.4137708415453
 30
0.0
 41
1.5
 42
1.5
 43
1.5
 50
90.0
  0
SEQEND
  5
2C6
  8
0
  6
CONTINUOUS
 62
     7
  0
TEXT
  5
2C7
  8
回07-寸法
  6
CONTINUOUS
 62
     5
 10
399.2610479735227
 20
259.5709217100574
 30
0.0
 40
5.0
  1
3.6
 50
90.0
1001
ACAD
1000
MTEXTBEGIN
1070
    73
1070
     1
1070
    44
1040
1.0
1070
    74
1070
     0
1000
MTEXTEND
  0
POINT
  5
2C8
  8
DEFPOINTS
  6
CONTINUOUS
 62
     0
 10
393.5048519764393
 20
278.9694057601563
 30
0.0
  0
POINT
  5
2C9
  8
DEFPOINTS
  6
CONTINUOUS
 62
     0
 10
393.5048519764393
 20
275.4137708415453
 30
0.0
  0
POINT
  5
2CA
  8
DEFPOINTS
  6
CONTINUOUS
 62
     0
 10
399.7610479735227
 20
275.4137708415453
 30
0.0
  0
ENDBLK
  5
2CB
  8
0
 62
     5
  0
BLOCK
  8
0
  2
*D2222
 70
     1
 10
0.0
 20
0.0
 30
0.0
  3
*D2222
  1

  0
LINE
  5
2AD
  8
回07-寸法
  6
CONTINUOUS
 62
     5
 10
393.5048519764393
 20
278.9694057601563
 30
0.0
 11
408.0971531641191
 21
278.9694057601563
 31
0.0
  0
LINE
  5
2AE
  8
回07-寸法
  6
CONTINUOUS
 62
     5
 10
386.7537266609909
 20
268.6626455260973
 30
0.0
 11
408.0971531641191
 21
268.6626455260973
 31
0.0
  0
LINE
  5
2AF
  8
回07-寸法
  6
CONTINUOUS
 62
     5
 10
407.0971531641191
 20
280.4694057601563
 30
0.0
 11
407.0971531641191
 21
281.9694057601564
 31
0.0
  0
LINE
  5
2B0
  8
回07-寸法
  6
CONTINUOUS
 62
     5
 10
407.0971531641191
 20
267.1626455260973
 30
0.0
 11
407.0971531641191
 21
253.8090921355041
 31
0.0
  0
LINE
  5
2B1
  8
回07-寸法
  6
CONTINUOUS
 62
     5
 10
407.0971531641191
 20
278.9694057601563
 30
0.0
 11
407.0971531641191
 21
268.6626455260973
 31
0.0
  0
INSERT
  5
2B2
  8
回07-寸法
  6
CONTINUOUS
 62
     5
 66
     1
  2
_OPEN
 10
407.0971531641191
 20
278.9694057601563
 30
0.0
 41
1.5
 42
1.5
 43
1.5
 50
270.0
  0
SEQEND
  5
2B3
  8
0
  6
CONTINUOUS
 62
     7
  0
INSERT
  5
2B4
  8
回07-寸法
  6
CONTINUOUS
 62
     5
 66
     1
  2
_OPEN
 10
407.0971531641191
 20
268.6626455260973
 30
0.0
 41
1.5
 42
1.5
 43
1.5
 50
90.0
  0
SEQEND
  5
2B5
  8
0
  6
CONTINUOUS
 62
     7
  0
TEXT
  5
2B6
  8
回07-寸法
  6
CONTINUOUS
 62
     5
 10
406.5971531641191
 20
253.6626455260972
 30
0.0
 40
5.0
  1
10.3
 50
90.0
1001
ACAD
1000
MTEXTBEGIN
1070
    73
1070
     1
1070
    44
1040
1.0
1070
    74
1070
     0
1000
MTEXTEND
  0
POINT
  5
2B7
  8
DEFPOINTS
  6
CONTINUOUS
 62
     0
 10
393.5048519764393
 20
278.9694057601563
 30
0.0
  0
POINT
  5
2B8
  8
DEFPOINTS
  6
CONTINUOUS
 62
     0
 10
386.7537266609909
 20
268.6626455260973
 30
0.0
  0
POINT
  5
2B9
  8
DEFPOINTS
  6
CONTINUOUS
 62
     0
 10
407.0971531641191
 20
268.6626455260973
 30
0.0
  0
ENDBLK
  5
2BA
  8
0
 62
     5
  0
BLOCK
  8
0
  2
*D2323
 70
     1
 10
0.0
 20
0.0
 30
0.0
  3
*D2323
  1

  0
LINE
  5
29C
  8
回07-寸法
  6
CONTINUOUS
 62
     5
 10
365.5048519764391
 20
275.7519299885631
 30
0.0
 11
365.5048519764391
 21
252.3338104239019
 31
0.0
  0
LINE
  5
29D
  8
回07-寸法
  6
CONTINUOUS
 62
     5
 10
330.5048519764391
 20
275.7559783593739
 30
0.0
 11
330.5048519764391
 21
252.3338104239019
 31
0.0
  0
LINE
  5
29E
  8
回07-寸法
  6
CONTINUOUS
 62
     5
 10
367.0048519764391
 20
253.3338104239019
 30
0.0
 11
368.5048519764391
 21
253.3338104239019
 31
0.0
  0
LINE
  5
29F
  8
回07-寸法
  6
CONTINUOUS
 62
     5
 10
329.0048519764391
 20
253.3338104239019
 30
0.0
 11
320.4966038947389
 21
253.3338104239019
 31
0.0
  0
LINE
  5
2A0
  8
回07-寸法
  6
CONTINUOUS
 62
     5
 10
365.5048519764391
 20
253.3338104239019
 30
0.0
 11
330.5048519764391
 21
253.3338104239019
 31
0.0
  0
INSERT
  5
2A1
  8
回07-寸法
  6
CONTINUOUS
 62
     5
 66
     1
  2
_OPEN
 10
365.5048519764391
 20
253.3338104239019
 30
0.0
 41
1.5
 42
1.5
 43
1.5
 50
180.0
  0
SEQEND
  5
2A2
  8
0
  6
CONTINUOUS
 62
     7
  0
INSERT
  5
2A3
  8
回07-寸法
  6
CONTINUOUS
 62
     5
 66
     1
  2
_OPEN
 10
330.5048519764391
 20
253.3338104239019
 30
0.0
 41
1.5
 42
1.5
 43
1.5
  0
SEQEND
  5
2A4
  8
0
  6
CONTINUOUS
 62
     7
  0
TEXT
  5
2A5
  8
回07-寸法
  6
CONTINUOUS
 62
     5
 10
320.3501572853322
 20
253.8338104239019
 30
0.0
 40
5.0
  1
35
1001
ACAD
1000
MTEXTBEGIN
1070
    73
1070
     1
1070
    44
1040
1.0
1070
    74
1070
     0
1000
MTEXTEND
  0
POINT
  5
2A6
  8
DEFPOINTS
  6
CONTINUOUS
 62
     0
 10
365.5048519764391
 20
275.7519299885631
 30
0.0
  0
POINT
  5
2A7
  8
DEFPOINTS
  6
CONTINUOUS
 62
     0
 10
330.5048519764391
 20
275.7559783593739
 30
0.0
  0
POINT
  5
2A8
  8
DEFPOINTS
  6
CONTINUOUS
 62
     0
 10
330.5048519764391
 20
253.3338104239019
 30
0.0
  0
ENDBLK
  5
2A9
  8
0
 62
     5
  0
BLOCK
  8
0
  2
*D2424
 70
     1
 10
0.0
 20
0.0
 30
0.0
  3
*D2424
  1

  0
LINE
  5
28B
  8
回07-寸法
  6
CONTINUOUS
 62
     5
 10
366.5048519764391
 20
275.8239360331078
 30
0.0
 11
366.5048519764391
 21
245.9151531822254
 31
0.0
  0
LINE
  5
28C
  8
回07-寸法
  6
CONTINUOUS
 62
     5
 10
393.5048519764391
 20
275.8279844039186
 30
0.0
 11
393.5048519764391
 21
245.9151531822254
 31
0.0
  0
LINE
  5
28D
  8
回07-寸法
  6
CONTINUOUS
 62
     5
 10
365.0048519764391
 20
246.9151531822254
 30
0.0
 11
363.5048519764391
 21
246.9151531822254
 31
0.0
  0
LINE
  5
28E
  8
回07-寸法
  6
CONTINUOUS
 62
     5
 10
395.0048519764391
 20
246.9151531822254
 30
0.0
 11
403.1318204803759
 21
246.9151531822254
 31
0.0
  0
LINE
  5
28F
  8
回07-寸法
  6
CONTINUOUS
 62
     5
 10
366.5048519764391
 20
246.9151531822254
 30
0.0
 11
393.5048519764391
 21
246.9151531822254
 31
0.0
  0
INSERT
  5
290
  8
回07-寸法
  6
CONTINUOUS
 62
     5
 66
     1
  2
_OPEN
 10
366.5048519764391
 20
246.9151531822254
 30
0.0
 41
1.5
 42
1.5
 43
1.5
  0
SEQEND
  5
291
  8
0
  6
CONTINUOUS
 62
     7
  0
INSERT
  5
292
  8
回07-寸法
  6
CONTINUOUS
 62
     5
 66
     1
  2
_OPEN
 10
393.5048519764391
 20
246.9151531822254
 30
0.0
 41
1.5
 42
1.5
 43
1.5
 50
180.0
  0
SEQEND
  5
293
  8
0
  6
CONTINUOUS
 62
     7
  0
TEXT
  5
294
  8
回07-寸法
  6
CONTINUOUS
 62
     5
 10
396.3183362284076
 20
247.4156453082096
 30
0.0
 40
5.0
  1
27
1001
ACAD
1000
MTEXTBEGIN
1070
    73
1070
     1
1070
    44
1040
1.0
1070
    74
1070
     0
1000
MTEXTEND
  0
POINT
  5
295
  8
DEFPOINTS
  6
CONTINUOUS
 62
     0
 10
366.5048519764391
 20
275.8239360331078
 30
0.0
  0
POINT
  5
296
  8
DEFPOINTS
  6
CONTINUOUS
 62
     0
 10
393.5048519764391
 20
275.8279844039186
 30
0.0
  0
POINT
  5
297
  8
DEFPOINTS
  6
CONTINUOUS
 62
     0
 10
393.5048519764391
 20
246.9151531822254
 30
0.0
  0
ENDBLK
  5
298
  8
0
 62
     5
  0
BLOCK
  8
0
  2
*D2525
 70
     1
 10
0.0
 20
0.0
 30
0.0
  3
*D2525
  1

  0
LINE
  5
242
  8
回07-寸法
  6
CONTINUOUS
 62
     5
 10
192.0837266609906
 20
287.6194057601566
 30
0.0
 11
134.8037266609902
 21
287.6194057601566
 31
0.0
  0
LINE
  5
243
  8
回07-寸法
  6
CONTINUOUS
 62
     5
 10
192.0837266609906
 20
487.7494057601568
 30
0.0
 11
134.8037266609902
 21
487.7494057601568
 31
0.0
  0
LINE
  5
244
  8
回07-寸法
  6
CONTINUOUS
 62
     5
 10
135.8037266609902
 20
289.1194057601567
 30
0.0
 11
135.8037266609902
 21
486.2494057601568
 31
0.0
  0
INSERT
  5
245
  8
回07-寸法
  6
CONTINUOUS
 62
     5
 66
     1
  2
_OPEN
 10
135.8037266609902
 20
287.6194057601566
 30
0.0
 41
1.5
 42
1.5
 43
1.5
 50
270.0
  0
SEQEND
  5
246
  8
0
  6
CONTINUOUS
 62
     7
  0
INSERT
  5
247
  8
回07-寸法
  6
CONTINUOUS
 62
     5
 66
     1
  2
_OPEN
 10
135.8037266609902
 20
487.7494057601568
 30
0.0
 41
1.5
 42
1.5
 43
1.5
 50
90.0
  0
SEQEND
  5
248
  8
0
  6
CONTINUOUS
 62
     7
  0
TEXT
  5
249
  8
回07-寸法
  6
CONTINUOUS
 62
     5
 10
135.303234535006
 20
378.6844057601566
 30
0.0
 40
5.0
  1
200.13
 50
90.0
1001
ACAD
1000
MTEXTBEGIN
1070
    73
1070
     1
1070
    44
1040
1.0
1070
    74
1070
     0
1000
MTEXTEND
  0
POINT
  5
24A
  8
DEFPOINTS
  6
CONTINUOUS
 62
     0
 10
192.0837266609906
 20
287.6194057601566
 30
0.0
  0
POINT
  5
24B
  8
DEFPOINTS
  6
CONTINUOUS
 62
     0
 10
192.0837266609906
 20
487.7494057601568
 30
0.0
  0
POINT
  5
24C
  8
DEFPOINTS
  6
CONTINUOUS
 62
     0
 10
135.8037266609902
 20
487.7494057601568
 30
0.0
  0
ENDBLK
  5
24D
  8
0
 62
     5
  0
BLOCK
  8
0
  2
*D2626
 70
     1
 10
0.0
 20
0.0
 30
0.0
  3
*D2626
  1

  0
LINE
  5
231
  8
回07-寸法
  6
CONTINUOUS
 62
     5
 10
192.0837266609906
 20
287.6194057601566
 30
0.0
 11
134.8037266609901
 21
287.6194057601566
 31
0.0
  0
LINE
  5
232
  8
回07-寸法
  6
CONTINUOUS
 62
     5
 10
186.8037266609904
 20
278.9694057601571
 30
0.0
 11
134.8037266609901
 21
278.9694057601571
 31
0.0
  0
LINE
  5
233
  8
回07-寸法
  6
CONTINUOUS
 62
     5
 10
135.8037266609901
 20
289.1194057601567
 30
0.0
 11
135.8037266609901
 21
290.6194057601567
 31
0.0
  0
LINE
  5
234
  8
回07-寸法
  6
CONTINUOUS
 62
     5
 10
135.8037266609901
 20
277.4694057601571
 30
0.0
 11
135.8037266609901
 21
233.5442094117319
 31
0.0
  0
LINE
  5
235
  8
回07-寸法
  6
CONTINUOUS
 62
     5
 10
135.8037266609901
 20
287.6194057601566
 30
0.0
 11
135.8037266609901
 21
278.9694057601571
 31
0.0
  0
INSERT
  5
236
  8
回07-寸法
  6
CONTINUOUS
 62
     5
 66
     1
  2
_OPEN
 10
135.8037266609901
 20
287.6194057601566
 30
0.0
 41
1.5
 42
1.5
 43
1.5
 50
270.0
  0
SEQEND
  5
237
  8
0
  6
CONTINUOUS
 62
     7
  0
INSERT
  5
238
  8
回07-寸法
  6
CONTINUOUS
 62
     5
 66
     1
  2
_OPEN
 10
135.8037266609901
 20
278.9694057601571
 30
0.0
 41
1.5
 42
1.5
 43
1.5
 50
90.0
  0
SEQEND
  5
239
  8
0
  6
CONTINUOUS
 62
     7
  0
INSERT
  5
23A
  8
回07-寸法
  6
CONTINUOUS
 62
     5
 66
     1
  2
*X8787
 10
0.0
 20
0.0
 30
0.0
  0
SEQEND
  5
80E
  8
0
  6
CONTINUOUS
 62
     7
  0
POINT
  5
23B
  8
DEFPOINTS
  6
CONTINUOUS
 62
     0
 10
192.0837266609906
 20
287.6194057601566
 30
0.0
  0
POINT
  5
23C
  8
DEFPOINTS
  6
CONTINUOUS
 62
     0
 10
186.8037266609904
 20
278.9694057601571
 30
0.0
  0
POINT
  5
23D
  8
DEFPOINTS
  6
CONTINUOUS
 62
     0
 10
135.8037266609901
 20
278.9694057601571
 30
0.0
  0
ENDBLK
  5
23E
  8
0
 62
     5
  0
BLOCK
  8
0
  2
*D2727
 70
     1
 10
0.0
 20
0.0
 30
0.0
  3
*D2727
  1

  0
LINE
  5
220
  8
回07-寸法
  6
CONTINUOUS
 62
     5
 10
192.0837266609906
 20
487.7494057601568
 30
0.0
 11
134.8037266609902
 21
487.7494057601568
 31
0.0
  0
LINE
  5
221
  8
回07-寸法
  6
CONTINUOUS
 62
     5
 10
186.8037266609904
 20
493.3644057601561
 30
0.0
 11
134.8037266609902
 21
493.3644057601561
 31
0.0
  0
LINE
  5
222
  8
回07-寸法
  6
CONTINUOUS
 62
     5
 10
135.8037266609902
 20
486.2494057601568
 30
0.0
 11
135.8037266609902
 21
484.7494057601568
 31
0.0
  0
LINE
  5
223
  8
回07-寸法
  6
CONTINUOUS
 62
     5
 10
135.8037266609902
 20
494.8644057601561
 30
0.0
 11
135.8037266609902
 21
545.1210836046443
 31
0.0
  0
LINE
  5
224
  8
回07-寸法
  6
CONTINUOUS
 62
     5
 10
135.8037266609902
 20
487.7494057601568
 30
0.0
 11
135.8037266609902
 21
493.3644057601561
 31
0.0
  0
INSERT
  5
225
  8
回07-寸法
  6
CONTINUOUS
 62
     5
 66
     1
  2
_OPEN
 10
135.8037266609902
 20
487.7494057601568
 30
0.0
 41
1.5
 42
1.5
 43
1.5
 50
90.0
  0
SEQEND
  5
226
  8
0
  6
CONTINUOUS
 62
     7
  0
INSERT
  5
227
  8
回07-寸法
  6
CONTINUOUS
 62
     5
 66
     1
  2
_OPEN
 10
135.8037266609902
 20
493.3644057601561
 30
0.0
 41
1.5
 42
1.5
 43
1.5
 50
270.0
  0
SEQEND
  5
228
  8
0
  6
CONTINUOUS
 62
     7
  0
INSERT
  5
229
  8
回07-寸法
  6
CONTINUOUS
 62
     5
 66
     1
  2
*X8888
 10
0.0
 20
0.0
 30
0.0
  0
SEQEND
  5
814
  8
0
  6
CONTINUOUS
 62
     7
  0
POINT
  5
22A
  8
DEFPOINTS
  6
CONTINUOUS
 62
     0
 10
192.0837266609906
 20
487.7494057601568
 30
0.0
  0
POINT
  5
22B
  8
DEFPOINTS
  6
CONTINUOUS
 62
     0
 10
186.8037266609904
 20
493.3644057601561
 30
0.0
  0
POINT
  5
22C
  8
DEFPOINTS
  6
CONTINUOUS
 62
     0
 10
135.8037266609902
 20
493.3644057601561
 30
0.0
  0
ENDBLK
  5
22D
  8
0
 62
     5
  0
BLOCK
  8
0
  2
*D2828
 70
     1
 10
0.0
 20
0.0
 30
0.0
  3
*D2828
  1

  0
LINE
  5
20F
  8
回07-寸法
  6
CONTINUOUS
 62
     5
 10
192.0837266609906
 20
487.7494057601567
 30
0.0
 11
192.0837266609906
 21
540.3844057601568
 31
0.0
  0
LINE
  5
210
  8
回07-寸法
  6
CONTINUOUS
 62
     5
 10
186.8037266609904
 20
493.3644057601568
 30
0.0
 11
186.8037266609904
 21
540.3844057601568
 31
0.0
  0
LINE
  5
211
  8
回07-寸法
  6
CONTINUOUS
 62
     5
 10
193.5837266609905
 20
539.3844057601568
 30
0.0
 11
195.0837266609905
 21
539.3844057601568
 31
0.0
  0
LINE
  5
212
  8
回07-寸法
  6
CONTINUOUS
 62
     5
 10
185.3037266609904
 20
539.3844057601568
 30
0.0
 11
139.0450803125652
 21
539.3844057601568
 31
0.0
  0
LINE
  5
213
  8
回07-寸法
  6
CONTINUOUS
 62
     5
 10
192.0837266609906
 20
539.3844057601568
 30
0.0
 11
186.8037266609904
 21
539.3844057601568
 31
0.0
  0
INSERT
  5
214
  8
回07-寸法
  6
CONTINUOUS
 62
     5
 66
     1
  2
_OPEN
 10
192.0837266609906
 20
539.3844057601568
 30
0.0
 41
1.5
 42
1.5
 43
1.5
 50
180.0
  0
SEQEND
  5
215
  8
0
  6
CONTINUOUS
 62
     7
  0
INSERT
  5
216
  8
回07-寸法
  6
CONTINUOUS
 62
     5
 66
     1
  2
_OPEN
 10
186.8037266609904
 20
539.3844057601568
 30
0.0
 41
1.5
 42
1.5
 43
1.5
  0
SEQEND
  5
217
  8
0
  6
CONTINUOUS
 62
     7
  0
INSERT
  5
218
  8
回07-寸法
  6
CONTINUOUS
 62
     5
 66
     1
  2
*X8989
 10
0.0
 20
0.0
 30
0.0
  0
SEQEND
  5
81A
  8
0
  6
CONTINUOUS
 62
     7
  0
POINT
  5
219
  8
DEFPOINTS
  6
CONTINUOUS
 62
     0
 10
192.0837266609906
 20
487.7494057601567
 30
0.0
  0
POINT
  5
21A
  8
DEFPOINTS
  6
CONTINUOUS
 62
     0
 10
186.8037266609904
 20
493.3644057601568
 30
0.0
  0
POINT
  5
21B
  8
DEFPOINTS
  6
CONTINUOUS
 62
     0
 10
186.8037266609904
 20
539.3844057601568
 30
0.0
  0
ENDBLK
  5
21C
  8
0
 62
     5
  0
BLOCK
  8
0
  2
*D2929
 70
     1
 10
0.0
 20
0.0
 30
0.0
  3
*D2929
  1

  0
LINE
  5
200
  8
回07-寸法
  6
CONTINUOUS
 62
     5
 10
542.9237266609907
 20
487.7494057601567
 30
0.0
 11
542.9237266609907
 21
540.3844057601568
 31
0.0
  0
LINE
  5
201
  8
回07-寸法
  6
CONTINUOUS
 62
     5
 10
192.0837266609906
 20
487.7494057601567
 30
0.0
 11
192.0837266609906
 21
540.3844057601568
 31
0.0
  0
LINE
  5
202
  8
回07-寸法
  6
CONTINUOUS
 62
     5
 10
541.4237266609907
 20
539.3844057601568
 30
0.0
 11
193.5837266609905
 21
539.3844057601568
 31
0.0
  0
INSERT
  5
203
  8
回07-寸法
  6
CONTINUOUS
 62
     5
 66
     1
  2
_OPEN
 10
542.9237266609907
 20
539.3844057601568
 30
0.0
 41
1.5
 42
1.5
 43
1.5
  0
SEQEND
  5
204
  8
0
  6
CONTINUOUS
 62
     7
  0
INSERT
  5
205
  8
回07-寸法
  6
CONTINUOUS
 62
     5
 66
     1
  2
_OPEN
 10
192.0837266609906
 20
539.3844057601568
 30
0.0
 41
1.5
 42
1.5
 43
1.5
 50
180.0
  0
SEQEND
  5
206
  8
0
  6
CONTINUOUS
 62
     7
  0
TEXT
  5
207
  8
回07-寸法
  6
CONTINUOUS
 62
     5
 10
357.7537266609907
 20
539.8844057601568
 30
0.0
 40
5.0
  1
350.84
1001
ACAD
1000
MTEXTBEGIN
1070
    73
1070
     1
1070
    44
1040
1.0
1070
    74
1070
     0
1000
MTEXTEND
  0
POINT
  5
208
  8
DEFPOINTS
  6
CONTINUOUS
 62
     0
 10
542.9237266609907
 20
487.7494057601567
 30
0.0
  0
POINT
  5
209
  8
DEFPOINTS
  6
CONTINUOUS
 62
     0
 10
192.0837266609906
 20
487.7494057601567
 30
0.0
  0
POINT
  5
20A
  8
DEFPOINTS
  6
CONTINUOUS
 62
     0
 10
192.0837266609906
 20
539.3844057601568
 30
0.0
  0
ENDBLK
  5
20B
  8
0
 62
     5
  0
BLOCK
  8
0
  2
*D3030
 70
     1
 10
0.0
 20
0.0
 30
0.0
  3
*D3030
  1

  0
LINE
  5
1EF
  8
回07-寸法
  6
CONTINUOUS
 62
     5
 10
542.9237266609907
 20
487.7494057601567
 30
0.0
 11
542.9237266609907
 21
540.3844057601568
 31
0.0
  0
LINE
  5
1F0
  8
回07-寸法
  6
CONTINUOUS
 62
     5
 10
548.2037266609909
 20
493.364405760156
 30
0.0
 11
548.2037266609909
 21
540.3844057601568
 31
0.0
  0
LINE
  5
1F1
  8
回07-寸法
  6
CONTINUOUS
 62
     5
 10
541.4237266609907
 20
539.3844057601568
 30
0.0
 11
539.9237266609907
 21
539.3844057601568
 31
0.0
  0
LINE
  5
1F2
  8
回07-寸法
  6
CONTINUOUS
 62
     5
 10
549.7037266609908
 20
539.3844057601568
 30
0.0
 11
599.9604045054791
 21
539.3844057601568
 31
0.0
  0
LINE
  5
1F3
  8
回07-寸法
  6
CONTINUOUS
 62
     5
 10
542.9237266609907
 20
539.3844057601568
 30
0.0
 11
548.2037266609909
 21
539.3844057601568
 31
0.0
  0
INSERT
  5
1F4
  8
回07-寸法
  6
CONTINUOUS
 62
     5
 66
     1
  2
_OPEN
 10
542.9237266609907
 20
539.3844057601568
 30
0.0
 41
1.5
 42
1.5
 43
1.5
  0
SEQEND
  5
1F5
  8
0
  6
CONTINUOUS
 62
     7
  0
INSERT
  5
1F6
  8
回07-寸法
  6
CONTINUOUS
 62
     5
 66
     1
  2
_OPEN
 10
548.2037266609909
 20
539.3844057601568
 30
0.0
 41
1.5
 42
1.5
 43
1.5
 50
180.0
  0
SEQEND
  5
1F7
  8
0
  6
CONTINUOUS
 62
     7
  0
INSERT
  5
1F8
  8
回07-寸法
  6
CONTINUOUS
 62
     5
 66
     1
  2
*X9090
 10
0.0
 20
0.0
 30
0.0
  0
SEQEND
  5
820
  8
0
  6
CONTINUOUS
 62
     7
  0
POINT
  5
1F9
  8
DEFPOINTS
  6
CONTINUOUS
 62
     0
 10
542.9237266609907
 20
487.7494057601567
 30
0.0
  0
POINT
  5
1FA
  8
DEFPOINTS
  6
CONTINUOUS
 62
     0
 10
548.2037266609909
 20
493.364405760156
 30
0.0
  0
POINT
  5
1FB
  8
DEFPOINTS
  6
CONTINUOUS
 62
     0
 10
548.2037266609909
 20
539.3844057601568
 30
0.0
  0
ENDBLK
  5
1FC
  8
0
 62
     5
  0
BLOCK
  8
0
  2
*D3131
 70
     1
 10
0.0
 20
0.0
 30
0.0
  3
*D3131
  1

  0
LINE
  5
47D
  8
回07-寸法
  6
CONTINUOUS
 62
     5
 10
194.5337266609905
 20
290.0694057601567
 30
0.0
 11
161.8037266609903
 21
290.0694057601567
 31
0.0
  0
LINE
  5
47E
  8
回07-寸法
  6
CONTINUOUS
 62
     5
 10
194.5337266609905
 20
485.299405760157
 30
0.0
 11
161.8037266609903
 21
485.299405760157
 31
0.0
  0
LINE
  5
47F
  8
回07-寸法
  6
CONTINUOUS
 62
     5
 10
162.8037266609903
 20
291.5694057601568
 30
0.0
 11
162.8037266609903
 21
483.799405760157
 31
0.0
  0
INSERT
  5
480
  8
回07-寸法
  6
CONTINUOUS
 62
     5
 66
     1
  2
_OPEN
 10
162.8037266609903
 20
290.0694057601567
 30
0.0
 41
1.5
 42
1.5
 43
1.5
 50
270.0
  0
SEQEND
  5
481
  8
0
  6
CONTINUOUS
 62
     7
  0
INSERT
  5
482
  8
回07-寸法
  6
CONTINUOUS
 62
     5
 66
     1
  2
_OPEN
 10
162.8037266609902
 20
485.299405760157
 30
0.0
 41
1.5
 42
1.5
 43
1.5
 50
90.0
  0
SEQEND
  5
483
  8
0
  6
CONTINUOUS
 62
     7
  0
TEXT
  5
484
  8
回07-寸法
  6
CONTINUOUS
 62
     5
 10
162.0537266609904
 20
358.926364090808
 30
0.0
 40
5.0
  1
195.23(Active area)
 50
90.0
1001
ACAD
1000
MTEXTBEGIN
1070
    73
1070
     1
1070
    44
1040
1.0
1070
    74
1070
     0
1000
MTEXTEND
  0
POINT
  5
485
  8
DEFPOINTS
  6
CONTINUOUS
 62
     0
 10
194.5337266609905
 20
290.0694057601567
 30
0.0
  0
POINT
  5
486
  8
DEFPOINTS
  6
CONTINUOUS
 62
     0
 10
194.5337266609905
 20
485.299405760157
 30
0.0
  0
POINT
  5
487
  8
DEFPOINTS
  6
CONTINUOUS
 62
     0
 10
162.8037266609902
 20
485.299405760157
 30
0.0
  0
ENDBLK
  5
488
  8
0
 62
     5
  0
BLOCK
  8
0
  2
*D3232
 70
     1
 10
0.0
 20
0.0
 30
0.0
  3
*D3232
  1

  0
LINE
  5
46E
  8
回07-寸法
  6
CONTINUOUS
 62
     5
 10
192.5337266609905
 20
487.299405760157
 30
0.0
 11
148.8037266609901
 21
487.299405760157
 31
0.0
  0
LINE
  5
46F
  8
回07-寸法
  6
CONTINUOUS
 62
     5
 10
192.5337266609905
 20
288.0694057601565
 30
0.0
 11
148.8037266609903
 21
288.0694057601565
 31
0.0
  0
LINE
  5
470
  8
回07-寸法
  6
CONTINUOUS
 62
     5
 10
149.8037266609902
 20
485.7994057601571
 30
0.0
 11
149.8037266609902
 21
289.5694057601565
 31
0.0
  0
INSERT
  5
471
  8
回07-寸法
  6
CONTINUOUS
 62
     5
 66
     1
  2
_OPEN
 10
149.8037266609902
 20
487.299405760157
 30
0.0
 41
1.5
 42
1.5
 43
1.5
 50
90.0
  0
SEQEND
  5
472
  8
0
  6
CONTINUOUS
 62
     7
  0
INSERT
  5
473
  8
回07-寸法
  6
CONTINUOUS
 62
     5
 66
     1
  2
_OPEN
 10
149.8037266609903
 20
288.0694057601565
 30
0.0
 41
1.5
 42
1.5
 43
1.5
 50
270.0
  0
SEQEND
  5
474
  8
0
  6
CONTINUOUS
 62
     7
  0
TEXT
  5
475
  8
回07-寸法
  6
CONTINUOUS
 62
     5
 10
147.9631174442212
 20
357.1673381694905
 30
0.0
 40
5.0
  1
199.23(Viewing area)
 50
90.0
1001
ACAD
1000
MTEXTBEGIN
1070
    73
1070
     1
1070
    44
1040
1.0
1070
    74
1070
     0
1000
MTEXTEND
  0
POINT
  5
476
  8
DEFPOINTS
  6
CONTINUOUS
 62
     0
 10
192.5337266609905
 20
487.299405760157
 30
0.0
  0
POINT
  5
477
  8
DEFPOINTS
  6
CONTINUOUS
 62
     0
 10
192.5337266609905
 20
288.0694057601565
 30
0.0
  0
POINT
  5
478
  8
DEFPOINTS
  6
CONTINUOUS
 62
     0
 10
149.8037266609903
 20
288.0694057601565
 30
0.0
  0
ENDBLK
  5
479
  8
0
 62
     5
  0
BLOCK
  8
0
  2
*D3333
 70
     1
 10
0.0
 20
0.0
 30
0.0
  3
*D3333
  1

  0
LINE
  5
45F
  8
回07-寸法
  6
CONTINUOUS
 62
     5
 10
186.8037266609904
 20
493.3644057601561
 30
0.0
 11
120.8037266609902
 21
493.3644057601561
 31
0.0
  0
LINE
  5
460
  8
回07-寸法
  6
CONTINUOUS
 62
     5
 10
186.8037266609904
 20
278.9694057601571
 30
0.0
 11
120.8037266609903
 21
278.9694057601571
 31
0.0
  0
LINE
  5
461
  8
回07-寸法
  6
CONTINUOUS
 62
     5
 10
121.8037266609902
 20
491.8644057601561
 30
0.0
 11
121.8037266609902
 21
280.469405760157
 31
0.0
  0
INSERT
  5
462
  8
回07-寸法
  6
CONTINUOUS
 62
     5
 66
     1
  2
_OPEN
 10
121.8037266609902
 20
493.364405760156
 30
0.0
 41
1.5
 42
1.5
 43
1.5
 50
90.0
  0
SEQEND
  5
463
  8
0
  6
CONTINUOUS
 62
     7
  0
INSERT
  5
464
  8
回07-寸法
  6
CONTINUOUS
 62
     5
 66
     1
  2
_OPEN
 10
121.8037266609903
 20
278.969405760157
 30
0.0
 41
1.5
 42
1.5
 43
1.5
 50
270.0
  0
SEQEND
  5
465
  8
0
  6
CONTINUOUS
 62
     7
  0
INSERT
  5
466
  8
回07-寸法
  6
CONTINUOUS
 62
     5
 66
     1
  2
*X9191
 10
0.0
 20
0.0
 30
0.0
  0
SEQEND
  5
826
  8
0
  6
CONTINUOUS
 62
     7
  0
POINT
  5
467
  8
DEFPOINTS
  6
CONTINUOUS
 62
     0
 10
186.8037266609904
 20
493.3644057601561
 30
0.0
  0
POINT
  5
468
  8
DEFPOINTS
  6
CONTINUOUS
 62
     0
 10
186.8037266609904
 20
278.9694057601571
 30
0.0
  0
POINT
  5
469
  8
DEFPOINTS
  6
CONTINUOUS
 62
     0
 10
121.8037266609903
 20
278.969405760157
 30
0.0
  0
ENDBLK
  5
46A
  8
0
 62
     5
  0
BLOCK
  8
0
  2
*D3434
 70
     1
 10
0.0
 20
0.0
 30
0.0
  3
*D3434
  1

  0
LINE
  5
450
  8
回07-寸法
  6
CONTINUOUS
 62
     5
 10
540.4737266609909
 20
485.2994057601568
 30
0.0
 11
540.4737266609909
 21
516.3844057601568
 31
0.0
  0
LINE
  5
451
  8
回07-寸法
  6
CONTINUOUS
 62
     5
 10
194.5337346609908
 20
485.2994057601568
 30
0.0
 11
194.5337346609908
 21
516.3844057601568
 31
0.0
  0
LINE
  5
452
  8
回07-寸法
  6
CONTINUOUS
 62
     5
 10
538.9737266609909
 20
515.3844057601568
 30
0.0
 11
196.0337346609908
 21
515.3844057601568
 31
0.0
  0
INSERT
  5
453
  8
回07-寸法
  6
CONTINUOUS
 62
     5
 66
     1
  2
_OPEN
 10
540.4737266609909
 20
515.3844057601568
 30
0.0
 41
1.5
 42
1.5
 43
1.5
  0
SEQEND
  5
454
  8
0
  6
CONTINUOUS
 62
     7
  0
INSERT
  5
455
  8
回07-寸法
  6
CONTINUOUS
 62
     5
 66
     1
  2
_OPEN
 10
194.5337346609908
 20
515.3844057601568
 30
0.0
 41
1.5
 42
1.5
 43
1.5
 50
180.0
  0
SEQEND
  5
456
  8
0
  6
CONTINUOUS
 62
     7
  0
TEXT
  5
457
  8
回07-寸法
  6
CONTINUOUS
 62
     5
 10
337.745688991642
 20
516.1344057601568
 30
0.0
 40
5.0
  1
345.94(Active area)
1001
ACAD
1000
MTEXTBEGIN
1070
    73
1070
     1
1070
    44
1040
1.0
1070
    74
1070
     0
1000
MTEXTEND
  0
POINT
  5
458
  8
DEFPOINTS
  6
CONTINUOUS
 62
     0
 10
540.4737266609909
 20
485.2994057601568
 30
0.0
  0
POINT
  5
459
  8
DEFPOINTS
  6
CONTINUOUS
 62
     0
 10
194.5337346609908
 20
485.2994057601568
 30
0.0
  0
POINT
  5
45A
  8
DEFPOINTS
  6
CONTINUOUS
 62
     0
 10
194.5337346609908
 20
515.3844057601568
 30
0.0
  0
ENDBLK
  5
45B
  8
0
 62
     5
  0
BLOCK
  8
0
  2
*D3535
 70
     1
 10
0.0
 20
0.0
 30
0.0
  3
*D3535
  1

  0
LINE
  5
441
  8
回07-寸法
  6
CONTINUOUS
 62
     5
 10
192.5337266609904
 20
487.2994057601568
 30
0.0
 11
192.5337266609904
 21
528.3844057601568
 31
0.0
  0
LINE
  5
442
  8
回07-寸法
  6
CONTINUOUS
 62
     5
 10
542.4737266609907
 20
487.299405760156
 30
0.0
 11
542.4737266609907
 21
528.3844057601568
 31
0.0
  0
LINE
  5
443
  8
回07-寸法
  6
CONTINUOUS
 62
     5
 10
194.0337266609904
 20
527.3844057601568
 30
0.0
 11
540.9737266609909
 21
527.3844057601568
 31
0.0
  0
INSERT
  5
444
  8
回07-寸法
  6
CONTINUOUS
 62
     5
 66
     1
  2
_OPEN
 10
192.5337266609904
 20
527.3844057601568
 30
0.0
 41
1.5
 42
1.5
 43
1.5
 50
180.0
  0
SEQEND
  5
445
  8
0
  6
CONTINUOUS
 62
     7
  0
INSERT
  5
446
  8
回07-寸法
  6
CONTINUOUS
 62
     5
 66
     1
  2
_OPEN
 10
542.4737266609907
 20
527.3844057601568
 30
0.0
 41
1.5
 42
1.5
 43
1.5
  0
SEQEND
  5
447
  8
0
  6
CONTINUOUS
 62
     7
  0
TEXT
  5
448
  8
回07-寸法
  6
CONTINUOUS
 62
     5
 10
335.8785810650317
 20
529.2250149769261
 30
0.0
 40
5.0
  1
349.94(Viewing area)
1001
ACAD
1000
MTEXTBEGIN
1070
    73
1070
     1
1070
    44
1040
1.0
1070
    74
1070
     0
1000
MTEXTEND
  0
POINT
  5
449
  8
DEFPOINTS
  6
CONTINUOUS
 62
     0
 10
192.5337266609904
 20
487.2994057601568
 30
0.0
  0
POINT
  5
44A
  8
DEFPOINTS
  6
CONTINUOUS
 62
     0
 10
542.4737266609907
 20
487.299405760156
 30
0.0
  0
POINT
  5
44B
  8
DEFPOINTS
  6
CONTINUOUS
 62
     0
 10
542.4737266609907
 20
527.3844057601568
 30
0.0
  0
ENDBLK
  5
44C
  8
0
 62
     5
  0
BLOCK
  8
0
  2
*D3636
 70
     1
 10
0.0
 20
0.0
 30
0.0
  3
*D3636
  1

  0
LINE
  5
432
  8
回07-寸法
  6
CONTINUOUS
 62
     5
 10
548.2037266609909
 20
493.364405760156
 30
0.0
 11
548.2037266609909
 21
552.3844057601568
 31
0.0
  0
LINE
  5
433
  8
回07-寸法
  6
CONTINUOUS
 62
     5
 10
186.8037266609904
 20
493.364405760156
 30
0.0
 11
186.8037266609904
 21
552.3844057601568
 31
0.0
  0
LINE
  5
434
  8
回07-寸法
  6
CONTINUOUS
 62
     5
 10
546.7037266609909
 20
551.3844057601568
 30
0.0
 11
188.3037266609903
 21
551.3844057601568
 31
0.0
  0
INSERT
  5
435
  8
回07-寸法
  6
CONTINUOUS
 62
     5
 66
     1
  2
_OPEN
 10
548.2037266609909
 20
551.3844057601568
 30
0.0
 41
1.5
 42
1.5
 43
1.5
  0
SEQEND
  5
436
  8
0
  6
CONTINUOUS
 62
     7
  0
INSERT
  5
437
  8
回07-寸法
  6
CONTINUOUS
 62
     5
 66
     1
  2
_OPEN
 10
186.8037266609904
 20
551.3844057601568
 30
0.0
 41
1.5
 42
1.5
 43
1.5
 50
180.0
  0
SEQEND
  5
438
  8
0
  6
CONTINUOUS
 62
     7
  0
INSERT
  5
439
  8
回07-寸法
  6
CONTINUOUS
 62
     5
 66
     1
  2
*X9292
 10
0.0
 20
0.0
 30
0.0
  0
SEQEND
  5
82C
  8
0
  6
CONTINUOUS
 62
     7
  0
POINT
  5
43A
  8
DEFPOINTS
  6
CONTINUOUS
 62
     0
 10
548.2037266609909
 20
493.364405760156
 30
0.0
  0
POINT
  5
43B
  8
DEFPOINTS
  6
CONTINUOUS
 62
     0
 10
186.8037266609904
 20
493.364405760156
 30
0.0
  0
POINT
  5
43C
  8
DEFPOINTS
  6
CONTINUOUS
 62
     0
 10
186.8037266609904
 20
551.3844057601568
 30
0.0
  0
ENDBLK
  5
43D
  8
0
 62
     5
  0
BLOCK
  8
0
  2
*D3737
 70
     1
 10
0.0
 20
0.0
 30
0.0
  3
*D3737
  1

  0
LINE
  5
421
  8
回07-寸法
  6
CONTINUOUS
 62
     5
 10
192.5337266609905
 20
288.0694057601565
 30
0.0
 11
148.8037266609903
 21
288.0694057601565
 31
0.0
  0
LINE
  5
422
  8
回07-寸法
  6
CONTINUOUS
 62
     5
 10
186.8037266609904
 20
278.9694057601571
 30
0.0
 11
148.8037266609903
 21
278.9694057601571
 31
0.0
  0
LINE
  5
423
  8
回07-寸法
  6
CONTINUOUS
 62
     5
 10
149.8037266609903
 20
289.5694057601565
 30
0.0
 11
149.8037266609903
 21
291.0694057601565
 31
0.0
  0
LINE
  5
424
  8
回07-寸法
  6
CONTINUOUS
 62
     5
 10
149.8037266609903
 20
277.4694057601571
 30
0.0
 11
149.8037266609903
 21
268.4658523695639
 31
0.0
  0
LINE
  5
425
  8
回07-寸法
  6
CONTINUOUS
 62
     5
 10
149.8037266609903
 20
288.0694057601565
 30
0.0
 11
149.8037266609903
 21
278.9694057601571
 31
0.0
  0
INSERT
  5
426
  8
回07-寸法
  6
CONTINUOUS
 62
     5
 66
     1
  2
_OPEN
 10
149.8037266609903
 20
288.0694057601565
 30
0.0
 41
1.5
 42
1.5
 43
1.5
 50
270.0
  0
SEQEND
  5
427
  8
0
  6
CONTINUOUS
 62
     7
  0
INSERT
  5
428
  8
回07-寸法
  6
CONTINUOUS
 62
     5
 66
     1
  2
_OPEN
 10
149.8037266609903
 20
278.9694057601571
 30
0.0
 41
1.5
 42
1.5
 43
1.5
 50
90.0
  0
SEQEND
  5
429
  8
0
  6
CONTINUOUS
 62
     7
  0
TEXT
  5
42A
  8
回07-寸法
  6
CONTINUOUS
 62
     5
 10
149.3037266609904
 20
268.3013539175221
 30
0.0
 40
5.0
  1
9.1
 50
90.0
1001
ACAD
1000
MTEXTBEGIN
1070
    73
1070
     1
1070
    44
1040
1.0
1070
    74
1070
     0
1000
MTEXTEND
  0
POINT
  5
42B
  8
DEFPOINTS
  6
CONTINUOUS
 62
     0
 10
192.5337266609905
 20
288.0694057601565
 30
0.0
  0
POINT
  5
42C
  8
DEFPOINTS
  6
CONTINUOUS
 62
     0
 10
186.8037266609904
 20
278.9694057601571
 30
0.0
  0
POINT
  5
42D
  8
DEFPOINTS
  6
CONTINUOUS
 62
     0
 10
149.8037266609903
 20
278.9694057601571
 30
0.0
  0
ENDBLK
  5
42E
  8
0
 62
     5
  0
BLOCK
  8
0
  2
*D3838
 70
     1
 10
0.0
 20
0.0
 30
0.0
  3
*D3838
  1

  0
LINE
  5
410
  8
回07-寸法
  6
CONTINUOUS
 62
     5
 10
194.5337346609909
 20
290.0694057601567
 30
0.0
 11
161.8037266609903
 21
290.0694057601567
 31
0.0
  0
LINE
  5
411
  8
回07-寸法
  6
CONTINUOUS
 62
     5
 10
186.8037266609904
 20
278.9694057601571
 30
0.0
 11
161.8037266609903
 21
278.9694057601571
 31
0.0
  0
LINE
  5
412
  8
回07-寸法
  6
CONTINUOUS
 62
     5
 10
162.8037266609903
 20
291.5694057601568
 30
0.0
 11
162.8037266609903
 21
293.0694057601568
 31
0.0
  0
LINE
  5
413
  8
回07-寸法
  6
CONTINUOUS
 62
     5
 10
162.8037266609903
 20
277.4694057601571
 30
0.0
 11
162.8037266609903
 21
267.4694057601571
 31
0.0
  0
LINE
  5
414
  8
回07-寸法
  6
CONTINUOUS
 62
     5
 10
162.8037266609903
 20
290.0694057601567
 30
0.0
 11
162.8037266609903
 21
278.9694057601571
 31
0.0
  0
INSERT
  5
415
  8
回07-寸法
  6
CONTINUOUS
 62
     5
 66
     1
  2
_OPEN
 10
162.8037266609903
 20
290.0694057601567
 30
0.0
 41
1.5
 42
1.5
 43
1.5
 50
270.0
  0
SEQEND
  5
416
  8
0
  6
CONTINUOUS
 62
     7
  0
INSERT
  5
417
  8
回07-寸法
  6
CONTINUOUS
 62
     5
 66
     1
  2
_OPEN
 10
162.8037266609903
 20
278.9694057601571
 30
0.0
 41
1.5
 42
1.5
 43
1.5
 50
90.0
  0
SEQEND
  5
418
  8
0
  6
CONTINUOUS
 62
     7
  0
TEXT
  5
419
  8
回07-寸法
  6
CONTINUOUS
 62
     5
 10
162.3037266609903
 20
267.219405760157
 30
0.0
 40
5.0
  1
11.1
 50
90.0
1001
ACAD
1000
MTEXTBEGIN
1070
    73
1070
     1
1070
    44
1040
1.0
1070
    74
1070
     0
1000
MTEXTEND
  0
POINT
  5
41A
  8
DEFPOINTS
  6
CONTINUOUS
 62
     0
 10
194.5337346609909
 20
290.0694057601567
 30
0.0
  0
POINT
  5
41B
  8
DEFPOINTS
  6
CONTINUOUS
 62
     0
 10
186.8037266609904
 20
278.9694057601571
 30
0.0
  0
POINT
  5
41C
  8
DEFPOINTS
  6
CONTINUOUS
 62
     0
 10
162.8037266609903
 20
278.9694057601571
 30
0.0
  0
ENDBLK
  5
41D
  8
0
 62
     5
  0
BLOCK
  8
0
  2
*D3939
 70
     1
 10
0.0
 20
0.0
 30
0.0
  3
*D3939
  1

  0
LINE
  5
4DD
  8
回07-寸法
  6
CONTINUOUS
 62
     5
 10
177.076865734729
 20
209.8180963912642
 30
0.0
 11
177.076865734729
 21
83.82742453393673
 31
0.0
  0
LINE
  5
4DF
  8
回07-寸法
  6
CONTINUOUS
 62
     5
 10
363.5268657347294
 20
110.3221447620747
 30
0.0
 11
363.5268657347294
 21
83.82742453393673
 31
0.0
  0
LINE
  5
4E0
  8
回07-寸法
  6
CONTINUOUS
 62
     5
 10
178.576865734729
 20
84.82742453393672
 30
0.0
 11
362.0268657347294
 21
84.82742453393672
 31
0.0
  0
INSERT
  5
4E1
  8
回07-寸法
  6
CONTINUOUS
 62
     5
  2
_OPEN
 10
177.076865734729
 20
84.82742453393672
 30
0.0
 41
1.5
 42
1.5
 43
1.5
 50
180.0
  0
INSERT
  5
4E2
  8
回07-寸法
  6
CONTINUOUS
 62
     5
  2
_OPEN
 10
363.5268657347294
 20
84.82742453393672
 30
0.0
 41
1.5
 42
1.5
 43
1.5
  0
TEXT
  5
4E3
  8
回07-寸法
  6
CONTINUOUS
 62
     5
 10
259.0518657347293
 20
85.57742453393672
 30
0.0
 40
5.0
  1
(186.45)
  0
POINT
  5
4E4
  8
DEFPOINTS
  6
CONTINUOUS
 62
     0
 10
177.076865734729
 20
209.8180963912642
 30
0.0
  0
POINT
  5
4E5
  8
DEFPOINTS
  6
CONTINUOUS
 62
     0
 10
363.5268657347294
 20
110.3221447620747
 30
0.0
  0
POINT
  5
4E6
  8
DEFPOINTS
  6
CONTINUOUS
 62
     0
 10
363.5268657347294
 20
84.82742453393672
 30
0.0
  0
ENDBLK
  5
4E8
  8
0
  6
CONTINUOUS
 62
     7
  0
BLOCK
  8
0
  2
*D4040
 70
     1
 10
0.0
 20
0.0
 30
0.0
  3
*D4040
  1

  0
LINE
  5
4EA
  8
回07-寸法
  6
CONTINUOUS
 62
     5
 10
376.5268657347294
 20
109.8221447620738
 30
0.0
 11
406.6681294763856
 21
109.8221447620738
 31
0.0
  0
LINE
  5
4EB
  8
回07-寸法
  6
CONTINUOUS
 62
     5
 10
383.7779910501778
 20
209.8180963912635
 30
0.0
 11
406.6681294763856
 21
209.8180963912635
 31
0.0
  0
LINE
  5
4EC
  8
回07-寸法
  6
CONTINUOUS
 62
     5
 10
405.6681294763857
 20
111.3221447620738
 30
0.0
 11
405.6681294763857
 21
208.3180963912635
 31
0.0
  0
INSERT
  5
4ED
  8
回07-寸法
  6
CONTINUOUS
 62
     5
  2
_OPEN
 10
405.6681294763857
 20
109.8221447620738
 30
0.0
 41
1.5
 42
1.5
 43
1.5
 50
270.0
  0
INSERT
  5
4EE
  8
回07-寸法
  6
CONTINUOUS
 62
     5
  2
_OPEN
 10
405.6681294763857
 20
209.8180963912635
 30
0.0
 41
1.5
 42
1.5
 43
1.5
 50
90.0
  0
INSERT
  5
4EF
  8
回07-寸法
  6
CONTINUOUS
 62
     5
 66
     1
  2
*X9393
 10
0.0
 20
0.0
 30
0.0
  0
SEQEND
  5
832
  8
0
  6
CONTINUOUS
 62
     7
  0
POINT
  5
4F0
  8
DEFPOINTS
  6
CONTINUOUS
 62
     0
 10
376.5268657347294
 20
109.8221447620738
 30
0.0
  0
POINT
  5
4F1
  8
DEFPOINTS
  6
CONTINUOUS
 62
     0
 10
383.7779910501778
 20
209.8180963912635
 30
0.0
  0
POINT
  5
4F2
  8
DEFPOINTS
  6
CONTINUOUS
 62
     0
 10
405.6681294763857
 20
209.8180963912635
 30
0.0
  0
ENDBLK
  5
4F4
  8
0
  6
CONTINUOUS
 62
     7
  0
BLOCK
  8
0
  2
*D4141
 70
     1
 10
0.0
 20
0.0
 30
0.0
  3
*D4141
  1

  0
LINE
  5
4F6
  8
回07-寸法
  6
CONTINUOUS
 62
     5
 10
533.1968657347295
 20
418.5980963912636
 30
0.0
 11
533.1968657347295
 21
471.2330963912639
 31
0.0
  0
LINE
  5
4F8
  8
回07-寸法
  6
CONTINUOUS
 62
     5
 10
538.4768657347295
 20
424.213096391263
 30
0.0
 11
538.4768657347295
 21
471.2330963912639
 31
0.0
  0
LINE
  5
4F9
  8
回07-寸法
  6
CONTINUOUS
 62
     5
 10
539.9768657347297
 20
470.2330963912638
 30
0.0
 11
590.2335435792179
 21
470.2330963912638
 31
0.0
  0
LINE
  5
4FA
  8
回07-寸法
  6
CONTINUOUS
 62
     5
 10
533.1968657347295
 20
470.2330963912638
 30
0.0
 11
538.4768657347295
 21
470.2330963912638
 31
0.0
  0
LINE
  5
4FB
  8
回07-寸法
  6
CONTINUOUS
 62
     5
 10
531.6968657347294
 20
470.2330963912638
 30
0.0
 11
530.1968657347295
 21
470.2330963912638
 31
0.0
  0
INSERT
  5
4FC
  8
回07-寸法
  6
CONTINUOUS
 62
     5
  2
_OPEN
 10
533.1968657347295
 20
470.2330963912638
 30
0.0
 41
1.5
 42
1.5
 43
1.5
  0
INSERT
  5
4FD
  8
回07-寸法
  6
CONTINUOUS
 62
     5
  2
_OPEN
 10
538.4768657347295
 20
470.2330963912638
 30
0.0
 41
1.5
 42
1.5
 43
1.5
 50
180.0
  0
INSERT
  5
4FE
  8
回07-寸法
  6
CONTINUOUS
 62
     5
 66
     1
  2
*X9494
 10
0.0
 20
0.0
 30
0.0
  0
SEQEND
  5
838
  8
0
  6
CONTINUOUS
 62
     7
  0
POINT
  5
4FF
  8
DEFPOINTS
  6
CONTINUOUS
 62
     0
 10
533.1968657347295
 20
418.5980963912636
 30
0.0
  0
POINT
  5
500
  8
DEFPOINTS
  6
CONTINUOUS
 62
     0
 10
538.4768657347295
 20
424.213096391263
 30
0.0
  0
POINT
  5
501
  8
DEFPOINTS
  6
CONTINUOUS
 62
     0
 10
538.4768657347295
 20
470.2330963912638
 30
0.0
  0
ENDBLK
  5
503
  8
0
  6
CONTINUOUS
 62
     7
  0
BLOCK
  8
0
  2
*D4242
 70
     1
 10
0.0
 20
0.0
 30
0.0
  3
*D4242
  1

  0
LINE
  5
505
  8
回07-寸法
  6
CONTINUOUS
 62
     5
 10
533.1968657347295
 20
418.5980963912636
 30
0.0
 11
533.1968657347295
 21
471.2330963912639
 31
0.0
  0
LINE
  5
506
  8
回07-寸法
  6
CONTINUOUS
 62
     5
 10
182.3568657347293
 20
418.5980963912636
 30
0.0
 11
182.3568657347293
 21
471.2330963912639
 31
0.0
  0
LINE
  5
507
  8
回07-寸法
  6
CONTINUOUS
 62
     5
 10
531.6968657347294
 20
470.2330963912638
 30
0.0
 11
183.8568657347293
 21
470.2330963912638
 31
0.0
  0
INSERT
  5
508
  8
回07-寸法
  6
CONTINUOUS
 62
     5
  2
_OPEN
 10
533.1968657347295
 20
470.2330963912638
 30
0.0
 41
1.5
 42
1.5
 43
1.5
 50
360.0
  0
INSERT
  5
509
  8
回07-寸法
  6
CONTINUOUS
 62
     5
  2
_OPEN
 10
182.3568657347293
 20
470.2330963912638
 30
0.0
 41
1.5
 42
1.5
 43
1.5
 50
180.0
  0
TEXT
  5
50A
  8
回07-寸法
  6
CONTINUOUS
 62
     5
 10
348.0268657347294
 20
470.7330963912638
 30
0.0
 40
5.0
  1
350.84
  0
POINT
  5
50B
  8
DEFPOINTS
  6
CONTINUOUS
 62
     0
 10
533.1968657347295
 20
418.5980963912636
 30
0.0
  0
POINT
  5
50C
  8
DEFPOINTS
  6
CONTINUOUS
 62
     0
 10
182.3568657347293
 20
418.5980963912636
 30
0.0
  0
POINT
  5
50D
  8
DEFPOINTS
  6
CONTINUOUS
 62
     0
 10
182.3568657347293
 20
470.2330963912638
 30
0.0
  0
ENDBLK
  5
50F
  8
0
  6
CONTINUOUS
 62
     7
  0
BLOCK
  8
0
  2
*D4343
 70
     1
 10
0.0
 20
0.0
 30
0.0
  3
*D4343
  1

  0
LINE
  5
511
  8
回07-寸法
  6
CONTINUOUS
 62
     5
 10
182.3568657347293
 20
418.5980963912636
 30
0.0
 11
182.3568657347293
 21
471.2330963912639
 31
0.0
  0
LINE
  5
512
  8
回07-寸法
  6
CONTINUOUS
 62
     5
 10
177.076865734729
 20
424.2130963912638
 30
0.0
 11
177.076865734729
 21
471.2330963912639
 31
0.0
  0
LINE
  5
513
  8
回07-寸法
  6
CONTINUOUS
 62
     5
 10
175.5768657347291
 20
470.2330963912638
 30
0.0
 11
129.3182193863039
 21
470.2330963912638
 31
0.0
  0
LINE
  5
514
  8
回07-寸法
  6
CONTINUOUS
 62
     5
 10
182.3568657347293
 20
470.2330963912638
 30
0.0
 11
177.076865734729
 21
470.2330963912638
 31
0.0
  0
LINE
  5
515
  8
回07-寸法
  6
CONTINUOUS
 62
     5
 10
183.8568657347293
 20
470.2330963912638
 30
0.0
 11
185.3568657347293
 21
470.2330963912638
 31
0.0
  0
INSERT
  5
516
  8
回07-寸法
  6
CONTINUOUS
 62
     5
  2
_OPEN
 10
182.3568657347293
 20
470.2330963912638
 30
0.0
 41
1.5
 42
1.5
 43
1.5
 50
180.0
  0
INSERT
  5
517
  8
回07-寸法
  6
CONTINUOUS
 62
     5
  2
_OPEN
 10
177.076865734729
 20
470.2330963912638
 30
0.0
 41
1.5
 42
1.5
 43
1.5
  0
INSERT
  5
518
  8
回07-寸法
  6
CONTINUOUS
 62
     5
 66
     1
  2
*X9595
 10
0.0
 20
0.0
 30
0.0
  0
SEQEND
  5
83E
  8
0
  6
CONTINUOUS
 62
     7
  0
POINT
  5
519
  8
DEFPOINTS
  6
CONTINUOUS
 62
     0
 10
182.3568657347293
 20
418.5980963912636
 30
0.0
  0
POINT
  5
51A
  8
DEFPOINTS
  6
CONTINUOUS
 62
     0
 10
177.076865734729
 20
424.2130963912638
 30
0.0
  0
POINT
  5
51B
  8
DEFPOINTS
  6
CONTINUOUS
 62
     0
 10
177.076865734729
 20
470.2330963912638
 30
0.0
  0
ENDBLK
  5
51D
  8
0
  6
CONTINUOUS
 62
     7
  0
BLOCK
  8
0
  2
*D4444
 70
     1
 10
0.0
 20
0.0
 30
0.0
  3
*D4444
  1

  0
LINE
  5
51F
  8
回07-寸法
  6
CONTINUOUS
 62
     5
 10
182.3568657347293
 20
418.5980963912636
 30
0.0
 11
125.076865734729
 21
418.5980963912636
 31
0.0
  0
LINE
  5
520
  8
回07-寸法
  6
CONTINUOUS
 62
     5
 10
177.076865734729
 20
424.213096391263
 30
0.0
 11
125.076865734729
 21
424.213096391263
 31
0.0
  0
LINE
  5
521
  8
回07-寸法
  6
CONTINUOUS
 62
     5
 10
126.076865734729
 20
425.7130963912629
 30
0.0
 11
126.076865734729
 21
475.9697742357511
 31
0.0
  0
LINE
  5
522
  8
回07-寸法
  6
CONTINUOUS
 62
     5
 10
126.076865734729
 20
418.5980963912636
 30
0.0
 11
126.076865734729
 21
424.213096391263
 31
0.0
  0
LINE
  5
523
  8
回07-寸法
  6
CONTINUOUS
 62
     5
 10
126.076865734729
 20
417.0980963912636
 30
0.0
 11
126.076865734729
 21
415.5980963912636
 31
0.0
  0
INSERT
  5
524
  8
回07-寸法
  6
CONTINUOUS
 62
     5
  2
_OPEN
 10
126.076865734729
 20
418.5980963912636
 30
0.0
 41
1.5
 42
1.5
 43
1.5
 50
90.0
  0
INSERT
  5
525
  8
回07-寸法
  6
CONTINUOUS
 62
     5
  2
_OPEN
 10
126.076865734729
 20
424.213096391263
 30
0.0
 41
1.5
 42
1.5
 43
1.5
 50
270.0
  0
INSERT
  5
526
  8
回07-寸法
  6
CONTINUOUS
 62
     5
 66
     1
  2
*X9696
 10
0.0
 20
0.0
 30
0.0
  0
SEQEND
  5
844
  8
0
  6
CONTINUOUS
 62
     7
  0
POINT
  5
527
  8
DEFPOINTS
  6
CONTINUOUS
 62
     0
 10
182.3568657347293
 20
418.5980963912636
 30
0.0
  0
POINT
  5
528
  8
DEFPOINTS
  6
CONTINUOUS
 62
     0
 10
177.076865734729
 20
424.213096391263
 30
0.0
  0
POINT
  5
529
  8
DEFPOINTS
  6
CONTINUOUS
 62
     0
 10
126.076865734729
 20
424.213096391263
 30
0.0
  0
ENDBLK
  5
52B
  8
0
  6
CONTINUOUS
 62
     7
  0
BLOCK
  8
0
  2
*D4545
 70
     1
 10
0.0
 20
0.0
 30
0.0
  3
*D4545
  1

  0
LINE
  5
52D
  8
回07-寸法
  6
CONTINUOUS
 62
     5
 10
182.3568657347293
 20
218.4680963912636
 30
0.0
 11
125.0768657347289
 21
218.4680963912636
 31
0.0
  0
LINE
  5
52E
  8
回07-寸法
  6
CONTINUOUS
 62
     5
 10
177.076865734729
 20
209.818096391264
 30
0.0
 11
125.0768657347289
 21
209.818096391264
 31
0.0
  0
LINE
  5
52F
  8
回07-寸法
  6
CONTINUOUS
 62
     5
 10
126.0768657347289
 20
208.3180963912639
 30
0.0
 11
126.0768657347289
 21
164.3929000428388
 31
0.0
  0
LINE
  5
530
  8
回07-寸法
  6
CONTINUOUS
 62
     5
 10
126.0768657347289
 20
218.4680963912636
 30
0.0
 11
126.0768657347289
 21
209.818096391264
 31
0.0
  0
LINE
  5
531
  8
回07-寸法
  6
CONTINUOUS
 62
     5
 10
126.0768657347289
 20
219.9680963912636
 30
0.0
 11
126.0768657347289
 21
221.4680963912636
 31
0.0
  0
INSERT
  5
532
  8
回07-寸法
  6
CONTINUOUS
 62
     5
  2
_OPEN
 10
126.0768657347289
 20
218.4680963912636
 30
0.0
 41
1.5
 42
1.5
 43
1.5
 50
270.0
  0
INSERT
  5
533
  8
回07-寸法
  6
CONTINUOUS
 62
     5
  2
_OPEN
 10
126.0768657347289
 20
209.818096391264
 30
0.0
 41
1.5
 42
1.5
 43
1.5
 50
90.0
  0
INSERT
  5
534
  8
回07-寸法
  6
CONTINUOUS
 62
     5
 66
     1
  2
*X9797
 10
0.0
 20
0.0
 30
0.0
  0
SEQEND
  5
84A
  8
0
  6
CONTINUOUS
 62
     7
  0
POINT
  5
535
  8
DEFPOINTS
  6
CONTINUOUS
 62
     0
 10
182.3568657347293
 20
218.4680963912636
 30
0.0
  0
POINT
  5
536
  8
DEFPOINTS
  6
CONTINUOUS
 62
     0
 10
177.076865734729
 20
209.818096391264
 30
0.0
  0
POINT
  5
537
  8
DEFPOINTS
  6
CONTINUOUS
 62
     0
 10
126.0768657347289
 20
209.818096391264
 30
0.0
  0
ENDBLK
  5
539
  8
0
  6
CONTINUOUS
 62
     7
  0
BLOCK
  8
0
  2
*D4646
 70
     1
 10
0.0
 20
0.0
 30
0.0
  3
*D4646
  1

  0
LINE
  5
53B
  8
回07-寸法
  6
CONTINUOUS
 62
     5
 10
182.3568657347293
 20
218.4680963912636
 30
0.0
 11
125.0768657347289
 21
218.4680963912636
 31
0.0
  0
LINE
  5
53C
  8
回07-寸法
  6
CONTINUOUS
 62
     5
 10
182.3568657347293
 20
418.5980963912636
 30
0.0
 11
125.076865734729
 21
418.5980963912636
 31
0.0
  0
LINE
  5
53D
  8
回07-寸法
  6
CONTINUOUS
 62
     5
 10
126.0768657347289
 20
219.9680963912636
 30
0.0
 11
126.076865734729
 21
417.0980963912636
 31
0.0
  0
INSERT
  5
53E
  8
回07-寸法
  6
CONTINUOUS
 62
     5
  2
_OPEN
 10
126.0768657347289
 20
218.4680963912636
 30
0.0
 41
1.5
 42
1.5
 43
1.5
 50
270.0
  0
INSERT
  5
53F
  8
回07-寸法
  6
CONTINUOUS
 62
     5
  2
_OPEN
 10
126.076865734729
 20
418.5980963912636
 30
0.0
 41
1.5
 42
1.5
 43
1.5
 50
90.0
  0
TEXT
  5
540
  8
回07-寸法
  6
CONTINUOUS
 62
     5
 10
125.576865734729
 20
309.5330963912636
 30
0.0
 40
5.0
  1
200.13
 50
90.0
  0
POINT
  5
541
  8
DEFPOINTS
  6
CONTINUOUS
 62
     0
 10
182.3568657347293
 20
218.4680963912636
 30
0.0
  0
POINT
  5
542
  8
DEFPOINTS
  6
CONTINUOUS
 62
     0
 10
182.3568657347293
 20
418.5980963912636
 30
0.0
  0
POINT
  5
543
  8
DEFPOINTS
  6
CONTINUOUS
 62
     0
 10
126.076865734729
 20
418.5980963912636
 30
0.0
  0
ENDBLK
  5
545
  8
0
  6
CONTINUOUS
 62
     7
  0
BLOCK
  8
0
  2
*D4747
 70
     1
 10
0.0
 20
0.0
 30
0.0
  3
*D4747
  1

  0
LINE
  5
547
  8
回07-寸法
  6
CONTINUOUS
 62
     5
 10
356.7779910501778
 20
206.6726266642147
 30
0.0
 11
356.7779910501778
 21
176.7638438133323
 31
0.0
  0
LINE
  5
549
  8
回07-寸法
  6
CONTINUOUS
 62
     5
 10
383.7779910501778
 20
206.6766750350256
 30
0.0
 11
383.7779910501778
 21
176.7638438133323
 31
0.0
  0
LINE
  5
54A
  8
回07-寸法
  6
CONTINUOUS
 62
     5
 10
385.2779910501778
 20
177.7638438133323
 30
0.0
 11
393.3414753021464
 21
177.7638438133323
 31
0.0
  0
LINE
  5
54B
  8
回07-寸法
  6
CONTINUOUS
 62
     5
 10
356.7779910501778
 20
177.7638438133323
 30
0.0
 11
383.7779910501778
 21
177.7638438133323
 31
0.0
  0
LINE
  5
54C
  8
回07-寸法
  6
CONTINUOUS
 62
     5
 10
355.2779910501778
 20
177.7638438133323
 30
0.0
 11
353.7779910501778
 21
177.7638438133323
 31
0.0
  0
INSERT
  5
54D
  8
回07-寸法
  6
CONTINUOUS
 62
     5
  2
_OPEN
 10
356.7779910501778
 20
177.7638438133323
 30
0.0
 41
1.5
 42
1.5
 43
1.5
  0
INSERT
  5
54E
  8
回07-寸法
  6
CONTINUOUS
 62
     5
  2
_OPEN
 10
383.7779910501778
 20
177.7638438133323
 30
0.0
 41
1.5
 42
1.5
 43
1.5
 50
180.0
  0
TEXT
  5
54F
  8
回07-寸法
  6
CONTINUOUS
 62
     5
 10
386.5914753021464
 20
178.2638438133323
 30
0.0
 40
5.0
  1
27
  0
POINT
  5
550
  8
DEFPOINTS
  6
CONTINUOUS
 62
     0
 10
356.7779910501778
 20
206.6726266642147
 30
0.0
  0
POINT
  5
551
  8
DEFPOINTS
  6
CONTINUOUS
 62
     0
 10
383.7779910501778
 20
206.6766750350256
 30
0.0
  0
POINT
  5
552
  8
DEFPOINTS
  6
CONTINUOUS
 62
     0
 10
383.7779910501778
 20
177.7638438133323
 30
0.0
  0
ENDBLK
  5
554
  8
0
  6
CONTINUOUS
 62
     7
  0
BLOCK
  8
0
  2
*D4848
 70
     1
 10
0.0
 20
0.0
 30
0.0
  3
*D4848
  1

  0
LINE
  5
556
  8
回07-寸法
  6
CONTINUOUS
 62
     5
 10
355.7779910501778
 20
206.6006206196701
 30
0.0
 11
355.7779910501778
 21
183.1825010550089
 31
0.0
  0
LINE
  5
557
  8
回07-寸法
  6
CONTINUOUS
 62
     5
 10
320.7779910501779
 20
206.6046689904809
 30
0.0
 11
320.7779910501779
 21
183.1825010550089
 31
0.0
  0
LINE
  5
558
  8
回07-寸法
  6
CONTINUOUS
 62
     5
 10
319.2779910501779
 20
184.1825010550089
 30
0.0
 11
310.873296359071
 21
184.1825010550089
 31
0.0
  0
LINE
  5
559
  8
回07-寸法
  6
CONTINUOUS
 62
     5
 10
355.7779910501778
 20
184.1825010550089
 30
0.0
 11
320.7779910501779
 21
184.1825010550089
 31
0.0
  0
LINE
  5
55A
  8
回07-寸法
  6
CONTINUOUS
 62
     5
 10
357.2779910501779
 20
184.1825010550089
 30
0.0
 11
358.7779910501778
 21
184.1825010550089
 31
0.0
  0
INSERT
  5
55B
  8
回07-寸法
  6
CONTINUOUS
 62
     5
  2
_OPEN
 10
355.7779910501778
 20
184.1825010550089
 30
0.0
 41
1.5
 42
1.5
 43
1.5
 50
180.0
  0
INSERT
  5
55C
  8
回07-寸法
  6
CONTINUOUS
 62
     5
  2
_OPEN
 10
320.7779910501779
 20
184.1825010550089
 30
0.0
 41
1.5
 42
1.5
 43
1.5
  0
TEXT
  5
55D
  8
回07-寸法
  6
CONTINUOUS
 62
     5
 10
310.623296359071
 20
184.6825010550089
 30
0.0
 40
5.0
  1
35
  0
POINT
  5
55E
  8
DEFPOINTS
  6
CONTINUOUS
 62
     0
 10
355.7779910501778
 20
206.6006206196701
 30
0.0
  0
POINT
  5
55F
  8
DEFPOINTS
  6
CONTINUOUS
 62
     0
 10
320.7779910501779
 20
206.6046689904809
 30
0.0
  0
POINT
  5
560
  8
DEFPOINTS
  6
CONTINUOUS
 62
     0
 10
320.7779910501779
 20
184.1825010550089
 30
0.0
  0
ENDBLK
  5
562
  8
0
  6
CONTINUOUS
 62
     7
  0
BLOCK
  8
0
  2
*D4949
 70
     1
 10
0.0
 20
0.0
 30
0.0
  3
*D4949
  1

  0
LINE
  5
564
  8
回07-寸法
  6
CONTINUOUS
 62
     5
 10
383.7779910501778
 20
209.8180963912632
 30
0.0
 11
398.3702922378579
 21
209.8180963912632
 31
0.0
  0
LINE
  5
565
  8
回07-寸法
  6
CONTINUOUS
 62
     5
 10
377.0268657347294
 20
199.5113361572041
 30
0.0
 11
398.3702922378579
 21
199.5113361572041
 31
0.0
  0
LINE
  5
566
  8
回07-寸法
  6
CONTINUOUS
 62
     5
 10
397.370292237858
 20
198.0113361572041
 30
0.0
 11
397.370292237858
 21
184.7613361572042
 31
0.0
  0
LINE
  5
567
  8
回07-寸法
  6
CONTINUOUS
 62
     5
 10
397.370292237858
 20
209.8180963912632
 30
0.0
 11
397.370292237858
 21
199.5113361572041
 31
0.0
  0
LINE
  5
568
  8
回07-寸法
  6
CONTINUOUS
 62
     5
 10
397.370292237858
 20
211.3180963912632
 30
0.0
 11
397.370292237858
 21
212.8180963912632
 31
0.0
  0
INSERT
  5
569
  8
回07-寸法
  6
CONTINUOUS
 62
     5
  2
_OPEN
 10
397.370292237858
 20
209.8180963912632
 30
0.0
 41
1.5
 42
1.5
 43
1.5
 50
270.0
  0
INSERT
  5
56A
  8
回07-寸法
  6
CONTINUOUS
 62
     5
  2
_OPEN
 10
397.370292237858
 20
199.5113361572041
 30
0.0
 41
1.5
 42
1.5
 43
1.5
 50
90.0
  0
TEXT
  5
56B
  8
回07-寸法
  6
CONTINUOUS
 62
     5
 10
396.870292237858
 20
184.5113361572041
 30
0.0
 40
5.0
  1
10.3
 50
90.0
  0
POINT
  5
56C
  8
DEFPOINTS
  6
CONTINUOUS
 62
     0
 10
383.7779910501778
 20
209.8180963912632
 30
0.0
  0
POINT
  5
56D
  8
DEFPOINTS
  6
CONTINUOUS
 62
     0
 10
377.0268657347294
 20
199.5113361572041
 30
0.0
  0
POINT
  5
56E
  8
DEFPOINTS
  6
CONTINUOUS
 62
     0
 10
397.370292237858
 20
199.5113361572041
 30
0.0
  0
ENDBLK
  5
570
  8
0
  6
CONTINUOUS
 62
     7
  0
BLOCK
  8
0
  2
*D5050
 70
     1
 10
0.0
 20
0.0
 30
0.0
  3
*D5050
  1

  0
LINE
  5
572
  8
回07-寸法
  6
CONTINUOUS
 62
     5
 10
383.7779910501778
 20
209.8180963912632
 30
0.0
 11
391.0341870472614
 21
209.8180963912632
 31
0.0
  0
LINE
  5
573
  8
回07-寸法
  6
CONTINUOUS
 62
     5
 10
383.7779910501778
 20
206.2624614726522
 30
0.0
 11
391.0341870472614
 21
206.2624614726522
 31
0.0
  0
LINE
  5
574
  8
回07-寸法
  6
CONTINUOUS
 62
     5
 10
390.0341870472614
 20
204.7624614726522
 30
0.0
 11
390.0341870472614
 21
190.6696123411644
 31
0.0
  0
LINE
  5
575
  8
回07-寸法
  6
CONTINUOUS
 62
     5
 10
390.0341870472614
 20
209.8180963912632
 30
0.0
 11
390.0341870472614
 21
206.2624614726522
 31
0.0
  0
LINE
  5
576
  8
回07-寸法
  6
CONTINUOUS
 62
     5
 10
390.0341870472614
 20
211.3180963912632
 30
0.0
 11
390.0341870472614
 21
212.8180963912632
 31
0.0
  0
INSERT
  5
577
  8
回07-寸法
  6
CONTINUOUS
 62
     5
  2
_OPEN
 10
390.0341870472614
 20
209.8180963912632
 30
0.0
 41
1.5
 42
1.5
 43
1.5
 50
270.0
  0
INSERT
  5
578
  8
回07-寸法
  6
CONTINUOUS
 62
     5
  2
_OPEN
 10
390.0341870472614
 20
206.2624614726522
 30
0.0
 41
1.5
 42
1.5
 43
1.5
 50
90.0
  0
TEXT
  5
579
  8
回07-寸法
  6
CONTINUOUS
 62
     5
 10
389.5341870472614
 20
190.4196123411644
 30
0.0
 40
5.0
  1
3.6
 50
90.0
  0
POINT
  5
57A
  8
DEFPOINTS
  6
CONTINUOUS
 62
     0
 10
383.7779910501778
 20
209.8180963912632
 30
0.0
  0
POINT
  5
57B
  8
DEFPOINTS
  6
CONTINUOUS
 62
     0
 10
383.7779910501778
 20
206.2624614726522
 30
0.0
  0
POINT
  5
57C
  8
DEFPOINTS
  6
CONTINUOUS
 62
     0
 10
390.0341870472614
 20
206.2624614726522
 30
0.0
  0
ENDBLK
  5
57E
  8
0
  6
CONTINUOUS
 62
     7
  0
BLOCK
  8
0
  2
*D5151
 70
     1
 10
0.0
 20
0.0
 30
0.0
  3
*D5151
  1

  0
LINE
  5
580
  8
回07-寸法
  6
CONTINUOUS
 62
     5
 10
320.7779910501779
 20
209.8180963912638
 30
0.0
 11
305.9762923808364
 21
209.8180963912638
 31
0.0
  0
LINE
  5
581
  8
回07-寸法
  6
CONTINUOUS
 62
     5
 10
334.5268657347294
 20
192.441580743556
 30
0.0
 11
305.9762923808364
 21
192.441580743556
 31
0.0
  0
LINE
  5
582
  8
回07-寸法
  6
CONTINUOUS
 62
     5
 10
306.9762923808363
 20
208.3180963912638
 30
0.0
 11
306.9762923808363
 21
193.941580743556
 31
0.0
  0
INSERT
  5
583
  8
回07-寸法
  6
CONTINUOUS
 62
     5
  2
_OPEN
 10
306.9762923808363
 20
209.8180963912638
 30
0.0
 41
1.5
 42
1.5
 43
1.5
 50
90.0
  0
INSERT
  5
584
  8
回07-寸法
  6
CONTINUOUS
 62
     5
  2
_OPEN
 10
306.9762923808363
 20
192.441580743556
 30
0.0
 41
1.5
 42
1.5
 43
1.5
 50
270.0
  0
TEXT
  5
585
  8
回07-寸法
  6
CONTINUOUS
 62
     5
 10
306.4762923808364
 20
196.168683415413
 30
0.0
 40
5.0
  1
17.4
 50
90.0
  0
POINT
  5
586
  8
DEFPOINTS
  6
CONTINUOUS
 62
     0
 10
320.7779910501779
 20
209.8180963912638
 30
0.0
  0
POINT
  5
587
  8
DEFPOINTS
  6
CONTINUOUS
 62
     0
 10
334.5268657347294
 20
192.441580743556
 30
0.0
  0
POINT
  5
588
  8
DEFPOINTS
  6
CONTINUOUS
 62
     0
 10
306.9762923808363
 20
192.441580743556
 30
0.0
  0
ENDBLK
  5
58A
  8
0
  6
CONTINUOUS
 62
     7
  0
BLOCK
  8
0
  2
*D5252
 70
     1
 10
0.0
 20
0.0
 30
0.0
  3
*D5252
  1

  0
LINE
  5
58C
  8
回07-寸法
  6
CONTINUOUS
 62
     5
 10
320.7779910501779
 20
209.8180963912638
 30
0.0
 11
312.5340715864138
 21
209.8180963912638
 31
0.0
  0
LINE
  5
58D
  8
回07-寸法
  6
CONTINUOUS
 62
     5
 10
320.7779910501779
 20
206.1904554281075
 30
0.0
 11
312.5340715864138
 21
206.1904554281075
 31
0.0
  0
LINE
  5
58E
  8
回07-寸法
  6
CONTINUOUS
 62
     5
 10
313.5340715864138
 20
204.6904554281076
 30
0.0
 11
313.5340715864138
 21
193.3348144664295
 31
0.0
  0
LINE
  5
58F
  8
回07-寸法
  6
CONTINUOUS
 62
     5
 10
313.5340715864138
 20
209.8180963912638
 30
0.0
 11
313.5340715864138
 21
206.1904554281075
 31
0.0
  0
LINE
  5
590
  8
回07-寸法
  6
CONTINUOUS
 62
     5
 10
313.5340715864138
 20
211.3180963912638
 30
0.0
 11
313.5340715864138
 21
212.8180963912638
 31
0.0
  0
INSERT
  5
591
  8
回07-寸法
  6
CONTINUOUS
 62
     5
  2
_OPEN
 10
313.5340715864138
 20
209.8180963912638
 30
0.0
 41
1.5
 42
1.5
 43
1.5
 50
270.0
  0
INSERT
  5
592
  8
回07-寸法
  6
CONTINUOUS
 62
     5
  2
_OPEN
 10
313.5340715864138
 20
206.1904554281075
 30
0.0
 41
1.5
 42
1.5
 43
1.5
 50
90.0
  0
TEXT
  5
593
  8
回07-寸法
  6
CONTINUOUS
 62
     5
 10
313.0340715864138
 20
193.0848144664295
 30
0.0
 40
5.0
  1
3.6
 50
90.0
  0
POINT
  5
594
  8
DEFPOINTS
  6
CONTINUOUS
 62
     0
 10
320.7779910501779
 20
209.8180963912638
 30
0.0
  0
POINT
  5
595
  8
DEFPOINTS
  6
CONTINUOUS
 62
     0
 10
320.7779910501779
 20
206.1904554281075
 30
0.0
  0
POINT
  5
596
  8
DEFPOINTS
  6
CONTINUOUS
 62
     0
 10
313.5340715864138
 20
206.1904554281075
 30
0.0
  0
ENDBLK
  5
598
  8
0
  6
CONTINUOUS
 62
     7
  0
BLOCK
  8
0
  2
*D5353
 70
     1
 10
0.0
 20
0.0
 30
0.0
  3
*D5353
  1

  0
LINE
  5
59A
  8
回08-記事
  6
CONTINUOUS
 62
     5
 10
590.3163666350867
 20
109.8221447620743
 30
0.0
 11
590.3163666350867
 21
93.03405032401263
 31
0.0
  0
LINE
  5
59B
  8
回08-記事
  6
CONTINUOUS
 62
     5
 10
592.8163666350867
 20
109.8221447620743
 30
0.0
 11
592.8163666350867
 21
93.03405032401263
 31
0.0
  0
LINE
  5
59C
  8
回08-記事
  6
CONTINUOUS
 62
     5
 10
594.3163666350868
 20
94.03405032401265
 30
0.0
 11
614.4041286429606
 21
94.03405032401265
 31
0.0
  0
LINE
  5
59D
  8
回08-記事
  6
CONTINUOUS
 62
     5
 10
590.3163666350867
 20
94.03405032401265
 30
0.0
 11
592.8163666350867
 21
94.03405032401265
 31
0.0
  0
LINE
  5
59E
  8
回08-記事
  6
CONTINUOUS
 62
     5
 10
588.8163666350867
 20
94.03405032401265
 30
0.0
 11
587.3163666350867
 21
94.03405032401265
 31
0.0
  0
INSERT
  5
59F
  8
回08-記事
  6
CONTINUOUS
 62
     5
  2
_OPEN
 10
590.3163666350867
 20
94.03405032401265
 30
0.0
 41
1.5
 42
1.5
 43
1.5
  0
INSERT
  5
5A0
  8
回08-記事
  6
CONTINUOUS
 62
     5
  2
_OPEN
 10
592.8163666350867
 20
94.03405032401265
 30
0.0
 41
1.5
 42
1.5
 43
1.5
 50
180.0
  0
INSERT
  5
5A1
  8
回08-記事
  6
CONTINUOUS
 62
     5
 66
     1
  2
*X9898
 10
0.0
 20
0.0
 30
0.0
  0
SEQEND
  5
850
  8
0
  6
CONTINUOUS
 62
     7
  0
POINT
  5
5A2
  8
DEFPOINTS
  6
CONTINUOUS
 62
     0
 10
590.3163666350867
 20
109.8221447620743
 30
0.0
  0
POINT
  5
5A3
  8
DEFPOINTS
  6
CONTINUOUS
 62
     0
 10
592.8163666350867
 20
109.8221447620743
 30
0.0
  0
POINT
  5
5A4
  8
DEFPOINTS
  6
CONTINUOUS
 62
     0
 10
592.8163666350867
 20
94.03405032401265
 30
0.0
  0
ENDBLK
  5
5A6
  8
0
  6
CONTINUOUS
 62
     7
  0
BLOCK
  8
0
  2
*D5454
 70
     1
 10
0.0
 20
0.0
 30
0.0
  3
*D5454
  1

  0
LINE
  5
5A8
  8
回08-記事
  6
CONTINUOUS
 62
     5
 10
585.4231824161161
 20
109.8221447620743
 30
0.0
 11
585.4231824161161
 21
99.32116249676839
 31
0.0
  0
LINE
  5
5A9
  8
回08-記事
  6
CONTINUOUS
 62
     5
 10
582.9231824161162
 20
109.8221447620743
 30
0.0
 11
582.9231824161162
 21
99.32116249676839
 31
0.0
  0
LINE
  5
5AA
  8
回08-記事
  6
CONTINUOUS
 62
     5
 10
581.4231824161161
 20
100.3211624967684
 30
0.0
 11
561.3354204082424
 21
100.3211624967684
 31
0.0
  0
LINE
  5
5AB
  8
回08-記事
  6
CONTINUOUS
 62
     5
 10
585.4231824161161
 20
100.3211624967684
 30
0.0
 11
582.9231824161162
 21
100.3211624967684
 31
0.0
  0
LINE
  5
5AC
  8
回08-記事
  6
CONTINUOUS
 62
     5
 10
586.9231824161162
 20
100.3211624967684
 30
0.0
 11
588.4231824161162
 21
100.3211624967684
 31
0.0
  0
INSERT
  5
5AD
  8
回08-記事
  6
CONTINUOUS
 62
     5
  2
_OPEN
 10
585.4231824161161
 20
100.3211624967684
 30
0.0
 41
1.5
 42
1.5
 43
1.5
 50
180.0
  0
INSERT
  5
5AE
  8
回08-記事
  6
CONTINUOUS
 62
     5
  2
_OPEN
 10
582.9231824161162
 20
100.3211624967684
 30
0.0
 41
1.5
 42
1.5
 43
1.5
  0
INSERT
  5
5AF
  8
回08-記事
  6
CONTINUOUS
 62
     5
 66
     1
  2
*X9999
 10
0.0
 20
0.0
 30
0.0
  0
SEQEND
  5
856
  8
0
  6
CONTINUOUS
 62
     7
  0
POINT
  5
5B0
  8
DEFPOINTS
  6
CONTINUOUS
 62
     0
 10
585.4231824161161
 20
109.8221447620743
 30
0.0
  0
POINT
  5
5B1
  8
DEFPOINTS
  6
CONTINUOUS
 62
     0
 10
582.9231824161162
 20
109.8221447620743
 30
0.0
  0
POINT
  5
5B2
  8
DEFPOINTS
  6
CONTINUOUS
 62
     0
 10
582.9231824161162
 20
100.3211624967684
 30
0.0
  0
ENDBLK
  5
5B4
  8
0
  6
CONTINUOUS
 62
     7
  0
BLOCK
  8
0
  2
*D5555
 70
     1
 10
0.0
 20
0.0
 30
0.0
  3
*D5555
  1

  0
LINE
  5
5B6
  8
回08-記事
  6
CONTINUOUS
 62
     5
 10
585.4231824161161
 20
119.8221447620743
 30
0.0
 11
590.6977152804781
 21
119.8221447620743
 31
0.0
  0
LINE
  5
5B7
  8
回08-記事
  6
CONTINUOUS
 62
     5
 10
585.4231824161161
 20
109.8221447620743
 30
0.0
 11
590.6977152804781
 21
109.8221447620743
 31
0.0
  0
LINE
  5
5B8
  8
回08-記事
  6
CONTINUOUS
 62
     5
 10
589.6977152804781
 20
118.3221447620743
 30
0.0
 11
589.6977152804781
 21
111.3221447620743
 31
0.0
  0
INSERT
  5
5B9
  8
回08-記事
  6
CONTINUOUS
 62
     5
  2
_OPEN
 10
589.6977152804781
 20
119.8221447620743
 30
0.0
 41
1.5
 42
1.5
 43
1.5
 50
90.0
  0
INSERT
  5
5BA
  8
回08-記事
  6
CONTINUOUS
 62
     5
  2
_OPEN
 10
589.6977152804781
 20
109.8221447620743
 30
0.0
 41
1.5
 42
1.5
 43
1.5
 50
270.0
  0
TEXT
  5
5BB
  8
回08-記事
  6
CONTINUOUS
 62
     5
 10
589.0310477804782
 20
111.4887947620743
 30
0.0
 40
3.333349999999998
  1
(10)
 50
90.0
  0
POINT
  5
5BC
  8
DEFPOINTS
  6
CONTINUOUS
 62
     0
 10
585.4231824161161
 20
119.8221447620743
 30
0.0
  0
POINT
  5
5BD
  8
DEFPOINTS
  6
CONTINUOUS
 62
     0
 10
585.4231824161161
 20
109.8221447620743
 30
0.0
  0
POINT
  5
5BE
  8
DEFPOINTS
  6
CONTINUOUS
 62
     0
 10
589.6977152804781
 20
109.8221447620743
 30
0.0
  0
ENDBLK
  5
5C0
  8
0
  6
CONTINUOUS
 62
     7
  0
BLOCK
  8
0
  2
*D5656
 70
     1
 10
0.0
 20
0.0
 30
0.0
  3
*D5656
  1

  0
LINE
  5
5C2
  8
回08-記事
  6
CONTINUOUS
 62
     5
 10
592.8163666350867
 20
109.8221447620743
 30
0.0
 11
606.0909522010043
 21
109.8221447620743
 31
0.0
  0
LINE
  5
5C3
  8
回08-記事
  6
CONTINUOUS
 62
     5
 10
593.516366635087
 20
114.8221447620743
 30
0.0
 11
606.0909522010043
 21
114.8221447620743
 31
0.0
  0
LINE
  5
5C4
  8
回08-記事
  6
CONTINUOUS
 62
     5
 10
605.0909522010043
 20
111.3221447620743
 30
0.0
 11
605.0909522010043
 21
113.3221447620743
 31
0.0
  0
INSERT
  5
5C5
  8
回08-記事
  6
CONTINUOUS
 62
     5
  2
_OPEN
 10
605.0909522010043
 20
109.8221447620743
 30
0.0
 41
1.5
 42
1.5
 43
1.5
 50
270.0
  0
INSERT
  5
5C6
  8
回08-記事
  6
CONTINUOUS
 62
     5
  2
_OPEN
 10
605.0909522010043
 20
114.8221447620743
 30
0.0
 41
1.5
 42
1.5
 43
1.5
 50
90.0
  0
TEXT
  5
5C7
  8
回08-記事
  6
CONTINUOUS
 62
     5
 10
604.5909522010044
 20
110.5721447620743
 30
0.0
 40
5.0
  1
5
 50
90.0
  0
POINT
  5
5C8
  8
DEFPOINTS
  6
CONTINUOUS
 62
     0
 10
592.8163666350867
 20
109.8221447620743
 30
0.0
  0
POINT
  5
5C9
  8
DEFPOINTS
  6
CONTINUOUS
 62
     0
 10
593.516366635087
 20
114.8221447620743
 30
0.0
  0
POINT
  5
5CA
  8
DEFPOINTS
  6
CONTINUOUS
 62
     0
 10
605.0909522010043
 20
114.8221447620743
 30
0.0
  0
ENDBLK
  5
5CC
  8
0
  6
CONTINUOUS
 62
     7
  0
BLOCK
  8
0
  2
*D5757
 70
     1
 10
0.0
 20
0.0
 30
0.0
  3
*D5757
  1

  0
LINE
  5
5CE
  8
回08-記事
  6
CONTINUOUS
 62
     5
 10
582.9231824161162
 20
109.8221447620743
 30
0.0
 11
573.9617722471447
 21
109.8221447620743
 31
0.0
  0
LINE
  5
5CF
  8
回08-記事
  6
CONTINUOUS
 62
     5
 10
582.2231824161165
 20
114.8221447620743
 30
0.0
 11
573.9617722471447
 21
114.8221447620743
 31
0.0
  0
LINE
  5
5D0
  8
回08-記事
  6
CONTINUOUS
 62
     5
 10
574.9617722471447
 20
111.3221447620743
 30
0.0
 11
574.9617722471447
 21
113.3221447620743
 31
0.0
  0
INSERT
  5
5D1
  8
回08-記事
  6
CONTINUOUS
 62
     5
  2
_OPEN
 10
574.9617722471447
 20
109.8221447620743
 30
0.0
 41
1.5
 42
1.5
 43
1.5
 50
270.0
  0
INSERT
  5
5D2
  8
回08-記事
  6
CONTINUOUS
 62
     5
  2
_OPEN
 10
574.9617722471447
 20
114.8221447620743
 30
0.0
 41
1.5
 42
1.5
 43
1.5
 50
90.0
  0
TEXT
  5
5D3
  8
回08-記事
  6
CONTINUOUS
 62
     5
 10
574.4617722471446
 20
110.5721447620743
 30
0.0
 40
5.0
  1
5
 50
90.0
  0
POINT
  5
5D4
  8
DEFPOINTS
  6
CONTINUOUS
 62
     0
 10
582.9231824161162
 20
109.8221447620743
 30
0.0
  0
POINT
  5
5D5
  8
DEFPOINTS
  6
CONTINUOUS
 62
     0
 10
582.2231824161165
 20
114.8221447620743
 30
0.0
  0
POINT
  5
5D6
  8
DEFPOINTS
  6
CONTINUOUS
 62
     0
 10
574.9617722471447
 20
114.8221447620743
 30
0.0
  0
ENDBLK
  5
5D8
  8
0
  6
CONTINUOUS
 62
     7
  0
BLOCK
  8
0
  2
*D5858
 70
     1
 10
0.0
 20
0.0
 30
0.0
  3
*D5858
  1

  0
LINE
  5
5DA
  8
回07-寸法
  6
CONTINUOUS
 62
     5
 10
578.9231824161162
 20
422.7330963912629
 30
0.0
 11
578.9231824161162
 21
434.2324198547351
 31
0.0
  0
LINE
  5
5DB
  8
回07-寸法
  6
CONTINUOUS
 62
     5
 10
599.8163666350867
 20
423.2330963912628
 30
0.0
 11
599.8163666350867
 21
434.2324198547351
 31
0.0
  0
LINE
  5
5DC
  8
回07-寸法
  6
CONTINUOUS
 62
     5
 10
580.4231824161162
 20
433.232419854735
 30
0.0
 11
598.3163666350868
 21
433.232419854735
 31
0.0
  0
INSERT
  5
5DD
  8
回07-寸法
  6
CONTINUOUS
 62
     5
  2
_OPEN
 10
578.9231824161162
 20
433.232419854735
 30
0.0
 41
1.5
 42
1.5
 43
1.5
 50
180.0
  0
INSERT
  5
5DE
  8
回07-寸法
  6
CONTINUOUS
 62
     5
  2
_OPEN
 10
599.8163666350867
 20
433.232419854735
 30
0.0
 41
1.5
 42
1.5
 43
1.5
  0
INSERT
  5
5DF
  8
回07-寸法
  6
CONTINUOUS
 62
     5
 66
     1
  2
*X100100
 10
0.0
 20
0.0
 30
0.0
  0
SEQEND
  5
85C
  8
0
  6
CONTINUOUS
 62
     7
  0
POINT
  5
5E0
  8
DEFPOINTS
  6
CONTINUOUS
 62
     0
 10
578.9231824161162
 20
422.7330963912629
 30
0.0
  0
POINT
  5
5E1
  8
DEFPOINTS
  6
CONTINUOUS
 62
     0
 10
599.8163666350867
 20
423.2330963912628
 30
0.0
  0
POINT
  5
5E2
  8
DEFPOINTS
  6
CONTINUOUS
 62
     0
 10
599.8163666350867
 20
433.232419854735
 30
0.0
  0
ENDBLK
  5
5E4
  8
0
  6
CONTINUOUS
 62
     7
  0
BLOCK
  8
0
  2
*D5959
 70
     1
 10
0.0
 20
0.0
 30
0.0
  3
*D5959
  1

  0
LINE
  5
5E6
  8
回07-寸法
  6
CONTINUOUS
 62
     5
 10
334.5268657347292
 20
110.3180963912639
 30
0.0
 11
334.5268657347292
 21
93.82214476207476
 31
0.0
  0
LINE
  5
5E8
  8
回07-寸法
  6
CONTINUOUS
 62
     5
 10
177.076865734729
 20
209.818096391264
 30
0.0
 11
177.076865734729
 21
93.82214476207478
 31
0.0
  0
LINE
  5
5E9
  8
回07-寸法
  6
CONTINUOUS
 62
     5
 10
333.0268657347292
 20
94.82214476207476
 30
0.0
 11
178.576865734729
 21
94.82214476207476
 31
0.0
  0
INSERT
  5
5EA
  8
回07-寸法
  6
CONTINUOUS
 62
     5
  2
_OPEN
 10
334.5268657347292
 20
94.82214476207476
 30
0.0
 41
1.5
 42
1.5
 43
1.5
 50
360.0
  0
INSERT
  5
5EB
  8
回07-寸法
  6
CONTINUOUS
 62
     5
  2
_OPEN
 10
177.076865734729
 20
94.82214476207476
 30
0.0
 41
1.5
 42
1.5
 43
1.5
 50
180.0
  0
TEXT
  5
5EC
  8
回07-寸法
  6
CONTINUOUS
 62
     5
 10
244.5518657347292
 20
95.57214476207475
 30
0.0
 40
5.0
  1
(157.45)
  0
POINT
  5
5ED
  8
DEFPOINTS
  6
CONTINUOUS
 62
     0
 10
334.5268657347292
 20
110.3180963912639
 30
0.0
  0
POINT
  5
5EE
  8
DEFPOINTS
  6
CONTINUOUS
 62
     0
 10
177.076865734729
 20
209.818096391264
 30
0.0
  0
POINT
  5
5EF
  8
DEFPOINTS
  6
CONTINUOUS
 62
     0
 10
177.076865734729
 20
94.82214476207476
 30
0.0
  0
ENDBLK
  5
5F1
  8
0
  6
CONTINUOUS
 62
     7
  0
BLOCK
  8
0
  2
*D6060
 70
     1
 10
0.0
 20
0.0
 30
0.0
  3
*D6060
  1

  0
LINE
  5
5F3
  8
回07-寸法
  6
CONTINUOUS
 62
     5
 10
352.0268657347294
 20
110.3180963912639
 30
0.0
 11
352.0268657347294
 21
93.82214476207479
 31
0.0
  0
LINE
  5
5F4
  8
回07-寸法
  6
CONTINUOUS
 62
     5
 10
334.5268657347292
 20
110.3180963912639
 30
0.0
 11
334.5268657347292
 21
93.82214476207479
 31
0.0
  0
LINE
  5
5F5
  8
回07-寸法
  6
CONTINUOUS
 62
     5
 10
353.5268657347294
 20
94.82214476207479
 30
0.0
 11
397.2383788689241
 21
94.82214476207479
 31
0.0
  0
LINE
  5
5F6
  8
回07-寸法
  6
CONTINUOUS
 62
     5
 10
352.0268657347294
 20
94.82214476207479
 30
0.0
 11
334.5268657347292
 21
94.82214476207479
 31
0.0
  0
LINE
  5
5F7
  8
回07-寸法
  6
CONTINUOUS
 62
     5
 10
333.0268657347292
 20
94.82214476207479
 30
0.0
 11
331.5268657347292
 21
94.82214476207479
 31
0.0
  0
INSERT
  5
5F8
  8
回07-寸法
  6
CONTINUOUS
 62
     5
  2
_OPEN
 10
352.0268657347294
 20
94.82214476207479
 30
0.0
 41
1.5
 42
1.5
 43
1.5
 50
180.0
  0
INSERT
  5
5F9
  8
回07-寸法
  6
CONTINUOUS
 62
     5
  2
_OPEN
 10
334.5268657347292
 20
94.82214476207479
 30
0.0
 41
1.5
 42
1.5
 43
1.5
  0
INSERT
  5
5FA
  8
回07-寸法
  6
CONTINUOUS
 62
     5
 66
     1
  2
*X101101
 10
0.0
 20
0.0
 30
0.0
  0
SEQEND
  5
862
  8
0
  6
CONTINUOUS
 62
     7
  0
POINT
  5
5FB
  8
DEFPOINTS
  6
CONTINUOUS
 62
     0
 10
352.0268657347294
 20
110.3180963912639
 30
0.0
  0
POINT
  5
5FC
  8
DEFPOINTS
  6
CONTINUOUS
 62
     0
 10
334.5268657347292
 20
110.3180963912639
 30
0.0
  0
POINT
  5
5FD
  8
DEFPOINTS
  6
CONTINUOUS
 62
     0
 10
334.5268657347292
 20
94.82214476207479
 30
0.0
  0
ENDBLK
  5
5FF
  8
0
  6
CONTINUOUS
 62
     7
  0
BLOCK
  8
0
  2
*D6161
 70
     1
 10
0.0
 20
0.0
 30
0.0
  3
*D6161
  1

  0
LINE
  5
601
  8
回07-寸法
  6
CONTINUOUS
 62
     5
 10
377.0268657347294
 20
110.318096391263
 30
0.0
 11
377.0268657347294
 21
83.82742453393673
 31
0.0
  0
LINE
  5
602
  8
回07-寸法
  6
CONTINUOUS
 62
     5
 10
363.5268657347294
 20
110.3180963912639
 30
0.0
 11
363.5268657347294
 21
83.82742453393673
 31
0.0
  0
LINE
  5
603
  8
回07-寸法
  6
CONTINUOUS
 62
     5
 10
378.5268657347294
 20
84.82742453393672
 30
0.0
 11
398.906969081186
 21
84.82742453393672
 31
0.0
  0
LINE
  5
604
  8
回07-寸法
  6
CONTINUOUS
 62
     5
 10
377.0268657347294
 20
84.82742453393672
 30
0.0
 11
363.5268657347294
 21
84.82742453393672
 31
0.0
  0
LINE
  5
605
  8
回07-寸法
  6
CONTINUOUS
 62
     5
 10
362.0268657347294
 20
84.82742453393672
 30
0.0
 11
360.5268657347294
 21
84.82742453393672
 31
0.0
  0
INSERT
  5
606
  8
回07-寸法
  6
CONTINUOUS
 62
     5
  2
_OPEN
 10
377.0268657347294
 20
84.82742453393672
 30
0.0
 41
1.5
 42
1.5
 43
1.5
 50
180.0
  0
INSERT
  5
607
  8
回07-寸法
  6
CONTINUOUS
 62
     5
  2
_OPEN
 10
363.5268657347294
 20
84.82742453393672
 30
0.0
 41
1.5
 42
1.5
 43
1.5
  0
INSERT
  5
608
  8
回07-寸法
  6
CONTINUOUS
 62
     5
 66
     1
  2
*X102102
 10
0.0
 20
0.0
 30
0.0
  0
SEQEND
  5
868
  8
0
  6
CONTINUOUS
 62
     7
  0
POINT
  5
609
  8
DEFPOINTS
  6
CONTINUOUS
 62
     0
 10
377.0268657347294
 20
110.318096391263
 30
0.0
  0
POINT
  5
60A
  8
DEFPOINTS
  6
CONTINUOUS
 62
     0
 10
363.5268657347294
 20
110.3180963912639
 30
0.0
  0
POINT
  5
60B
  8
DEFPOINTS
  6
CONTINUOUS
 62
     0
 10
363.5268657347294
 20
84.82742453393672
 30
0.0
  0
ENDBLK
  5
60D
  8
0
  6
CONTINUOUS
 62
     7
  0
BLOCK
  8
0
  2
*D6262
 70
     1
 10
0.0
 20
0.0
 30
0.0
  3
*D6262
  1

  0
LINE
  5
60F
  8
回07-寸法
  6
CONTINUOUS
 62
     5
 10
320.7779910501779
 20
209.8180963912638
 30
0.0
 11
293.0102342225566
 21
209.8180963912638
 31
0.0
  0
LINE
  5
611
  8
回07-寸法
  6
CONTINUOUS
 62
     5
 10
335.0268657347294
 20
109.8221447620747
 30
0.0
 11
293.0102342225566
 21
109.8221447620747
 31
0.0
  0
LINE
  5
612
  8
回07-寸法
  6
CONTINUOUS
 62
     5
 10
294.0102342225566
 20
208.3180963912638
 30
0.0
 11
294.0102342225566
 21
111.3221447620747
 31
0.0
  0
INSERT
  5
613
  8
回07-寸法
  6
CONTINUOUS
 62
     5
  2
_OPEN
 10
294.0102342225566
 20
209.8180963912638
 30
0.0
 41
1.5
 42
1.5
 43
1.5
 50
90.0
  0
INSERT
  5
614
  8
回07-寸法
  6
CONTINUOUS
 62
     5
  2
_OPEN
 10
294.0102342225566
 20
109.8221447620747
 30
0.0
 41
1.5
 42
1.5
 43
1.5
 50
270.0
  0
INSERT
  5
615
  8
回07-寸法
  6
CONTINUOUS
 62
     5
 66
     1
  2
*X103103
 10
0.0
 20
0.0
 30
0.0
  0
SEQEND
  5
86E
  8
0
  6
CONTINUOUS
 62
     7
  0
POINT
  5
616
  8
DEFPOINTS
  6
CONTINUOUS
 62
     0
 10
320.7779910501779
 20
209.8180963912638
 30
0.0
  0
POINT
  5
617
  8
DEFPOINTS
  6
CONTINUOUS
 62
     0
 10
335.0268657347294
 20
109.8221447620747
 30
0.0
  0
POINT
  5
618
  8
DEFPOINTS
  6
CONTINUOUS
 62
     0
 10
294.0102342225566
 20
109.8221447620747
 30
0.0
  0
ENDBLK
  5
61A
  8
0
  6
CONTINUOUS
 62
     7
  0
BLOCK
  8
0
  2
*D6363
 70
     1
 10
0.0
 20
0.0
 30
0.0
  3
*D6363
  1

  0
LINE
  5
61C
  8
回07-寸法
  6
CONTINUOUS
 62
     5
 10
182.8068657347292
 20
418.1480963912639
 30
0.0
 11
182.8068657347292
 21
459.2330963912639
 31
0.0
  0
LINE
  5
61D
  8
回07-寸法
  6
CONTINUOUS
 62
     5
 10
177.076865734729
 20
424.213096391263
 30
0.0
 11
177.076865734729
 21
459.2330963912639
 31
0.0
  0
LINE
  5
61E
  8
回07-寸法
  6
CONTINUOUS
 62
     5
 10
175.5768657347291
 20
458.2330963912638
 30
0.0
 11
162.5768657347291
 21
458.2330963912638
 31
0.0
  0
LINE
  5
61F
  8
回07-寸法
  6
CONTINUOUS
 62
     5
 10
182.8068657347292
 20
458.2330963912638
 30
0.0
 11
177.076865734729
 21
458.2330963912638
 31
0.0
  0
LINE
  5
620
  8
回07-寸法
  6
CONTINUOUS
 62
     5
 10
184.3068657347292
 20
458.2330963912638
 30
0.0
 11
185.8068657347292
 21
458.2330963912638
 31
0.0
  0
INSERT
  5
621
  8
回07-寸法
  6
CONTINUOUS
 62
     5
  2
_OPEN
 10
182.8068657347292
 20
458.2330963912638
 30
0.0
 41
1.5
 42
1.5
 43
1.5
 50
180.0
  0
INSERT
  5
622
  8
回07-寸法
  6
CONTINUOUS
 62
     5
  2
_OPEN
 10
177.076865734729
 20
458.2330963912638
 30
0.0
 41
1.5
 42
1.5
 43
1.5
  0
TEXT
  5
623
  8
回07-寸法
  6
CONTINUOUS
 62
     5
 10
162.3268657347291
 20
458.7330963912639
 30
0.0
 40
5.0
  1
5.73
  0
POINT
  5
624
  8
DEFPOINTS
  6
CONTINUOUS
 62
     0
 10
182.8068657347292
 20
418.1480963912639
 30
0.0
  0
POINT
  5
625
  8
DEFPOINTS
  6
CONTINUOUS
 62
     0
 10
177.076865734729
 20
424.213096391263
 30
0.0
  0
POINT
  5
626
  8
DEFPOINTS
  6
CONTINUOUS
 62
     0
 10
177.076865734729
 20
458.2330963912638
 30
0.0
  0
ENDBLK
  5
628
  8
0
  6
CONTINUOUS
 62
     7
  0
BLOCK
  8
0
  2
*D6464
 70
     1
 10
0.0
 20
0.0
 30
0.0
  3
*D6464
  1

  0
LINE
  5
62A
  8
回07-寸法
  6
CONTINUOUS
 62
     5
 10
184.8068657347291
 20
416.1480963912638
 30
0.0
 11
184.8068657347291
 21
447.2330963912638
 31
0.0
  0
LINE
  5
62B
  8
回07-寸法
  6
CONTINUOUS
 62
     5
 10
177.076865734729
 20
424.213096391263
 30
0.0
 11
177.076865734729
 21
447.2330963912638
 31
0.0
  0
LINE
  5
62C
  8
回07-寸法
  6
CONTINUOUS
 62
     5
 10
175.5768657347291
 20
446.2330963912639
 30
0.0
 11
162.5768657347291
 21
446.2330963912639
 31
0.0
  0
LINE
  5
62D
  8
回07-寸法
  6
CONTINUOUS
 62
     5
 10
184.8068657347291
 20
446.2330963912639
 30
0.0
 11
177.076865734729
 21
446.2330963912639
 31
0.0
  0
LINE
  5
62E
  8
回07-寸法
  6
CONTINUOUS
 62
     5
 10
186.3068657347291
 20
446.2330963912639
 30
0.0
 11
187.8068657347292
 21
446.2330963912639
 31
0.0
  0
INSERT
  5
62F
  8
回07-寸法
  6
CONTINUOUS
 62
     5
  2
_OPEN
 10
184.8068657347291
 20
446.2330963912639
 30
0.0
 41
1.5
 42
1.5
 43
1.5
 50
180.0
  0
INSERT
  5
630
  8
回07-寸法
  6
CONTINUOUS
 62
     5
  2
_OPEN
 10
177.076865734729
 20
446.2330963912639
 30
0.0
 41
1.5
 42
1.5
 43
1.5
  0
TEXT
  5
631
  8
回07-寸法
  6
CONTINUOUS
 62
     5
 10
162.3268657347291
 20
446.7330963912639
 30
0.0
 40
5.0
  1
7.73
  0
POINT
  5
632
  8
DEFPOINTS
  6
CONTINUOUS
 62
     0
 10
184.8068657347291
 20
416.1480963912638
 30
0.0
  0
POINT
  5
633
  8
DEFPOINTS
  6
CONTINUOUS
 62
     0
 10
177.076865734729
 20
424.213096391263
 30
0.0
  0
POINT
  5
634
  8
DEFPOINTS
  6
CONTINUOUS
 62
     0
 10
177.076865734729
 20
446.2330963912639
 30
0.0
  0
ENDBLK
  5
636
  8
0
  6
CONTINUOUS
 62
     7
  0
BLOCK
  8
0
  2
*D6565
 70
     1
 10
0.0
 20
0.0
 30
0.0
  3
*D6565
  1

  0
LINE
  5
638
  8
回07-寸法
  6
CONTINUOUS
 62
     5
 10
530.74686574473
 20
416.1480963912638
 30
0.0
 11
530.74686574473
 21
447.2330963912638
 31
0.0
  0
LINE
  5
639
  8
回07-寸法
  6
CONTINUOUS
 62
     5
 10
538.4768657347295
 20
424.213096391263
 30
0.0
 11
538.4768657347295
 21
447.2330963912638
 31
0.0
  0
LINE
  5
63A
  8
回07-寸法
  6
CONTINUOUS
 62
     5
 10
539.9768657347297
 20
446.2330963912639
 30
0.0
 11
556.9729287268556
 21
446.2330963912639
 31
0.0
  0
LINE
  5
63B
  8
回07-寸法
  6
CONTINUOUS
 62
     5
 10
530.74686574473
 20
446.2330963912639
 30
0.0
 11
538.4768657347295
 21
446.2330963912639
 31
0.0
  0
LINE
  5
63C
  8
回07-寸法
  6
CONTINUOUS
 62
     5
 10
529.24686574473
 20
446.2330963912639
 30
0.0
 11
527.7468657447298
 21
446.2330963912639
 31
0.0
  0
INSERT
  5
63D
  8
回07-寸法
  6
CONTINUOUS
 62
     5
  2
_OPEN
 10
530.74686574473
 20
446.2330963912639
 30
0.0
 41
1.5
 42
1.5
 43
1.5
  0
INSERT
  5
63E
  8
回07-寸法
  6
CONTINUOUS
 62
     5
  2
_OPEN
 10
538.4768657347295
 20
446.2330963912639
 30
0.0
 41
1.5
 42
1.5
 43
1.5
 50
180.0
  0
TEXT
  5
63F
  8
回07-寸法
  6
CONTINUOUS
 62
     5
 10
541.2248972307926
 20
446.9830963912638
 30
0.0
 40
5.0
  1
(7.73)
  0
POINT
  5
640
  8
DEFPOINTS
  6
CONTINUOUS
 62
     0
 10
530.74686574473
 20
416.1480963912638
 30
0.0
  0
POINT
  5
641
  8
DEFPOINTS
  6
CONTINUOUS
 62
     0
 10
538.4768657347295
 20
424.213096391263
 30
0.0
  0
POINT
  5
642
  8
DEFPOINTS
  6
CONTINUOUS
 62
     0
 10
538.4768657347295
 20
446.2330963912639
 30
0.0
  0
ENDBLK
  5
644
  8
0
  6
CONTINUOUS
 62
     7
  0
BLOCK
  8
0
  2
*D6666
 70
     1
 10
0.0
 20
0.0
 30
0.0
  3
*D6666
  1

  0
LINE
  5
646
  8
回07-寸法
  6
CONTINUOUS
 62
     5
 10
532.7468657347297
 20
418.148096391263
 30
0.0
 11
532.7468657347297
 21
459.2330963912639
 31
0.0
  0
LINE
  5
647
  8
回07-寸法
  6
CONTINUOUS
 62
     5
 10
538.4768657347295
 20
424.213096391263
 30
0.0
 11
538.4768657347295
 21
459.2330963912639
 31
0.0
  0
LINE
  5
648
  8
回07-寸法
  6
CONTINUOUS
 62
     5
 10
539.9768657347297
 20
458.2330963912638
 30
0.0
 11
556.9729287268556
 21
458.2330963912638
 31
0.0
  0
LINE
  5
649
  8
回07-寸法
  6
CONTINUOUS
 62
     5
 10
532.7468657347297
 20
458.2330963912638
 30
0.0
 11
538.4768657347295
 21
458.2330963912638
 31
0.0
  0
LINE
  5
64A
  8
回07-寸法
  6
CONTINUOUS
 62
     5
 10
531.2468657347295
 20
458.2330963912638
 30
0.0
 11
529.7468657347295
 21
458.2330963912638
 31
0.0
  0
INSERT
  5
64B
  8
回07-寸法
  6
CONTINUOUS
 62
     5
  2
_OPEN
 10
532.7468657347297
 20
458.2330963912638
 30
0.0
 41
1.5
 42
1.5
 43
1.5
  0
INSERT
  5
64C
  8
回07-寸法
  6
CONTINUOUS
 62
     5
  2
_OPEN
 10
538.4768657347295
 20
458.2330963912638
 30
0.0
 41
1.5
 42
1.5
 43
1.5
 50
180.0
  0
TEXT
  5
64D
  8
回07-寸法
  6
CONTINUOUS
 62
     5
 10
541.2248972307926
 20
458.9830963912638
 30
0.0
 40
5.0
  1
(5.73)
  0
POINT
  5
64E
  8
DEFPOINTS
  6
CONTINUOUS
 62
     0
 10
532.7468657347297
 20
418.148096391263
 30
0.0
  0
POINT
  5
64F
  8
DEFPOINTS
  6
CONTINUOUS
 62
     0
 10
538.4768657347295
 20
424.213096391263
 30
0.0
  0
POINT
  5
650
  8
DEFPOINTS
  6
CONTINUOUS
 62
     0
 10
538.4768657347295
 20
458.2330963912638
 30
0.0
  0
ENDBLK
  5
652
  8
0
  6
CONTINUOUS
 62
     7
  0
BLOCK
  8
0
  2
*D6767
 70
     1
 10
0.0
 20
0.0
 30
0.0
  3
*D6767
  1

  0
LINE
  5
654
  8
回07-寸法
  6
CONTINUOUS
 62
     5
 10
182.8068657347292
 20
418.1480963912639
 30
0.0
 11
139.0768657347291
 21
418.1480963912639
 31
0.0
  0
LINE
  5
655
  8
回07-寸法
  6
CONTINUOUS
 62
     5
 10
177.076865734729
 20
424.2130963912638
 30
0.0
 11
139.0768657347291
 21
424.2130963912638
 31
0.0
  0
LINE
  5
656
  8
回07-寸法
  6
CONTINUOUS
 62
     5
 10
140.0768657347291
 20
425.7130963912638
 30
0.0
 11
140.0768657347291
 21
442.70915938339
 31
0.0
  0
LINE
  5
657
  8
回07-寸法
  6
CONTINUOUS
 62
     5
 10
140.0768657347291
 20
418.1480963912639
 30
0.0
 11
140.0768657347291
 21
424.2130963912638
 31
0.0
  0
LINE
  5
658
  8
回07-寸法
  6
CONTINUOUS
 62
     5
 10
140.0768657347291
 20
416.6480963912638
 30
0.0
 11
140.0768657347291
 21
415.1480963912637
 31
0.0
  0
INSERT
  5
659
  8
回07-寸法
  6
CONTINUOUS
 62
     5
  2
_OPEN
 10
140.0768657347291
 20
418.1480963912639
 30
0.0
 41
1.5
 42
1.5
 43
1.5
 50
90.0
  0
INSERT
  5
65A
  8
回07-寸法
  6
CONTINUOUS
 62
     5
  2
_OPEN
 10
140.0768657347291
 20
424.2130963912638
 30
0.0
 41
1.5
 42
1.5
 43
1.5
 50
270.0
  0
TEXT
  5
65B
  8
回07-寸法
  6
CONTINUOUS
 62
     5
 10
139.3268657347291
 20
426.9611278873268
 30
0.0
 40
5.0
  1
(6.07)
 50
90.0
  0
POINT
  5
65C
  8
DEFPOINTS
  6
CONTINUOUS
 62
     0
 10
182.8068657347292
 20
418.1480963912639
 30
0.0
  0
POINT
  5
65D
  8
DEFPOINTS
  6
CONTINUOUS
 62
     0
 10
177.076865734729
 20
424.2130963912638
 30
0.0
  0
POINT
  5
65E
  8
DEFPOINTS
  6
CONTINUOUS
 62
     0
 10
140.0768657347291
 20
424.2130963912638
 30
0.0
  0
ENDBLK
  5
660
  8
0
  6
CONTINUOUS
 62
     7
  0
BLOCK
  8
0
  2
*D6868
 70
     1
 10
0.0
 20
0.0
 30
0.0
  3
*D6868
  1

  0
LINE
  5
662
  8
回07-寸法
  6
CONTINUOUS
 62
     5
 10
184.8068657347291
 20
416.1480963912638
 30
0.0
 11
152.0768657347291
 21
416.1480963912638
 31
0.0
  0
LINE
  5
663
  8
回07-寸法
  6
CONTINUOUS
 62
     5
 10
177.076865734729
 20
424.213096391263
 30
0.0
 11
152.0768657347291
 21
424.213096391263
 31
0.0
  0
LINE
  5
664
  8
回07-寸法
  6
CONTINUOUS
 62
     5
 10
153.0768657347291
 20
425.7130963912629
 30
0.0
 11
153.0768657347291
 21
442.7091593833891
 31
0.0
  0
LINE
  5
665
  8
回07-寸法
  6
CONTINUOUS
 62
     5
 10
153.0768657347291
 20
416.1480963912638
 30
0.0
 11
153.0768657347291
 21
424.213096391263
 31
0.0
  0
LINE
  5
666
  8
回07-寸法
  6
CONTINUOUS
 62
     5
 10
153.0768657347291
 20
414.6480963912638
 30
0.0
 11
153.0768657347291
 21
413.1480963912639
 31
0.0
  0
INSERT
  5
667
  8
回07-寸法
  6
CONTINUOUS
 62
     5
  2
_OPEN
 10
153.0768657347291
 20
416.1480963912638
 30
0.0
 41
1.5
 42
1.5
 43
1.5
 50
90.0
  0
INSERT
  5
668
  8
回07-寸法
  6
CONTINUOUS
 62
     5
  2
_OPEN
 10
153.0768657347291
 20
424.213096391263
 30
0.0
 41
1.5
 42
1.5
 43
1.5
 50
270.0
  0
TEXT
  5
669
  8
回07-寸法
  6
CONTINUOUS
 62
     5
 10
152.3268657347291
 20
426.9611278873259
 30
0.0
 40
5.0
  1
(8.07)
 50
90.0
  0
POINT
  5
66A
  8
DEFPOINTS
  6
CONTINUOUS
 62
     0
 10
184.8068657347291
 20
416.1480963912638
 30
0.0
  0
POINT
  5
66B
  8
DEFPOINTS
  6
CONTINUOUS
 62
     0
 10
177.076865734729
 20
424.213096391263
 30
0.0
  0
POINT
  5
66C
  8
DEFPOINTS
  6
CONTINUOUS
 62
     0
 10
153.0768657347291
 20
424.213096391263
 30
0.0
  0
ENDBLK
  5
66E
  8
0
  6
CONTINUOUS
 62
     7
  0
BLOCK
  8
0
  2
*D6969
 70
     1
 10
0.0
 20
0.0
 30
0.0
  3
*D6969
  1

  0
LINE
  5
670
  8
回07-寸法
  6
CONTINUOUS
 62
     5
 10
184.8068737347295
 20
220.9180963912636
 30
0.0
 11
152.0768657347291
 21
220.9180963912636
 31
0.0
  0
LINE
  5
671
  8
回07-寸法
  6
CONTINUOUS
 62
     5
 10
177.076865734729
 20
209.818096391264
 30
0.0
 11
152.0768657347291
 21
209.818096391264
 31
0.0
  0
LINE
  5
672
  8
回07-寸法
  6
CONTINUOUS
 62
     5
 10
153.0768657347291
 20
208.3180963912639
 30
0.0
 11
153.0768657347291
 21
198.3180963912639
 31
0.0
  0
LINE
  5
673
  8
回07-寸法
  6
CONTINUOUS
 62
     5
 10
153.0768657347291
 20
220.9180963912636
 30
0.0
 11
153.0768657347291
 21
209.818096391264
 31
0.0
  0
LINE
  5
674
  8
回07-寸法
  6
CONTINUOUS
 62
     5
 10
153.0768657347291
 20
222.4180963912636
 30
0.0
 11
153.0768657347291
 21
223.9180963912636
 31
0.0
  0
INSERT
  5
675
  8
回07-寸法
  6
CONTINUOUS
 62
     5
  2
_OPEN
 10
153.0768657347291
 20
220.9180963912636
 30
0.0
 41
1.5
 42
1.5
 43
1.5
 50
270.0
  0
INSERT
  5
676
  8
回07-寸法
  6
CONTINUOUS
 62
     5
  2
_OPEN
 10
153.0768657347291
 20
209.818096391264
 30
0.0
 41
1.5
 42
1.5
 43
1.5
 50
90.0
  0
TEXT
  5
677
  8
回07-寸法
  6
CONTINUOUS
 62
     5
 10
152.5768657347291
 20
198.0680963912639
 30
0.0
 40
5.0
  1
11.1
 50
90.0
  0
POINT
  5
678
  8
DEFPOINTS
  6
CONTINUOUS
 62
     0
 10
184.8068737347295
 20
220.9180963912636
 30
0.0
  0
POINT
  5
679
  8
DEFPOINTS
  6
CONTINUOUS
 62
     0
 10
177.076865734729
 20
209.818096391264
 30
0.0
  0
POINT
  5
67A
  8
DEFPOINTS
  6
CONTINUOUS
 62
     0
 10
153.0768657347291
 20
209.818096391264
 30
0.0
  0
ENDBLK
  5
67C
  8
0
  6
CONTINUOUS
 62
     7
  0
BLOCK
  8
0
  2
*D7070
 70
     1
 10
0.0
 20
0.0
 30
0.0
  3
*D7070
  1

  0
LINE
  5
67E
  8
回07-寸法
  6
CONTINUOUS
 62
     5
 10
182.8068657347292
 20
218.9180963912634
 30
0.0
 11
139.0768657347291
 21
218.9180963912634
 31
0.0
  0
LINE
  5
67F
  8
回07-寸法
  6
CONTINUOUS
 62
     5
 10
177.076865734729
 20
209.818096391264
 30
0.0
 11
139.0768657347291
 21
209.818096391264
 31
0.0
  0
LINE
  5
680
  8
回07-寸法
  6
CONTINUOUS
 62
     5
 10
140.0768657347291
 20
208.3180963912639
 30
0.0
 11
140.0768657347291
 21
199.418096391264
 31
0.0
  0
LINE
  5
681
  8
回07-寸法
  6
CONTINUOUS
 62
     5
 10
140.0768657347291
 20
218.9180963912634
 30
0.0
 11
140.0768657347291
 21
209.818096391264
 31
0.0
  0
LINE
  5
682
  8
回07-寸法
  6
CONTINUOUS
 62
     5
 10
140.0768657347291
 20
220.4180963912634
 30
0.0
 11
140.0768657347291
 21
221.9180963912634
 31
0.0
  0
INSERT
  5
683
  8
回07-寸法
  6
CONTINUOUS
 62
     5
  2
_OPEN
 10
140.0768657347291
 20
218.9180963912634
 30
0.0
 41
1.5
 42
1.5
 43
1.5
 50
270.0
  0
INSERT
  5
684
  8
回07-寸法
  6
CONTINUOUS
 62
     5
  2
_OPEN
 10
140.0768657347291
 20
209.818096391264
 30
0.0
 41
1.5
 42
1.5
 43
1.5
 50
90.0
  0
TEXT
  5
685
  8
回07-寸法
  6
CONTINUOUS
 62
     5
 10
139.5768657347291
 20
199.1500445486291
 30
0.0
 40
5.0
  1
9.1
 50
90.0
  0
POINT
  5
686
  8
DEFPOINTS
  6
CONTINUOUS
 62
     0
 10
182.8068657347292
 20
218.9180963912634
 30
0.0
  0
POINT
  5
687
  8
DEFPOINTS
  6
CONTINUOUS
 62
     0
 10
177.076865734729
 20
209.818096391264
 30
0.0
  0
POINT
  5
688
  8
DEFPOINTS
  6
CONTINUOUS
 62
     0
 10
140.0768657347291
 20
209.818096391264
 30
0.0
  0
ENDBLK
  5
68A
  8
0
  6
CONTINUOUS
 62
     7
  0
BLOCK
  8
0
  2
*D7171
 70
     1
 10
0.0
 20
0.0
 30
0.0
  3
*D7171
  1

  0
LINE
  5
68C
  8
回07-寸法
  6
CONTINUOUS
 62
     5
 10
538.4768657347295
 20
424.213096391263
 30
0.0
 11
538.4768657347295
 21
483.2330963912638
 31
0.0
  0
LINE
  5
68D
  8
回07-寸法
  6
CONTINUOUS
 62
     5
 10
177.076865734729
 20
424.213096391263
 30
0.0
 11
177.076865734729
 21
483.2330963912638
 31
0.0
  0
LINE
  5
68E
  8
回07-寸法
  6
CONTINUOUS
 62
     5
 10
536.9768657347297
 20
482.2330963912638
 30
0.0
 11
178.576865734729
 21
482.2330963912638
 31
0.0
  0
INSERT
  5
68F
  8
回07-寸法
  6
CONTINUOUS
 62
     5
  2
_OPEN
 10
538.4768657347295
 20
482.2330963912638
 30
0.0
 41
1.5
 42
1.5
 43
1.5
  0
INSERT
  5
690
  8
回07-寸法
  6
CONTINUOUS
 62
     5
  2
_OPEN
 10
177.076865734729
 20
482.2330963912638
 30
0.0
 41
1.5
 42
1.5
 43
1.5
 50
180.0
  0
INSERT
  5
691
  8
回07-寸法
  6
CONTINUOUS
 62
     5
 66
     1
  2
*X104104
 10
0.0
 20
0.0
 30
0.0
  0
SEQEND
  5
874
  8
0
  6
CONTINUOUS
 62
     7
  0
POINT
  5
692
  8
DEFPOINTS
  6
CONTINUOUS
 62
     0
 10
538.4768657347295
 20
424.213096391263
 30
0.0
  0
POINT
  5
693
  8
DEFPOINTS
  6
CONTINUOUS
 62
     0
 10
177.076865734729
 20
424.213096391263
 30
0.0
  0
POINT
  5
694
  8
DEFPOINTS
  6
CONTINUOUS
 62
     0
 10
177.076865734729
 20
482.2330963912638
 30
0.0
  0
ENDBLK
  5
696
  8
0
  6
CONTINUOUS
 62
     7
  0
BLOCK
  8
0
  2
*D7272
 70
     1
 10
0.0
 20
0.0
 30
0.0
  3
*D7272
  1

  0
LINE
  5
698
  8
回07-寸法
  6
CONTINUOUS
 62
     5
 10
182.8068657347292
 20
418.1480963912639
 30
0.0
 11
182.8068657347292
 21
459.2330963912639
 31
0.0
  0
LINE
  5
699
  8
回07-寸法
  6
CONTINUOUS
 62
     5
 10
532.7468657347297
 20
418.148096391263
 30
0.0
 11
532.7468657347297
 21
459.2330963912639
 31
0.0
  0
LINE
  5
69A
  8
回07-寸法
  6
CONTINUOUS
 62
     5
 10
184.3068657347292
 20
458.2330963912638
 30
0.0
 11
531.2468657347295
 21
458.2330963912638
 31
0.0
  0
INSERT
  5
69B
  8
回07-寸法
  6
CONTINUOUS
 62
     5
  2
_OPEN
 10
182.8068657347292
 20
458.2330963912638
 30
0.0
 41
1.5
 42
1.5
 43
1.5
 50
180.0
  0
INSERT
  5
69C
  8
回07-寸法
  6
CONTINUOUS
 62
     5
  2
_OPEN
 10
532.7468657347297
 20
458.2330963912638
 30
0.0
 41
1.5
 42
1.5
 43
1.5
  0
TEXT
  5
69D
  8
回07-寸法
  6
CONTINUOUS
 62
     5
 10
326.1517201387705
 20
459.9830963912638
 30
0.0
 40
5.0
  1
349.94(Viewing area)
  0
POINT
  5
69E
  8
DEFPOINTS
  6
CONTINUOUS
 62
     0
 10
182.8068657347292
 20
418.1480963912639
 30
0.0
  0
POINT
  5
69F
  8
DEFPOINTS
  6
CONTINUOUS
 62
     0
 10
532.7468657347297
 20
418.148096391263
 30
0.0
  0
POINT
  5
6A0
  8
DEFPOINTS
  6
CONTINUOUS
 62
     0
 10
532.7468657347297
 20
458.2330963912638
 30
0.0
  0
ENDBLK
  5
6A2
  8
0
  6
CONTINUOUS
 62
     7
  0
BLOCK
  8
0
  2
*D7373
 70
     1
 10
0.0
 20
0.0
 30
0.0
  3
*D7373
  1

  0
LINE
  5
6A4
  8
回07-寸法
  6
CONTINUOUS
 62
     5
 10
530.7468657347295
 20
416.1480963912638
 30
0.0
 11
530.7468657347295
 21
447.2330963912638
 31
0.0
  0
LINE
  5
6A5
  8
回07-寸法
  6
CONTINUOUS
 62
     5
 10
184.8068737347295
 20
416.1480963912638
 30
0.0
 11
184.8068737347295
 21
447.2330963912638
 31
0.0
  0
LINE
  5
6A6
  8
回07-寸法
  6
CONTINUOUS
 62
     5
 10
529.2468657347296
 20
446.2330963912639
 30
0.0
 11
186.3068737347296
 21
446.2330963912639
 31
0.0
  0
INSERT
  5
6A7
  8
回07-寸法
  6
CONTINUOUS
 62
     5
  2
_OPEN
 10
530.7468657347295
 20
446.2330963912639
 30
0.0
 41
1.5
 42
1.5
 43
1.5
 50
360.0
  0
INSERT
  5
6A8
  8
回07-寸法
  6
CONTINUOUS
 62
     5
  2
_OPEN
 10
184.8068737347295
 20
446.2330963912639
 30
0.0
 41
1.5
 42
1.5
 43
1.5
 50
180.0
  0
TEXT
  5
6A9
  8
回07-寸法
  6
CONTINUOUS
 62
     5
 10
328.0188280653807
 20
446.9830963912638
 30
0.0
 40
5.0
  1
345.94(Active area)
  0
POINT
  5
6AA
  8
DEFPOINTS
  6
CONTINUOUS
 62
     0
 10
530.7468657347295
 20
416.1480963912638
 30
0.0
  0
POINT
  5
6AB
  8
DEFPOINTS
  6
CONTINUOUS
 62
     0
 10
184.8068737347295
 20
416.1480963912638
 30
0.0
  0
POINT
  5
6AC
  8
DEFPOINTS
  6
CONTINUOUS
 62
     0
 10
184.8068737347295
 20
446.2330963912639
 30
0.0
  0
ENDBLK
  5
6AE
  8
0
  6
CONTINUOUS
 62
     7
  0
BLOCK
  8
0
  2
*D7474
 70
     1
 10
0.0
 20
0.0
 30
0.0
  3
*D7474
  1

  0
LINE
  5
6B0
  8
回07-寸法
  6
CONTINUOUS
 62
     5
 10
177.076865734729
 20
424.213096391263
 30
0.0
 11
111.0768657347291
 21
424.213096391263
 31
0.0
  0
LINE
  5
6B1
  8
回07-寸法
  6
CONTINUOUS
 62
     5
 10
177.076865734729
 20
209.818096391264
 30
0.0
 11
111.0768657347291
 21
209.818096391264
 31
0.0
  0
LINE
  5
6B2
  8
回07-寸法
  6
CONTINUOUS
 62
     5
 10
112.0768657347291
 20
422.7130963912629
 30
0.0
 11
112.0768657347291
 21
211.318096391264
 31
0.0
  0
INSERT
  5
6B3
  8
回07-寸法
  6
CONTINUOUS
 62
     5
  2
_OPEN
 10
112.0768657347291
 20
424.213096391263
 30
0.0
 41
1.5
 42
1.5
 43
1.5
 50
90.0
  0
INSERT
  5
6B4
  8
回07-寸法
  6
CONTINUOUS
 62
     5
  2
_OPEN
 10
112.0768657347291
 20
209.818096391264
 30
0.0
 41
1.5
 42
1.5
 43
1.5
 50
270.0
  0
INSERT
  5
6B5
  8
回07-寸法
  6
CONTINUOUS
 62
     5
 66
     1
  2
*X105105
 10
0.0
 20
0.0
 30
0.0
  0
SEQEND
  5
87A
  8
0
  6
CONTINUOUS
 62
     7
  0
POINT
  5
6B6
  8
DEFPOINTS
  6
CONTINUOUS
 62
     0
 10
177.076865734729
 20
424.213096391263
 30
0.0
  0
POINT
  5
6B7
  8
DEFPOINTS
  6
CONTINUOUS
 62
     0
 10
177.076865734729
 20
209.818096391264
 30
0.0
  0
POINT
  5
6B8
  8
DEFPOINTS
  6
CONTINUOUS
 62
     0
 10
112.0768657347291
 20
209.818096391264
 30
0.0
  0
ENDBLK
  5
6BA
  8
0
  6
CONTINUOUS
 62
     7
  0
BLOCK
  8
0
  2
*D7575
 70
     1
 10
0.0
 20
0.0
 30
0.0
  3
*D7575
  1

  0
LINE
  5
6BC
  8
回07-寸法
  6
CONTINUOUS
 62
     5
 10
182.8068657347292
 20
418.1480963912639
 30
0.0
 11
139.0768657347292
 21
418.1480963912639
 31
0.0
  0
LINE
  5
6BD
  8
回07-寸法
  6
CONTINUOUS
 62
     5
 10
182.8068657347292
 20
218.9180963912634
 30
0.0
 11
139.0768657347291
 21
218.9180963912634
 31
0.0
  0
LINE
  5
6BE
  8
回07-寸法
  6
CONTINUOUS
 62
     5
 10
140.0768657347292
 20
416.6480963912638
 30
0.0
 11
140.0768657347291
 21
220.4180963912634
 31
0.0
  0
INSERT
  5
6BF
  8
回07-寸法
  6
CONTINUOUS
 62
     5
  2
_OPEN
 10
140.0768657347292
 20
418.1480963912639
 30
0.0
 41
1.5
 42
1.5
 43
1.5
 50
89.99999999999998
  0
INSERT
  5
6C0
  8
回07-寸法
  6
CONTINUOUS
 62
     5
  2
_OPEN
 10
140.0768657347291
 20
218.9180963912634
 30
0.0
 41
1.5
 42
1.5
 43
1.5
 50
270.0
  0
TEXT
  5
6C1
  8
回07-寸法
  6
CONTINUOUS
 62
     5
 10
138.3268657347291
 20
288.0160288005975
 30
0.0
 40
5.0
  1
199.23(Viewing area)
 50
89.99999999999998
  0
POINT
  5
6C2
  8
DEFPOINTS
  6
CONTINUOUS
 62
     0
 10
182.8068657347292
 20
418.1480963912639
 30
0.0
  0
POINT
  5
6C3
  8
DEFPOINTS
  6
CONTINUOUS
 62
     0
 10
182.8068657347292
 20
218.9180963912634
 30
0.0
  0
POINT
  5
6C4
  8
DEFPOINTS
  6
CONTINUOUS
 62
     0
 10
140.0768657347291
 20
218.9180963912634
 30
0.0
  0
ENDBLK
  5
6C6
  8
0
  6
CONTINUOUS
 62
     7
  0
BLOCK
  8
0
  2
*D7676
 70
     1
 10
0.0
 20
0.0
 30
0.0
  3
*D7676
  1

  0
LINE
  5
6C8
  8
回07-寸法
  6
CONTINUOUS
 62
     5
 10
184.8068657347291
 20
220.9180963912636
 30
0.0
 11
152.0768657347291
 21
220.9180963912636
 31
0.0
  0
LINE
  5
6C9
  8
回07-寸法
  6
CONTINUOUS
 62
     5
 10
184.8068657347291
 20
416.1480963912638
 30
0.0
 11
152.0768657347292
 21
416.1480963912638
 31
0.0
  0
LINE
  5
6CA
  8
回07-寸法
  6
CONTINUOUS
 62
     5
 10
153.0768657347291
 20
222.4180963912636
 30
0.0
 11
153.0768657347292
 21
414.6480963912638
 31
0.0
  0
INSERT
  5
6CB
  8
回07-寸法
  6
CONTINUOUS
 62
     5
  2
_OPEN
 10
153.0768657347291
 20
220.9180963912636
 30
0.0
 41
1.5
 42
1.5
 43
1.5
 50
270.0
  0
INSERT
  5
6CC
  8
回07-寸法
  6
CONTINUOUS
 62
     5
  2
_OPEN
 10
153.0768657347292
 20
416.1480963912638
 30
0.0
 41
1.5
 42
1.5
 43
1.5
 50
89.99999999999998
  0
TEXT
  5
6CD
  8
回07-寸法
  6
CONTINUOUS
 62
     5
 10
152.3268657347291
 20
289.7750547219148
 30
0.0
 40
5.0
  1
195.23(Active area)
 50
89.99999999999998
  0
POINT
  5
6CE
  8
DEFPOINTS
  6
CONTINUOUS
 62
     0
 10
184.8068657347291
 20
220.9180963912636
 30
0.0
  0
POINT
  5
6CF
  8
DEFPOINTS
  6
CONTINUOUS
 62
     0
 10
184.8068657347291
 20
416.1480963912638
 30
0.0
  0
POINT
  5
6D0
  8
DEFPOINTS
  6
CONTINUOUS
 62
     0
 10
153.0768657347292
 20
416.1480963912638
 30
0.0
  0
ENDBLK
  5
6D2
  8
0
  6
CONTINUOUS
 62
     7
  0
BLOCK
  8
0
  2
*X7777
 70
     1
 10
0.0
 20
0.0
 30
0.0
  3
*X7777
  1

  0
LINE
  5
74F
  8
回08-記事
  6
PHANTOM2
 62
     7
 10
358.6072195840226
 20
206.1863826908714
 30
0.0
 11
357.2779910501785
 21
207.5156112247157
 31
0.0
1001
GRADIENTCOLOR1ACI
1070
     5
1001
GRADIENTCOLOR2ACI
1070
     2
1001
ACAD
1010
0.0
1020
0.0
1030
0.0
  0
LINE
  5
750
  8
回08-記事
  6
PHANTOM2
 62
     7
 10
359.954258002183
 20
206.1863826908714
 30
0.0
 11
357.2779910501783
 21
208.8626496428763
 31
0.0
1001
GRADIENTCOLOR1ACI
1070
     5
1001
GRADIENTCOLOR2ACI
1070
     2
1001
ACAD
1010
0.0
1020
0.0
1030
0.0
  0
LINE
  5
751
  8
回08-記事
  6
PHANTOM2
 62
     7
 10
361.3012964203434
 20
206.1863826908714
 30
0.0
 11
357.2779910501783
 21
210.2096880610365
 31
0.0
1001
GRADIENTCOLOR1ACI
1070
     5
1001
GRADIENTCOLOR2ACI
1070
     2
1001
ACAD
1010
0.0
1020
0.0
1030
0.0
  0
LINE
  5
752
  8
回08-記事
  6
PHANTOM2
 62
     7
 10
362.6483348385038
 20
206.1863826908714
 30
0.0
 11
357.2779910501783
 21
211.5567264791969
 31
0.0
1001
GRADIENTCOLOR1ACI
1070
     5
1001
GRADIENTCOLOR2ACI
1070
     2
1001
ACAD
1010
0.0
1020
0.0
1030
0.0
  0
LINE
  5
753
  8
回08-記事
  6
PHANTOM2
 62
     7
 10
363.9953732566643
 20
206.1863826908714
 30
0.0
 11
357.2779910501783
 21
212.9037648973574
 31
0.0
1001
GRADIENTCOLOR1ACI
1070
     5
1001
GRADIENTCOLOR2ACI
1070
     2
1001
ACAD
1010
0.0
1020
0.0
1030
0.0
  0
LINE
  5
754
  8
回08-記事
  6
PHANTOM2
 62
     7
 10
365.3424116748247
 20
206.1863826908715
 30
0.0
 11
358.1424116748244
 21
213.3863826908716
 31
0.0
1001
GRADIENTCOLOR1ACI
1070
     5
1001
GRADIENTCOLOR2ACI
1070
     2
1001
ACAD
1010
0.0
1020
0.0
1030
0.0
  0
LINE
  5
755
  8
回08-記事
  6
PHANTOM2
 62
     7
 10
366.6894500929848
 20
206.1863826908715
 30
0.0
 11
359.4894500929848
 21
213.3863826908716
 31
0.0
1001
GRADIENTCOLOR1ACI
1070
     5
1001
GRADIENTCOLOR2ACI
1070
     2
1001
ACAD
1010
0.0
1020
0.0
1030
0.0
  0
LINE
  5
756
  8
回08-記事
  6
PHANTOM2
 62
     7
 10
368.0364885111455
 20
206.1863826908715
 30
0.0
 11
360.8364885111455
 21
213.3863826908716
 31
0.0
1001
GRADIENTCOLOR1ACI
1070
     5
1001
GRADIENTCOLOR2ACI
1070
     2
1001
ACAD
1010
0.0
1020
0.0
1030
0.0
  0
LINE
  5
757
  8
回08-記事
  6
PHANTOM2
 62
     7
 10
369.383526929306
 20
206.1863826908714
 30
0.0
 11
362.1835269293058
 21
213.3863826908714
 31
0.0
1001
GRADIENTCOLOR1ACI
1070
     5
1001
GRADIENTCOLOR2ACI
1070
     2
1001
ACAD
1010
0.0
1020
0.0
1030
0.0
  0
LINE
  5
758
  8
回08-記事
  6
PHANTOM2
 62
     7
 10
370.7305653474664
 20
206.1863826908715
 30
0.0
 11
363.5305653474663
 21
213.3863826908716
 31
0.0
1001
GRADIENTCOLOR1ACI
1070
     5
1001
GRADIENTCOLOR2ACI
1070
     2
1001
ACAD
1010
0.0
1020
0.0
1030
0.0
  0
LINE
  5
759
  8
回08-記事
  6
PHANTOM2
 62
     7
 10
372.0776037656266
 20
206.1863826908715
 30
0.0
 11
364.8776037656268
 21
213.3863826908716
 31
0.0
1001
GRADIENTCOLOR1ACI
1070
     5
1001
GRADIENTCOLOR2ACI
1070
     2
1001
ACAD
1010
0.0
1020
0.0
1030
0.0
  0
LINE
  5
75A
  8
回08-記事
  6
PHANTOM2
 62
     7
 10
373.4246421837872
 20
206.1863826908714
 30
0.0
 11
366.2246421837872
 21
213.3863826908714
 31
0.0
1001
GRADIENTCOLOR1ACI
1070
     5
1001
GRADIENTCOLOR2ACI
1070
     2
1001
ACAD
1010
0.0
1020
0.0
1030
0.0
  0
LINE
  5
75B
  8
回08-記事
  6
PHANTOM2
 62
     7
 10
374.7716806019476
 20
206.1863826908714
 30
0.0
 11
367.5716806019476
 21
213.3863826908714
 31
0.0
1001
GRADIENTCOLOR1ACI
1070
     5
1001
GRADIENTCOLOR2ACI
1070
     2
1001
ACAD
1010
0.0
1020
0.0
1030
0.0
  0
LINE
  5
75C
  8
回08-記事
  6
PHANTOM2
 62
     7
 10
376.1187190201081
 20
206.1863826908714
 30
0.0
 11
368.918719020108
 21
213.3863826908714
 31
0.0
1001
GRADIENTCOLOR1ACI
1070
     5
1001
GRADIENTCOLOR2ACI
1070
     2
1001
ACAD
1010
0.0
1020
0.0
1030
0.0
  0
LINE
  5
75D
  8
回08-記事
  6
PHANTOM2
 62
     7
 10
377.4657574382685
 20
206.1863826908714
 30
0.0
 11
370.2657574382683
 21
213.3863826908714
 31
0.0
1001
GRADIENTCOLOR1ACI
1070
     5
1001
GRADIENTCOLOR2ACI
1070
     2
1001
ACAD
1010
0.0
1020
0.0
1030
0.0
  0
LINE
  5
75E
  8
回08-記事
  6
PHANTOM2
 62
     7
 10
378.8127958564289
 20
206.1863826908714
 30
0.0
 11
371.6127958564289
 21
213.3863826908714
 31
0.0
1001
GRADIENTCOLOR1ACI
1070
     5
1001
GRADIENTCOLOR2ACI
1070
     2
1001
ACAD
1010
0.0
1020
0.0
1030
0.0
  0
LINE
  5
75F
  8
回08-記事
  6
PHANTOM2
 62
     7
 10
380.1598342745894
 20
206.1863826908714
 30
0.0
 11
372.9598342745893
 21
213.3863826908714
 31
0.0
1001
GRADIENTCOLOR1ACI
1070
     5
1001
GRADIENTCOLOR2ACI
1070
     2
1001
ACAD
1010
0.0
1020
0.0
1030
0.0
  0
LINE
  5
760
  8
回08-記事
  6
PHANTOM2
 62
     7
 10
381.5068726927496
 20
206.1863826908715
 30
0.0
 11
374.3068726927495
 21
213.3863826908716
 31
0.0
1001
GRADIENTCOLOR1ACI
1070
     5
1001
GRADIENTCOLOR2ACI
1070
     2
1001
ACAD
1010
0.0
1020
0.0
1030
0.0
  0
LINE
  5
761
  8
回08-記事
  6
PHANTOM2
 62
     7
 10
382.8539111109102
 20
206.1863826908714
 30
0.0
 11
375.6539111109101
 21
213.3863826908714
 31
0.0
1001
GRADIENTCOLOR1ACI
1070
     5
1001
GRADIENTCOLOR2ACI
1070
     2
1001
ACAD
1010
0.0
1020
0.0
1030
0.0
  0
LINE
  5
762
  8
回08-記事
  6
PHANTOM2
 62
     7
 10
383.2779910501784
 20
207.1093411697638
 30
0.0
 11
377.0009495290706
 21
213.3863826908714
 31
0.0
1001
GRADIENTCOLOR1ACI
1070
     5
1001
GRADIENTCOLOR2ACI
1070
     2
1001
ACAD
1010
0.0
1020
0.0
1030
0.0
  0
LINE
  5
763
  8
回08-記事
  6
PHANTOM2
 62
     7
 10
383.2779910501782
 20
208.4563795879242
 30
0.0
 11
378.347987947231
 21
213.3863826908714
 31
0.0
1001
GRADIENTCOLOR1ACI
1070
     5
1001
GRADIENTCOLOR2ACI
1070
     2
1001
ACAD
1010
0.0
1020
0.0
1030
0.0
  0
LINE
  5
764
  8
回08-記事
  6
PHANTOM2
 62
     7
 10
383.2779910501784
 20
209.8034180060845
 30
0.0
 11
379.6950263653914
 21
213.3863826908716
 31
0.0
1001
GRADIENTCOLOR1ACI
1070
     5
1001
GRADIENTCOLOR2ACI
1070
     2
1001
ACAD
1010
0.0
1020
0.0
1030
0.0
  0
LINE
  5
765
  8
回08-記事
  6
PHANTOM2
 62
     7
 10
383.2779910501782
 20
211.150456424245
 30
0.0
 11
381.0420647835518
 21
213.3863826908716
 31
0.0
1001
GRADIENTCOLOR1ACI
1070
     5
1001
GRADIENTCOLOR2ACI
1070
     2
1001
ACAD
1010
0.0
1020
0.0
1030
0.0
  0
LINE
  5
766
  8
回08-記事
  6
PHANTOM2
 62
     7
 10
383.2779910501784
 20
212.4974948424053
 30
0.0
 11
382.3891032017123
 21
213.3863826908714
 31
0.0
1001
GRADIENTCOLOR1ACI
1070
     5
1001
GRADIENTCOLOR2ACI
1070
     2
1001
ACAD
1010
0.0
1020
0.0
1030
0.0
  0
ENDBLK
  5
768
  8
0
  6
CONTINUOUS
 62
     7
  0
BLOCK
  8
0
  2
*X7878
 70
     1
 10
0.0
 20
0.0
 30
0.0
  3
*X7878
  1

  0
LINE
  5
76B
  8
回08-記事
  6
PHANTOM2
 62
     7
 10
322.2371822936923
 20
206.1863826908715
 30
0.0
 11
321.2779910501782
 21
207.1455739343855
 31
0.0
1001
GRADIENTCOLOR1ACI
1070
     5
1001
GRADIENTCOLOR2ACI
1070
     2
1001
ACAD
1010
0.0
1020
0.0
1030
0.0
  0
LINE
  5
76C
  8
回08-記事
  6
PHANTOM2
 62
     7
 10
323.5842207118526
 20
206.1863826908715
 30
0.0
 11
321.2779910501781
 21
208.4926123525461
 31
0.0
1001
GRADIENTCOLOR1ACI
1070
     5
1001
GRADIENTCOLOR2ACI
1070
     2
1001
ACAD
1010
0.0
1020
0.0
1030
0.0
  0
LINE
  5
76D
  8
回08-記事
  6
PHANTOM2
 62
     7
 10
324.9312591300133
 20
206.1863826908714
 30
0.0
 11
321.2779910501784
 21
209.8396507707061
 31
0.0
1001
GRADIENTCOLOR1ACI
1070
     5
1001
GRADIENTCOLOR2ACI
1070
     2
1001
ACAD
1010
0.0
1020
0.0
1030
0.0
  0
LINE
  5
76E
  8
回08-記事
  6
PHANTOM2
 62
     7
 10
326.2782975481737
 20
206.1863826908714
 30
0.0
 11
321.2779910501784
 21
211.1866891888667
 31
0.0
1001
GRADIENTCOLOR1ACI
1070
     5
1001
GRADIENTCOLOR2ACI
1070
     2
1001
ACAD
1010
0.0
1020
0.0
1030
0.0
  0
LINE
  5
76F
  8
回08-記事
  6
PHANTOM2
 62
     7
 10
327.6253359663339
 20
206.1863826908715
 30
0.0
 11
321.2779910501782
 21
212.5337276070272
 31
0.0
1001
GRADIENTCOLOR1ACI
1070
     5
1001
GRADIENTCOLOR2ACI
1070
     2
1001
ACAD
1010
0.0
1020
0.0
1030
0.0
  0
LINE
  5
770
  8
回08-記事
  6
PHANTOM2
 62
     7
 10
328.9723743844945
 20
206.1863826908714
 30
0.0
 11
321.7723743844945
 21
213.3863826908714
 31
0.0
1001
GRADIENTCOLOR1ACI
1070
     5
1001
GRADIENTCOLOR2ACI
1070
     2
1001
ACAD
1010
0.0
1020
0.0
1030
0.0
  0
LINE
  5
771
  8
回08-記事
  6
PHANTOM2
 62
     7
 10
330.3194128026551
 20
206.1863826908711
 30
0.0
 11
323.1194128026549
 21
213.3863826908714
 31
0.0
1001
GRADIENTCOLOR1ACI
1070
     5
1001
GRADIENTCOLOR2ACI
1070
     2
1001
ACAD
1010
0.0
1020
0.0
1030
0.0
  0
LINE
  5
772
  8
回08-記事
  6
PHANTOM2
 62
     7
 10
331.6664512208153
 20
206.1863826908714
 30
0.0
 11
324.4664512208153
 21
213.3863826908714
 31
0.0
1001
GRADIENTCOLOR1ACI
1070
     5
1001
GRADIENTCOLOR2ACI
1070
     2
1001
ACAD
1010
0.0
1020
0.0
1030
0.0
  0
LINE
  5
773
  8
回08-記事
  6
PHANTOM2
 62
     7
 10
333.0134896389759
 20
206.1863826908714
 30
0.0
 11
325.813489638976
 21
213.3863826908714
 31
0.0
1001
GRADIENTCOLOR1ACI
1070
     5
1001
GRADIENTCOLOR2ACI
1070
     2
1001
ACAD
1010
0.0
1020
0.0
1030
0.0
  0
LINE
  5
774
  8
回08-記事
  6
PHANTOM2
 62
     7
 10
334.3605280571364
 20
206.1863826908714
 30
0.0
 11
327.1605280571362
 21
213.3863826908714
 31
0.0
1001
GRADIENTCOLOR1ACI
1070
     5
1001
GRADIENTCOLOR2ACI
1070
     2
1001
ACAD
1010
0.0
1020
0.0
1030
0.0
  0
LINE
  5
775
  8
回08-記事
  6
PHANTOM2
 62
     7
 10
335.7075664752966
 20
206.1863826908714
 30
0.0
 11
328.5075664752966
 21
213.3863826908714
 31
0.0
1001
GRADIENTCOLOR1ACI
1070
     5
1001
GRADIENTCOLOR2ACI
1070
     2
1001
ACAD
1010
0.0
1020
0.0
1030
0.0
  0
LINE
  5
776
  8
回08-記事
  6
PHANTOM2
 62
     7
 10
337.0546048934571
 20
206.1863826908714
 30
0.0
 11
329.854604893457
 21
213.3863826908714
 31
0.0
1001
GRADIENTCOLOR1ACI
1070
     5
1001
GRADIENTCOLOR2ACI
1070
     2
1001
ACAD
1010
0.0
1020
0.0
1030
0.0
  0
LINE
  5
777
  8
回08-記事
  6
PHANTOM2
 62
     7
 10
338.4016433116175
 20
206.1863826908714
 30
0.0
 11
331.2016433116174
 21
213.3863826908714
 31
0.0
1001
GRADIENTCOLOR1ACI
1070
     5
1001
GRADIENTCOLOR2ACI
1070
     2
1001
ACAD
1010
0.0
1020
0.0
1030
0.0
  0
LINE
  5
778
  8
回08-記事
  6
PHANTOM2
 62
     7
 10
339.7486817297779
 20
206.1863826908714
 30
0.0
 11
332.5486817297778
 21
213.3863826908714
 31
0.0
1001
GRADIENTCOLOR1ACI
1070
     5
1001
GRADIENTCOLOR2ACI
1070
     2
1001
ACAD
1010
0.0
1020
0.0
1030
0.0
  0
LINE
  5
779
  8
回08-記事
  6
PHANTOM2
 62
     7
 10
341.0957201479383
 20
206.1863826908715
 30
0.0
 11
333.8957201479384
 21
213.3863826908716
 31
0.0
1001
GRADIENTCOLOR1ACI
1070
     5
1001
GRADIENTCOLOR2ACI
1070
     2
1001
ACAD
1010
0.0
1020
0.0
1030
0.0
  0
LINE
  5
77A
  8
回08-記事
  6
PHANTOM2
 62
     7
 10
342.4427585660987
 20
206.1863826908714
 30
0.0
 11
335.2427585660986
 21
213.3863826908716
 31
0.0
1001
GRADIENTCOLOR1ACI
1070
     5
1001
GRADIENTCOLOR2ACI
1070
     2
1001
ACAD
1010
0.0
1020
0.0
1030
0.0
  0
LINE
  5
77B
  8
回08-記事
  6
PHANTOM2
 62
     7
 10
343.7897969842591
 20
206.1863826908715
 30
0.0
 11
336.5897969842591
 21
213.3863826908716
 31
0.0
1001
GRADIENTCOLOR1ACI
1070
     5
1001
GRADIENTCOLOR2ACI
1070
     2
1001
ACAD
1010
0.0
1020
0.0
1030
0.0
  0
LINE
  5
77C
  8
回08-記事
  6
PHANTOM2
 62
     7
 10
345.1368354024197
 20
206.1863826908714
 30
0.0
 11
337.9368354024196
 21
213.3863826908714
 31
0.0
1001
GRADIENTCOLOR1ACI
1070
     5
1001
GRADIENTCOLOR2ACI
1070
     2
1001
ACAD
1010
0.0
1020
0.0
1030
0.0
  0
LINE
  5
77D
  8
回08-記事
  6
PHANTOM2
 62
     7
 10
346.4838738205799
 20
206.1863826908714
 30
0.0
 11
339.28387382058
 21
213.3863826908716
 31
0.0
1001
GRADIENTCOLOR1ACI
1070
     5
1001
GRADIENTCOLOR2ACI
1070
     2
1001
ACAD
1010
0.0
1020
0.0
1030
0.0
  0
LINE
  5
77E
  8
回08-記事
  6
PHANTOM2
 62
     7
 10
347.8309122387404
 20
206.1863826908714
 30
0.0
 11
340.6309122387404
 21
213.3863826908714
 31
0.0
1001
GRADIENTCOLOR1ACI
1070
     5
1001
GRADIENTCOLOR2ACI
1070
     2
1001
ACAD
1010
0.0
1020
0.0
1030
0.0
  0
LINE
  5
77F
  8
回08-記事
  6
PHANTOM2
 62
     7
 10
349.1779506569011
 20
206.1863826908711
 30
0.0
 11
341.9779506569008
 21
213.3863826908714
 31
0.0
1001
GRADIENTCOLOR1ACI
1070
     5
1001
GRADIENTCOLOR2ACI
1070
     2
1001
ACAD
1010
0.0
1020
0.0
1030
0.0
  0
LINE
  5
780
  8
回08-記事
  6
PHANTOM2
 62
     7
 10
350.5249890750613
 20
206.1863826908714
 30
0.0
 11
343.3249890750612
 21
213.3863826908714
 31
0.0
1001
GRADIENTCOLOR1ACI
1070
     5
1001
GRADIENTCOLOR2ACI
1070
     2
1001
ACAD
1010
0.0
1020
0.0
1030
0.0
  0
LINE
  5
781
  8
回08-記事
  6
PHANTOM2
 62
     7
 10
351.8720274932217
 20
206.1863826908714
 30
0.0
 11
344.6720274932216
 21
213.3863826908714
 31
0.0
1001
GRADIENTCOLOR1ACI
1070
     5
1001
GRADIENTCOLOR2ACI
1070
     2
1001
ACAD
1010
0.0
1020
0.0
1030
0.0
  0
LINE
  5
782
  8
回08-記事
  6
PHANTOM2
 62
     7
 10
353.2190659113823
 20
206.1863826908714
 30
0.0
 11
346.0190659113822
 21
213.3863826908714
 31
0.0
1001
GRADIENTCOLOR1ACI
1070
     5
1001
GRADIENTCOLOR2ACI
1070
     2
1001
ACAD
1010
0.0
1020
0.0
1030
0.0
  0
LINE
  5
783
  8
回08-記事
  6
PHANTOM2
 62
     7
 10
354.5661043295424
 20
206.1863826908714
 30
0.0
 11
347.3661043295424
 21
213.3863826908714
 31
0.0
1001
GRADIENTCOLOR1ACI
1070
     5
1001
GRADIENTCOLOR2ACI
1070
     2
1001
ACAD
1010
0.0
1020
0.0
1030
0.0
  0
LINE
  5
784
  8
回08-記事
  6
PHANTOM2
 62
     7
 10
355.2779910501782
 20
206.8215343883962
 30
0.0
 11
348.7131427477029
 21
213.3863826908714
 31
0.0
1001
GRADIENTCOLOR1ACI
1070
     5
1001
GRADIENTCOLOR2ACI
1070
     2
1001
ACAD
1010
0.0
1020
0.0
1030
0.0
  0
LINE
  5
785
  8
回08-記事
  6
PHANTOM2
 62
     7
 10
355.2779910501785
 20
208.1685728065565
 30
0.0
 11
350.0601811658634
 21
213.3863826908714
 31
0.0
1001
GRADIENTCOLOR1ACI
1070
     5
1001
GRADIENTCOLOR2ACI
1070
     2
1001
ACAD
1010
0.0
1020
0.0
1030
0.0
  0
LINE
  5
786
  8
回08-記事
  6
PHANTOM2
 62
     7
 10
355.2779910501783
 20
209.5156112247171
 30
0.0
 11
351.4072195840238
 21
213.3863826908714
 31
0.0
1001
GRADIENTCOLOR1ACI
1070
     5
1001
GRADIENTCOLOR2ACI
1070
     2
1001
ACAD
1010
0.0
1020
0.0
1030
0.0
  0
LINE
  5
787
  8
回08-記事
  6
PHANTOM2
 62
     7
 10
355.2779910501785
 20
210.8626496428774
 30
0.0
 11
352.7542580021842
 21
213.3863826908714
 31
0.0
1001
GRADIENTCOLOR1ACI
1070
     5
1001
GRADIENTCOLOR2ACI
1070
     2
1001
ACAD
1010
0.0
1020
0.0
1030
0.0
  0
LINE
  5
788
  8
回08-記事
  6
PHANTOM2
 62
     7
 10
355.2779910501783
 20
212.2096880610379
 30
0.0
 11
354.1012964203444
 21
213.3863826908716
 31
0.0
1001
GRADIENTCOLOR1ACI
1070
     5
1001
GRADIENTCOLOR2ACI
1070
     2
1001
ACAD
1010
0.0
1020
0.0
1030
0.0
  0
ENDBLK
  5
78A
  8
0
  6
CONTINUOUS
 62
     7
  0
BLOCK
  8
0
  2
*X7979
 70
     1
 10
0.0
 20
0.0
 30
0.0
  3
*X7979
  1

  0
LINE
  5
78D
  8
回08-記事
  6
CONTINUOUS
 62
     7
 10
583.9231824161162
 20
209.1387069230787
 30
0.0
 11
584.9025718843007
 21
210.1180963912633
 31
0.0
1001
GRADIENTCOLOR1ACI
1070
     5
1001
GRADIENTCOLOR2ACI
1070
     2
1001
ACAD
1010
0.0
1020
0.0
1030
0.0
  0
LINE
  5
78E
  8
回08-記事
  6
CONTINUOUS
 62
     7
 10
583.9231824161162
 20
207.7916685049183
 30
0.0
 11
584.6231824161166
 21
208.4916685049186
 31
0.0
1001
GRADIENTCOLOR1ACI
1070
     5
1001
GRADIENTCOLOR2ACI
1070
     2
1001
ACAD
1010
0.0
1020
0.0
1030
0.0
  0
LINE
  5
78F
  8
回08-記事
  6
CONTINUOUS
 62
     7
 10
585.2496103024613
 20
209.1180963912632
 30
0.0
 11
586.2496103024612
 21
210.1180963912633
 31
0.0
1001
GRADIENTCOLOR1ACI
1070
     5
1001
GRADIENTCOLOR2ACI
1070
     2
1001
ACAD
1010
0.0
1020
0.0
1030
0.0
  0
LINE
  5
790
  8
回08-記事
  6
CONTINUOUS
 62
     7
 10
583.9231824161162
 20
206.4446300867579
 30
0.0
 11
584.6231824161166
 21
207.144630086758
 31
0.0
1001
GRADIENTCOLOR1ACI
1070
     5
1001
GRADIENTCOLOR2ACI
1070
     2
1001
ACAD
1010
0.0
1020
0.0
1030
0.0
  0
LINE
  5
791
  8
回08-記事
  6
CONTINUOUS
 62
     7
 10
586.5966487206216
 20
209.1180963912632
 30
0.0
 11
587.5966487206217
 21
210.1180963912632
 31
0.0
1001
GRADIENTCOLOR1ACI
1070
     5
1001
GRADIENTCOLOR2ACI
1070
     2
1001
ACAD
1010
0.0
1020
0.0
1030
0.0
  0
LINE
  5
792
  8
回08-記事
  6
CONTINUOUS
 62
     7
 10
587.9436871387818
 20
209.1180963912632
 30
0.0
 11
588.9436871387819
 21
210.1180963912632
 31
0.0
1001
GRADIENTCOLOR1ACI
1070
     5
1001
GRADIENTCOLOR2ACI
1070
     2
1001
ACAD
1010
0.0
1020
0.0
1030
0.0
  0
LINE
  5
793
  8
回08-記事
  6
CONTINUOUS
 62
     7
 10
589.2907255569425
 20
209.1180963912633
 30
0.0
 11
590.2907255569425
 21
210.1180963912633
 31
0.0
1001
GRADIENTCOLOR1ACI
1070
     5
1001
GRADIENTCOLOR2ACI
1070
     2
1001
ACAD
1010
0.0
1020
0.0
1030
0.0
  0
LINE
  5
794
  8
回08-記事
  6
CONTINUOUS
 62
     7
 10
590.6377639751029
 20
209.1180963912632
 30
0.0
 11
591.6377639751027
 21
210.1180963912632
 31
0.0
1001
GRADIENTCOLOR1ACI
1070
     5
1001
GRADIENTCOLOR2ACI
1070
     2
1001
ACAD
1010
0.0
1020
0.0
1030
0.0
  0
LINE
  5
795
  8
回08-記事
  6
CONTINUOUS
 62
     7
 10
593.516366635087
 20
209.3026222149267
 30
0.0
 11
594.0318408114233
 21
209.8180963912629
 31
0.0
1001
GRADIENTCOLOR1ACI
1070
     5
1001
GRADIENTCOLOR2ACI
1070
     2
1001
ACAD
1010
0.0
1020
0.0
1030
0.0
  0
LINE
  5
796
  8
回08-記事
  6
CONTINUOUS
 62
     7
 10
593.516366635087
 20
207.9555837967662
 30
0.0
 11
594.2163666350867
 21
208.655583796766
 31
0.0
1001
GRADIENTCOLOR1ACI
1070
     5
1001
GRADIENTCOLOR2ACI
1070
     2
1001
ACAD
1010
0.0
1020
0.0
1030
0.0
  0
LINE
  5
797
  8
回08-記事
  6
CONTINUOUS
 62
     7
 10
594.6788792295839
 20
209.1180963912632
 30
0.0
 11
595.3788792295837
 21
209.8180963912631
 31
0.0
1001
GRADIENTCOLOR1ACI
1070
     5
1001
GRADIENTCOLOR2ACI
1070
     2
1001
ACAD
1010
0.0
1020
0.0
1030
0.0
  0
LINE
  5
798
  8
回08-記事
  6
CONTINUOUS
 62
     7
 10
593.516366635087
 20
206.6085453786059
 30
0.0
 11
594.2163666350867
 21
207.3085453786056
 31
0.0
1001
GRADIENTCOLOR1ACI
1070
     5
1001
GRADIENTCOLOR2ACI
1070
     2
1001
ACAD
1010
0.0
1020
0.0
1030
0.0
  0
LINE
  5
799
  8
回08-記事
  6
CONTINUOUS
 62
     7
 10
596.0259176477443
 20
209.1180963912633
 30
0.0
 11
596.7259176477442
 21
209.8180963912632
 31
0.0
1001
GRADIENTCOLOR1ACI
1070
     5
1001
GRADIENTCOLOR2ACI
1070
     2
1001
ACAD
1010
0.0
1020
0.0
1030
0.0
  0
LINE
  5
79A
  8
回08-記事
  6
CONTINUOUS
 62
     7
 10
599.8163666350867
 20
212.9085453786055
 30
0.0
 11
600.2942039473528
 21
213.3863826908715
 31
0.0
1001
GRADIENTCOLOR1ACI
1070
     5
1001
GRADIENTCOLOR2ACI
1070
     2
1001
ACAD
1010
0.0
1020
0.0
1030
0.0
  0
LINE
  5
79B
  8
回08-記事
  6
CONTINUOUS
 62
     7
 10
597.3729560659047
 20
209.1180963912632
 30
0.0
 11
598.0729560659048
 21
209.8180963912631
 31
0.0
1001
GRADIENTCOLOR1ACI
1070
     5
1001
GRADIENTCOLOR2ACI
1070
     2
1001
ACAD
1010
0.0
1020
0.0
1030
0.0
  0
LINE
  5
79C
  8
回08-記事
  6
CONTINUOUS
 62
     7
 10
599.8163666350867
 20
211.5615069604451
 30
0.0
 11
600.5163666350871
 21
212.2615069604455
 31
0.0
1001
GRADIENTCOLOR1ACI
1070
     5
1001
GRADIENTCOLOR2ACI
1070
     2
1001
ACAD
1010
0.0
1020
0.0
1030
0.0
  0
LINE
  5
79D
  8
回08-記事
  6
CONTINUOUS
 62
     7
 10
598.7199944840653
 20
209.1180963912633
 30
0.0
 11
599.4199944840651
 21
209.8180963912631
 31
0.0
1001
GRADIENTCOLOR1ACI
1070
     5
1001
GRADIENTCOLOR2ACI
1070
     2
1001
ACAD
1010
0.0
1020
0.0
1030
0.0
  0
LINE
  5
79E
  8
回08-記事
  6
CONTINUOUS
 62
     7
 10
599.8163666350867
 20
210.2144685422847
 30
0.0
 11
600.516366635087
 21
210.9144685422851
 31
0.0
1001
GRADIENTCOLOR1ACI
1070
     5
1001
GRADIENTCOLOR2ACI
1070
     2
1001
ACAD
1010
0.0
1020
0.0
1030
0.0
  0
LINE
  5
79F
  8
回08-記事
  6
CONTINUOUS
 62
     7
 10
600.0670329022255
 20
209.1180963912631
 30
0.0
 11
600.516366635087
 21
209.5674301241246
 31
0.0
1001
GRADIENTCOLOR1ACI
1070
     5
1001
GRADIENTCOLOR2ACI
1070
     2
1001
ACAD
1010
0.0
1020
0.0
1030
0.0
  0
ENDBLK
  5
7A1
  8
0
  6
CONTINUOUS
 62
     7
  0
BLOCK
  8
0
  2
*X8080
 70
     1
 10
0.0
 20
0.0
 30
0.0
  3
*X8080
  1

  0
TEXT
  5
7E0
  8
回07-寸法
  6
CONTINUOUS
 62
     5
 10
414.8949904026467
 20
222.0089299455616
 30
0.0
 40
5.0
  1
100
 50
90.0
  0
TEXT
  5
7E1
  8
回07-寸法
  6
CONTINUOUS
 62
     5
 10
414.8949904026467
 20
231.5089299455616
 30
0.0
 40
3.5
  1
±1
 50
90.0
  0
ENDBLK
  5
7E3
  8
0
  6
CONTINUOUS
 62
     7
  0
BLOCK
  8
0
  2
*X8181
 70
     1
 10
0.0
 20
0.0
 30
0.0
  3
*X8181
  1

  0
TEXT
  5
7E6
  8
回07-寸法
  6
CONTINUOUS
 62
     5
 10
303.2370951488179
 20
223.0048815747514
 30
0.0
 40
5.0
  1
100
 50
90.0
  0
TEXT
  5
7E7
  8
回07-寸法
  6
CONTINUOUS
 62
     5
 10
303.2370951488179
 20
232.5048815747514
 30
0.0
 40
3.5
  1
±1
 50
90.0
  0
ENDBLK
  5
7E9
  8
0
  6
CONTINUOUS
 62
     7
  0
BLOCK
  8
0
  2
*X8282
 70
     1
 10
0.0
 20
0.0
 30
0.0
  3
*X8282
  1

  0
TEXT
  5
7EC
  8
回07-寸法
  6
CONTINUOUS
 62
     5
 10
389.9588300074473
 20
154.4787339028296
 30
0.0
 40
5.0
  1
13.5
  0
TEXT
  5
7ED
  8
回07-寸法
  6
CONTINUOUS
 62
     5
 10
400.9588300074472
 20
154.4787339028296
 30
0.0
 40
3.5
  1
±0.1
  0
ENDBLK
  5
7EF
  8
0
  6
CONTINUOUS
 62
     7
  0
BLOCK
  8
0
  2
*X8383
 70
     1
 10
0.0
 20
0.0
 30
0.0
  3
*X8383
  1

  0
TEXT
  5
7F2
  8
回07-寸法
  6
CONTINUOUS
 62
     5
 10
388.2902397951854
 20
164.4734541309678
 30
0.0
 40
5.0
  1
17.5
  0
TEXT
  5
7F3
  8
回07-寸法
  6
CONTINUOUS
 62
     5
 10
399.2902397951853
 20
164.4734541309678
 30
0.0
 40
3.5
  1
±0.1
  0
ENDBLK
  5
7F5
  8
0
  6
CONTINUOUS
 62
     7
  0
BLOCK
  8
0
  2
*X8484
 70
     1
 10
0.0
 20
0.0
 30
0.0
  3
*X8484
  1

  0
TEXT
  5
7F8
  8
回07-寸法
  6
CONTINUOUS
 62
     5
 10
591.2210793941688
 20
502.8842213496123
 30
0.0
 40
5.0
  1
2.1
  0
TEXT
  5
7F9
  8
回07-寸法
  6
CONTINUOUS
 62
     5
 10
598.7210793941687
 20
502.8842213496123
 30
0.0
 40
3.333499999999999
  1
±0.2
  0
ENDBLK
  5
7FB
  8
0
  6
CONTINUOUS
 62
     7
  0
BLOCK
  8
0
  2
*X8585
 70
     1
 10
0.0
 20
0.0
 30
0.0
  3
*X8585
  1

  0
TEXT
  5
7FE
  8
回08-記事
  6
CONTINUOUS
 62
     5
 10
570.7471792968688
 20
169.9724718656614
 30
0.0
 40
5.0
  1
0.3
  0
TEXT
  5
7FF
  8
回08-記事
  6
CONTINUOUS
 62
     5
 10
579.2471792968689
 20
169.9724718656614
 30
0.0
 40
3.333499999999999
  1
±0.05
  0
ENDBLK
  5
801
  8
0
  6
CONTINUOUS
 62
     7
  0
BLOCK
  8
0
  2
*X8686
 70
     1
 10
0.0
 20
0.0
 30
0.0
  3
*X8686
  1

  0
TEXT
  5
804
  8
回08-記事
  6
CONTINUOUS
 62
     5
 10
605.3662036147303
 20
163.6853596929056
 30
0.0
 40
5.0
  1
0.3
  0
TEXT
  5
805
  8
回08-記事
  6
CONTINUOUS
 62
     5
 10
613.8662036147303
 20
163.6853596929056
 30
0.0
 40
3.333499999999999
  1
±0.05
  0
ENDBLK
  5
807
  8
0
  6
CONTINUOUS
 62
     7
  0
BLOCK
  8
0
  2
*X8787
 70
     1
 10
0.0
 20
0.0
 30
0.0
  3
*X8787
  1

  0
TEXT
  5
80A
  8
回07-寸法
  6
CONTINUOUS
 62
     5
 10
135.1370516609901
 20
233.2942094117318
 30
0.0
 40
5.0
  1
8.65
 50
90.0
  0
TEXT
  5
80B
  8
回07-寸法
  6
CONTINUOUS
 62
     5
 10
135.1370516609901
 20
245.2942094117318
 30
0.0
 40
3.333499999999999
  1
(Insulatin area)
 50
90.0
  0
ENDBLK
  5
80D
  8
0
  6
CONTINUOUS
 62
     7
  0
BLOCK
  8
0
  2
*X8888
 70
     1
 10
0.0
 20
0.0
 30
0.0
  3
*X8888
  1

  0
TEXT
  5
810
  8
回07-寸法
  6
CONTINUOUS
 62
     5
 10
135.0537266609904
 20
496.1124372562188
 30
0.0
 40
5.0
  1
(5.62)
 50
90.0
  0
TEXT
  5
811
  8
回07-寸法
  6
CONTINUOUS
 62
     5
 10
135.0537266609904
 20
512.1124372562189
 30
0.0
 40
3.333499999999999
  1
(Insulation area)
 50
90.0
  0
ENDBLK
  5
813
  8
0
  6
CONTINUOUS
 62
     7
  0
BLOCK
  8
0
  2
*X8989
 70
     1
 10
0.0
 20
0.0
 30
0.0
  3
*X8989
  1

  0
TEXT
  5
816
  8
回07-寸法
  6
CONTINUOUS
 62
     5
 10
138.7950803125652
 20
540.0515728861411
 30
0.0
 40
5.0
  1
5.28
  0
TEXT
  5
817
  8
回07-寸法
  6
CONTINUOUS
 62
     5
 10
150.7950803125652
 20
540.0515728861411
 30
0.0
 40
3.333499999999999
  1
(Insulation area)
  0
ENDBLK
  5
819
  8
0
  6
CONTINUOUS
 62
     7
  0
BLOCK
  8
0
  2
*X9090
 70
     1
 10
0.0
 20
0.0
 30
0.0
  3
*X9090
  1

  0
TEXT
  5
81C
  8
回07-寸法
  6
CONTINUOUS
 62
     5
 10
550.9517581570539
 20
540.1344057601568
 30
0.0
 40
5.0
  1
(5.28)
  0
TEXT
  5
81D
  8
回07-寸法
  6
CONTINUOUS
 62
     5
 10
566.9517581570537
 20
540.1344057601568
 30
0.0
 40
3.333499999999999
  1
(Insulation area)
  0
ENDBLK
  5
81F
  8
0
  6
CONTINUOUS
 62
     7
  0
BLOCK
  8
0
  2
*X9191
 70
     1
 10
0.0
 20
0.0
 30
0.0
  3
*X9191
  1

  0
TEXT
  5
822
  8
回07-寸法
  6
CONTINUOUS
 62
     5
 10
121.3032345350061
 20
374.1144057601567
 30
0.0
 40
5.0
  1
214.4
 50
90.0
  0
TEXT
  5
823
  8
回07-寸法
  6
CONTINUOUS
 62
     5
 10
121.3032345350061
 20
389.6144057601567
 30
0.0
 40
3.5
  1
±0.3
 50
90.0
  0
ENDBLK
  5
825
  8
0
  6
CONTINUOUS
 62
     7
  0
BLOCK
  8
0
  2
*X9292
 70
     1
 10
0.0
 20
0.0
 30
0.0
  3
*X9292
  1

  0
TEXT
  5
828
  8
回07-寸法
  6
CONTINUOUS
 62
     5
 10
355.6912266609907
 20
551.8844057601568
 30
0.0
 40
5.0
  1
361.4
  0
TEXT
  5
829
  8
回07-寸法
  6
CONTINUOUS
 62
     5
 10
370.6912266609907
 20
551.8844057601568
 30
0.0
 40
3.5
  1
±0.3
  0
ENDBLK
  5
82B
  8
0
  6
CONTINUOUS
 62
     7
  0
BLOCK
  8
0
  2
*X9393
 70
     1
 10
0.0
 20
0.0
 30
0.0
  3
*X9393
  1

  0
TEXT
  5
82E
  8
回07-寸法
  6
CONTINUOUS
 62
     5
 10
405.1681294763857
 20
152.8576205766686
 30
0.0
 40
5.0
  1
100
 50
90.0
  0
TEXT
  5
82F
  8
回07-寸法
  6
CONTINUOUS
 62
     5
 10
405.1681294763857
 20
162.3576205766686
 30
0.0
 40
3.5
  1
±1
 50
90.0
  0
ENDBLK
  5
831
  8
0
  6
CONTINUOUS
 62
     7
  0
BLOCK
  8
0
  2
*X9494
 70
     1
 10
0.0
 20
0.0
 30
0.0
  3
*X9494
  1

  0
TEXT
  5
834
  8
回07-寸法
  6
CONTINUOUS
 62
     5
 10
541.2248972307926
 20
470.9830963912638
 30
0.0
 40
5.0
  1
(5.28)
  0
TEXT
  5
835
  8
回07-寸法
  6
CONTINUOUS
 62
     5
 10
557.2248972307926
 20
470.9830963912638
 30
0.0
 40
3.333499999999999
  1
(Insulation area)
  0
ENDBLK
  5
837
  8
0
  6
CONTINUOUS
 62
     7
  0
BLOCK
  8
0
  2
*X9595
 70
     1
 10
0.0
 20
0.0
 30
0.0
  3
*X9595
  1

  0
TEXT
  5
83A
  8
回07-寸法
  6
CONTINUOUS
 62
     5
 10
129.0682193863039
 20
470.899771391264
 30
0.0
 40
5.0
  1
5.28
  0
TEXT
  5
83B
  8
回07-寸法
  6
CONTINUOUS
 62
     5
 10
141.0682193863039
 20
470.899771391264
 30
0.0
 40
3.333499999999999
  1
(Insulation area)
  0
ENDBLK
  5
83D
  8
0
  6
CONTINUOUS
 62
     7
  0
BLOCK
  8
0
  2
*X9696
 70
     1
 10
0.0
 20
0.0
 30
0.0
  3
*X9696
  1

  0
TEXT
  5
840
  8
回07-寸法
  6
CONTINUOUS
 62
     5
 10
125.3268657347289
 20
426.9611278873259
 30
0.0
 40
5.0
  1
(5.62)
 50
90.0
  0
TEXT
  5
841
  8
回07-寸法
  6
CONTINUOUS
 62
     5
 10
125.3268657347289
 20
442.961127887326
 30
0.0
 40
3.333499999999999
  1
(Insulation area)
 50
90.0
  0
ENDBLK
  5
843
  8
0
  6
CONTINUOUS
 62
     7
  0
BLOCK
  8
0
  2
*X9797
 70
     1
 10
0.0
 20
0.0
 30
0.0
  3
*X9797
  1

  0
TEXT
  5
846
  8
回07-寸法
  6
CONTINUOUS
 62
     5
 10
125.4101907347289
 20
164.1429000428388
 30
0.0
 40
5.0
  1
8.65
 50
90.0
  0
TEXT
  5
847
  8
回07-寸法
  6
CONTINUOUS
 62
     5
 10
125.4101907347289
 20
176.1429000428388
 30
0.0
 40
3.333499999999999
  1
(Insulatin area)
 50
90.0
  0
ENDBLK
  5
849
  8
0
  6
CONTINUOUS
 62
     7
  0
BLOCK
  8
0
  2
*X9898
 70
     1
 10
0.0
 20
0.0
 30
0.0
  3
*X9898
  1

  0
TEXT
  5
84C
  8
回08-記事
  6
CONTINUOUS
 62
     5
 10
595.5703036429607
 20
94.53405032401263
 30
0.0
 40
5.0
  1
0.3
  0
TEXT
  5
84D
  8
回08-記事
  6
CONTINUOUS
 62
     5
 10
604.0703036429607
 20
94.53405032401263
 30
0.0
 40
3.333499999999999
  1
±0.05
  0
ENDBLK
  5
84F
  8
0
  6
CONTINUOUS
 62
     7
  0
BLOCK
  8
0
  2
*X9999
 70
     1
 10
0.0
 20
0.0
 30
0.0
  3
*X9999
  1

  0
TEXT
  5
852
  8
回08-記事
  6
CONTINUOUS
 62
     5
 10
561.0893574161162
 20
100.8211624967684
 30
0.0
 40
5.0
  1
0.3
  0
TEXT
  5
853
  8
回08-記事
  6
CONTINUOUS
 62
     5
 10
569.5893574161162
 20
100.8211624967684
 30
0.0
 40
3.333499999999999
  1
±0.05
  0
ENDBLK
  5
855
  8
0
  6
CONTINUOUS
 62
     7
  0
BLOCK
  8
0
  2
*X100100
 70
     1
 10
0.0
 20
0.0
 30
0.0
  3
*X100100
  1

  0
TEXT
  5
858
  8
回07-寸法
  6
CONTINUOUS
 62
     5
 10
581.4942184679074
 20
433.732419854735
 30
0.0
 40
5.0
  1
2.1
  0
TEXT
  5
859
  8
回07-寸法
  6
CONTINUOUS
 62
     5
 10
588.9942184679076
 20
433.732419854735
 30
0.0
 40
3.333499999999999
  1
±0.2
  0
ENDBLK
  5
85B
  8
0
  6
CONTINUOUS
 62
     7
  0
BLOCK
  8
0
  2
*X101101
 70
     1
 10
0.0
 20
0.0
 30
0.0
  3
*X101101
  1

  0
TEXT
  5
85E
  8
回07-寸法
  6
CONTINUOUS
 62
     5
 10
378.5633788689241
 20
95.3221447620748
 30
0.0
 40
5.0
  1
17.5
  0
TEXT
  5
85F
  8
回07-寸法
  6
CONTINUOUS
 62
     5
 10
389.5633788689242
 20
95.3221447620748
 30
0.0
 40
3.5
  1
±0.1
  0
ENDBLK
  5
861
  8
0
  6
CONTINUOUS
 62
     7
  0
BLOCK
  8
0
  2
*X102102
 70
     1
 10
0.0
 20
0.0
 30
0.0
  3
*X102102
  1

  0
TEXT
  5
864
  8
回07-寸法
  6
CONTINUOUS
 62
     5
 10
380.2319690811862
 20
85.32742453393671
 30
0.0
 40
5.0
  1
13.5
  0
TEXT
  5
865
  8
回07-寸法
  6
CONTINUOUS
 62
     5
 10
391.2319690811862
 20
85.32742453393671
 30
0.0
 40
3.5
  1
±0.1
  0
ENDBLK
  5
867
  8
0
  6
CONTINUOUS
 62
     7
  0
BLOCK
  8
0
  2
*X103103
 70
     1
 10
0.0
 20
0.0
 30
0.0
  3
*X103103
  1

  0
TEXT
  5
86A
  8
回07-寸法
  6
CONTINUOUS
 62
     5
 10
293.5102342225566
 20
153.8535722058584
 30
0.0
 40
5.0
  1
100
 50
90.0
  0
TEXT
  5
86B
  8
回07-寸法
  6
CONTINUOUS
 62
     5
 10
293.5102342225566
 20
163.3535722058583
 30
0.0
 40
3.5
  1
±1
 50
90.0
  0
ENDBLK
  5
86D
  8
0
  6
CONTINUOUS
 62
     7
  0
BLOCK
  8
0
  2
*X104104
 70
     1
 10
0.0
 20
0.0
 30
0.0
  3
*X104104
  1

  0
TEXT
  5
870
  8
回07-寸法
  6
CONTINUOUS
 62
     5
 10
345.9643657347294
 20
482.7330963912638
 30
0.0
 40
5.0
  1
361.4
  0
TEXT
  5
871
  8
回07-寸法
  6
CONTINUOUS
 62
     5
 10
360.9643657347294
 20
482.7330963912638
 30
0.0
 40
3.5
  1
±0.3
  0
ENDBLK
  5
873
  8
0
  6
CONTINUOUS
 62
     7
  0
BLOCK
  8
0
  2
*X105105
 70
     1
 10
0.0
 20
0.0
 30
0.0
  3
*X105105
  1

  0
TEXT
  5
876
  8
回07-寸法
  6
CONTINUOUS
 62
     5
 10
111.5768657347291
 20
304.9630963912637
 30
0.0
 40
5.0
  1
214.4
 50
90.0
  0
TEXT
  5
877
  8
回07-寸法
  6
CONTINUOUS
 62
     5
 10
111.5768657347291
 20
320.4630963912637
 30
0.0
 40
3.5
  1
±0.3
 50
90.0
  0
ENDBLK
  5
879
  8
0
  6
CONTINUOUS
 62
     7
  0
ENDSEC
  0
SECTION
  2
ENTITIES
  0
TEXT
  5
5F
  8
回03-記事
  6
CONTINUOUS
 62
     5
 10
405.5466278780063
 20
18.67235931117481
 30
0.0
 40
6.528000000000002
  1
without affecting product specification.
  0
TEXT
  5
61
  8
回03-記事
  6
CONTINUOUS
 62
     5
 10
405.5466278780063
 20
30.12315908248679
 30
0.0
 40
6.528000000000002
  1
Edges and corners of ITO glass may be chamfered 
  0
TEXT
  5
62
  8
回03-記事
  6
CONTINUOUS
 62
     5
 10
405.5466278780063
 20
41.57395885379851
 30
0.0
 40
6.528000000000002
  1
Unit: mm
  0
TEXT
  5
63
  8
回03-記事
  6
CONTINUOUS
 62
     5
 10
405.5466278780063
 20
53.02475862511021
 30
0.0
 40
6.528000000000002
  1
EXCEPT WHERE INDICATED
  0
TEXT
  5
64
  8
回03-記事
  6
CONTINUOUS
 62
     5
 10
405.5466278780063
 20
64.47555839642169
 30
0.0
 40
6.528000000000002
  1
TOLERANCE=±0.5mm
  0
TEXT
  5
65
  8
回08-記事
  6
CONTINUOUS
 62
     7
 10
378.0531042731098
 20
102.7298281436738
 30
0.0
 40
2.5
  1
(Conductor side near side)
  0
TEXT
  5
69
  8
回08-記事
  6
CONTINUOUS
 62
     7
 10
299.4874333645409
 20
102.6132009279572
 30
0.0
 40
2.5
  1
(Conductor side far side)
 41
0.9
  0
TEXT
  5
6A
  8
回08-記事
  6
CONTINUOUS
 62
     7
 10
378.8696638118979
 20
105.9295704263014
 30
0.0
 40
2.399999999999999
  1
Tail-1
  0
TEXT
  5
6B
  8
回08-記事
  6
CONTINUOUS
 62
     7
 10
323.057379762912
 20
105.9209809679278
 30
0.0
 40
2.399999999999999
  1
Tail-2
  0
TEXT
  5
6C
  8
回08-記事
  6
CONTINUOUS
 62
     7
 10
718.6531488971028
 20
56.51816306905749
 30
0.0
 40
4.5
  1
PROTECTION TAPE
  0
TEXT
  5
6D
  8
回08-記事
  6
CONTINUOUS
 62
     7
 10
710.3956024688392
 20
56.59509181073365
 30
0.0
 40
4.679999999999999
  1
6
  0
LINE
  5
6E
  8
回08-記事
  6
CONTINUOUS
 62
     7
 10
708.004565101335
 20
55.25133024919671
 30
0.0
 11
802.0983779564954
 21
55.25133024919671
 31
0.0
  0
TEXT
  5
6F
  8
回08-記事
  6
CONTINUOUS
 62
     7
 10
718.3506390707938
 20
63.94717199884677
 30
0.0
 40
4.679999999999999
  1
STIFFENER
  0
TEXT
  5
70
  8
回08-記事
  6
CONTINUOUS
 62
     7
 10
718.3506390707938
 20
71.74717199884685
 30
0.0
 40
4.679999999999999
  1
REINFORCEMENT FILM
  0
LINE
  5
71
  8
回08-記事
  6
CONTINUOUS
 62
     7
 10
802.0983779564954
 20
55.25133024919678
 30
0.0
 11
802.0983779564954
 21
102.0513302491968
 31
0.0
  0
TEXT
  5
72
  8
回08-記事
  6
CONTINUOUS
 62
     7
 10
710.3956024688392
 20
79.9950918107337
 30
0.0
 40
4.679999999999999
  1
3
  0
TEXT
  5
73
  8
回08-記事
  6
CONTINUOUS
 62
     7
 10
710.3956024688392
 20
72.1950918107338
 30
0.0
 40
4.679999999999999
  1
4
  0
TEXT
  5
74
  8
回08-記事
  6
CONTINUOUS
 62
     7
 10
710.3956024688392
 20
87.79509181073375
 30
0.0
 40
4.679999999999999
  1
2
  0
TEXT
  5
75
  8
回08-記事
  6
CONTINUOUS
 62
     7
 10
710.3956024688392
 20
64.39509181073373
 30
0.0
 40
4.679999999999999
  1
5
  0
LINE
  5
76
  8
回08-記事
  6
CONTINUOUS
 62
     7
 10
716.1201596702007
 20
102.0513302491968
 30
0.0
 11
716.1201596702007
 21
55.25133024919678
 31
0.0
  0
LINE
  5
77
  8
回08-記事
  6
CONTINUOUS
 62
     7
 10
708.004565101335
 20
102.0513302491968
 30
0.0
 11
708.004565101335
 21
55.25133024919678
 31
0.0
  0
TEXT
  5
78
  8
回08-記事
  6
CONTINUOUS
 62
     7
 10
710.3956024688392
 20
95.59509181073366
 30
0.0
 40
4.679999999999999
  1
1
  0
LINE
  5
79
  8
回08-記事
  6
CONTINUOUS
 62
     7
 10
708.004565101335
 20
63.0513302491966
 30
0.0
 11
802.0983779564954
 21
63.0513302491966
 31
0.0
  0
LINE
  5
7A
  8
回08-記事
  6
CONTINUOUS
 62
     7
 10
708.004565101335
 20
94.25133024919675
 30
0.0
 11
802.0983779564961
 21
94.25133024919675
 31
0.0
  0
LINE
  5
7B
  8
回08-記事
  6
CONTINUOUS
 62
     7
 10
708.004565101335
 20
102.0513302491969
 30
0.0
 11
802.0983779564961
 21
102.0513302491969
 31
0.0
  0
LINE
  5
7C
  8
回08-記事
  6
CONTINUOUS
 62
     7
 10
708.004565101335
 20
70.85133024919674
 30
0.0
 11
802.0983779564954
 21
70.85133024919674
 31
0.0
  0
LINE
  5
7D
  8
回08-記事
  6
CONTINUOUS
 62
     7
 10
708.004565101335
 20
78.65133024919662
 30
0.0
 11
802.0983779564954
 21
78.65133024919662
 31
0.0
  0
LINE
  5
7E
  8
回08-記事
  6
CONTINUOUS
 62
     7
 10
708.004565101335
 20
86.45133024919671
 30
0.0
 11
802.0983779564954
 21
86.45133024919671
 31
0.0
  0
TEXT
  5
7F
  8
回08-記事
  6
CONTINUOUS
 62
     7
 10
718.3506390707938
 20
95.14717199884687
 30
0.0
 40
4.679999999999999
  1
ITO FILM (ANTI-GLARE)
  0
TEXT
  5
80
  8
回08-記事
  6
CONTINUOUS
 62
     7
 10
718.3506390707938
 20
87.34717199884682
 30
0.0
 40
4.679999999999999
  1
ITO GLASS
  0
TEXT
  5
81
  8
回08-記事
  6
CONTINUOUS
 62
     7
 10
718.3506390707938
 20
79.54717199884675
 30
0.0
 40
4.679999999999999
  1
FPC
  0
TEXT
  5
82
  8
回08-記事
  6
CONTINUOUS
 62
     7
 10
569.2026204449291
 20
314.2723406548617
 30
0.0
 40
4.0
  1
1
  0
TEXT
  5
83
  8
回08-記事
  6
CONTINUOUS
 62
     7
 10
608.3341477233832
 20
304.2737093820163
 30
0.0
 40
4.0
  1
2
  0
TEXT
  5
84
  8
回08-記事
  6
CONTINUOUS
 62
     7
 10
606.305321425689
 20
201.4722109938137
 30
0.0
 40
4.0
  1
6
  0
LINE
  5
85
  8
回08-記事
  6
CONTINUOUS
 62
     7
 10
606.7020599214449
 20
306.5563654032867
 30
0.0
 11
597.9026073722309
 21
309.3340572073568
 31
0.0
  0
LINE
  5
86
  8
回08-記事
  6
CONTINUOUS
 62
     7
 10
573.1135250490457
 20
316.5661162610468
 30
0.0
 11
581.0779105134339
 21
313.6317238600851
 31
0.0
  0
LINE
  5
87
  8
回08-記事
  6
CONTINUOUS
 62
     7
 10
588.2595102799585
 20
126.0869350765704
 30
0.0
 11
584.6731824161162
 21
119.3653398984768
 31
0.0
  0
LINE
  5
88
  8
回08-記事
  6
CONTINUOUS
 62
     7
 10
591.357682350809
 20
119.2654400358754
 30
0.0
 11
588.2595102799585
 21
126.0869350765704
 31
0.0
  0
TEXT
  5
89
  8
回08-記事
  6
CONTINUOUS
 62
     7
 10
587.0721742992657
 20
126.1822476369569
 30
0.0
 40
3.0
  1
5
  0
LINE
  5
8A
  8
回08-記事
  6
CONTINUOUS
 62
     7
 10
575.4323020834051
 20
191.8651160699822
 30
0.0
 11
592.2889762707452
 21
200.2509694329154
 31
0.0
  0
LINE
  5
8B
  8
回08-記事
  6
CONTINUOUS
 62
     7
 10
583.4752861543709
 20
189.7983414487815
 30
0.0
 11
575.4323020834051
 21
191.8651160699822
 31
0.0
  0
TEXT
  5
8C
  8
回08-記事
  6
CONTINUOUS
 62
     7
 10
570.814672310342
 20
189.8974713614132
 30
0.0
 40
4.0
  1
3
  0
LINE
  5
8D
  8
回08-記事
  6
CONTINUOUS
 62
     7
 10
604.0399550746313
 20
149.1109549961282
 30
0.0
 11
593.083474964767
 21
155.4617768018868
 31
0.0
  0
LINE
  5
8E
  8
回08-記事
  6
CONTINUOUS
 62
     7
 10
582.5425734780617
 20
148.5323978090953
 30
0.0
 11
604.0399550746313
 21
149.1109549961282
 31
0.0
  0
TEXT
  5
8F
  8
回08-記事
  6
CONTINUOUS
 62
     7
 10
604.0876851433607
 20
147.2440328634391
 30
0.0
 40
4.0
  1
4
  0
LINE
  5
90
  8
回08-記事
  6
CONTINUOUS
 62
     7
 10
606.522054068592
 20
203.7223973106868
 30
0.0
 11
587.6490861501131
 21
209.4979775821774
 31
0.0
  0
LINE
  5
91
  8
回08-記事
  6
CONTINUOUS
 62
     7
 10
600.2241034604701
 20
210.2143307430659
 30
0.0
 11
606.522054068592
 21
203.7223973106868
 31
0.0
  0
POLYLINE
  5
92
  8
回01-上ER
  6
CONTINUOUS
 62
     7
 66
     1
 10
0.0
 20
0.0
 30
0.0
 70
     1
  0
VERTEX
  5
AB1
  8
回01-上ER
  6
CONTINUOUS
 62
     7
 10
530.7468657447332
 20
416.1480963912666
 30
0.0
  0
VERTEX
  5
AB3
  8
回01-上ER
  6
CONTINUOUS
 62
     7
 10
184.8068657247292
 20
416.1480963912666
 30
0.0
  0
VERTEX
  5
AB4
  8
回01-上ER
  6
CONTINUOUS
 62
     7
 10
184.8068657247292
 20
392.0943463912675
 30
0.0
  0
VERTEX
  5
AB5
  8
回01-上ER
  6
CONTINUOUS
 62
     7
 10
530.7468657447332
 20
392.0943463912675
 30
0.0
  0
SEQEND
  5
AB2
  8
0
  6
CONTINUOUS
 62
     7
  0
POLYLINE
  5
96
  8
回01-上ER
  6
CONTINUOUS
 62
     7
 66
     1
 10
0.0
 20
0.0
 30
0.0
 70
     1
  0
VERTEX
  5
AB6
  8
回01-上ER
  6
CONTINUOUS
 62
     7
 10
530.7468657447332
 20
391.6943463912661
 30
0.0
  0
VERTEX
  5
AB8
  8
回01-上ER
  6
CONTINUOUS
 62
     7
 10
184.8068657247292
 20
391.6943463912661
 30
0.0
  0
VERTEX
  5
AB9
  8
回01-上ER
  6
CONTINUOUS
 62
     7
 10
184.8068657247292
 20
367.6405963912669
 30
0.0
  0
VERTEX
  5
ABA
  8
回01-上ER
  6
CONTINUOUS
 62
     7
 10
530.7468657447332
 20
367.6405963912669
 30
0.0
  0
SEQEND
  5
AB7
  8
0
  6
CONTINUOUS
 62
     7
  0
POLYLINE
  5
97
  8
回01-上ER
  6
CONTINUOUS
 62
     7
 66
     1
 10
0.0
 20
0.0
 30
0.0
 70
     1
  0
VERTEX
  5
ABB
  8
回01-上ER
  6
CONTINUOUS
 62
     7
 10
530.7468657447332
 20
367.2405963912654
 30
0.0
  0
VERTEX
  5
ABD
  8
回01-上ER
  6
CONTINUOUS
 62
     7
 10
184.8068657247292
 20
367.2405963912654
 30
0.0
  0
VERTEX
  5
ABE
  8
回01-上ER
  6
CONTINUOUS
 62
     7
 10
184.8068657247292
 20
343.1868463912663
 30
0.0
  0
VERTEX
  5
ABF
  8
回01-上ER
  6
CONTINUOUS
 62
     7
 10
530.7468657447332
 20
343.1868463912663
 30
0.0
  0
SEQEND
  5
ABC
  8
0
  6
CONTINUOUS
 62
     7
  0
POLYLINE
  5
98
  8
回01-上ER
  6
CONTINUOUS
 62
     7
 66
     1
 10
0.0
 20
0.0
 30
0.0
 70
     1
  0
VERTEX
  5
AC0
  8
回01-上ER
  6
CONTINUOUS
 62
     7
 10
530.7468657447332
 20
342.7868463912649
 30
0.0
  0
VERTEX
  5
AC2
  8
回01-上ER
  6
CONTINUOUS
 62
     7
 10
184.8068657247292
 20
342.7868463912649
 30
0.0
  0
VERTEX
  5
AC3
  8
回01-上ER
  6
CONTINUOUS
 62
     7
 10
184.8068657247292
 20
318.7330963912657
 30
0.0
  0
VERTEX
  5
AC4
  8
回01-上ER
  6
CONTINUOUS
 62
     7
 10
530.7468657447332
 20
318.7330963912657
 30
0.0
  0
SEQEND
  5
AC1
  8
0
  6
CONTINUOUS
 62
     7
  0
POLYLINE
  5
99
  8
回01-上ER
  6
CONTINUOUS
 62
     7
 66
     1
 10
0.0
 20
0.0
 30
0.0
 70
     1
  0
VERTEX
  5
AC5
  8
回01-上ER
  6
CONTINUOUS
 62
     7
 10
530.7468657447332
 20
318.3330963912643
 30
0.0
  0
VERTEX
  5
AC7
  8
回01-上ER
  6
CONTINUOUS
 62
     7
 10
184.8068657247292
 20
318.3330963912643
 30
0.0
  0
VERTEX
  5
AC8
  8
回01-上ER
  6
CONTINUOUS
 62
     7
 10
184.8068657247292
 20
294.2793463912652
 30
0.0
  0
VERTEX
  5
AC9
  8
回01-上ER
  6
CONTINUOUS
 62
     7
 10
530.7468657447332
 20
294.2793463912652
 30
0.0
  0
SEQEND
  5
AC6
  8
0
  6
CONTINUOUS
 62
     7
  0
POLYLINE
  5
9A
  8
回01-上ER
  6
CONTINUOUS
 62
     7
 66
     1
 10
0.0
 20
0.0
 30
0.0
 70
     1
  0
VERTEX
  5
ACA
  8
回01-上ER
  6
CONTINUOUS
 62
     7
 10
530.7468657447332
 20
293.8793463912637
 30
0.0
  0
VERTEX
  5
ACC
  8
回01-上ER
  6
CONTINUOUS
 62
     7
 10
184.8068657247292
 20
293.8793463912637
 30
0.0
  0
VERTEX
  5
ACD
  8
回01-上ER
  6
CONTINUOUS
 62
     7
 10
184.8068657247292
 20
269.8255963912646
 30
0.0
  0
VERTEX
  5
ACE
  8
回01-上ER
  6
CONTINUOUS
 62
     7
 10
530.7468657447332
 20
269.8255963912646
 30
0.0
  0
SEQEND
  5
ACB
  8
0
  6
CONTINUOUS
 62
     7
  0
POLYLINE
  5
9B
  8
回01-上ER
  6
CONTINUOUS
 62
     7
 66
     1
 10
0.0
 20
0.0
 30
0.0
 70
     1
  0
VERTEX
  5
ACF
  8
回01-上ER
  6
CONTINUOUS
 62
     7
 10
530.7468657447332
 20
269.4255963912631
 30
0.0
  0
VERTEX
  5
AD1
  8
回01-上ER
  6
CONTINUOUS
 62
     7
 10
184.8068657247292
 20
269.4255963912631
 30
0.0
  0
VERTEX
  5
AD2
  8
回01-上ER
  6
CONTINUOUS
 62
     7
 10
184.8068657247292
 20
245.371846391264
 30
0.0
  0
VERTEX
  5
AD3
  8
回01-上ER
  6
CONTINUOUS
 62
     7
 10
530.7468657447332
 20
245.371846391264
 30
0.0
  0
SEQEND
  5
AD0
  8
0
  6
CONTINUOUS
 62
     7
  0
POLYLINE
  5
9C
  8
回01-上ER
  6
CONTINUOUS
 62
     7
 66
     1
 10
0.0
 20
0.0
 30
0.0
 70
     1
  0
VERTEX
  5
AD4
  8
回01-上ER
  6
CONTINUOUS
 62
     7
 10
530.7468657447332
 20
244.9718463912625
 30
0.0
  0
VERTEX
  5
AD6
  8
回01-上ER
  6
CONTINUOUS
 62
     7
 10
184.8068657247292
 20
244.9718463912625
 30
0.0
  0
VERTEX
  5
AD7
  8
回01-上ER
  6
CONTINUOUS
 62
     7
 10
184.8068657247292
 20
220.9180963912634
 30
0.0
  0
VERTEX
  5
AD8
  8
回01-上ER
  6
CONTINUOUS
 62
     7
 10
530.7468657447332
 20
220.9180963912634
 30
0.0
  0
SEQEND
  5
AD5
  8
0
  6
CONTINUOUS
 62
     7
  0
POLYLINE
  5
9D
  8
回03-下ER
  6
CONTINUOUS
 62
     7
 66
     1
 10
0.0
 20
0.0
 30
0.0
 70
     1
  0
VERTEX
  5
AD9
  8
回03-下ER
  6
CONTINUOUS
 62
     7
 10
506.4082943147329
 20
416.1480963912643
 30
0.0
  0
VERTEX
  5
ADB
  8
回03-下ER
  6
CONTINUOUS
 62
     7
 10
530.7468657447332
 20
416.1480963912643
 30
0.0
  0
VERTEX
  5
ADC
  8
回03-下ER
  6
CONTINUOUS
 62
     7
 10
530.7468657447332
 20
220.9180963912634
 30
0.0
  0
VERTEX
  5
ADD
  8
回03-下ER
  6
CONTINUOUS
 62
     7
 10
506.4082943147333
 20
220.9180963912634
 30
0.0
  0
SEQEND
  5
ADA
  8
0
  6
CONTINUOUS
 62
     7
  0
POLYLINE
  5
A1
  8
回03-下ER
  6
CONTINUOUS
 62
     7
 66
     1
 10
0.0
 20
0.0
 30
0.0
 70
     1
  0
VERTEX
  5
ADE
  8
回03-下ER
  6
CONTINUOUS
 62
     7
 10
481.6697228847326
 20
416.1480963912643
 30
0.0
  0
VERTEX
  5
AE0
  8
回03-下ER
  6
CONTINUOUS
 62
     7
 10
506.0082943147328
 20
416.1480963912643
 30
0.0
  0
VERTEX
  5
AE1
  8
回03-下ER
  6
CONTINUOUS
 62
     7
 10
506.0082943147328
 20
220.9180963912634
 30
0.0
  0
VERTEX
  5
AE2
  8
回03-下ER
  6
CONTINUOUS
 62
     7
 10
481.6697228847329
 20
220.9180963912634
 30
0.0
  0
SEQEND
  5
ADF
  8
0
  6
CONTINUOUS
 62
     7
  0
POLYLINE
  5
A2
  8
回03-下ER
  6
CONTINUOUS
 62
     7
 66
     1
 10
0.0
 20
0.0
 30
0.0
 70
     1
  0
VERTEX
  5
AE3
  8
回03-下ER
  6
CONTINUOUS
 62
     7
 10
456.9311514547322
 20
416.1480963912643
 30
0.0
  0
VERTEX
  5
AE5
  8
回03-下ER
  6
CONTINUOUS
 62
     7
 10
481.2697228847325
 20
416.1480963912643
 30
0.0
  0
VERTEX
  5
AE6
  8
回03-下ER
  6
CONTINUOUS
 62
     7
 10
481.2697228847325
 20
220.9180963912634
 30
0.0
  0
VERTEX
  5
AE7
  8
回03-下ER
  6
CONTINUOUS
 62
     7
 10
456.9311514547328
 20
220.9180963912634
 30
0.0
  0
SEQEND
  5
AE4
  8
0
  6
CONTINUOUS
 62
     7
  0
POLYLINE
  5
A3
  8
回03-下ER
  6
CONTINUOUS
 62
     7
 66
     1
 10
0.0
 20
0.0
 30
0.0
 70
     1
  0
VERTEX
  5
AE8
  8
回03-下ER
  6
CONTINUOUS
 62
     7
 10
432.192580024732
 20
416.1480963912643
 30
0.0
  0
VERTEX
  5
AEA
  8
回03-下ER
  6
CONTINUOUS
 62
     7
 10
456.5311514547322
 20
416.1480963912643
 30
0.0
  0
VERTEX
  5
AEB
  8
回03-下ER
  6
CONTINUOUS
 62
     7
 10
456.5311514547322
 20
220.9180963912634
 30
0.0
  0
VERTEX
  5
AEC
  8
回03-下ER
  6
CONTINUOUS
 62
     7
 10
432.1925800247323
 20
220.9180963912634
 30
0.0
  0
SEQEND
  5
AE9
  8
0
  6
CONTINUOUS
 62
     7
  0
POLYLINE
  5
A4
  8
回03-下ER
  6
CONTINUOUS
 62
     7
 66
     1
 10
0.0
 20
0.0
 30
0.0
 70
     1
  0
VERTEX
  5
AED
  8
回03-下ER
  6
CONTINUOUS
 62
     7
 10
407.4540085947316
 20
416.1480963912643
 30
0.0
  0
VERTEX
  5
AEF
  8
回03-下ER
  6
CONTINUOUS
 62
     7
 10
431.7925800247318
 20
416.1480963912643
 30
0.0
  0
VERTEX
  5
AF0
  8
回03-下ER
  6
CONTINUOUS
 62
     7
 10
431.7925800247318
 20
220.9180963912634
 30
0.0
  0
VERTEX
  5
AF1
  8
回03-下ER
  6
CONTINUOUS
 62
     7
 10
407.4540085947321
 20
220.9180963912634
 30
0.0
  0
SEQEND
  5
AEE
  8
0
  6
CONTINUOUS
 62
     7
  0
POLYLINE
  5
A5
  8
回03-下ER
  6
CONTINUOUS
 62
     7
 66
     1
 10
0.0
 20
0.0
 30
0.0
 70
     1
  0
VERTEX
  5
AF2
  8
回03-下ER
  6
CONTINUOUS
 62
     7
 10
382.7154371647314
 20
416.1480963912643
 30
0.0
  0
VERTEX
  5
AF4
  8
回03-下ER
  6
CONTINUOUS
 62
     7
 10
407.0540085947316
 20
416.1480963912643
 30
0.0
  0
VERTEX
  5
AF5
  8
回03-下ER
  6
CONTINUOUS
 62
     7
 10
407.0540085947316
 20
220.9180963912634
 30
0.0
  0
VERTEX
  5
AF6
  8
回03-下ER
  6
CONTINUOUS
 62
     7
 10
382.7154371647318
 20
220.9180963912634
 30
0.0
  0
SEQEND
  5
AF3
  8
0
  6
CONTINUOUS
 62
     7
  0
POLYLINE
  5
A6
  8
回03-下ER
  6
CONTINUOUS
 62
     7
 66
     1
 10
0.0
 20
0.0
 30
0.0
 70
     1
  0
VERTEX
  5
AF7
  8
回03-下ER
  6
CONTINUOUS
 62
     7
 10
357.9768657347311
 20
416.1480963912643
 30
0.0
  0
VERTEX
  5
AF9
  8
回03-下ER
  6
CONTINUOUS
 62
     7
 10
382.3154371647313
 20
416.1480963912643
 30
0.0
  0
VERTEX
  5
AFA
  8
回03-下ER
  6
CONTINUOUS
 62
     7
 10
382.3154371647313
 20
220.9180963912634
 30
0.0
  0
VERTEX
  5
AFB
  8
回03-下ER
  6
CONTINUOUS
 62
     7
 10
357.9768657347315
 20
220.9180963912634
 30
0.0
  0
SEQEND
  5
AF8
  8
0
  6
CONTINUOUS
 62
     7
  0
POLYLINE
  5
A7
  8
回03-下ER
  6
CONTINUOUS
 62
     7
 66
     1
 10
0.0
 20
0.0
 30
0.0
 70
     1
  0
VERTEX
  5
AFC
  8
回03-下ER
  6
CONTINUOUS
 62
     7
 10
333.2382943047307
 20
416.1480963912643
 30
0.0
  0
VERTEX
  5
AFE
  8
回03-下ER
  6
CONTINUOUS
 62
     7
 10
357.576865734731
 20
416.1480963912643
 30
0.0
  0
VERTEX
  5
AFF
  8
回03-下ER
  6
CONTINUOUS
 62
     7
 10
357.576865734731
 20
220.9180963912634
 30
0.0
  0
VERTEX
  5
B00
  8
回03-下ER
  6
CONTINUOUS
 62
     7
 10
333.2382943047312
 20
220.9180963912634
 30
0.0
  0
SEQEND
  5
AFD
  8
0
  6
CONTINUOUS
 62
     7
  0
POLYLINE
  5
A8
  8
回03-下ER
  6
CONTINUOUS
 62
     7
 66
     1
 10
0.0
 20
0.0
 30
0.0
 70
     1
  0
VERTEX
  5
B01
  8
回03-下ER
  6
CONTINUOUS
 62
     7
 10
308.4997228747304
 20
416.1480963912643
 30
0.0
  0
VERTEX
  5
B03
  8
回03-下ER
  6
CONTINUOUS
 62
     7
 10
332.8382943047306
 20
416.1480963912643
 30
0.0
  0
VERTEX
  5
B04
  8
回03-下ER
  6
CONTINUOUS
 62
     7
 10
332.8382943047306
 20
220.9180963912634
 30
0.0
  0
VERTEX
  5
B05
  8
回03-下ER
  6
CONTINUOUS
 62
     7
 10
308.4997228747309
 20
220.9180963912634
 30
0.0
  0
SEQEND
  5
B02
  8
0
  6
CONTINUOUS
 62
     7
  0
POLYLINE
  5
A9
  8
回03-下ER
  6
CONTINUOUS
 62
     7
 66
     1
 10
0.0
 20
0.0
 30
0.0
 70
     1
  0
VERTEX
  5
B06
  8
回03-下ER
  6
CONTINUOUS
 62
     7
 10
283.7611514447301
 20
416.1480963912643
 30
0.0
  0
VERTEX
  5
B08
  8
回03-下ER
  6
CONTINUOUS
 62
     7
 10
308.0997228747303
 20
416.1480963912643
 30
0.0
  0
VERTEX
  5
B09
  8
回03-下ER
  6
CONTINUOUS
 62
     7
 10
308.0997228747303
 20
220.9180963912634
 30
0.0
  0
VERTEX
  5
B0A
  8
回03-下ER
  6
CONTINUOUS
 62
     7
 10
283.7611514447305
 20
220.9180963912634
 30
0.0
  0
SEQEND
  5
B07
  8
0
  6
CONTINUOUS
 62
     7
  0
POLYLINE
  5
AA
  8
回03-下ER
  6
CONTINUOUS
 62
     7
 66
     1
 10
0.0
 20
0.0
 30
0.0
 70
     1
  0
VERTEX
  5
B0B
  8
回03-下ER
  6
CONTINUOUS
 62
     7
 10
259.0225800147298
 20
416.1480963912643
 30
0.0
  0
VERTEX
  5
B0D
  8
回03-下ER
  6
CONTINUOUS
 62
     7
 10
283.36115144473
 20
416.1480963912643
 30
0.0
  0
VERTEX
  5
B0E
  8
回03-下ER
  6
CONTINUOUS
 62
     7
 10
283.36115144473
 20
220.9180963912634
 30
0.0
  0
VERTEX
  5
B0F
  8
回03-下ER
  6
CONTINUOUS
 62
     7
 10
259.0225800147302
 20
220.9180963912634
 30
0.0
  0
SEQEND
  5
B0C
  8
0
  6
CONTINUOUS
 62
     7
  0
POLYLINE
  5
AB
  8
回03-下ER
  6
CONTINUOUS
 62
     7
 66
     1
 10
0.0
 20
0.0
 30
0.0
 70
     1
  0
VERTEX
  5
B10
  8
回03-下ER
  6
CONTINUOUS
 62
     7
 10
234.2840085847295
 20
416.1480963912643
 30
0.0
  0
VERTEX
  5
B12
  8
回03-下ER
  6
CONTINUOUS
 62
     7
 10
258.6225800147297
 20
416.1480963912643
 30
0.0
  0
VERTEX
  5
B13
  8
回03-下ER
  6
CONTINUOUS
 62
     7
 10
258.6225800147297
 20
220.9180963912634
 30
0.0
  0
VERTEX
  5
B14
  8
回03-下ER
  6
CONTINUOUS
 62
     7
 10
234.2840085847299
 20
220.9180963912634
 30
0.0
  0
SEQEND
  5
B11
  8
0
  6
CONTINUOUS
 62
     7
  0
POLYLINE
  5
AC
  8
回03-下ER
  6
CONTINUOUS
 62
     7
 66
     1
 10
0.0
 20
0.0
 30
0.0
 70
     1
  0
VERTEX
  5
B15
  8
回03-下ER
  6
CONTINUOUS
 62
     7
 10
209.5454371547291
 20
416.1480963912643
 30
0.0
  0
VERTEX
  5
B17
  8
回03-下ER
  6
CONTINUOUS
 62
     7
 10
233.8840085847294
 20
416.1480963912643
 30
0.0
  0
VERTEX
  5
B18
  8
回03-下ER
  6
CONTINUOUS
 62
     7
 10
233.8840085847294
 20
220.9180963912634
 30
0.0
  0
VERTEX
  5
B19
  8
回03-下ER
  6
CONTINUOUS
 62
     7
 10
209.5454371547296
 20
220.9180963912634
 30
0.0
  0
SEQEND
  5
B16
  8
0
  6
CONTINUOUS
 62
     7
  0
POLYLINE
  5
AD
  8
回03-下ER
  6
CONTINUOUS
 62
     7
 66
     1
 10
0.0
 20
0.0
 30
0.0
 70
     1
  0
VERTEX
  5
B1A
  8
回03-下ER
  6
CONTINUOUS
 62
     7
 10
184.8068657247288
 20
416.1480963912643
 30
0.0
  0
VERTEX
  5
B1C
  8
回03-下ER
  6
CONTINUOUS
 62
     7
 10
209.145437154729
 20
416.1480963912643
 30
0.0
  0
VERTEX
  5
B1D
  8
回03-下ER
  6
CONTINUOUS
 62
     7
 10
209.145437154729
 20
220.9180963912634
 30
0.0
  0
VERTEX
  5
B1E
  8
回03-下ER
  6
CONTINUOUS
 62
     7
 10
184.8068657247292
 20
220.9180963912634
 30
0.0
  0
SEQEND
  5
B1B
  8
0
  6
CONTINUOUS
 62
     7
  0
TEXT
  5
AE
  8
回08-記事
  6
CONTINUOUS
 62
     7
 10
329.7675160496049
 20
110.7881227631279
 30
0.0
 40
3.0
  1
60
  0
TEXT
  5
AF
  8
回08-記事
  6
CONTINUOUS
 62
     7
 10
352.529533681661
 20
110.7881227631279
 30
0.0
 40
3.0
  1
27
  0
TEXT
  5
B0
  8
回08-記事
  6
CONTINUOUS
 62
     7
 10
358.8223925674514
 20
110.7881227631279
 30
0.0
 40
3.0
  1
26
  0
TEXT
  5
B1
  8
回08-記事
  6
CONTINUOUS
 62
     7
 10
378.0321547265041
 20
110.7881227631279
 30
0.0
 40
3.0
  1
1
  0
TEXT
  5
B2
  8
回90-枠2
 10
740.3493847306438
 20
35.28557382710295
 30
0.0
 40
5.877614223360004
  1
Oct/12/2023
  0
TEXT
  5
B5
  8
回90-枠2
 10
652.1325667712598
 20
35.28557382710295
 30
0.0
 40
5.877614223360004
  1
MTR-G156WB100B
  0
LINE
  5
B6
  8
回90-枠2
  6
CONTINUOUS
 62
     7
 10
642.6412844930633
 20
49.60407095304521
 30
0.0
 11
807.2144827471435
 21
49.60407095304521
 31
0.0
  0
TEXT
  5
B7
  8
回90-枠2
 10
754.4048534734558
 20
44.92058557316879
 30
0.0
 40
4.114329956352001
  1
DATE
  0
LINE
  5
B8
  8
回90-枠2
  6
CONTINUOUS
 62
     7
 10
642.6412844930633
 20
49.60407095304521
 30
0.0
 11
807.2144827471435
 21
49.60407095304521
 31
0.0
  0
TEXT
  5
B9
  8
回90-枠2
 10
741.6315005729813
 20
20.05971248077793
 30
0.0
 40
5.877614223360004
  1
DMC Co., Ltd.
  0
LINE
  5
BA
  8
回90-枠2
 10
719.0502693967439
 20
49.60407095304521
 30
0.0
 11
719.0502693967439
 21
14.33838561288547
 31
0.0
  0
TEXT
  5
BB
  8
回90-枠2
 10
660.7171750317344
 20
21.45327648671736
 30
0.0
 40
3.526568534016003
  1
Multi Touch Resistive
  0
LINE
  5
BC
  8
回90-枠2
 10
642.6412844930633
 20
49.60407095304521
 30
0.0
 11
642.6412844930633
 21
14.33838561288547
 31
0.0
  0
TEXT
  5
BD
  8
回90-枠2
 10
675.5887159076118
 20
27.14787691485498
 30
0.0
 40
3.526568534016003
  1
TYPE
  0
LINE
  5
BE
  8
回90-枠2
 10
646.1678530270789
 20
20.21599983624532
 30
0.0
 11
715.523700862727
 21
20.21599983624532
 31
0.0
  0
TEXT
  5
BF
  8
回90-枠2
 10
658.0073595091337
 20
15.17468780466941
 30
0.0
 40
3.526568534016003
  1
DIMENSIONAL DRAWING
  0
TEXT
  5
C0
  8
回90-枠2
 10
670.6155383542966
 20
44.74046465076178
 30
0.0
 40
4.114329956352001
  1
PART No.
  0
LINE
  5
C1
  8
回90-枠2
 10
642.6412844930633
 20
31.97122828296546
 30
0.0
 11
807.2144827471435
 21
31.97122828296546
 31
0.0
  0
LINE
  5
C2
  8
回90-枠2
 10
642.6412844930633
 20
26.09361405960539
 30
0.0
 11
719.0502693967439
 21
26.09361405960539
 31
0.0
  0
LINE
  5
C3
  8
回90-枠2
 10
642.6412844930633
 20
43.72645672968537
 30
0.0
 11
807.2144827471435
 21
43.72645672968537
 31
0.0
  0
TEXT
  5
C4
  8
回08-記事
  6
CONTINUOUS
 62
     7
 10
745.7023827808694
 20
465.0202249872647
 30
0.0
 40
4.0
  1
PIN ASSIGNMENT
  0
POLYLINE
  5
C5
  8
回08-記事
  6
DASHED2
 62
     7
 66
     1
 10
0.0
 20
0.0
 30
0.0
 70
     1
1001
ACAD
1000
ASC_BOUNDS
1002
{
1070
    19
1005
C8
1002
}
  0
VERTEX
  5
B1F
  8
回08-記事
  6
DASHED2
 62
     7
 10
357.2779910501783
 20
206.1863826908714
 30
0.0
  0
VERTEX
  5
B21
  8
回08-記事
  6
DASHED2
 62
     7
 10
383.2779910501784
 20
206.1863826908714
 30
0.0
  0
VERTEX
  5
B22
  8
回08-記事
  6
DASHED2
 62
     7
 10
383.2779910501784
 20
213.3863826908715
 30
0.0
  0
VERTEX
  5
B23
  8
回08-記事
  6
DASHED2
 62
     7
 10
357.2779910501783
 20
213.3863826908715
 30
0.0
  0
SEQEND
  5
B20
  8
0
  6
CONTINUOUS
 62
     7
  0
POLYLINE
  5
C7
  8
回08-記事
  6
DASHED2
 62
     7
 66
     1
 10
0.0
 20
0.0
 30
0.0
 70
     1
1001
ACAD
1000
ASC_BOUNDS
1002
{
1070
    19
1005
CC
1002
}
  0
VERTEX
  5
B24
  8
回08-記事
  6
DASHED2
 62
     7
 10
321.2779910501784
 20
206.1863826908714
 30
0.0
  0
VERTEX
  5
B26
  8
回08-記事
  6
DASHED2
 62
     7
 10
355.2779910501783
 20
206.1863826908714
 30
0.0
  0
VERTEX
  5
B27
  8
回08-記事
  6
DASHED2
 62
     7
 10
355.2779910501783
 20
213.3863826908715
 30
0.0
  0
VERTEX
  5
B28
  8
回08-記事
  6
DASHED2
 62
     7
 10
321.2779910501784
 20
213.3863826908715
 30
0.0
  0
SEQEND
  5
B25
  8
0
  6
CONTINUOUS
 62
     7
  0
INSERT
  5
C8
  8
回08-記事
  6
PHANTOM2
 62
     7
 66
     1
  2
*X7777
 10
0.0
 20
0.0
 30
0.0
1001
GRADIENTCOLOR1ACI
1070
     5
1001
GRADIENTCOLOR2ACI
1070
     2
1001
ACAD
1010
0.0
1020
0.0
1030
0.0
  0
SEQEND
  5
769
  8
0
  6
CONTINUOUS
 62
     7
  0
INSERT
  5
CC
  8
回08-記事
  6
PHANTOM2
 62
     7
 66
     1
  2
*X7878
 10
0.0
 20
0.0
 30
0.0
1001
GRADIENTCOLOR1ACI
1070
     5
1001
GRADIENTCOLOR2ACI
1070
     2
1001
ACAD
1010
0.0
1020
0.0
1030
0.0
  0
SEQEND
  5
78B
  8
0
  6
CONTINUOUS
 62
     7
  0
TEXT
  5
CD
  8
回90-枠1
 10
765.9438680527959
 20
554.7108087389366
 30
0.0
 40
4.0
  1
J
  0
LINE
  5
D1
  8
回90-枠1
 10
727.2144827471435
 20
559.3383856128855
 30
0.0
 11
727.2144827471435
 21
554.3383856128855
 31
0.0
  0
TEXT
  5
D2
  8
回90-枠1
 10
685.943868052796
 20
554.7108087389366
 30
0.0
 40
4.0
  1
I
  0
LINE
  5
D3
  8
回90-枠1
 10
647.2144827471436
 20
559.3383856128855
 30
0.0
 11
647.2144827471436
 21
554.3383856128855
 31
0.0
  0
TEXT
  5
D4
  8
回90-枠1
 10
808.6189037508029
 20
507.1270729087446
 30
0.0
 40
4.0
  1
1
  0
LINE
  5
D5
  8
回90-枠1
 10
812.2144827471435
 20
464.3383856128854
 30
0.0
 11
807.2144827471435
 21
464.3383856128854
 31
0.0
  0
TEXT
  5
D6
  8
回90-枠1
 10
808.317405047501
 20
417.1270729087448
 30
0.0
 40
4.0
  1
2
  0
LINE
  5
D7
  8
回90-枠1
 10
812.2144827471435
 20
374.3383856128855
 30
0.0
 11
807.2144827471435
 21
374.3383856128855
 31
0.0
  0
TEXT
  5
D8
  8
回90-枠1
 10
808.3119242033003
 20
327.1270729087448
 30
0.0
 40
4.0
  1
3
  0
LINE
  5
D9
  8
回90-枠1
 10
812.2144827471435
 20
284.3383856128856
 30
0.0
 11
807.2144827471435
 21
284.3383856128856
 31
0.0
  0
TEXT
  5
DA
  8
回90-枠1
 10
808.2388320832192
 20
237.1270729087448
 30
0.0
 40
4.0
  1
4
  0
LINE
  5
DB
  8
回90-枠1
 10
812.2144827471435
 20
194.3383856128854
 30
0.0
 11
807.2144827471435
 21
194.3383856128854
 31
0.0
  0
TEXT
  5
DC
  8
回90-枠1
 10
808.2388320832192
 20
147.1270729087446
 30
0.0
 40
4.0
  1
5
  0
LINE
  5
DD
  8
回90-枠1
 10
812.2144827471435
 20
104.3383856128855
 30
0.0
 11
807.2144827471435
 21
104.3383856128855
 31
0.0
  0
TEXT
  5
DE
  8
回90-枠1
 10
808.2388320832192
 20
57.12707290874476
 30
0.0
 40
4.0
  1
6
  0
TEXT
  5
DF
  8
回90-枠1
 10
765.9438680527959
 20
9.710808738936693
 30
0.0
 40
4.0
  1
J
  0
LINE
  5
E0
  8
回90-枠1
 10
727.2144827471435
 20
14.33838561288547
 30
0.0
 11
727.2144827471435
 21
9.338385612885474
 31
0.0
  0
TEXT
  5
E1
  8
回90-枠1
 10
685.943868052796
 20
9.710808738936693
 30
0.0
 40
4.0
  1
I
  0
LINE
  5
E2
  8
回90-枠1
 10
647.2144827471436
 20
14.33838561288547
 30
0.0
 11
647.2144827471436
 21
9.338385612885474
 31
0.0
  0
LINE
  5
E3
  8
回90-枠1
 10
807.2144827471435
 20
554.3383856128855
 30
0.0
 11
807.2144827471435
 21
14.33838561288547
 31
0.0
  0
LINE
  5
E4
  8
回90-枠1
 10
812.2144827471435
 20
9.338385612885474
 30
0.0
 11
812.2144827471435
 21
559.3383856128855
 31
0.0
  0
TEXT
  5
E5
  8
回90-枠1
 10
605.943868052796
 20
554.7108087389366
 30
0.0
 40
4.0
  1
H
  0
LINE
  5
E6
  8
回90-枠1
 10
567.2144827471436
 20
559.3383856128855
 30
0.0
 11
567.2144827471436
 21
554.3383856128855
 31
0.0
  0
TEXT
  5
E7
  8
回90-枠1
 10
525.943868052796
 20
554.7108087389366
 30
0.0
 40
4.0
  1
G
  0
LINE
  5
E8
  8
回90-枠1
 10
487.2144827471436
 20
559.3383856128855
 30
0.0
 11
487.2144827471436
 21
554.3383856128855
 31
0.0
  0
TEXT
  5
E9
  8
回90-枠1
 10
445.9438680527958
 20
554.7108087389366
 30
0.0
 40
4.0
  1
F
  0
LINE
  5
EA
  8
回90-枠1
 10
407.2144827471436
 20
559.3383856128855
 30
0.0
 11
407.2144827471436
 21
554.3383856128855
 31
0.0
  0
TEXT
  5
EB
  8
回90-枠1
 10
365.943868052796
 20
554.7108087389366
 30
0.0
 40
4.0
  1
E
  0
LINE
  5
EC
  8
回90-枠1
 10
327.2144827471436
 20
559.3383856128855
 30
0.0
 11
327.2144827471436
 21
554.3383856128855
 31
0.0
  0
TEXT
  5
ED
  8
回90-枠1
 10
285.943868052796
 20
554.7108087389366
 30
0.0
 40
4.0
  1
D
  0
LINE
  5
EE
  8
回90-枠1
 10
247.2144827471436
 20
559.3383856128855
 30
0.0
 11
247.2144827471436
 21
554.3383856128855
 31
0.0
  0
TEXT
  5
EF
  8
回90-枠1
 10
205.943868052796
 20
554.7108087389366
 30
0.0
 40
4.0
  1
C
  0
LINE
  5
F0
  8
回90-枠1
 10
167.2144827471436
 20
559.3383856128855
 30
0.0
 11
167.2144827471436
 21
554.3383856128855
 31
0.0
  0
TEXT
  5
F1
  8
回90-枠1
 10
125.943868052796
 20
554.7108087389366
 30
0.0
 40
4.0
  1
B
  0
LINE
  5
F2
  8
回90-枠1
 10
87.21448274714363
 20
559.3383856128855
 30
0.0
 11
87.21448274714363
 21
554.3383856128855
 31
0.0
  0
TEXT
  5
F3
  8
回90-枠1
 10
45.943868052796
 20
554.7108087389366
 30
0.0
 40
4.0
  1
A
  0
TEXT
  5
F4
  8
回90-枠1
 10
3.618903750802928
 20
507.1270729087446
 30
0.0
 40
4.0
  1
1
  0
LINE
  5
F5
  8
回90-枠1
 10
7.21448274714362
 20
464.3383856128854
 30
0.0
 11
2.21448274714362
 21
464.3383856128854
 31
0.0
  0
TEXT
  5
F6
  8
回90-枠1
 10
3.317405047501096
 20
417.1270729087448
 30
0.0
 40
4.0
  1
2
  0
LINE
  5
F7
  8
回90-枠1
 10
7.21448274714362
 20
374.3383856128855
 30
0.0
 11
2.21448274714362
 21
374.3383856128855
 31
0.0
  0
TEXT
  5
F8
  8
回90-枠1
 10
3.31192420330035
 20
327.1270729087448
 30
0.0
 40
4.0
  1
3
  0
LINE
  5
F9
  8
回90-枠1
 10
7.21448274714362
 20
284.3383856128856
 30
0.0
 11
2.21448274714362
 21
284.3383856128856
 31
0.0
  0
TEXT
  5
FA
  8
回90-枠1
 10
3.238832083219221
 20
237.1270729087448
 30
0.0
 40
4.0
  1
4
  0
LINE
  5
FB
  8
回90-枠1
 10
7.21448274714362
 20
194.3383856128854
 30
0.0
 11
2.21448274714362
 21
194.3383856128854
 31
0.0
  0
TEXT
  5
FC
  8
回90-枠1
 10
3.238832083219221
 20
147.1270729087446
 30
0.0
 40
4.0
  1
5
  0
TEXT
  5
FD
  8
回90-枠1
 10
605.943868052796
 20
9.710808738936693
 30
0.0
 40
4.0
  1
H
  0
LINE
  5
FE
  8
回90-枠1
 10
567.2144827471436
 20
14.33838561288547
 30
0.0
 11
567.2144827471436
 21
9.338385612885474
 31
0.0
  0
TEXT
  5
FF
  8
回90-枠1
 10
525.943868052796
 20
9.710808738936693
 30
0.0
 40
4.0
  1
G
  0
LINE
  5
100
  8
回90-枠1
 10
487.2144827471436
 20
14.33838561288547
 30
0.0
 11
487.2144827471436
 21
9.338385612885474
 31
0.0
  0
TEXT
  5
101
  8
回90-枠1
 10
445.9438680527958
 20
9.710808738936693
 30
0.0
 40
4.0
  1
F
  0
LINE
  5
102
  8
回90-枠1
 10
407.2144827471436
 20
14.33838561288547
 30
0.0
 11
407.2144827471436
 21
9.338385612885474
 31
0.0
  0
TEXT
  5
103
  8
回90-枠1
 10
365.943868052796
 20
9.710808738936693
 30
0.0
 40
4.0
  1
E
  0
LINE
  5
104
  8
回90-枠1
 10
327.2144827471436
 20
14.33838561288547
 30
0.0
 11
327.2144827471436
 21
9.338385612885474
 31
0.0
  0
TEXT
  5
105
  8
回90-枠1
 10
285.943868052796
 20
9.710808738936693
 30
0.0
 40
4.0
  1
D
  0
LINE
  5
106
  8
回90-枠1
 10
247.2144827471436
 20
14.33838561288547
 30
0.0
 11
247.2144827471436
 21
9.338385612885474
 31
0.0
  0
TEXT
  5
107
  8
回90-枠1
 10
205.943868052796
 20
9.710808738936693
 30
0.0
 40
4.0
  1
C
  0
LINE
  5
108
  8
回90-枠1
 10
167.2144827471436
 20
14.33838561288547
 30
0.0
 11
167.2144827471436
 21
9.338385612885474
 31
0.0
  0
LINE
  5
109
  8
回90-枠1
 10
7.21448274714362
 20
104.3383856128855
 30
0.0
 11
2.21448274714362
 21
104.3383856128855
 31
0.0
  0
TEXT
  5
10A
  8
回90-枠1
 10
3.238832083219221
 20
57.12707290874476
 30
0.0
 40
4.0
  1
6
  0
TEXT
  5
10B
  8
回90-枠1
 10
125.943868052796
 20
9.710808738936693
 30
0.0
 40
4.0
  1
B
  0
LINE
  5
10C
  8
回90-枠1
 10
87.21448274714363
 20
14.33838561288547
 30
0.0
 11
87.21448274714363
 21
9.338385612885474
 31
0.0
  0
TEXT
  5
10D
  8
回90-枠1
 10
45.943868052796
 20
9.710808738936693
 30
0.0
 40
4.0
  1
A
  0
LINE
  5
10E
  8
回90-枠1
 10
7.21448274714362
 20
554.3383856128855
 30
0.0
 11
7.21448274714362
 21
14.33838561288547
 31
0.0
  0
LINE
  5
10F
  8
回90-枠1
 10
2.21448274714362
 20
9.338385612885474
 30
0.0
 11
2.21448274714362
 21
559.3383856128855
 31
0.0
  0
LINE
  5
110
  8
回90-枠1
 10
7.21448274714362
 20
14.33838561288547
 30
0.0
 11
807.2144827471435
 21
14.33838561288547
 31
0.0
  0
LINE
  5
111
  8
回90-枠1
 10
812.2144827471435
 20
9.338385612885474
 30
0.0
 11
2.21448274714362
 21
9.338385612885474
 31
0.0
  0
LINE
  5
112
  8
回90-枠1
 10
7.21448274714362
 20
554.3383856128855
 30
0.0
 11
807.2144827471435
 21
554.3383856128855
 31
0.0
  0
LINE
  5
113
  8
回90-枠1
 10
812.2144827471435
 20
559.3383856128855
 30
0.0
 11
2.21448274714362
 21
559.3383856128855
 31
0.0
  0
TEXT
  5
114
  8
回08-記事
  6
CONTINUOUS
 62
     7
 10
788.8042973104245
 20
254.4731485943614
 30
0.0
 40
4.0
  1
NC
  0
TEXT
  5
115
  8
回08-記事
  6
CONTINUOUS
 62
     7
 10
788.8042973104245
 20
411.2373085943607
 30
0.0
 40
4.0
  1
NC
  0
TEXT
  5
116
  8
回08-記事
  6
CONTINUOUS
 62
     7
 10
788.8042973104245
 20
399.6251485943612
 30
0.0
 40
4.0
  1
NC
  0
TEXT
  5
117
  8
回08-記事
  6
CONTINUOUS
 62
     7
 10
788.8042973104245
 20
353.1765085943606
 30
0.0
 40
4.0
  1
NC
  0
TEXT
  5
118
  8
回08-記事
  6
CONTINUOUS
 62
     7
 10
752.2364209381454
 20
353.1765085943606
 30
0.0
 40
4.0
  1
NC
  0
TEXT
  5
119
  8
回08-記事
  6
CONTINUOUS
 62
     7
 10
752.2364209381454
 20
358.9825885943609
 30
0.0
 40
4.0
  1
NC
  0
TEXT
  5
11A
  8
回08-記事
  6
CONTINUOUS
 62
     7
 10
752.2364209381454
 20
364.7886685943612
 30
0.0
 40
4.0
  1
NC
  0
TEXT
  5
11B
  8
回08-記事
  6
CONTINUOUS
 62
     7
 10
752.2364209381454
 20
370.5947485943607
 30
0.0
 40
4.0
  1
NC
  0
TEXT
  5
11C
  8
回08-記事
  6
CONTINUOUS
 62
     7
 10
752.2364209381454
 20
382.2069085943612
 30
0.0
 40
4.0
  1
NC
  0
TEXT
  5
11D
  8
回08-記事
  6
CONTINUOUS
 62
     7
 10
752.2364209381454
 20
388.0129885943615
 30
0.0
 40
4.0
  1
NC
  0
TEXT
  5
11E
  8
回08-記事
  6
CONTINUOUS
 62
     7
 10
752.2364209381454
 20
393.8190685943609
 30
0.0
 40
4.0
  1
NC
  0
TEXT
  5
11F
  8
回08-記事
  6
CONTINUOUS
 62
     7
 10
752.2364209381454
 20
399.6251485943612
 30
0.0
 40
4.0
  1
NC
  0
DIMENSION
  5
120
  8
回07-寸法
  6
CONTINUOUS
 62
    18
  2
*D3939
 10
363.5268657347294
 20
84.82742453393672
 30
0.0
 11
270.3018657347293
 21
88.0774245339367
 31
0.0
 70
    32
  1
(<>)
  3
DMC
 13
177.076865734729
 23
209.8180963912642
 33
0.0
 14
363.5268657347294
 24
110.3221447620747
 34
0.0
1001
ACAD
1000
DSTYLE
1002
{
1070
    41
1040
1.5
1070
    47
1040
0.2
1070
    48
1040
0.2
1070
   141
1040
1.5
1070
   371
1070
    13
1070
   372
1070
    13
1002
}
  0
DIMENSION
  5
133
  8
回07-寸法
  6
CONTINUOUS
 62
    18
  2
*D4040
 10
405.6681294763857
 20
209.8180963912635
 30
0.0
 11
402.6681294763856
 21
159.8201205766686
 31
0.0
 70
    32
  3
DMC
 13
376.5268657347294
 23
109.8221447620738
 33
0.0
 14
383.7779910501778
 24
209.8180963912635
 34
0.0
 50
90.0
1001
ACAD
1000
DSTYLE
1002
{
1070
    41
1040
1.5
1070
    47
1040
1.0
1070
    48
1040
1.0
1070
    71
1070
     1
1070
   141
1040
1.5
1070
   371
1070
    13
1070
   372
1070
    13
1002
}
  0
TEXT
  5
142
  8
回08-記事
  6
CONTINUOUS
 62
     7
 10
751.8943570536928
 20
446.0737885943617
 30
0.0
 40
4.0
  1
R1
  0
TEXT
  5
143
  8
回08-記事
  6
CONTINUOUS
 62
     7
 10
788.8848200515292
 20
346.985620265802
 30
0.0
 40
4.0
  1
D7
  0
TEXT
  5
144
  8
回08-記事
  6
CONTINUOUS
 62
     7
 10
788.8042973104245
 20
358.9825885943619
 30
0.0
 40
4.0
  1
D8
  0
LINE
  5
145
  8
回08-記事
  6
CONTINUOUS
 62
     7
 10
774.5725311151033
 20
256.0402103494127
 30
0.0
 11
787.1818004353488
 21
256.0402103494127
 31
0.0
  0
LINE
  5
146
  8
回08-記事
  6
CONTINUOUS
 62
     7
 10
774.5725311151033
 20
261.8462903494125
 30
0.0
 11
787.1818004353488
 21
261.8462903494125
 31
0.0
  0
TEXT
  5
147
  8
回08-記事
  6
CONTINUOUS
 62
     7
 10
767.6524206284591
 20
254.4731485943614
 30
0.0
 40
4.0
  1
60
  0
TEXT
  5
148
  8
回08-記事
  6
CONTINUOUS
 62
     7
 10
767.6524206284591
 20
260.2792285943617
 30
0.0
 40
4.0
  1
59
  0
TEXT
  5
149
  8
回08-記事
  6
CONTINUOUS
 62
     7
 10
788.4622334259717
 20
388.0129885943615
 30
0.0
 40
4.0
  1
D13
  0
TEXT
  5
14A
  8
回08-記事
  6
CONTINUOUS
 62
     7
 10
788.8042973104245
 20
364.7886685943612
 30
0.0
 40
4.0
  1
D9
  0
TEXT
  5
14B
  8
回08-記事
  6
CONTINUOUS
 62
     7
 10
788.8042973104245
 20
370.5947485943615
 30
0.0
 40
4.0
  1
D10
  0
TEXT
  5
14C
  8
回08-記事
  6
CONTINUOUS
 62
     7
 10
788.8042973104245
 20
376.4008285943618
 30
0.0
 40
4.0
  1
D11
  0
TEXT
  5
14D
  8
回08-記事
  6
CONTINUOUS
 62
     7
 10
788.8042973104245
 20
382.2069085943612
 30
0.0
 40
4.0
  1
D12
  0
LINE
  5
14E
  8
回08-記事
  6
CONTINUOUS
 62
     7
 10
774.5725311151033
 20
267.6523703494124
 30
0.0
 11
787.1818004353488
 21
267.6523703494124
 31
0.0
  0
LINE
  5
14F
  8
回08-記事
  6
CONTINUOUS
 62
     7
 10
774.5725311151033
 20
273.4584503494127
 30
0.0
 11
787.1818004353488
 21
273.4584503494127
 31
0.0
  0
LINE
  5
150
  8
回08-記事
  6
CONTINUOUS
 62
     7
 10
774.5725311151033
 20
279.2645303494125
 30
0.0
 11
787.1818004353488
 21
279.2645303494125
 31
0.0
  0
LINE
  5
151
  8
回08-記事
  6
CONTINUOUS
 62
     7
 10
774.5725311151033
 20
285.0706103494123
 30
0.0
 11
787.1818004353488
 21
285.0706103494123
 31
0.0
  0
LINE
  5
152
  8
回08-記事
  6
CONTINUOUS
 62
     7
 10
774.5725311151033
 20
290.8766903494126
 30
0.0
 11
787.1818004353488
 21
290.8766903494126
 31
0.0
  0
LINE
  5
153
  8
回08-記事
  6
CONTINUOUS
 62
     7
 10
774.5725311151033
 20
296.6827703494125
 30
0.0
 11
787.1818004353488
 21
296.6827703494125
 31
0.0
  0
TEXT
  5
154
  8
回08-記事
  6
CONTINUOUS
 62
     7
 10
767.6524206284591
 20
266.0853085943615
 30
0.0
 40
4.0
  1
58
  0
TEXT
  5
155
  8
回08-記事
  6
CONTINUOUS
 62
     7
 10
767.6524206284591
 20
271.8913885943613
 30
0.0
 40
4.0
  1
57
  0
TEXT
  5
156
  8
回08-記事
  6
CONTINUOUS
 62
     7
 10
767.6524206284591
 20
277.6974685943616
 30
0.0
 40
4.0
  1
56
  0
TEXT
  5
157
  8
回08-記事
  6
CONTINUOUS
 62
     7
 10
767.6524206284591
 20
283.5035485943615
 30
0.0
 40
4.0
  1
55
  0
TEXT
  5
158
  8
回08-記事
  6
CONTINUOUS
 62
     7
 10
767.6524206284591
 20
289.3096285943613
 30
0.0
 40
4.0
  1
54
  0
TEXT
  5
159
  8
回08-記事
  6
CONTINUOUS
 62
     7
 10
767.6524206284591
 20
295.1157085943616
 30
0.0
 40
4.0
  1
53
  0
TEXT
  5
15A
  8
回08-記事
  6
CONTINUOUS
 62
     7
 10
788.8042973104245
 20
393.8190685943618
 30
0.0
 40
4.0
  1
D14
  0
TEXT
  5
15B
  8
回08-記事
  6
CONTINUOUS
 62
     7
 10
788.8042973104254
 20
405.4312285943614
 30
0.0
 40
4.0
  1
SUR
  0
TEXT
  5
15C
  8
回08-記事
  6
CONTINUOUS
 62
     7
 10
788.8848200515292
 20
335.3734602658023
 30
0.0
 40
4.0
  1
D5
  0
TEXT
  5
15D
  8
回08-記事
  6
CONTINUOUS
 62
     7
 10
788.3152902643566
 20
417.0328056481375
 30
0.0
 40
4.0
  1
U14
  0
LINE
  5
15E
  8
回08-記事
  6
CONTINUOUS
 62
     7
 10
774.5725311151033
 20
302.4888503494121
 30
0.0
 11
787.1818004353488
 21
302.4888503494121
 31
0.0
  0
LINE
  5
15F
  8
回08-記事
  6
CONTINUOUS
 62
     7
 10
774.5725311151033
 20
308.2949303494124
 30
0.0
 11
787.1818004353488
 21
308.2949303494124
 31
0.0
  0
TEXT
  5
160
  8
回08-記事
  6
CONTINUOUS
 62
     7
 10
767.6524206284591
 20
300.9217885943617
 30
0.0
 40
4.0
  1
52
  0
TEXT
  5
161
  8
回08-記事
  6
CONTINUOUS
 62
     7
 10
767.6524206284591
 20
306.727868594361
 30
0.0
 40
4.0
  1
51
  0
TEXT
  5
162
  8
回08-記事
  6
CONTINUOUS
 62
     7
 10
788.3379926469878
 20
288.9016702851524
 30
0.0
 40
4.0
  1
U3
  0
TEXT
  5
163
  8
回08-記事
  6
CONTINUOUS
 62
     7
 10
788.8848200515292
 20
341.1795402658026
 30
0.0
 40
4.0
  1
D6
  0
TEXT
  5
164
  8
回08-記事
  6
CONTINUOUS
 62
     7
 10
788.4622334259717
 20
446.0737885943608
 30
0.0
 40
4.0
  1
U9
  0
TEXT
  5
165
  8
回08-記事
  6
CONTINUOUS
 62
     7
 10
788.8169586791343
 20
260.2398033062693
 30
0.0
 40
4.0
  1
U8
  0
TEXT
  5
166
  8
回08-記事
  6
CONTINUOUS
 62
     7
 10
788.7733703778073
 20
265.7660148105853
 30
0.0
 40
4.0
  1
U7
  0
TEXT
  5
167
  8
回08-記事
  6
CONTINUOUS
 62
     7
 10
788.3379926469878
 20
300.5138302851528
 30
0.0
 40
4.0
  1
U1
  0
TEXT
  5
168
  8
回08-記事
  6
CONTINUOUS
 62
     7
 10
788.6948293540223
 20
312.4419882738938
 30
0.0
 40
4.0
  1
D1
  0
TEXT
  5
169
  8
回08-記事
  6
CONTINUOUS
 62
     7
 10
788.2376469593172
 20
306.4400818478207
 30
0.0
 40
4.0
  1
SDL
  0
TEXT
  5
16A
  8
回08-記事
  6
CONTINUOUS
 62
     7
 10
788.8848200515292
 20
317.9552202658023
 30
0.0
 40
4.0
  1
D2
  0
TEXT
  5
16B
  8
回08-記事
  6
CONTINUOUS
 62
     7
 10
788.8848200515292
 20
323.7613002658026
 30
0.0
 40
4.0
  1
D3
  0
TEXT
  5
16C
  8
回08-記事
  6
CONTINUOUS
 62
     7
 10
788.8848200515292
 20
329.567380265802
 30
0.0
 40
4.0
  1
D4
  0
LINE
  5
16D
  8
回08-記事
  6
CONTINUOUS
 62
     7
 10
774.5725311151033
 20
447.6408503494122
 30
0.0
 11
787.1818004353488
 21
447.6408503494122
 31
0.0
  0
TEXT
  5
16E
  8
回08-記事
  6
CONTINUOUS
 62
     7
 10
767.933632808366
 20
446.0737885943617
 30
0.0
 40
4.0
  1
27
  0
LINE
  5
16F
  8
回08-記事
  6
CONTINUOUS
 62
     7
 10
774.5725311151033
 20
441.8347703494126
 30
0.0
 11
787.1818004353488
 21
441.8347703494126
 31
0.0
  0
TEXT
  5
170
  8
回08-記事
  6
CONTINUOUS
 62
     7
 10
767.933632808366
 20
440.2677085943613
 30
0.0
 40
4.0
  1
28
  0
LINE
  5
171
  8
回08-記事
  6
CONTINUOUS
 62
     7
 10
774.5725311151033
 20
436.0286903494124
 30
0.0
 11
787.1818004353488
 21
436.0286903494124
 31
0.0
  0
TEXT
  5
172
  8
回08-記事
  6
CONTINUOUS
 62
     7
 10
767.933632808366
 20
434.4616285943611
 30
0.0
 40
4.0
  1
29
  0
LINE
  5
173
  8
回08-記事
  6
CONTINUOUS
 62
     7
 10
774.5725311151033
 20
430.2226103494121
 30
0.0
 11
787.1818004353488
 21
430.2226103494121
 31
0.0
  0
TEXT
  5
174
  8
回08-記事
  6
CONTINUOUS
 62
     7
 10
767.9373228816291
 20
428.6555485943617
 30
0.0
 40
4.0
  1
30
  0
LINE
  5
175
  8
回08-記事
  6
CONTINUOUS
 62
     7
 10
774.5725311151033
 20
424.4165303494127
 30
0.0
 11
787.1818004353488
 21
424.4165303494127
 31
0.0
  0
TEXT
  5
176
  8
回08-記事
  6
CONTINUOUS
 62
     7
 10
767.9373228816291
 20
422.8494685943613
 30
0.0
 40
4.0
  1
31
  0
LINE
  5
177
  8
回08-記事
  6
CONTINUOUS
 62
     7
 10
774.5725311151033
 20
418.6104503494123
 30
0.0
 11
787.1818004353488
 21
418.6104503494123
 31
0.0
  0
TEXT
  5
178
  8
回08-記事
  6
CONTINUOUS
 62
     7
 10
767.9373228816291
 20
417.043388594361
 30
0.0
 40
4.0
  1
32
  0
LINE
  5
179
  8
回08-記事
  6
CONTINUOUS
 62
     7
 10
774.5725311151033
 20
412.8043703494121
 30
0.0
 11
787.1818004353488
 21
412.8043703494121
 31
0.0
  0
TEXT
  5
17A
  8
回08-記事
  6
CONTINUOUS
 62
     7
 10
767.9623671932955
 20
411.2373085943617
 30
0.0
 40
4.0
  1
33
  0
LINE
  5
17B
  8
回08-記事
  6
CONTINUOUS
 62
     7
 10
774.5725311151033
 20
406.9982903494127
 30
0.0
 11
787.1818004353488
 21
406.9982903494127
 31
0.0
  0
TEXT
  5
17C
  8
回08-記事
  6
CONTINUOUS
 62
     7
 10
767.9623671932955
 20
405.4312285943614
 30
0.0
 40
4.0
  1
34
  0
TEXT
  5
17D
  8
回08-記事
  6
CONTINUOUS
 62
     7
 10
788.8042973104245
 20
422.8494685943613
 30
0.0
 40
4.0
  1
U13
  0
TEXT
  5
17E
  8
回08-記事
  6
CONTINUOUS
 62
     7
 10
788.8042973104245
 20
428.6555485943617
 30
0.0
 40
4.0
  1
U12
  0
TEXT
  5
17F
  8
回08-記事
  6
CONTINUOUS
 62
     7
 10
788.8042973104245
 20
434.4616285943611
 30
0.0
 40
4.0
  1
U11
  0
TEXT
  5
180
  8
回08-記事
  6
CONTINUOUS
 62
     7
 10
788.8042973104245
 20
440.2677085943613
 30
0.0
 40
4.0
  1
U10
  0
TEXT
  5
181
  8
回08-記事
  6
CONTINUOUS
 62
     7
 10
788.3379926469878
 20
271.4834302851524
 30
0.0
 40
4.0
  1
U6
  0
TEXT
  5
182
  8
回08-記事
  6
CONTINUOUS
 62
     7
 10
788.3379926469878
 20
277.2895102851527
 30
0.0
 40
4.0
  1
U5
  0
TEXT
  5
183
  8
回08-記事
  6
CONTINUOUS
 62
     7
 10
788.3379926469878
 20
283.0955902851526
 30
0.0
 40
4.0
  1
U4
  0
TEXT
  5
184
  8
回08-記事
  6
CONTINUOUS
 62
     7
 10
788.3379926469878
 20
294.7077502851527
 30
0.0
 40
4.0
  1
U2
  0
LINE
  5
185
  8
回08-記事
  6
CONTINUOUS
 62
     7
 10
774.5725311151033
 20
314.1010103494127
 30
0.0
 11
787.1818004353488
 21
314.1010103494127
 31
0.0
  0
LINE
  5
186
  8
回08-記事
  6
CONTINUOUS
 62
     7
 10
774.5725311151033
 20
319.9070903494121
 30
0.0
 11
787.1818004353488
 21
319.9070903494121
 31
0.0
  0
LINE
  5
187
  8
回08-記事
  6
CONTINUOUS
 62
     7
 10
774.5725311151033
 20
325.7131703494124
 30
0.0
 11
787.1818004353488
 21
325.7131703494124
 31
0.0
  0
LINE
  5
188
  8
回08-記事
  6
CONTINUOUS
 62
     7
 10
774.5725311151033
 20
331.5192503494126
 30
0.0
 11
787.1818004353488
 21
331.5192503494126
 31
0.0
  0
LINE
  5
189
  8
回08-記事
  6
CONTINUOUS
 62
     7
 10
774.5725311151033
 20
337.325330349412
 30
0.0
 11
787.1818004353488
 21
337.325330349412
 31
0.0
  0
LINE
  5
18A
  8
回08-記事
  6
CONTINUOUS
 62
     7
 10
774.5725311151033
 20
343.1314103494123
 30
0.0
 11
787.1818004353488
 21
343.1314103494123
 31
0.0
  0
LINE
  5
18B
  8
回08-記事
  6
CONTINUOUS
 62
     7
 10
774.5725311151033
 20
348.9374903494126
 30
0.0
 11
787.1818004353488
 21
348.9374903494126
 31
0.0
  0
LINE
  5
18C
  8
回08-記事
  6
CONTINUOUS
 62
     7
 10
774.5725311151033
 20
354.743570349412
 30
0.0
 11
787.1818004353488
 21
354.743570349412
 31
0.0
  0
LINE
  5
18D
  8
回08-記事
  6
CONTINUOUS
 62
     7
 10
774.5725311151033
 20
360.5496503494123
 30
0.0
 11
787.1818004353488
 21
360.5496503494123
 31
0.0
  0
LINE
  5
18E
  8
回08-記事
  6
CONTINUOUS
 62
     7
 10
774.5725311151033
 20
366.3557303494126
 30
0.0
 11
787.1818004353488
 21
366.3557303494126
 31
0.0
  0
LINE
  5
18F
  8
回08-記事
  6
CONTINUOUS
 62
     7
 10
774.5725311151033
 20
372.1618103494118
 30
0.0
 11
787.1818004353488
 21
372.1618103494118
 31
0.0
  0
LINE
  5
190
  8
回08-記事
  6
CONTINUOUS
 62
     7
 10
774.5725311151033
 20
377.9678903494123
 30
0.0
 11
787.1818004353488
 21
377.9678903494123
 31
0.0
  0
LINE
  5
191
  8
回08-記事
  6
CONTINUOUS
 62
     7
 10
774.5725311151033
 20
383.7739703494126
 30
0.0
 11
787.1818004353488
 21
383.7739703494126
 31
0.0
  0
LINE
  5
192
  8
回08-記事
  6
CONTINUOUS
 62
     7
 10
774.5725311151033
 20
389.5800503494129
 30
0.0
 11
787.1818004353488
 21
389.5800503494129
 31
0.0
  0
LINE
  5
193
  8
回08-記事
  6
CONTINUOUS
 62
     7
 10
774.5725311151033
 20
395.3861303494122
 30
0.0
 11
787.1818004353488
 21
395.3861303494122
 31
0.0
  0
LINE
  5
194
  8
回08-記事
  6
CONTINUOUS
 62
     7
 10
774.5725311151033
 20
401.1922103494125
 30
0.0
 11
787.1818004353488
 21
401.1922103494125
 31
0.0
  0
TEXT
  5
195
  8
回08-記事
  6
CONTINUOUS
 62
     7
 10
767.6524206284591
 20
312.5339485943613
 30
0.0
 40
4.0
  1
50
  0
TEXT
  5
196
  8
回08-記事
  6
CONTINUOUS
 62
     7
 10
767.350208700446
 20
318.3400285943616
 30
0.0
 40
4.0
  1
49
  0
TEXT
  5
197
  8
回08-記事
  6
CONTINUOUS
 62
     7
 10
767.3849981025028
 20
324.146108594361
 30
0.0
 40
4.0
  1
48
  0
TEXT
  5
198
  8
回08-記事
  6
CONTINUOUS
 62
     7
 10
767.3470955974005
 20
329.9521885943613
 30
0.0
 40
4.0
  1
47
  0
TEXT
  5
199
  8
回08-記事
  6
CONTINUOUS
 62
     7
 10
767.3470955974005
 20
335.7582685943616
 30
0.0
 40
4.0
  1
46
  0
TEXT
  5
19A
  8
回08-記事
  6
CONTINUOUS
 62
     7
 10
767.3147028408655
 20
341.564348594361
 30
0.0
 40
4.0
  1
45
  0
TEXT
  5
19B
  8
回08-記事
  6
CONTINUOUS
 62
     7
 10
767.3147028408655
 20
347.3704285943613
 30
0.0
 40
4.0
  1
44
  0
TEXT
  5
19C
  8
回08-記事
  6
CONTINUOUS
 62
     7
 10
767.3053888930588
 20
353.1765085943616
 30
0.0
 40
4.0
  1
43
  0
TEXT
  5
19D
  8
回08-記事
  6
CONTINUOUS
 62
     7
 10
767.3053888930588
 20
358.9825885943609
 30
0.0
 40
4.0
  1
42
  0
TEXT
  5
19E
  8
回08-記事
  6
CONTINUOUS
 62
     7
 10
767.4428038182983
 20
364.7886685943612
 30
0.0
 40
4.0
  1
41
  0
TEXT
  5
19F
  8
回08-記事
  6
CONTINUOUS
 62
     7
 10
767.4428038182983
 20
370.5947485943615
 30
0.0
 40
4.0
  1
40
  0
TEXT
  5
1A0
  8
回08-記事
  6
CONTINUOUS
 62
     7
 10
767.7853022162706
 20
376.4008285943609
 30
0.0
 40
4.0
  1
39
  0
TEXT
  5
1A1
  8
回08-記事
  6
CONTINUOUS
 62
     7
 10
767.7853022162706
 20
382.2069085943612
 30
0.0
 40
4.0
  1
38
  0
TEXT
  5
1A2
  8
回08-記事
  6
CONTINUOUS
 62
     7
 10
767.7850866449804
 20
388.0129885943615
 30
0.0
 40
4.0
  1
37
  0
TEXT
  5
1A3
  8
回08-記事
  6
CONTINUOUS
 62
     7
 10
767.7850866449804
 20
393.8190685943609
 30
0.0
 40
4.0
  1
36
  0
TEXT
  5
1A4
  8
回08-記事
  6
CONTINUOUS
 62
     7
 10
767.9623671932955
 20
399.6251485943612
 30
0.0
 40
4.0
  1
35
  0
TEXT
  5
1A5
  8
回08-記事
  6
CONTINUOUS
 62
     7
 10
752.2364209381454
 20
376.4008285943618
 30
0.0
 40
4.0
  1
SDR
  0
TEXT
  5
1A6
  8
回08-記事
  6
CONTINUOUS
 62
     7
 10
752.2364209381454
 20
411.2373085943617
 30
0.0
 40
4.0
  1
R7
  0
TEXT
  5
1A7
  8
回08-記事
  6
CONTINUOUS
 62
     7
 10
751.7852508635447
 20
335.4158088039839
 30
0.0
 40
4.0
  1
L6
  0
TEXT
  5
1A8
  8
回08-記事
  6
CONTINUOUS
 62
     7
 10
752.2364209381454
 20
405.4312285943614
 30
0.0
 40
4.0
  1
R8
  0
LINE
  5
1A9
  8
回08-記事
  6
CONTINUOUS
 62
     7
 10
738.0046547428244
 20
302.4888503494121
 30
0.0
 11
750.6139240630698
 21
302.4888503494121
 31
0.0
  0
LINE
  5
1AA
  8
回08-記事
  6
CONTINUOUS
 62
     7
 10
738.0046547428244
 20
308.2949303494124
 30
0.0
 11
750.6139240630698
 21
308.2949303494124
 31
0.0
  0
TEXT
  5
1AB
  8
回08-記事
  6
CONTINUOUS
 62
     7
 10
731.6293348250781
 20
300.9217885943617
 30
0.0
 40
4.0
  1
26
  0
TEXT
  5
1AC
  8
回08-記事
  6
CONTINUOUS
 62
     7
 10
731.6293348250781
 20
306.727868594361
 30
0.0
 40
4.0
  1
25
  0
TEXT
  5
1AD
  8
回08-記事
  6
CONTINUOUS
 62
     7
 10
751.8162590261514
 20
300.9128265209119
 30
0.0
 40
4.0
  1
SUL
  0
TEXT
  5
1AE
  8
回08-記事
  6
CONTINUOUS
 62
     7
 10
751.7852508635447
 20
341.2218888039842
 30
0.0
 40
4.0
  1
L7
  0
TEXT
  5
1AF
  8
回08-記事
  6
CONTINUOUS
 62
     7
 10
751.8943570536928
 20
440.2677085943613
 30
0.0
 40
4.0
  1
R2
  0
TEXT
  5
1B0
  8
回08-記事
  6
CONTINUOUS
 62
     7
 10
751.6348202760497
 20
306.3854088039843
 30
0.0
 40
4.0
  1
L1
  0
TEXT
  5
1B1
  8
回08-記事
  6
CONTINUOUS
 62
     7
 10
751.6348202760497
 20
312.1914888039837
 30
0.0
 40
4.0
  1
L2
  0
TEXT
  5
1B2
  8
回08-記事
  6
CONTINUOUS
 62
     7
 10
751.7852508635447
 20
317.9975688039839
 30
0.0
 40
4.0
  1
L3
  0
TEXT
  5
1B3
  8
回08-記事
  6
CONTINUOUS
 62
     7
 10
751.7852508635447
 20
323.8036488039842
 30
0.0
 40
4.0
  1
L4
  0
TEXT
  5
1B4
  8
回08-記事
  6
CONTINUOUS
 62
     7
 10
751.7852508635447
 20
329.6097288039836
 30
0.0
 40
4.0
  1
L5
  0
TEXT
  5
1B5
  8
回08-記事
  6
CONTINUOUS
 62
     7
 10
751.7852508635447
 20
347.0279688039836
 30
0.0
 40
4.0
  1
L8
  0
TEXT
  5
1B6
  8
回08-記事
  6
CONTINUOUS
 62
     7
 10
734.1369222642376
 20
454.1113007963256
 30
0.0
 40
4.0
  1
Tail-1
  0
TEXT
  5
1B7
  8
回08-記事
  6
CONTINUOUS
 62
     7
 10
771.4743699266444
 20
454.1113007963256
 30
0.0
 40
4.0
  1
Tail-2
  0
LINE
  5
1B8
  8
回08-記事
  6
CONTINUOUS
 62
     7
 10
738.0046547428244
 20
447.6408503494122
 30
0.0
 11
750.6139240630698
 21
447.6408503494122
 31
0.0
  0
TEXT
  5
1B9
  8
回08-記事
  6
CONTINUOUS
 62
     7
 10
733.0617103758855
 20
446.0737885943617
 30
0.0
 40
4.0
  1
1
  0
LINE
  5
1BA
  8
回08-記事
  6
CONTINUOUS
 62
     7
 10
738.0046547428244
 20
441.8347703494126
 30
0.0
 11
750.6139240630698
 21
441.8347703494126
 31
0.0
  0
TEXT
  5
1BB
  8
回08-記事
  6
CONTINUOUS
 62
     7
 10
733.0617103758855
 20
440.2677085943613
 30
0.0
 40
4.0
  1
2
  0
LINE
  5
1BC
  8
回08-記事
  6
CONTINUOUS
 62
     7
 10
738.0046547428244
 20
436.0286903494124
 30
0.0
 11
750.6139240630698
 21
436.0286903494124
 31
0.0
  0
TEXT
  5
1BD
  8
回08-記事
  6
CONTINUOUS
 62
     7
 10
733.0617103758855
 20
434.4616285943611
 30
0.0
 40
4.0
  1
3
  0
LINE
  5
1BE
  8
回08-記事
  6
CONTINUOUS
 62
     7
 10
738.0046547428244
 20
430.2226103494121
 30
0.0
 11
750.6139240630698
 21
430.2226103494121
 31
0.0
  0
TEXT
  5
1BF
  8
回08-記事
  6
CONTINUOUS
 62
     7
 10
733.0617103758855
 20
428.6555485943617
 30
0.0
 40
4.0
  1
4
  0
LINE
  5
1C0
  8
回08-記事
  6
CONTINUOUS
 62
     7
 10
738.0046547428244
 20
424.4165303494127
 30
0.0
 11
750.6139240630698
 21
424.4165303494127
 31
0.0
  0
TEXT
  5
1C1
  8
回08-記事
  6
CONTINUOUS
 62
     7
 10
733.0617103758855
 20
422.8494685943613
 30
0.0
 40
4.0
  1
5
  0
LINE
  5
1C2
  8
回08-記事
  6
CONTINUOUS
 62
     7
 10
738.0046547428244
 20
418.6104503494123
 30
0.0
 11
750.6139240630698
 21
418.6104503494123
 31
0.0
  0
TEXT
  5
1C3
  8
回08-記事
  6
CONTINUOUS
 62
     7
 10
733.0617103758855
 20
417.043388594361
 30
0.0
 40
4.0
  1
6
  0
LINE
  5
1C4
  8
回08-記事
  6
CONTINUOUS
 62
     7
 10
738.0046547428244
 20
412.8043703494121
 30
0.0
 11
750.6139240630698
 21
412.8043703494121
 31
0.0
  0
TEXT
  5
1C5
  8
回08-記事
  6
CONTINUOUS
 62
     7
 10
733.0617103758855
 20
411.2373085943617
 30
0.0
 40
4.0
  1
7
  0
LINE
  5
1C6
  8
回08-記事
  6
CONTINUOUS
 62
     7
 10
738.0046547428244
 20
406.9982903494127
 30
0.0
 11
750.6139240630698
 21
406.9982903494127
 31
0.0
  0
TEXT
  5
1C7
  8
回08-記事
  6
CONTINUOUS
 62
     7
 10
733.0617103758855
 20
405.4312285943614
 30
0.0
 40
4.0
  1
8
  0
TEXT
  5
1C8
  8
回08-記事
  6
CONTINUOUS
 62
     7
 10
752.2364209381454
 20
417.043388594362
 30
0.0
 40
4.0
  1
R6
  0
TEXT
  5
1C9
  8
回08-記事
  6
CONTINUOUS
 62
     7
 10
752.2364209381454
 20
422.8494685943613
 30
0.0
 40
4.0
  1
R5
  0
TEXT
  5
1CA
  8
回08-記事
  6
CONTINUOUS
 62
     7
 10
752.2364209381454
 20
428.6555485943617
 30
0.0
 40
4.0
  1
R4
  0
TEXT
  5
1CB
  8
回08-記事
  6
CONTINUOUS
 62
     7
 10
752.2364209381454
 20
434.4616285943611
 30
0.0
 40
4.0
  1
R3
  0
LINE
  5
1CC
  8
回08-記事
  6
CONTINUOUS
 62
     7
 10
738.0046547428244
 20
314.1010103494127
 30
0.0
 11
750.6139240630698
 21
314.1010103494127
 31
0.0
  0
LINE
  5
1CD
  8
回08-記事
  6
CONTINUOUS
 62
     7
 10
738.0046547428244
 20
319.9070903494121
 30
0.0
 11
750.6139240630698
 21
319.9070903494121
 31
0.0
  0
LINE
  5
1CE
  8
回08-記事
  6
CONTINUOUS
 62
     7
 10
738.0046547428244
 20
325.7131703494124
 30
0.0
 11
750.6139240630698
 21
325.7131703494124
 31
0.0
  0
LINE
  5
1CF
  8
回08-記事
  6
CONTINUOUS
 62
     7
 10
738.0046547428244
 20
331.5192503494126
 30
0.0
 11
750.6139240630698
 21
331.5192503494126
 31
0.0
  0
LINE
  5
1D0
  8
回08-記事
  6
CONTINUOUS
 62
     7
 10
738.0046547428244
 20
337.325330349412
 30
0.0
 11
750.6139240630698
 21
337.325330349412
 31
0.0
  0
LINE
  5
1D1
  8
回08-記事
  6
CONTINUOUS
 62
     7
 10
738.0046547428244
 20
343.1314103494123
 30
0.0
 11
750.6139240630698
 21
343.1314103494123
 31
0.0
  0
LINE
  5
1D2
  8
回08-記事
  6
CONTINUOUS
 62
     7
 10
738.0046547428244
 20
348.9374903494126
 30
0.0
 11
750.6139240630698
 21
348.9374903494126
 31
0.0
  0
LINE
  5
1D3
  8
回08-記事
  6
CONTINUOUS
 62
     7
 10
738.0046547428244
 20
354.743570349412
 30
0.0
 11
750.6139240630698
 21
354.743570349412
 31
0.0
  0
LINE
  5
1D4
  8
回08-記事
  6
CONTINUOUS
 62
     7
 10
738.0046547428244
 20
360.5496503494123
 30
0.0
 11
750.6139240630698
 21
360.5496503494123
 31
0.0
  0
LINE
  5
1D5
  8
回08-記事
  6
CONTINUOUS
 62
     7
 10
738.0046547428244
 20
366.3557303494126
 30
0.0
 11
750.6139240630698
 21
366.3557303494126
 31
0.0
  0
LINE
  5
1D6
  8
回08-記事
  6
CONTINUOUS
 62
     7
 10
738.0046547428244
 20
372.1618103494118
 30
0.0
 11
750.6139240630698
 21
372.1618103494118
 31
0.0
  0
LINE
  5
1D7
  8
回08-記事
  6
CONTINUOUS
 62
     7
 10
738.0046547428244
 20
377.9678903494123
 30
0.0
 11
750.6139240630698
 21
377.9678903494123
 31
0.0
  0
LINE
  5
1D8
  8
回08-記事
  6
CONTINUOUS
 62
     7
 10
738.0046547428244
 20
383.7739703494126
 30
0.0
 11
750.6139240630698
 21
383.7739703494126
 31
0.0
  0
LINE
  5
1D9
  8
回08-記事
  6
CONTINUOUS
 62
     7
 10
738.0046547428244
 20
389.5800503494129
 30
0.0
 11
750.6139240630698
 21
389.5800503494129
 31
0.0
  0
LINE
  5
1DA
  8
回08-記事
  6
CONTINUOUS
 62
     7
 10
738.0046547428244
 20
395.3861303494122
 30
0.0
 11
750.6139240630698
 21
395.3861303494122
 31
0.0
  0
LINE
  5
1DB
  8
回08-記事
  6
CONTINUOUS
 62
     7
 10
738.0046547428244
 20
401.1922103494125
 30
0.0
 11
750.6139240630698
 21
401.1922103494125
 31
0.0
  0
TEXT
  5
1DC
  8
回08-記事
  6
CONTINUOUS
 62
     7
 10
731.6293348250781
 20
312.5339485943613
 30
0.0
 40
4.0
  1
24
  0
TEXT
  5
1DD
  8
回08-記事
  6
CONTINUOUS
 62
     7
 10
731.6293348250781
 20
318.3400285943616
 30
0.0
 40
4.0
  1
23
  0
TEXT
  5
1DE
  8
回08-記事
  6
CONTINUOUS
 62
     7
 10
731.6293348250781
 20
324.146108594361
 30
0.0
 40
4.0
  1
22
  0
TEXT
  5
1DF
  8
回08-記事
  6
CONTINUOUS
 62
     7
 10
731.6293348250781
 20
329.9521885943613
 30
0.0
 40
4.0
  1
21
  0
TEXT
  5
1E0
  8
回08-記事
  6
CONTINUOUS
 62
     7
 10
731.6293348250781
 20
335.7582685943616
 30
0.0
 40
4.0
  1
20
  0
TEXT
  5
1E1
  8
回08-記事
  6
CONTINUOUS
 62
     7
 10
731.6293348250781
 20
341.564348594361
 30
0.0
 40
4.0
  1
19
  0
TEXT
  5
1E2
  8
回08-記事
  6
CONTINUOUS
 62
     7
 10
731.6293348250781
 20
347.3704285943613
 30
0.0
 40
4.0
  1
18
  0
TEXT
  5
1E3
  8
回08-記事
  6
CONTINUOUS
 62
     7
 10
731.6293348250781
 20
353.1765085943616
 30
0.0
 40
4.0
  1
17
  0
TEXT
  5
1E4
  8
回08-記事
  6
CONTINUOUS
 62
     7
 10
731.6293348250781
 20
358.9825885943609
 30
0.0
 40
4.0
  1
16
  0
TEXT
  5
1E5
  8
回08-記事
  6
CONTINUOUS
 62
     7
 10
731.4197180149172
 20
364.7886685943612
 30
0.0
 40
4.0
  1
15
  0
TEXT
  5
1E6
  8
回08-記事
  6
CONTINUOUS
 62
     7
 10
731.4197180149172
 20
370.5947485943615
 30
0.0
 40
4.0
  1
14
  0
TEXT
  5
1E7
  8
回08-記事
  6
CONTINUOUS
 62
     7
 10
731.4197180149172
 20
376.4008285943609
 30
0.0
 40
4.0
  1
13
  0
TEXT
  5
1E8
  8
回08-記事
  6
CONTINUOUS
 62
     7
 10
731.4197180149172
 20
382.2069085943612
 30
0.0
 40
4.0
  1
12
  0
TEXT
  5
1E9
  8
回08-記事
  6
CONTINUOUS
 62
     7
 10
731.4197180149172
 20
388.0129885943615
 30
0.0
 40
4.0
  1
11
  0
TEXT
  5
1EA
  8
回08-記事
  6
CONTINUOUS
 62
     7
 10
731.4197180149172
 20
393.8190685943609
 30
0.0
 40
4.0
  1
10
  0
TEXT
  5
1EB
  8
回08-記事
  6
CONTINUOUS
 62
     7
 10
733.0617103758855
 20
399.6251485943612
 30
0.0
 40
4.0
  1
9
  0
DIMENSION
  5
1EC
  8
回07-寸法
  6
CONTINUOUS
 62
     7
  2
*D4141
 10
538.4768657347295
 20
470.2330963912638
 30
0.0
 11
565.8552046569736
 21
473.4830963912639
 31
0.0
 70
    32
  1
(<>){\H0.6667x;(Insulation area)}
  3
DMC
 13
533.1968657347295
 23
418.5980963912636
 33
0.0
 14
538.4768657347295
 24
424.213096391263
 34
0.0
 50
180.0
1001
ACADSTRINGINFO
1000
MIFCodePage
1070
     1
1001
ACAD
1000
DSTYLE
1002
{
1070
    41
1040
1.5
1070
    47
1040
0.2
1070
    48
1040
0.2
1070
   141
1040
1.5
1070
   371
1070
    13
1070
   372
1070
    13
1002
}
  0
DIMENSION
  5
1FD
  8
回07-寸法
  6
CONTINUOUS
 62
     7
  2
*D4242
 10
182.3568657347293
 20
470.2330963912638
 30
0.0
 11
357.7768657347294
 21
473.2330963912637
 31
0.0
 70
    32
  3
DMC
 13
533.1968657347295
 23
418.5980963912636
 33
0.0
 14
182.3568657347293
 24
418.5980963912636
 34
0.0
 50
180.0
1001
ACAD
1000
DSTYLE
1002
{
1070
    41
1040
1.5
1070
    47
1040
0.2
1070
    48
1040
0.2
1070
   141
1040
1.5
1070
   371
1070
    13
1070
   372
1070
    13
1002
}
  0
DIMENSION
  5
20C
  8
回07-寸法
  6
CONTINUOUS
 62
     7
  2
*D4343
 10
177.076865734729
 20
470.2330963912638
 30
0.0
 11
151.6975425605165
 21
473.3164338912638
 31
0.0
 70
    32
  1
<>{\H0.6667x;(Insulation area)}
  3
DMC
 13
182.3568657347293
 23
418.5980963912636
 33
0.0
 14
177.076865734729
 24
424.2130963912638
 34
0.0
 50
180.0
1001
ACADSTRINGINFO
1000
MIFCodePage
1070
     1
1001
ACAD
1000
DSTYLE
1002
{
1070
    41
1040
1.5
1070
    47
1040
0.2
1070
    48
1040
0.2
1070
   141
1040
1.5
1070
   371
1070
    13
1070
   372
1070
    13
1002
}
  0
DIMENSION
  5
21D
  8
回07-寸法
  6
CONTINUOUS
 62
     7
  2
*D4444
 10
126.076865734729
 20
424.213096391263
 30
0.0
 11
122.826865734729
 21
451.5914353135071
 31
0.0
 70
    32
  1
(<>){\H0.6667x;(Insulation area)}
  3
DMC
 13
182.3568657347293
 23
418.5980963912636
 33
0.0
 14
177.076865734729
 24
424.213096391263
 34
0.0
 50
270.0
1001
ACADSTRINGINFO
1000
MIFCodePage
1070
     1
1001
ACAD
1000
DSTYLE
1002
{
1070
    41
1040
1.5
1070
    47
1040
0.2
1070
    48
1040
0.2
1070
   141
1040
1.5
1070
   371
1070
    13
1070
   372
1070
    13
1002
}
  0
DIMENSION
  5
22E
  8
回07-寸法
  6
CONTINUOUS
 62
     7
  2
*D4545
 10
126.0768657347289
 20
209.818096391264
 30
0.0
 11
126.0768657347289
 21
185.6054982170514
 31
0.0
 70
   160
  1
<>{\H0.6667x;(Insulatin area)}
  3
DMC
 13
182.3568657347293
 23
218.4680963912636
 33
0.0
 14
177.076865734729
 24
209.818096391264
 34
0.0
 50
270.0
1001
ACADSTRINGINFO
1000
MIFCodePage
1070
     1
1001
ACAD
1000
DSTYLE
1002
{
1070
    41
1040
1.5
1070
    47
1040
0.2
1070
    48
1040
0.2
1070
   141
1040
1.5
1070
   371
1070
    13
1070
   372
1070
    13
1002
}
  0
DIMENSION
  5
23F
  8
回07-寸法
  6
CONTINUOUS
 62
     7
  2
*D4646
 10
126.076865734729
 20
418.5980963912636
 30
0.0
 11
123.076865734729
 21
318.5330963912637
 31
0.0
 70
    32
  3
DMC
 13
182.3568657347293
 23
218.4680963912636
 33
0.0
 14
182.3568657347293
 24
418.5980963912636
 34
0.0
 50
270.0
1001
ACAD
1000
DSTYLE
1002
{
1070
    41
1040
1.5
1070
    47
1040
0.2
1070
    48
1040
0.2
1070
   141
1040
1.5
1070
   371
1070
    13
1070
   372
1070
    13
1002
}
  0
ARC
  5
24E
  8
回08-記事
  6
CONTINUOUS
 62
     7
 10
592.8163666350867
 20
238.0330963912634
 30
0.0
 40
0.416177340283639
 50
90.0
 51
270.0
  0
ARC
  5
24F
  8
回08-記事
  6
CONTINUOUS
 62
     7
 10
592.8163666350867
 20
234.5330963912634
 30
0.0
 40
0.416177340283639
 50
90.0
 51
270.0
  0
ARC
  5
250
  8
回08-記事
  6
CONTINUOUS
 62
     7
 10
592.8163666350867
 20
231.0330963912634
 30
0.0
 40
0.416177340283639
 50
90.0
 51
270.0
  0
ARC
  5
251
  8
回08-記事
  6
CONTINUOUS
 62
     7
 10
592.8163666350867
 20
227.5330963912634
 30
0.0
 40
0.416177340283639
 50
90.0
 51
270.0
  0
ARC
  5
252
  8
回08-記事
  6
CONTINUOUS
 62
     7
 10
592.8163666350867
 20
224.0330963912634
 30
0.0
 40
0.416177340283639
 50
90.0
 51
270.0
  0
ARC
  5
253
  8
回08-記事
  6
CONTINUOUS
 62
     7
 10
592.8163666350867
 20
220.5330963912634
 30
0.0
 40
0.416177340283639
 50
90.0
 51
270.0
  0
ARC
  5
254
  8
回08-記事
  6
CONTINUOUS
 62
     7
 10
592.8163666350867
 20
248.5330963912634
 30
0.0
 40
0.416177340283639
 50
90.0
 51
270.0
  0
ARC
  5
255
  8
回08-記事
  6
CONTINUOUS
 62
     7
 10
592.8163666350867
 20
245.0330963912634
 30
0.0
 40
0.416177340283639
 50
90.0
 51
270.0
  0
ARC
  5
256
  8
回08-記事
  6
CONTINUOUS
 62
     7
 10
592.8163666350867
 20
241.5330963912634
 30
0.0
 40
0.416177340283639
 50
90.0
 51
270.0
  0
ARC
  5
257
  8
回08-記事
  6
CONTINUOUS
 62
     7
 10
592.8163666350867
 20
416.5330963912632
 30
0.0
 40
0.416177340283639
 50
90.0
 51
270.0
  0
ARC
  5
258
  8
回08-記事
  6
CONTINUOUS
 62
     7
 10
592.8163666350867
 20
413.0330963912632
 30
0.0
 40
0.416177340283639
 50
90.0
 51
270.0
  0
ARC
  5
259
  8
回08-記事
  6
CONTINUOUS
 62
     7
 10
592.8163666350867
 20
409.5330963912632
 30
0.0
 40
0.416177340283639
 50
90.0
 51
270.0
  0
ARC
  5
25A
  8
回08-記事
  6
CONTINUOUS
 62
     7
 10
592.8163666350867
 20
406.0330963912631
 30
0.0
 40
0.416177340283639
 50
90.0
 51
270.0
  0
ARC
  5
25B
  8
回08-記事
  6
CONTINUOUS
 62
     7
 10
592.8163666350867
 20
402.5330963912631
 30
0.0
 40
0.416177340283639
 50
90.0
 51
270.0
  0
ARC
  5
25C
  8
回08-記事
  6
CONTINUOUS
 62
     7
 10
592.8163666350867
 20
399.0330963912632
 30
0.0
 40
0.416177340283639
 50
90.0
 51
270.0
  0
ARC
  5
25D
  8
回08-記事
  6
CONTINUOUS
 62
     7
 10
592.8163666350867
 20
395.5330963912632
 30
0.0
 40
0.416177340283639
 50
90.0
 51
270.0
  0
ARC
  5
25E
  8
回08-記事
  6
CONTINUOUS
 62
     7
 10
592.8163666350867
 20
269.5330963912634
 30
0.0
 40
0.416177340283639
 50
90.0
 51
270.0
  0
ARC
  5
25F
  8
回08-記事
  6
CONTINUOUS
 62
     7
 10
592.8163666350867
 20
266.0330963912634
 30
0.0
 40
0.416177340283639
 50
90.0
 51
270.0
  0
ARC
  5
260
  8
回08-記事
  6
CONTINUOUS
 62
     7
 10
592.8163666350867
 20
262.5330963912634
 30
0.0
 40
0.416177340283639
 50
90.0
 51
270.0
  0
ARC
  5
261
  8
回08-記事
  6
CONTINUOUS
 62
     7
 10
592.8163666350867
 20
259.0330963912634
 30
0.0
 40
0.416177340283639
 50
90.0
 51
270.0
  0
ARC
  5
262
  8
回08-記事
  6
CONTINUOUS
 62
     7
 10
592.8163666350867
 20
255.5330963912634
 30
0.0
 40
0.416177340283639
 50
90.0
 51
270.0
  0
ARC
  5
263
  8
回08-記事
  6
CONTINUOUS
 62
     7
 10
592.8163666350867
 20
252.0330963912634
 30
0.0
 40
0.416177340283639
 50
90.0
 51
270.0
  0
ARC
  5
264
  8
回08-記事
  6
CONTINUOUS
 62
     7
 10
592.8163666350867
 20
248.5330963912634
 30
0.0
 40
0.416177340283639
 50
90.0
 51
270.0
  0
ARC
  5
265
  8
回08-記事
  6
CONTINUOUS
 62
     7
 10
592.8163666350867
 20
315.0330963912634
 30
0.0
 40
0.416177340283639
 50
90.0
 51
270.0
  0
ARC
  5
266
  8
回08-記事
  6
CONTINUOUS
 62
     7
 10
592.8163666350867
 20
311.5330963912634
 30
0.0
 40
0.416177340283639
 50
90.0
 51
270.0
  0
ARC
  5
267
  8
回08-記事
  6
CONTINUOUS
 62
     7
 10
592.8163666350867
 20
308.0330963912634
 30
0.0
 40
0.416177340283639
 50
90.0
 51
270.0
  0
ARC
  5
268
  8
回08-記事
  6
CONTINUOUS
 62
     7
 10
592.8163666350867
 20
304.5330963912634
 30
0.0
 40
0.416177340283639
 50
90.0
 51
270.0
  0
ARC
  5
269
  8
回08-記事
  6
CONTINUOUS
 62
     7
 10
592.8163666350867
 20
301.0330963912634
 30
0.0
 40
0.416177340283639
 50
90.0
 51
270.0
  0
ARC
  5
26A
  8
回08-記事
  6
CONTINUOUS
 62
     7
 10
592.8163666350867
 20
297.5330963912634
 30
0.0
 40
0.416177340283639
 50
90.0
 51
270.0
  0
ARC
  5
26B
  8
回08-記事
  6
CONTINUOUS
 62
     7
 10
592.8163666350867
 20
294.0330963912634
 30
0.0
 40
0.416177340283639
 50
90.0
 51
270.0
  0
ARC
  5
26C
  8
回08-記事
  6
CONTINUOUS
 62
     7
 10
592.8163666350867
 20
290.5330963912634
 30
0.0
 40
0.416177340283639
 50
90.0
 51
270.0
  0
ARC
  5
26D
  8
回08-記事
  6
CONTINUOUS
 62
     7
 10
592.8163666350867
 20
287.0330963912634
 30
0.0
 40
0.416177340283639
 50
90.0
 51
270.0
  0
ARC
  5
26E
  8
回08-記事
  6
CONTINUOUS
 62
     7
 10
592.8163666350867
 20
283.5330963912634
 30
0.0
 40
0.416177340283639
 50
90.0
 51
270.0
  0
ARC
  5
26F
  8
回08-記事
  6
CONTINUOUS
 62
     7
 10
592.8163666350867
 20
280.0330963912634
 30
0.0
 40
0.416177340283639
 50
90.0
 51
270.0
  0
ARC
  5
270
  8
回08-記事
  6
CONTINUOUS
 62
     7
 10
592.8163666350867
 20
276.5330963912634
 30
0.0
 40
0.416177340283639
 50
90.0
 51
270.0
  0
ARC
  5
271
  8
回08-記事
  6
CONTINUOUS
 62
     7
 10
592.8163666350867
 20
273.0330963912634
 30
0.0
 40
0.416177340283639
 50
90.0
 51
270.0
  0
ARC
  5
272
  8
回08-記事
  6
CONTINUOUS
 62
     7
 10
592.8163666350867
 20
392.0330963912632
 30
0.0
 40
0.416177340283639
 50
90.0
 51
270.0
  0
ARC
  5
273
  8
回08-記事
  6
CONTINUOUS
 62
     7
 10
592.8163666350867
 20
388.5330963912632
 30
0.0
 40
0.416177340283639
 50
90.0
 51
270.0
  0
ARC
  5
274
  8
回08-記事
  6
CONTINUOUS
 62
     7
 10
592.8163666350867
 20
385.0330963912632
 30
0.0
 40
0.416177340283639
 50
90.0
 51
270.0
  0
ARC
  5
275
  8
回08-記事
  6
CONTINUOUS
 62
     7
 10
592.8163666350867
 20
381.5330963912632
 30
0.0
 40
0.416177340283639
 50
90.0
 51
270.0
  0
ARC
  5
276
  8
回08-記事
  6
CONTINUOUS
 62
     7
 10
592.8163666350867
 20
378.0330963912632
 30
0.0
 40
0.416177340283639
 50
90.0
 51
270.0
  0
ARC
  5
277
  8
回08-記事
  6
CONTINUOUS
 62
     7
 10
592.8163666350867
 20
374.5330963912632
 30
0.0
 40
0.416177340283639
 50
90.0
 51
270.0
  0
ARC
  5
278
  8
回08-記事
  6
CONTINUOUS
 62
     7
 10
592.8163666350867
 20
371.0330963912632
 30
0.0
 40
0.416177340283639
 50
90.0
 51
270.0
  0
ARC
  5
279
  8
回08-記事
  6
CONTINUOUS
 62
     7
 10
592.8163666350867
 20
367.5330963912632
 30
0.0
 40
0.416177340283639
 50
90.0
 51
270.0
  0
ARC
  5
27A
  8
回08-記事
  6
CONTINUOUS
 62
     7
 10
592.8163666350867
 20
364.0330963912632
 30
0.0
 40
0.416177340283639
 50
90.0
 51
270.0
  0
ARC
  5
27B
  8
回08-記事
  6
CONTINUOUS
 62
     7
 10
592.8163666350867
 20
360.5330963912632
 30
0.0
 40
0.416177340283639
 50
90.0
 51
270.0
  0
ARC
  5
27C
  8
回08-記事
  6
CONTINUOUS
 62
     7
 10
592.8163666350867
 20
357.0330963912632
 30
0.0
 40
0.416177340283639
 50
90.0
 51
270.0
  0
ARC
  5
27D
  8
回08-記事
  6
CONTINUOUS
 62
     7
 10
592.8163666350867
 20
353.5330963912632
 30
0.0
 40
0.416177340283639
 50
90.0
 51
270.0
  0
ARC
  5
27E
  8
回08-記事
  6
CONTINUOUS
 62
     7
 10
592.8163666350867
 20
350.0330963912632
 30
0.0
 40
0.416177340283639
 50
90.0
 51
270.0
  0
ARC
  5
27F
  8
回08-記事
  6
CONTINUOUS
 62
     7
 10
592.8163666350867
 20
346.5330963912632
 30
0.0
 40
0.416177340283639
 50
90.0
 51
270.0
  0
ARC
  5
280
  8
回08-記事
  6
CONTINUOUS
 62
     7
 10
592.8163666350867
 20
343.0330963912632
 30
0.0
 40
0.416177340283639
 50
90.0
 51
270.0
  0
ARC
  5
281
  8
回08-記事
  6
CONTINUOUS
 62
     7
 10
592.8163666350867
 20
339.5330963912632
 30
0.0
 40
0.416177340283639
 50
90.0
 51
270.0
  0
ARC
  5
282
  8
回08-記事
  6
CONTINUOUS
 62
     7
 10
592.8163666350867
 20
336.0330963912632
 30
0.0
 40
0.416177340283639
 50
90.0
 51
270.0
  0
ARC
  5
283
  8
回08-記事
  6
CONTINUOUS
 62
     7
 10
592.8163666350867
 20
332.5330963912632
 30
0.0
 40
0.416177340283639
 50
90.0
 51
270.0
  0
ARC
  5
284
  8
回08-記事
  6
CONTINUOUS
 62
     7
 10
592.8163666350867
 20
329.0330963912632
 30
0.0
 40
0.416177340283639
 50
90.0
 51
270.0
  0
ARC
  5
285
  8
回08-記事
  6
CONTINUOUS
 62
     7
 10
592.8163666350867
 20
325.5330963912632
 30
0.0
 40
0.416177340283639
 50
90.0
 51
270.0
  0
ARC
  5
286
  8
回08-記事
  6
CONTINUOUS
 62
     7
 10
592.8163666350867
 20
322.0330963912634
 30
0.0
 40
0.416177340283639
 50
90.0
 51
270.0
  0
ARC
  5
287
  8
回08-記事
  6
CONTINUOUS
 62
     7
 10
592.8163666350867
 20
318.5330963912634
 30
0.0
 40
0.416177340283639
 50
90.0
 51
270.0
  0
DIMENSION
  5
288
  8
回07-寸法
  6
CONTINUOUS
 62
     1
  2
*D4747
 10
383.7779910501778
 20
177.7638438133323
 30
0.0
 11
390.0914753021464
 21
177.7638438133323
 31
0.0
 70
   160
  3
DMC
 13
356.7779910501778
 23
206.6726266642147
 33
0.0
 14
383.7779910501778
 24
206.6766750350256
 34
0.0
1001
ACAD
1000
DSTYLE
1002
{
1070
    41
1040
1.5
1070
    47
1040
0.2
1070
    48
1040
0.2
1070
   141
1040
1.5
1070
   371
1070
    13
1070
   372
1070
    13
1002
}
  0
DIMENSION
  5
299
  8
回07-寸法
  6
CONTINUOUS
 62
     1
  2
*D4848
 10
320.7779910501779
 20
184.1825010550089
 30
0.0
 11
314.123296359071
 21
184.1825010550089
 31
0.0
 70
   160
  3
DMC
 13
355.7779910501778
 23
206.6006206196701
 33
0.0
 14
320.7779910501779
 24
206.6046689904809
 34
0.0
1001
ACAD
1000
DSTYLE
1002
{
1070
    41
1040
1.5
1070
    47
1040
0.2
1070
    48
1040
0.2
1070
   141
1040
1.5
1070
   371
1070
    13
1070
   372
1070
    13
1002
}
  0
DIMENSION
  5
2AA
  8
回07-寸法
  6
CONTINUOUS
 62
     1
  2
*D4949
 10
397.370292237858
 20
199.5113361572041
 30
0.0
 11
397.370292237858
 21
190.0113361572041
 31
0.0
 70
   160
  3
DMC
 13
383.7779910501778
 23
209.8180963912632
 33
0.0
 14
377.0268657347294
 24
199.5113361572041
 34
0.0
 50
90.0
1001
ACAD
1000
DSTYLE
1002
{
1070
   271
1070
     1
1070
    41
1040
1.5
1070
    47
1040
0.2
1070
    48
1040
0.2
1070
   141
1040
1.5
1070
   371
1070
    13
1070
   372
1070
    13
1002
}
  0
DIMENSION
  5
2BB
  8
回07-寸法
  6
CONTINUOUS
 62
     1
  2
*D5050
 10
390.0341870472614
 20
206.2624614726522
 30
0.0
 11
390.0341870472614
 21
194.6716999122491
 31
0.0
 70
   160
  3
DMC
 13
383.7779910501778
 23
209.8180963912632
 33
0.0
 14
383.7779910501778
 24
206.2624614726522
 34
0.0
 50
90.0
1001
ACAD
1000
DSTYLE
1002
{
1070
   271
1070
     1
1070
    41
1040
1.5
1070
    47
1040
0.2
1070
    48
1040
0.2
1070
   141
1040
1.5
1070
   371
1070
    13
1070
   372
1070
    13
1002
}
  0
DIMENSION
  5
2CC
  8
回07-寸法
  6
CONTINUOUS
 62
     1
  2
*D5151
 10
306.9762923808363
 20
192.441580743556
 30
0.0
 11
306.9762923808363
 21
201.918683415413
 31
0.0
 70
   160
  3
DMC
 13
320.7779910501779
 23
209.8180963912638
 33
0.0
 14
334.5268657347294
 24
192.441580743556
 34
0.0
 50
90.0
1001
ACAD
1000
DSTYLE
1002
{
1070
   271
1070
     1
1070
    41
1040
1.5
1070
    47
1040
0.2
1070
    48
1040
0.2
1070
   141
1040
1.5
1070
   371
1070
    13
1070
   372
1070
    13
1002
}
  0
DIMENSION
  5
2DB
  8
回07-寸法
  6
CONTINUOUS
 62
     1
  2
*D5252
 10
313.5340715864138
 20
206.1904554281075
 30
0.0
 11
313.5340715864138
 21
197.3369020375143
 31
0.0
 70
   160
  3
DMC
 13
320.7779910501779
 23
209.8180963912638
 33
0.0
 14
320.7779910501779
 24
206.1904554281075
 34
0.0
 50
90.0
1001
ACAD
1000
DSTYLE
1002
{
1070
   271
1070
     1
1070
    41
1040
1.5
1070
    47
1040
0.2
1070
    48
1040
0.2
1070
   141
1040
1.5
1070
   371
1070
    13
1070
   372
1070
    13
1002
}
  0
LINE
  5
2EC
  8
回07-寸法
  6
CENTER2
 62
     5
 10
534.7468657347295
 20
318.5330963912634
 30
0.0
 11
180.8068657347291
 21
318.5330963912634
 31
0.0
  0
LINE
  5
2EE
  8
回08-記事
  6
CONTINUOUS
 62
     7
 10
593.516366635087
 20
209.8180963912631
 30
0.0
 11
593.516366635087
 21
206.1863826908714
 31
0.0
1001
ACAD
1000
ASC_BOUNDS
1002
{
1070
    19
1005
2FC
1002
}
  0
LINE
  5
2EF
  8
回08-記事
  6
CONTINUOUS
 62
     7
 10
599.8163666350867
 20
209.8180963912631
 30
0.0
 11
593.516366635087
 21
209.8180963912631
 31
0.0
1001
ACAD
1000
ASC_BOUNDS
1002
{
1070
    19
1005
2FC
1002
}
  0
LINE
  5
2F0
  8
回08-記事
  6
CONTINUOUS
 62
     7
 10
599.8163666350867
 20
213.3863826908715
 30
0.0
 11
599.8163666350867
 21
209.8180963912631
 31
0.0
1001
ACAD
1000
ASC_BOUNDS
1002
{
1070
    19
1005
2FC
1002
}
  0
LINE
  5
2F1
  8
回08-記事
  6
CONTINUOUS
 62
     7
 10
600.516366635087
 20
213.3863826908715
 30
0.0
 11
599.8163666350867
 21
213.3863826908715
 31
0.0
1001
ACAD
1000
ASC_BOUNDS
1002
{
1070
    19
1005
2FC
1002
}
  0
LINE
  5
2F2
  8
回08-記事
  6
CONTINUOUS
 62
     7
 10
600.516366635087
 20
209.1180963912632
 30
0.0
 11
600.516366635087
 21
213.3863826908715
 31
0.0
1001
ACAD
1000
ASC_BOUNDS
1002
{
1070
    19
1005
2FC
1002
}
  0
LINE
  5
2F3
  8
回08-記事
  6
CONTINUOUS
 62
     7
 10
594.2163666350867
 20
209.1180963912632
 30
0.0
 11
600.516366635087
 21
209.1180963912632
 31
0.0
1001
ACAD
1000
ASC_BOUNDS
1002
{
1070
    19
1005
2FC
1002
}
  0
LINE
  5
2F4
  8
回08-記事
  6
CONTINUOUS
 62
     7
 10
594.2163666350867
 20
206.1863826908714
 30
0.0
 11
594.2163666350867
 21
209.1180963912632
 31
0.0
1001
ACAD
1000
ASC_BOUNDS
1002
{
1070
    19
1005
2FC
1002
}
  0
LINE
  5
2F5
  8
回08-記事
  6
CONTINUOUS
 62
     7
 10
593.516366635087
 20
206.1863826908714
 30
0.0
 11
594.2163666350867
 21
206.1863826908714
 31
0.0
1001
ACAD
1000
ASC_BOUNDS
1002
{
1070
    19
1005
2FC
1002
}
  0
LINE
  5
2F6
  8
回08-記事
  6
CONTINUOUS
 62
     7
 10
584.6231824161166
 20
206.1863826908714
 30
0.0
 11
583.9231824161162
 21
206.1863826908714
 31
0.0
1001
ACAD
1000
ASC_BOUNDS
1002
{
1070
    19
1005
2FC
1002
}
  0
LINE
  5
2F7
  8
回08-記事
  6
CONTINUOUS
 62
     7
 10
584.6231824161166
 20
209.1180963912632
 30
0.0
 11
584.6231824161166
 21
206.1863826908714
 31
0.0
1001
ACAD
1000
ASC_BOUNDS
1002
{
1070
    19
1005
2FC
1002
}
  0
LINE
  5
2F8
  8
回08-記事
  6
CONTINUOUS
 62
     7
 10
591.8163666350867
 20
209.1180963912632
 30
0.0
 11
584.6231824161166
 21
209.1180963912632
 31
0.0
1001
ACAD
1000
ASC_BOUNDS
1002
{
1070
    19
1005
2FC
1002
}
  0
LINE
  5
2F9
  8
回08-記事
  6
CONTINUOUS
 62
     7
 10
591.8163666350867
 20
210.1180963912632
 30
0.0
 11
591.8163666350867
 21
209.1180963912632
 31
0.0
1001
ACAD
1000
ASC_BOUNDS
1002
{
1070
    19
1005
2FC
1002
}
  0
LINE
  5
2FA
  8
回08-記事
  6
CONTINUOUS
 62
     7
 10
583.9231824161162
 20
210.1180963912632
 30
0.0
 11
591.8163666350867
 21
210.1180963912632
 31
0.0
1001
ACAD
1000
ASC_BOUNDS
1002
{
1070
    19
1005
2FC
1002
}
  0
LINE
  5
2FB
  8
回08-記事
  6
CONTINUOUS
 62
     7
 10
583.9231824161162
 20
206.1863826908714
 30
0.0
 11
583.9231824161162
 21
210.1180963912632
 31
0.0
1001
ACAD
1000
ASC_BOUNDS
1002
{
1070
    19
1005
2FC
1002
}
  0
INSERT
  5
2FC
  8
回08-記事
  6
CONTINUOUS
 62
     7
 66
     1
  2
*X7979
 10
0.0
 20
0.0
 30
0.0
1001
GRADIENTCOLOR1ACI
1070
     5
1001
GRADIENTCOLOR2ACI
1070
     2
1001
ACAD
1010
0.0
1020
0.0
1030
0.0
  0
SEQEND
  5
7A2
  8
0
  6
CONTINUOUS
 62
     7
  0
DIMENSION
  5
2FD
  8
回08-記事
  6
CONTINUOUS
 62
     7
  2
*D5353
 10
592.8163666350867
 20
94.03405032401265
 30
0.0
 11
605.1102476390237
 21
97.03405032401263
 31
0.0
 70
    32
  1
0.3{\H0.6667x;±0.05}
  3
DMC
 13
590.3163666350867
 23
109.8221447620743
 33
0.0
 14
592.8163666350867
 24
109.8221447620743
 34
0.0
1001
ACADSTRINGINFO
1000
MIFCodePage
1070
     1
1001
ACAD
1000
DSTYLE
1002
{
1070
    41
1040
1.5
1070
    47
1040
0.2
1070
    48
1040
0.2
1070
   141
1040
1.5
1070
   371
1070
    13
1070
   372
1070
    13
1002
}
  0
DIMENSION
  5
30E
  8
回08-記事
  6
CONTINUOUS
 62
     7
  2
*D5454
 10
582.9231824161162
 20
100.3211624967684
 30
0.0
 11
570.6293014121793
 21
103.3211624967684
 31
0.0
 70
    32
  1
0.3{\H0.6667x;±0.05}
  3
DMC
 13
585.4231824161161
 23
109.8221447620743
 33
0.0
 14
582.9231824161162
 24
109.8221447620743
 34
0.0
1001
ACADSTRINGINFO
1000
MIFCodePage
1070
     1
1001
ACAD
1000
DSTYLE
1002
{
1070
    41
1040
1.5
1070
    47
1040
0.2
1070
    48
1040
0.2
1070
   141
1040
1.5
1070
   371
1070
    13
1070
   372
1070
    13
1002
}
  0
DIMENSION
  5
31F
  8
回08-記事
  6
CONTINUOUS
 62
     7
  2
*D5555
 10
589.6977152804781
 20
109.8221447620743
 30
0.0
 11
589.6977152804781
 21
114.8221447620743
 31
0.0
 70
   160
  1
{\H0.66667x;(<>)}
  3
DMC
 13
585.4231824161161
 23
119.8221447620743
 33
0.0
 14
585.4231824161161
 24
109.8221447620743
 34
0.0
 50
90.0
1001
ACAD
1000
DSTYLE
1002
{
1070
    41
1040
1.5
1070
    47
1040
0.2
1070
    48
1040
0.2
1070
   141
1040
1.5
1070
   371
1070
    13
1070
   372
1070
    13
1002
}
  0
DIMENSION
  5
32E
  8
回08-記事
  6
CONTINUOUS
 62
     7
  2
*D5656
 10
605.0909522010043
 20
114.8221447620743
 30
0.0
 11
602.0909522010043
 21
112.3221447620743
 31
0.0
 70
    32
  3
DMC
 13
592.8163666350867
 23
109.8221447620743
 33
0.0
 14
593.516366635087
 24
114.8221447620743
 34
0.0
 50
90.0
1001
ACAD
1000
DSTYLE
1002
{
1070
    41
1040
1.5
1070
    47
1040
0.2
1070
    48
1040
0.2
1070
   141
1040
1.5
1070
   371
1070
    13
1070
   372
1070
    13
1002
}
  0
DIMENSION
  5
33D
  8
回08-記事
  6
CONTINUOUS
 62
     7
  2
*D5757
 10
574.9617722471447
 20
114.8221447620743
 30
0.0
 11
574.9617722471447
 21
112.3221447620743
 31
0.0
 70
   160
  3
DMC
 13
582.9231824161162
 23
109.8221447620743
 33
0.0
 14
582.2231824161165
 24
114.8221447620743
 34
0.0
 50
90.0
1001
ACAD
1000
DSTYLE
1002
{
1070
    41
1040
1.5
1070
    47
1040
0.2
1070
    48
1040
0.2
1070
   141
1040
1.5
1070
   371
1070
    13
1070
   372
1070
    13
1002
}
  0
DIMENSION
  5
34C
  8
回07-寸法
  6
CONTINUOUS
 62
     7
  2
*D5858
 10
599.8163666350867
 20
433.232419854735
 30
0.0
 11
589.3697745256015
 21
433.232419854735
 31
0.0
 70
   160
  1
2.1{\H0.6667x;±0.2}
  3
DMC
 13
578.9231824161162
 23
422.7330963912629
 33
0.0
 14
599.8163666350867
 24
423.2330963912628
 34
0.0
1001
ACADSTRINGINFO
1000
MIFCodePage
1070
     1
1001
ACAD
1000
DSTYLE
1002
{
1070
    41
1040
1.5
1070
    47
1040
0.2
1070
    48
1040
0.2
1070
   141
1040
1.5
1070
   371
1070
    13
1070
   372
1070
    13
1002
}
  0
LINE
  5
35B
  8
回08-記事
  6
CONTINUOUS
 62
     7
 10
582.9231824161162
 20
418.5980963912636
 30
0.0
 11
592.8163666350867
 21
418.5980963912636
 31
0.0
  0
LINE
  5
35C
  8
回08-記事
  6
CONTINUOUS
 62
     7
 10
582.9231824161162
 20
218.4437574121726
 30
0.0
 11
592.8163666350867
 21
218.4437574121726
 31
0.0
  0
LINE
  5
35D
  8
回08-記事
  6
CONTINUOUS
 62
     7
 10
583.9231824161162
 20
210.1180963912632
 30
0.0
 11
591.8163666350867
 21
210.1180963912632
 31
0.0
  0
LINE
  5
35E
  8
回08-記事
  6
CONTINUOUS
 62
     7
 10
582.9231824161166
 20
423.713096391263
 30
0.0
 11
592.816366635087
 21
423.713096391263
 31
0.0
  0
POLYLINE
  5
35F
  8
回08-記事
  6
CONTINUOUS
 62
     7
 66
     1
 10
0.0
 20
0.0
 30
0.0
 70
     1
  0
VERTEX
  5
B29
  8
回08-記事
  6
CONTINUOUS
 62
     7
 10
593.516366635087
 20
114.8221447620743
 30
0.0
  0
VERTEX
  5
B2B
  8
回08-記事
  6
CONTINUOUS
 62
     7
 10
592.8163666350867
 20
114.8221447620743
 30
0.0
  0
VERTEX
  5
B2C
  8
回08-記事
  6
CONTINUOUS
 62
     7
 10
592.8163666350867
 20
209.8180963912631
 30
0.0
  0
VERTEX
  5
B2D
  8
回08-記事
  6
CONTINUOUS
 62
     7
 10
593.516366635087
 20
209.8180963912631
 30
0.0
  0
SEQEND
  5
B2A
  8
0
  6
CONTINUOUS
 62
     7
  0
POLYLINE
  5
360
  8
回08-記事
  6
CONTINUOUS
 62
     7
 66
     1
 10
0.0
 20
0.0
 30
0.0
 70
     1
  0
VERTEX
  5
B2E
  8
回08-記事
  6
CONTINUOUS
 62
     7
 10
582.2231824161165
 20
210.3180963912631
 30
0.0
  0
VERTEX
  5
B30
  8
回08-記事
  6
CONTINUOUS
 62
     7
 10
582.9231824161162
 20
210.3180963912631
 30
0.0
  0
VERTEX
  5
B31
  8
回08-記事
  6
CONTINUOUS
 62
     7
 10
582.9231824161162
 20
114.8221447620743
 30
0.0
  0
VERTEX
  5
B32
  8
回08-記事
  6
CONTINUOUS
 62
     7
 10
582.2231824161165
 20
114.8221447620743
 30
0.0
  0
SEQEND
  5
B2F
  8
0
  6
CONTINUOUS
 62
     7
  0
POLYLINE
  5
361
  8
回08-記事
  6
CONTINUOUS
 62
     7
 66
     1
 10
0.0
 20
0.0
 30
0.0
 70
     1
  0
VERTEX
  5
B33
  8
回08-記事
  6
CONTINUOUS
 62
     7
 10
590.3163666350867
 20
119.8221447620743
 30
0.0
  0
VERTEX
  5
B35
  8
回08-記事
  6
CONTINUOUS
 62
     7
 10
591.8163666350867
 20
119.8221447620743
 30
0.0
  0
VERTEX
  5
B36
  8
回08-記事
  6
CONTINUOUS
 62
     7
 10
591.8163666350867
 20
109.8221447620743
 30
0.0
  0
VERTEX
  5
B37
  8
回08-記事
  6
CONTINUOUS
 62
     7
 10
590.3163666350867
 20
109.8221447620743
 30
0.0
  0
SEQEND
  5
B34
  8
0
  6
CONTINUOUS
 62
     7
  0
POLYLINE
  5
362
  8
回08-記事
  6
CONTINUOUS
 62
     7
 66
     1
 10
0.0
 20
0.0
 30
0.0
 70
     1
  0
VERTEX
  5
B38
  8
回08-記事
  6
CONTINUOUS
 62
     7
 10
583.9231824161162
 20
119.8221447620743
 30
0.0
  0
VERTEX
  5
B3A
  8
回08-記事
  6
CONTINUOUS
 62
     7
 10
585.4231824161161
 20
119.8221447620743
 30
0.0
  0
VERTEX
  5
B3B
  8
回08-記事
  6
CONTINUOUS
 62
     7
 10
585.4231824161161
 20
109.8221447620743
 30
0.0
  0
VERTEX
  5
B3C
  8
回08-記事
  6
CONTINUOUS
 62
     7
 10
583.9231824161162
 20
109.8221447620743
 30
0.0
  0
SEQEND
  5
B39
  8
0
  6
CONTINUOUS
 62
     7
  0
POLYLINE
  5
363
  8
回08-記事
  6
CONTINUOUS
 62
     7
 66
     1
 10
0.0
 20
0.0
 30
0.0
 70
     1
  0
VERTEX
  5
B3D
  8
回08-記事
  6
CONTINUOUS
 62
     7
 10
591.8163666350867
 20
212.9680963912631
 30
0.0
  0
VERTEX
  5
B3F
  8
回08-記事
  6
CONTINUOUS
 62
     7
 10
592.8163666350867
 20
212.9680963912631
 30
0.0
  0
VERTEX
  5
B40
  8
回08-記事
  6
CONTINUOUS
 62
     7
 10
592.8163666350867
 20
109.8221447620743
 30
0.0
  0
VERTEX
  5
B41
  8
回08-記事
  6
CONTINUOUS
 62
     7
 10
591.8163666350867
 20
109.8221447620743
 30
0.0
  0
SEQEND
  5
B3E
  8
0
  6
CONTINUOUS
 62
     7
  0
POLYLINE
  5
364
  8
回08-記事
  6
CONTINUOUS
 62
     7
 66
     1
 10
0.0
 20
0.0
 30
0.0
 70
     1
  0
VERTEX
  5
B42
  8
回08-記事
  6
CONTINUOUS
 62
     7
 10
582.9231824161162
 20
212.9680963912631
 30
0.0
  0
VERTEX
  5
B44
  8
回08-記事
  6
CONTINUOUS
 62
     7
 10
583.9231824161162
 20
212.9680963912631
 30
0.0
  0
VERTEX
  5
B45
  8
回08-記事
  6
CONTINUOUS
 62
     7
 10
583.9231824161162
 20
109.8221447620743
 30
0.0
  0
VERTEX
  5
B46
  8
回08-記事
  6
CONTINUOUS
 62
     7
 10
582.9231824161162
 20
109.8221447620743
 30
0.0
  0
SEQEND
  5
B43
  8
0
  6
CONTINUOUS
 62
     7
  0
POLYLINE
  5
365
  8
回08-記事
  6
CONTINUOUS
 62
     7
 66
     1
 10
0.0
 20
0.0
 30
0.0
 70
     1
  0
VERTEX
  5
B47
  8
回08-記事
  6
CONTINUOUS
 62
     7
 10
578.9231824161162
 20
423.713096391263
 30
0.0
  0
VERTEX
  5
B49
  8
回08-記事
  6
CONTINUOUS
 62
     7
 10
582.9231824161166
 20
423.713096391263
 30
0.0
  0
VERTEX
  5
B4A
  8
回08-記事
  6
CONTINUOUS
 62
     7
 10
582.9231824161166
 20
210.3180963912633
 30
0.0
  0
VERTEX
  5
B4B
  8
回08-記事
  6
CONTINUOUS
 62
     7
 10
578.9231824161162
 20
210.3180963912633
 30
0.0
  0
SEQEND
  5
B48
  8
0
  6
CONTINUOUS
 62
     7
  0
POLYLINE
  5
366
  8
回08-記事
  6
CONTINUOUS
 62
     7
 66
     1
 10
0.0
 20
0.0
 30
0.0
 70
     1
  0
VERTEX
  5
B4C
  8
回08-記事
  6
CONTINUOUS
 62
     7
 10
592.8163666350867
 20
424.213096391263
 30
0.0
  0
VERTEX
  5
B4E
  8
回08-記事
  6
CONTINUOUS
 62
     7
 10
599.8163666350867
 20
424.213096391263
 30
0.0
  0
VERTEX
  5
B4F
  8
回08-記事
  6
CONTINUOUS
 62
     7
 10
599.8163666350867
 20
209.8180963912631
 30
0.0
  0
VERTEX
  5
B50
  8
回08-記事
  6
CONTINUOUS
 62
     7
 10
592.8163666350867
 20
209.8180963912631
 30
0.0
  0
SEQEND
  5
B4D
  8
0
  6
CONTINUOUS
 62
     7
  0
DIMENSION
  5
367
  8
回07-寸法
  6
CONTINUOUS
 62
     6
  2
*D5959
 10
177.076865734729
 20
94.82214476207476
 30
0.0
 11
255.8018657347292
 21
98.07214476207477
 31
0.0
 70
    32
  1
(<>)
  3
DMC
 13
334.5268657347292
 23
110.3180963912639
 33
0.0
 14
177.076865734729
 24
209.818096391264
 34
0.0
 50
180.0
1001
ACAD
1000
DSTYLE
1002
{
1070
    41
1040
1.5
1070
    47
1040
0.2
1070
    48
1040
0.2
1070
   141
1040
1.5
1070
   371
1070
    13
1070
   372
1070
    13
1002
}
  0
DIMENSION
  5
376
  8
回07-寸法
  6
CONTINUOUS
 62
     6
  2
*D6060
 10
334.5268657347292
 20
94.82214476207479
 30
0.0
 11
388.0258788689241
 21
94.82214476207479
 31
0.0
 70
   160
  3
DMC
 13
352.0268657347294
 23
110.3180963912639
 33
0.0
 14
334.5268657347292
 24
110.3180963912639
 34
0.0
 50
180.0
1001
ACAD
1000
DSTYLE
1002
{
1070
    41
1040
1.5
1070
    47
1040
0.1
1070
    48
1040
0.1
1070
    71
1070
     1
1070
   141
1040
1.5
1070
   371
1070
    13
1070
   372
1070
    13
1002
}
  0
DIMENSION
  5
387
  8
回07-寸法
  6
CONTINUOUS
 62
     6
  2
*D6161
 10
363.5268657347294
 20
84.82742453393672
 30
0.0
 11
389.6944690811861
 21
84.82742453393672
 31
0.0
 70
   160
  3
DMC
 13
377.0268657347294
 23
110.318096391263
 33
0.0
 14
363.5268657347294
 24
110.3180963912639
 34
0.0
 50
180.0
1001
ACAD
1000
DSTYLE
1002
{
1070
    41
1040
1.5
1070
    47
1040
0.1
1070
    48
1040
0.1
1070
    71
1070
     1
1070
   141
1040
1.5
1070
   371
1070
    13
1070
   372
1070
    13
1002
}
  0
DIMENSION
  5
398
  8
回07-寸法
  6
CONTINUOUS
 62
     5
  2
*D6262
 10
294.0102342225566
 20
109.8221447620747
 30
0.0
 11
294.0102342225566
 21
160.8160722058583
 31
0.0
 70
   160
  3
DMC
 13
320.7779910501779
 23
209.8180963912638
 33
0.0
 14
335.0268657347294
 24
109.8221447620747
 34
0.0
 50
270.0
1001
ACAD
1000
DSTYLE
1002
{
1070
   147
1040
0.5
1070
    72
1070
     0
1070
    71
1070
     1
1070
    41
1040
1.5
1070
    47
1040
1.0
1070
    48
1040
1.0
1070
   141
1040
1.5
1070
   371
1070
    13
1070
   372
1070
    13
1002
}
  0
DIMENSION
  5
3A7
  8
回07-寸法
  6
CONTINUOUS
 62
     5
  2
*D6363
 10
177.076865734729
 20
458.2330963912638
 30
0.0
 11
168.3268657347291
 21
461.2330963912638
 31
0.0
 70
    32
  3
DMC
 13
182.8068657347292
 23
418.1480963912639
 33
0.0
 14
177.076865734729
 24
424.213096391263
 34
0.0
 50
180.0
1001
ACAD
1000
DSTYLE
1002
{
1070
    41
1040
1.5
1070
    47
1040
0.2
1070
    48
1040
0.2
1070
   141
1040
1.5
1070
   371
1070
    13
1070
   372
1070
    13
1002
}
  0
DIMENSION
  5
3B8
  8
回07-寸法
  6
CONTINUOUS
 62
     5
  2
*D6464
 10
177.076865734729
 20
446.2330963912639
 30
0.0
 11
168.3268657347291
 21
449.2330963912638
 31
0.0
 70
    32
  3
DMC
 13
184.8068657347291
 23
416.1480963912638
 33
0.0
 14
177.076865734729
 24
424.213096391263
 34
0.0
 50
180.0
1001
ACAD
1000
DSTYLE
1002
{
1070
    41
1040
1.5
1070
    47
1040
0.2
1070
    48
1040
0.2
1070
   141
1040
1.5
1070
   371
1070
    13
1070
   372
1070
    13
1002
}
  0
DIMENSION
  5
3C9
  8
回07-寸法
  6
CONTINUOUS
 62
     5
  2
*D6565
 10
538.4768657347295
 20
446.2330963912639
 30
0.0
 11
549.2248972307926
 21
449.4830963912638
 31
0.0
 70
    32
  1
(<>)
  3
DMC
 13
530.74686574473
 23
416.1480963912638
 33
0.0
 14
538.4768657347295
 24
424.213096391263
 34
0.0
 50
180.0
1001
ACAD
1000
DSTYLE
1002
{
1070
    41
1040
1.5
1070
    47
1040
0.2
1070
    48
1040
0.2
1070
   141
1040
1.5
1070
   371
1070
    13
1070
   372
1070
    13
1002
}
  0
DIMENSION
  5
3DA
  8
回07-寸法
  6
CONTINUOUS
 62
     5
  2
*D6666
 10
538.4768657347295
 20
458.2330963912638
 30
0.0
 11
549.2248972307926
 21
461.4830963912639
 31
0.0
 70
    32
  1
(<>)
  3
DMC
 13
532.7468657347297
 23
418.148096391263
 33
0.0
 14
538.4768657347295
 24
424.213096391263
 34
0.0
 50
180.0
1001
ACAD
1000
DSTYLE
1002
{
1070
    41
1040
1.5
1070
    47
1040
0.2
1070
    48
1040
0.2
1070
   141
1040
1.5
1070
   371
1070
    13
1070
   372
1070
    13
1002
}
  0
DIMENSION
  5
3EB
  8
回07-寸法
  6
CONTINUOUS
 62
     5
  2
*D6767
 10
140.0768657347291
 20
424.2130963912638
 30
0.0
 11
140.0768657347291
 21
434.9611278873268
 31
0.0
 70
   160
  1
(<>)
  3
DMC
 13
182.8068657347292
 23
418.1480963912639
 33
0.0
 14
177.076865734729
 24
424.2130963912638
 34
0.0
 50
270.0
1001
ACAD
1000
DSTYLE
1002
{
1070
    41
1040
1.5
1070
    47
1040
0.2
1070
    48
1040
0.2
1070
   141
1040
1.5
1070
   371
1070
    13
1070
   372
1070
    13
1002
}
  0
DIMENSION
  5
3FC
  8
回07-寸法
  6
CONTINUOUS
 62
     5
  2
*D6868
 10
153.0768657347291
 20
424.213096391263
 30
0.0
 11
153.0768657347291
 21
434.9611278873259
 31
0.0
 70
   160
  1
(<>)
  3
DMC
 13
184.8068657347291
 23
416.1480963912638
 33
0.0
 14
177.076865734729
 24
424.213096391263
 34
0.0
 50
270.0
1001
ACAD
1000
DSTYLE
1002
{
1070
    41
1040
1.5
1070
    47
1040
0.2
1070
    48
1040
0.2
1070
   141
1040
1.5
1070
   371
1070
    13
1070
   372
1070
    13
1002
}
  0
DIMENSION
  5
40D
  8
回07-寸法
  6
CONTINUOUS
 62
     5
  2
*D6969
 10
153.0768657347291
 20
209.818096391264
 30
0.0
 11
153.0768657347291
 21
202.568096391264
 31
0.0
 70
   160
  3
DMC
 13
184.8068737347295
 23
220.9180963912636
 33
0.0
 14
177.076865734729
 24
209.818096391264
 34
0.0
 50
270.0
1001
ACAD
1000
DSTYLE
1002
{
1070
    41
1040
1.5
1070
    47
1040
0.2
1070
    48
1040
0.2
1070
   141
1040
1.5
1070
   371
1070
    13
1070
   372
1070
    13
1002
}
  0
DIMENSION
  5
41E
  8
回07-寸法
  6
CONTINUOUS
 62
     5
  2
*D7070
 10
140.0768657347291
 20
209.818096391264
 30
0.0
 11
140.0768657347291
 21
202.9180963912641
 31
0.0
 70
   160
  3
DMC
 13
182.8068657347292
 23
218.9180963912634
 33
0.0
 14
177.076865734729
 24
209.818096391264
 34
0.0
 50
270.0
1001
ACAD
1000
DSTYLE
1002
{
1070
    41
1040
1.5
1070
    47
1040
0.2
1070
    48
1040
0.2
1070
   141
1040
1.5
1070
   371
1070
    13
1070
   372
1070
    13
1002
}
  0
DIMENSION
  5
42F
  8
回07-寸法
  6
CONTINUOUS
 62
     5
  2
*D7171
 10
177.076865734729
 20
482.2330963912638
 30
0.0
 11
357.7768657347294
 21
482.2330963912638
 31
0.0
 70
   160
  3
DMC
 13
538.4768657347295
 23
424.213096391263
 33
0.0
 14
177.076865734729
 24
424.213096391263
 34
0.0
 50
180.0
1001
ACAD
1000
DSTYLE
1002
{
1070
   147
1040
0.5
1070
    72
1070
     0
1070
    71
1070
     1
1070
    41
1040
1.5
1070
    47
1040
0.3
1070
    48
1040
0.3
1070
   141
1040
1.5
1070
   371
1070
    13
1070
   372
1070
    13
1002
}
  0
DIMENSION
  5
43E
  8
回07-寸法
  6
CONTINUOUS
 62
     5
  2
*D7272
 10
532.7468657347297
 20
458.2330963912638
 30
0.0
 11
357.6687877294369
 21
458.2330963912638
 31
0.0
 70
   160
  1
<>(Viewing area)
  3
DMC
 13
182.8068657347292
 23
418.1480963912639
 33
0.0
 14
532.7468657347297
 24
418.148096391263
 34
0.0
 50
180.0
1001
ACAD
1000
DSTYLE
1002
{
1070
    41
1040
1.5
1070
    47
1040
0.2
1070
    48
1040
0.2
1070
   141
1040
1.5
1070
   371
1070
    13
1070
   372
1070
    13
1002
}
  0
DIMENSION
  5
44D
  8
回07-寸法
  6
CONTINUOUS
 62
     5
  2
*D7373
 10
184.8068737347295
 20
446.2330963912639
 30
0.0
 11
357.7768697347297
 21
449.4830963912638
 31
0.0
 70
    32
  1
<>(Active area)
  3
DMC
 13
530.7468657347295
 23
416.1480963912638
 33
0.0
 14
184.8068737347295
 24
416.1480963912638
 34
0.0
 50
180.0
1001
ACAD
1000
DSTYLE
1002
{
1070
    41
1040
1.5
1070
    47
1040
0.2
1070
    48
1040
0.2
1070
   141
1040
1.5
1070
   371
1070
    13
1070
   372
1070
    13
1002
}
  0
DIMENSION
  5
45C
  8
回07-寸法
  6
CONTINUOUS
 62
     5
  2
*D7474
 10
112.0768657347291
 20
209.818096391264
 30
0.0
 11
112.0768657347291
 21
317.0255963912637
 31
0.0
 70
   160
  3
DMC
 13
177.076865734729
 23
424.213096391263
 33
0.0
 14
177.076865734729
 24
209.818096391264
 34
0.0
 50
270.0
1001
ACAD
1000
DSTYLE
1002
{
1070
    41
1040
1.5
1070
    47
1040
0.3
1070
    48
1040
0.3
1070
    71
1070
     1
1070
   141
1040
1.5
1070
   371
1070
    13
1070
   372
1070
    13
1002
}
  0
DIMENSION
  5
46B
  8
回07-寸法
  6
CONTINUOUS
 62
     5
  2
*D7575
 10
140.0768657347291
 20
218.9180963912634
 30
0.0
 11
140.0768657347291
 21
318.5330963912639
 31
0.0
 70
   160
  1
<>(Viewing area)
  3
DMC
 13
182.8068657347292
 23
418.1480963912639
 33
0.0
 14
182.8068657347292
 24
218.9180963912634
 34
0.0
 50
270.0
1001
ACAD
1000
DSTYLE
1002
{
1070
    41
1040
1.5
1070
    47
1040
0.2
1070
    48
1040
0.2
1070
   141
1040
1.5
1070
   371
1070
    13
1070
   372
1070
    13
1002
}
  0
DIMENSION
  5
47A
  8
回07-寸法
  6
CONTINUOUS
 62
     5
  2
*D7676
 10
153.0768657347292
 20
416.1480963912638
 30
0.0
 11
153.0768657347291
 21
318.5330963912639
 31
0.0
 70
   160
  1
<>(Active area)
  3
DMC
 13
184.8068657347291
 23
220.9180963912636
 33
0.0
 14
184.8068657347291
 24
416.1480963912638
 34
0.0
 50
270.0
1001
ACAD
1000
DSTYLE
1002
{
1070
    41
1040
1.5
1070
    47
1040
0.2
1070
    48
1040
0.2
1070
   141
1040
1.5
1070
   371
1070
    13
1070
   372
1070
    13
1002
}
  0
LINE
  5
489
  8
回07-寸法
  6
CENTER2
 62
     5
 10
357.7768657347294
 20
216.9180963912634
 30
0.0
 11
357.7768657347294
 21
420.1480963912634
 31
0.0
  0
TEXT
  5
48A
  8
回08-記事
  6
CONTINUOUS
 62
     7
 10
186.0684528155882
 20
408.9618585669316
 30
0.0
 40
2.0
  1
SUL
  0
TEXT
  5
48B
  8
回08-記事
  6
CONTINUOUS
 62
     7
 10
185.7360998108594
 20
232.4060704173456
 30
0.0
 40
3.0
  1
L8
  0
TEXT
  5
48C
  8
回08-記事
  6
CONTINUOUS
 62
     7
 10
185.7360998108594
 20
256.8473204173454
 30
0.0
 40
3.0
  1
L7
  0
TEXT
  5
48D
  8
回08-記事
  6
CONTINUOUS
 62
     7
 10
185.7360998108594
 20
281.269820417346
 30
0.0
 40
3.0
  1
L6
  0
TEXT
  5
48E
  8
回08-記事
  6
CONTINUOUS
 62
     7
 10
185.7360998108594
 20
305.7235704173459
 30
0.0
 40
3.0
  1
L5
  0
TEXT
  5
48F
  8
回08-記事
  6
CONTINUOUS
 62
     7
 10
185.7360998108594
 20
330.1773204173463
 30
0.0
 40
3.0
  1
L4
  0
TEXT
  5
490
  8
回08-記事
  6
CONTINUOUS
 62
     7
 10
185.7360998108594
 20
354.6123204173458
 30
0.0
 40
3.0
  1
L3
  0
TEXT
  5
491
  8
回08-記事
  6
CONTINUOUS
 62
     7
 10
185.7360998108594
 20
379.0535704173457
 30
0.0
 40
3.0
  1
L2
  0
TEXT
  5
492
  8
回08-記事
  6
CONTINUOUS
 62
     7
 10
185.7360998108594
 20
403.5385704173462
 30
0.0
 40
3.0
  1
L1
  0
TEXT
  5
493
  8
回08-記事
  6
CONTINUOUS
 62
     7
 10
517.7218598547422
 20
221.6383852234742
 30
0.0
 40
3.0
  1
D14
  0
TEXT
  5
494
  8
回08-記事
  6
CONTINUOUS
 62
     7
 10
492.9832884247418
 20
221.6383852234742
 30
0.0
 40
3.0
  1
D13
  0
TEXT
  5
495
  8
回08-記事
  6
CONTINUOUS
 62
     7
 10
468.2125755597418
 20
221.5883852234741
 30
0.0
 40
3.0
  1
D12
  0
TEXT
  5
496
  8
回08-記事
  6
CONTINUOUS
 62
     7
 10
443.5061455647415
 20
221.6383852234742
 30
0.0
 40
3.0
  1
D11
  0
TEXT
  5
497
  8
回08-記事
  6
CONTINUOUS
 62
     7
 10
418.7675741347418
 20
221.6383852234742
 30
0.0
 40
3.0
  1
D10
  0
TEXT
  5
498
  8
回08-記事
  6
CONTINUOUS
 62
     7
 10
394.0182915597418
 20
221.5883852234741
 30
0.0
 40
3.0
  1
D9
  0
TEXT
  5
499
  8
回08-記事
  6
CONTINUOUS
 62
     7
 10
369.2868635597417
 20
221.5883852234741
 30
0.0
 40
3.0
  1
D8
  0
TEXT
  5
49A
  8
回08-記事
  6
CONTINUOUS
 62
     7
 10
344.5518598447419
 20
221.6383852234742
 30
0.0
 40
3.0
  1
D7
  0
TEXT
  5
49B
  8
回08-記事
  6
CONTINUOUS
 62
     7
 10
319.8239995597417
 20
221.5883852234741
 30
0.0
 40
3.0
  1
D6
  0
TEXT
  5
49C
  8
回08-記事
  6
CONTINUOUS
 62
     7
 10
295.0747169847417
 20
221.6383852234742
 30
0.0
 40
3.0
  1
D5
  0
TEXT
  5
49D
  8
回08-記事
  6
CONTINUOUS
 62
     7
 10
270.3361455547417
 20
221.6383852234742
 30
0.0
 40
3.0
  1
D4
  0
TEXT
  5
49E
  8
回08-記事
  6
CONTINUOUS
 62
     7
 10
245.629715559742
 20
221.5883852234741
 30
0.0
 40
3.0
  1
D3
  0
TEXT
  5
49F
  8
回08-記事
  6
CONTINUOUS
 62
     7
 10
220.8982875597419
 20
221.5883852234741
 30
0.0
 40
3.0
  1
D2
  0
TEXT
  5
4A0
  8
回08-記事
  6
CONTINUOUS
 62
     7
 10
185.8993370049477
 20
224.6367028577554
 30
0.0
 40
2.0
  1
SDL
  0
TEXT
  5
4A1
  8
回08-記事
  6
CONTINUOUS
 62
     7
 10
196.1597161297416
 20
221.5883852234741
 30
0.0
 40
3.0
  1
D1
  0
TEXT
  5
4A2
  8
回08-記事
  6
CONTINUOUS
 62
     7
 10
525.5307949258021
 20
223.3415045868968
 30
0.0
 40
2.0
  1
SDR
  0
TEXT
  5
4A3
  8
回08-記事
  6
CONTINUOUS
 62
     7
 10
525.126055659958
 20
232.3708516150403
 30
0.0
 40
3.0
  1
R8
  0
TEXT
  5
4A4
  8
回08-記事
  6
CONTINUOUS
 62
     7
 10
525.126055659958
 20
256.82460161504
 30
0.0
 40
3.0
  1
R7
  0
TEXT
  5
4A5
  8
回08-記事
  6
CONTINUOUS
 62
     7
 10
525.126055659958
 20
281.2971016150398
 30
0.0
 40
3.0
  1
R6
  0
TEXT
  5
4A6
  8
回08-記事
  6
CONTINUOUS
 62
     7
 10
525.126055659958
 20
305.7321016150404
 30
0.0
 40
3.0
  1
R5
  0
TEXT
  5
4A7
  8
回08-記事
  6
CONTINUOUS
 62
     7
 10
525.126055659958
 20
330.1796016150395
 30
0.0
 40
3.0
  1
R4
  0
TEXT
  5
4A8
  8
回08-記事
  6
CONTINUOUS
 62
     7
 10
525.126055659958
 20
354.6208516150403
 30
0.0
 40
3.0
  1
R3
  0
TEXT
  5
4A9
  8
回08-記事
  6
CONTINUOUS
 62
     7
 10
525.126055659958
 20
379.0933516150411
 30
0.0
 40
3.0
  1
R2
  0
TEXT
  5
4AA
  8
回08-記事
  6
CONTINUOUS
 62
     7
 10
525.126055659958
 20
403.5471016150406
 30
0.0
 40
3.0
  1
R1
  0
TEXT
  5
4AB
  8
回08-記事
  6
CONTINUOUS
 62
     7
 10
523.7341199357842
 20
413.464769925726
 30
0.0
 40
1.6
  1
SUR
  0
TEXT
  5
4AC
  8
回08-記事
  6
CONTINUOUS
 62
     7
 10
517.6727730523068
 20
411.5946084818908
 30
0.0
 40
3.0
  1
U14
  0
TEXT
  5
4AD
  8
回08-記事
  6
CONTINUOUS
 62
     7
 10
492.9413450523068
 20
411.5946084818908
 30
0.0
 40
3.0
  1
U13
  0
TEXT
  5
4AE
  8
回08-記事
  6
CONTINUOUS
 62
     7
 10
468.2099170523066
 20
411.5946084818908
 30
0.0
 40
3.0
  1
U12
  0
TEXT
  5
4AF
  8
回08-記事
  6
CONTINUOUS
 62
     7
 10
443.4784890523066
 20
411.5946084818908
 30
0.0
 40
3.0
  1
U11
  0
TEXT
  5
4B0
  8
回08-記事
  6
CONTINUOUS
 62
     7
 10
418.7470610523067
 20
411.5946084818908
 30
0.0
 40
3.0
  1
U10
  0
TEXT
  5
4B1
  8
回08-記事
  6
CONTINUOUS
 62
     7
 10
394.0263441973059
 20
411.5446084818906
 30
0.0
 40
3.0
  1
U9
  0
TEXT
  5
4B2
  8
回08-記事
  6
CONTINUOUS
 62
     7
 10
369.287772767306
 20
411.5446084818906
 30
0.0
 40
3.0
  1
U8
  0
TEXT
  5
4B3
  8
回08-記事
  6
CONTINUOUS
 62
     7
 10
344.5527690523061
 20
411.5946084818908
 30
0.0
 40
3.0
  1
U7
  0
TEXT
  5
4B4
  8
回08-記事
  6
CONTINUOUS
 62
     7
 10
319.821341052306
 20
411.5946084818908
 30
0.0
 40
3.0
  1
U6
  0
TEXT
  5
4B5
  8
回08-記事
  6
CONTINUOUS
 62
     7
 10
295.089913052306
 20
411.5946084818908
 30
0.0
 40
3.0
  1
U5
  0
TEXT
  5
4B6
  8
回08-記事
  6
CONTINUOUS
 62
     7
 10
270.3584850523064
 20
411.5946084818908
 30
0.0
 40
3.0
  1
U4
  0
TEXT
  5
4B7
  8
回08-記事
  6
CONTINUOUS
 62
     7
 10
245.6270570523063
 20
411.5946084818908
 30
0.0
 40
3.0
  1
U3
  0
TEXT
  5
4B8
  8
回08-記事
  6
CONTINUOUS
 62
     7
 10
220.8956290523063
 20
411.5946084818908
 30
0.0
 40
3.0
  1
U2
  0
TEXT
  5
4B9
  8
回08-記事
  6
CONTINUOUS
 62
     7
 10
196.1642010523061
 20
411.5946084818908
 30
0.0
 40
3.0
  1
U1
  0
POLYLINE
  5
4BA
  8
回08-記事
  6
PHANTOM2
 62
     7
 66
     1
 10
0.0
 20
0.0
 30
0.0
 70
     1
  0
VERTEX
  5
B51
  8
回08-記事
  6
PHANTOM2
 62
     7
 10
533.1968657347295
 20
218.4680963912636
 30
0.0
  0
VERTEX
  5
B53
  8
回08-記事
  6
PHANTOM2
 62
     7
 10
182.3568657347293
 20
218.4680963912636
 30
0.0
  0
VERTEX
  5
B54
  8
回08-記事
  6
PHANTOM2
 62
     7
 10
182.3568657347293
 20
418.5980963912636
 30
0.0
  0
VERTEX
  5
B55
  8
回08-記事
  6
PHANTOM2
 62
     7
 10
533.1968657347295
 20
418.5980963912636
 30
0.0
  0
SEQEND
  5
B52
  8
0
  6
CONTINUOUS
 62
     7
  0
POLYLINE
  5
4BB
  8
回08-記事
  6
CONTINUOUS
 62
     7
 66
     1
 10
0.0
 20
0.0
 30
0.0
 70
     1
  0
VERTEX
  5
B56
  8
回08-記事
  6
CONTINUOUS
 62
     7
 10
532.7468657347297
 20
218.9180963912634
 30
0.0
  0
VERTEX
  5
B58
  8
回08-記事
  6
CONTINUOUS
 62
     7
 10
182.8068657347292
 20
218.9180963912634
 30
0.0
  0
VERTEX
  5
B59
  8
回08-記事
  6
CONTINUOUS
 62
     7
 10
182.8068657347292
 20
418.1480963912639
 30
0.0
  0
VERTEX
  5
B5A
  8
回08-記事
  6
CONTINUOUS
 62
     7
 10
532.7468657347297
 20
418.1480963912639
 30
0.0
  0
SEQEND
  5
B57
  8
0
  6
CONTINUOUS
 62
     7
  0
POLYLINE
  5
4BC
  8
回08-記事
  6
CONTINUOUS
 62
     7
 66
     1
 10
0.0
 20
0.0
 30
0.0
 70
     1
  0
VERTEX
  5
B5B
  8
回08-記事
  6
CONTINUOUS
 62
     7
 10
530.7468657347295
 20
220.9180963912634
 30
0.0
  0
VERTEX
  5
B5D
  8
回08-記事
  6
CONTINUOUS
 62
     7
 10
184.8068657347291
 20
220.9180963912634
 30
0.0
  0
VERTEX
  5
B5E
  8
回08-記事
  6
CONTINUOUS
 62
     7
 10
184.8068657347291
 20
416.1480963912638
 30
0.0
  0
VERTEX
  5
B5F
  8
回08-記事
  6
CONTINUOUS
 62
     7
 10
530.7468657347295
 20
416.1480963912638
 30
0.0
  0
SEQEND
  5
B5C
  8
0
  6
CONTINUOUS
 62
     7
  0
LINE
  5
4BD
  8
回05-ﾃｰﾙ
  6
CONTINUOUS
 62
     7
 10
355.4850978313646
 20
205.8975622092942
 30
0.0
 11
352.3197589535428
 21
202.7322233314729
 31
0.0
  0
ARC
  5
4BF
  8
回05-ﾃｰﾙ
  6
CONTINUOUS
 62
     7
 10
333.5268657347294
 20
192.0273671811831
 30
0.0
 40
1.0
 50
0.0
 51
45.00000000000864
  0
LINE
  5
4C0
  8
回05-ﾃｰﾙ
  6
CONTINUOUS
 62
     7
 10
321.0708842689912
 20
205.8975622092942
 30
0.0
 11
334.2339725159157
 21
192.7344739623698
 31
0.0
  0
ARC
  5
4C1
  8
回05-ﾃｰﾙ
  6
CONTINUOUS
 62
     7
 10
321.7779910501779
 20
206.6046689904809
 30
0.0
 40
1.0
 50
180.0
 51
225.0000000000086
  0
LINE
  5
4C2
  8
回05-ﾃｰﾙ
  6
CONTINUOUS
 62
     7
 10
320.7779910501779
 20
209.8180963912636
 30
0.0
 11
320.7779910501779
 21
206.6046689904809
 31
0.0
  0
ARC
  5
4C3
  8
回05-ﾃｰﾙ
  6
CONTINUOUS
 62
     7
 10
354.7779910501778
 20
206.6046689904809
 30
0.0
 40
1.0
 50
314.9999999999914
 51
0.0
  0
LINE
  5
4C4
  8
回05-ﾃｰﾙ
  6
CONTINUOUS
 62
     7
 10
355.7779910501778
 20
206.6046689904809
 30
0.0
 11
355.7779910501778
 21
209.8180963912635
 31
0.0
  0
ARC
  5
4C5
  8
回05-ﾃｰﾙ
  6
CONTINUOUS
 62
     7
 10
335.0268657347294
 20
110.3221447620747
 30
0.0
 40
0.5
 50
180.0
 51
270.0
  0
LINE
  5
4C6
  8
回05-ﾃｰﾙ
  6
CONTINUOUS
 62
     7
 10
334.5268657347294
 20
192.0273671811831
 30
0.0
 11
334.5268657347294
 21
110.3221447620747
 31
0.0
  0
LINE
  5
4C7
  8
回05-ﾃｰﾙ
  6
CONTINUOUS
 62
     7
 10
335.0268657347294
 20
109.8221447620747
 30
0.0
 11
351.5268657347294
 21
109.8221447620747
 31
0.0
  0
ARC
  5
4C8
  8
回05-ﾃｰﾙ
  6
CONTINUOUS
 62
     7
 10
351.5268657347294
 20
110.3221447620747
 30
0.0
 40
0.5
 50
270.0
 51
0.0
  0
ARC
  5
4C9
  8
回05-ﾃｰﾙ
  6
CONTINUOUS
 62
     7
 10
353.0268657347294
 20
202.0251165502862
 30
0.0
 40
1.0
 50
134.9999999999913
 51
180.0
  0
LINE
  5
4CA
  8
回05-ﾃｰﾙ
  6
CONTINUOUS
 62
     7
 10
352.0268657347294
 20
110.3221447620747
 30
0.0
 11
352.0268657347294
 21
202.0251165502862
 31
0.0
  0
ARC
  5
4CB
  8
回05-ﾃｰﾙ
  6
CONTINUOUS
 62
     7
 10
378.0268657347294
 20
199.0971225948308
 30
0.0
 40
1.0
 50
134.9999999999913
 51
180.0
  0
LINE
  5
4CC
  8
回05-ﾃｰﾙ
  6
CONTINUOUS
 62
     7
 10
377.3197589535428
 20
199.8042293760175
 30
0.0
 11
383.4850978313646
 21
205.9695682538389
 31
0.0
  0
ARC
  5
4CD
  8
回05-ﾃｰﾙ
  6
CONTINUOUS
 62
     7
 10
362.5268657347294
 20
199.0993732257287
 30
0.0
 40
1.0
 50
0.0
 51
45.00000000000864
  0
LINE
  5
4CE
  8
回05-ﾃｰﾙ
  6
CONTINUOUS
 62
     7
 10
363.2339725159156
 20
199.8064800069144
 30
0.0
 11
357.0708842689912
 21
205.9695682538398
 31
0.0
  0
ARC
  5
4CF
  8
回05-ﾃｰﾙ
  6
CONTINUOUS
 62
     7
 10
357.7779910501778
 20
206.6766750350256
 30
0.0
 40
1.0
 50
180.0
 51
225.0000000000086
  0
LINE
  5
4D0
  8
回05-ﾃｰﾙ
  6
CONTINUOUS
 62
     7
 10
356.7779910501778
 20
206.6766750350256
 30
0.0
 11
356.7779910501778
 21
209.8180963912635
 31
0.0
  0
ARC
  5
4D1
  8
回05-ﾃｰﾙ
  6
CONTINUOUS
 62
     7
 10
382.7779910501778
 20
206.6766750350256
 30
0.0
 40
1.0
 50
314.9999999999914
 51
0.0
  0
LINE
  5
4D2
  8
回05-ﾃｰﾙ
  6
CONTINUOUS
 62
     7
 10
383.7779910501778
 20
206.6766750350256
 30
0.0
 11
383.7779910501778
 21
209.8180963912635
 31
0.0
  0
ARC
  5
4D3
  8
回05-ﾃｰﾙ
  6
CONTINUOUS
 62
     7
 10
364.0268657347294
 20
110.3221447620747
 30
0.0
 40
0.5
 50
180.0
 51
270.0
  0
LINE
  5
4D4
  8
回05-ﾃｰﾙ
  6
CONTINUOUS
 62
     7
 10
363.5268657347294
 20
110.3221447620747
 30
0.0
 11
363.5268657347294
 21
199.0993732257287
 31
0.0
  0
LINE
  5
4D5
  8
回05-ﾃｰﾙ
  6
CONTINUOUS
 62
     7
 10
364.0268657347294
 20
109.8221447620747
 30
0.0
 11
376.5268657347294
 21
109.8221447620747
 31
0.0
  0
ARC
  5
4D6
  8
回05-ﾃｰﾙ
  6
CONTINUOUS
 62
     7
 10
376.5268657347294
 20
110.3221447620738
 30
0.0
 40
0.5
 50
270.0
 51
0.0
  0
LINE
  5
4D7
  8
回05-ﾃｰﾙ
  6
CONTINUOUS
 62
     7
 10
377.0268657347294
 20
110.3221447620738
 30
0.0
 11
377.0268657347294
 21
199.0971225948308
 31
0.0
  0
POLYLINE
  5
4D8
  8
回04-下接
  6
CONTINUOUS
 62
     7
 66
     1
 10
0.0
 20
0.0
 30
0.0
 70
     1
  0
VERTEX
  5
B60
  8
回04-下接
  6
CONTINUOUS
 62
     7
 10
538.4768657347295
 20
424.213096391263
 30
0.0
  0
VERTEX
  5
B62
  8
回04-下接
  6
CONTINUOUS
 62
     7
 10
177.076865734729
 20
424.213096391263
 30
0.0
  0
VERTEX
  5
B63
  8
回04-下接
  6
CONTINUOUS
 62
     7
 10
177.076865734729
 20
209.818096391264
 30
0.0
  0
VERTEX
  5
B64
  8
回04-下接
  6
CONTINUOUS
 62
     7
 10
538.4768657347295
 20
209.818096391264
 30
0.0
  0
SEQEND
  5
B61
  8
0
  6
CONTINUOUS
 62
     7
  0
ENDSEC
  0
EOF
