  0
SECTION
  2
HEADER
  9
$ACADVER
  1
AC1009
  9
$INSBASE
 10
0.0
 20
0.0
 30
0.0
  9
$EXTMIN
 10
-863.5908927519503
 20
83.53900803754276
 30
0.0
  9
$EXTMAX
 10
-53.59089275195038
 20
633.5390080375427
 30
0.0
  9
$LIMMIN
 10
0.0
 20
0.0
  9
$LIMMAX
 10
3000.0
 20
2500.0
  9
$ORTHOMODE
 70
     0
  9
$REGENMODE
 70
     1
  9
$FILLMODE
 70
     1
  9
$QTEXTMODE
 70
     0
  9
$MIRRTEXT
 70
     1
  9
$DRAGMODE
 70
     2
  9
$LTSCALE
 40
10.0
  9
$OSMODE
 70
    37
  9
$ATTMODE
 70
     1
  9
$TEXTSIZE
 40
5.0
  9
$TRACEWID
 40
1.0
  9
$TEXTSTYLE
  7
STANDARD
  9
$CLAYER
  8
ë±90-ÿg2
  9
$CELTYPE
  6
CONTINUOUS
  9
$CECOLOR
 62
     7
  9
$DIMSCALE
 40
1.0
  9
$DIMASZ
 40
1.5
  9
$DIMEXO
 40
0.0
  9
$DIMDLI
 40
0.0
  9
$DIMRND
 40
0.0
  9
$DIMDLE
 40
0.0
  9
$DIMEXE
 40
1.0
  9
$DIMTP
 40
0.2
  9
$DIMTM
 40
0.2
  9
$DIMTXT
 40
3.0
  9
$DIMCEN
 40
1.5
  9
$DIMTSZ
 40
0.0
  9
$DIMTOL
 70
     0
  9
$DIMLIM
 70
     0
  9
$DIMTIH
 70
     0
  9
$DIMTOH
 70
     0
  9
$DIMSE1
 70
     0
  9
$DIMSE2
 70
     0
  9
$DIMTAD
 70
     3
  9
$DIMZIN
 70
     8
  9
$DIMBLK
  1
OPEN
  9
$DIMASO
 70
     1
  9
$DIMSHO
 70
     1
  9
$DIMPOST
  1

  9
$DIMAPOST
  1

  9
$DIMALT
 70
     0
  9
$DIMALTD
 70
     3
  9
$DIMALTF
 40
0.03937007874016
  9
$DIMLFAC
 40
1.0
  9
$DIMTOFL
 70
     1
  9
$DIMTVP
 40
0.0
  9
$DIMTIX
 70
     0
  9
$DIMSOXD
 70
     0
  9
$DIMSAH
 70
     0
  9
$DIMBLK1
  1

  9
$DIMBLK2
  1

  9
$DIMSTYLE
  2
DMC
  9
$DIMCLRD
 70
     5
  9
$DIMCLRE
 70
     5
  9
$DIMCLRT
 70
     5
  9
$DIMTFAC
 40
0.7
  9
$DIMGAP
 40
0.5
  9
$LUNITS
 70
     2
  9
$LUPREC
 70
     4
  9
$SKETCHINC
 40
1.0
  9
$FILLETRAD
 40
0.5
  9
$AUNITS
 70
     0
  9
$AUPREC
 70
     0
  9
$MENU
  1
.
  9
$ELEVATION
 40
0.0
  9
$PELEVATION
 40
0.0
  9
$THICKNESS
 40
0.0
  9
$LIMCHECK
 70
     0
  9
$BLIPMODE
 70
     0
  9
$CHAMFERA
 40
10.0
  9
$CHAMFERB
 40
10.0
  9
$SKPOLY
 70
     0
  9
$TDCREATE
 40
2451811.529221065
  9
$TDUPDATE
 40
2460231.115660151
  9
$TDINDWG
 40
4.641055660
  9
$TDUSRTIMER
 40
4.641054965
  9
$USRTIMER
 70
     1
  9
$ANGBASE
 50
0.0
  9
$ANGDIR
 70
     0
  9
$PDMODE
 70
     3
  9
$PDSIZE
 40
0.0
  9
$PLINEWID
 40
0.5
  9
$COORDS
 70
     0
  9
$SPLFRAME
 70
     0
  9
$SPLINETYPE
 70
     6
  9
$SPLINESEGS
 70
     8
  9
$ATTDIA
 70
     1
  9
$ATTREQ
 70
     1
  9
$HANDLING
 70
     1
  9
$HANDSEED
  5
997
  9
$SURFTAB1
 70
     6
  9
$SURFTAB2
 70
     6
  9
$SURFTYPE
 70
     6
  9
$SURFU
 70
     6
  9
$SURFV
 70
     6
  9
$UCSNAME
  2

  9
$UCSORG
 10
0.0
 20
0.0
 30
0.0
  9
$UCSXDIR
 10
1.0
 20
0.0
 30
0.0
  9
$UCSYDIR
 10
0.0
 20
1.0
 30
0.0
  9
$PUCSNAME
  2

  9
$PUCSORG
 10
0.0
 20
0.0
 30
0.0
  9
$PUCSXDIR
 10
1.0
 20
0.0
 30
0.0
  9
$PUCSYDIR
 10
0.0
 20
1.0
 30
0.0
  9
$USERI1
 70
     0
  9
$USERI2
 70
     0
  9
$USERI3
 70
     0
  9
$USERI4
 70
     0
  9
$USERI5
 70
     0
  9
$USERR1
 40
0.0
  9
$USERR2
 40
0.0
  9
$USERR3
 40
0.0
  9
$USERR4
 40
0.0
  9
$USERR5
 40
0.0
  9
$WORLDVIEW
 70
     1
  9
$SHADEDGE
 70
     3
  9
$SHADEDIF
 70
    70
  9
$TILEMODE
 70
     1
  9
$MAXACTVP
 70
    64
  9
$PLIMCHECK
 70
     0
  9
$PEXTMIN
 10
1.000000000000000E+20
 20
1.000000000000000E+20
 30
1.000000000000000E+20
  9
$PEXTMAX
 10
-1.000000000000000E+20
 20
-1.000000000000000E+20
 30
-1.000000000000000E+20
  9
$PLIMMIN
 10
0.0
 20
0.0
  9
$PLIMMAX
 10
420.0
 20
297.0
  9
$UNITMODE
 70
     0
  9
$VISRETAIN
 70
     1
  9
$PLINEGEN
 70
     0
  9
$PSLTSCALE
 70
     1
  0
ENDSEC
  0
SECTION
  2
TABLES
  0
TABLE
  2
VPORT
 70
     1
  0
VPORT
  2
*ACTIVE
 70
     0
 10
0.0
 20
0.0
 11
1.0
 21
1.0
 12
-293.1223028297617
 22
402.3730682522268
 13
0.0
 23
0.0
 14
10.0
 24
10.0
 15
10.0
 25
10.0
 16
0.0
 26
0.0
 36
1.0
 17
0.0
 27
0.0
 37
0.0
 40
704.8687741374708
 41
1.853689567430025
 42
50.0
 43
0.0
 44
0.0
 50
0.0
 51
0.0
 71
     0
 72
   500
 73
     1
 74
     1
 75
     0
 76
     0
 77
     0
 78
     0
  0
ENDTAB
  0
TABLE
  2
LTYPE
 70
     3
  0
LTYPE
  2
CONTINUOUS
 70
     0
  3
Solid line
 72
    65
 73
     0
 40
0.0
  0
LTYPE
  2
CENTER2
 70
     0
  3
Center (.5x) ___ _ ___ _ ___ _ ___ _ ___ _ ___
 72
    65
 73
     4
 40
28.575
 49
19.05
 49
-3.174999999999999
 49
3.174999999999999
 49
-3.174999999999999
  0
LTYPE
  2
PHANTOM2
 70
     0
  3
___ _ _ ___ _ _ ___ _ _ ___ _ _ ___ _ _ ___ _ _
 72
    65
 73
     6
 40
1.25
 49
0.625
 49
-0.125
 49
0.125
 49
-0.125
 49
0.125
 49
-0.125
  0
ENDTAB
  0
TABLE
  2
LAYER
 70
    11
  0
LAYER
  2
0
 70
     0
 62
     7
  6
CONTINUOUS
  0
LAYER
  2
DEFPOINTS
 70
     0
 62
     7
  6
CONTINUOUS
  0
LAYER
  2
ë±07-Éíû@
 70
     0
 62
     7
  6
CONTINUOUS
  0
LAYER
  2
ë±03-ë║ER
 70
     0
 62
     7
  6
CONTINUOUS
  0
LAYER
  2
ë±04-ë║É┌
 70
     0
 62
     7
  6
CONTINUOUS
  0
LAYER
  2
ë±01-ÅÒER
 70
     0
 62
     7
  6
CONTINUOUS
  0
LAYER
  2
ë±90-ÿg1
 70
     0
 62
     7
  6
CONTINUOUS
  0
LAYER
  2
ë±08-ïLÄû
 70
     0
 62
     7
  6
CONTINUOUS
  0
LAYER
  2
ë±05-├░┘
 70
     0
 62
     7
  6
CONTINUOUS
  0
LAYER
  2
ë±90-ÿg2
 70
     0
 62
     7
  6
CONTINUOUS
  0
LAYER
  2
ë±03-ïLÄû
 70
     0
 62
     7
  6
CONTINUOUS
  0
ENDTAB
  0
TABLE
  2
STYLE
 70
     1
  0
STYLE
  2
STANDARD
 70
     0
 40
5.0
 41
1.0
 50
0.0
 71
     0
 42
5.0
  3
isocp.shx
  4
bigfont.shx
  0
ENDTAB
  0
TABLE
  2
VIEW
 70
     0
  0
ENDTAB
  0
TABLE
  2
UCS
 70
     0
  0
ENDTAB
  0
TABLE
  2
APPID
 70
     6
  0
APPID
  2
ACAD
 70
     0
  0
APPID
  2
ACAD_PSEXT
 70
     0
  0
APPID
  2
GRADIENTCOLOR1ACI
 70
     0
  0
APPID
  2
GRADIENTCOLOR2ACI
 70
     0
  0
APPID
  2
ACAD_NAV_VCDISPLAY
 70
     0
  0
APPID
  2
ACADSTRINGINFO
 70
     0
  0
ENDTAB
  0
TABLE
  2
DIMSTYLE
 70
     1
  0
DIMSTYLE
  2
DMC
 70
     0
  3

  4

  5
OPEN
  6

  7

 40
1.0
 41
2.0
 42
0.0
 43
0.0
 44
1.0
 45
0.0
 46
0.0
 47
0.0
 48
0.0
140
3.0
141
2.0
142
0.0
143
0.03937007874016
144
1.0
145
0.0
146
0.7
147
0.5
 71
     0
 72
     0
 73
     0
 74
     0
 75
     0
 76
     0
 77
     3
 78
     8
170
     0
171
     3
172
     1
173
     0
174
     0
175
     0
176
     5
177
     5
178
     5
  0
ENDTAB
  0
ENDSEC
  0
SECTION
  2
BLOCKS
  0
BLOCK
  8
0
  2
$MODEL_SPACE
 70
     0
 10
0.0
 20
0.0
 30
0.0
  3
$MODEL_SPACE
  1

  0
ENDBLK
  8
0
  5
24
  0
BLOCK
 67
     1
  8
0
  2
$PAPER_SPACE
 70
     0
 10
0.0
 20
0.0
 30
0.0
  3
$PAPER_SPACE
  1

  0
ENDBLK
  5
2D
 67
     1
  8
0
  0
BLOCK
  8
0
  2
_OPEN
 70
     0
 10
0.0
 20
0.0
 30
0.0
  3
_OPEN
  1

  0
LINE
  5
17
  8
0
  6
CONTINUOUS
 62
     0
 10
-1.0
 20
0.1666666666666666
 30
0.0
 11
0.0
 21
0.0
 31
0.0
  0
LINE
  5
18
  8
0
  6
CONTINUOUS
 62
     0
 10
-1.0
 20
-0.1666666666666666
 30
0.0
 11
0.0
 21
0.0
 31
0.0
  0
LINE
  5
19
  8
0
  6
CONTINUOUS
 62
     0
 10
0.0
 20
0.0
 30
0.0
 11
-1.0
 21
0.0
 31
0.0
  0
ENDBLK
  5
1A
  8
0
  0
BLOCK
  8
0
  2
*D1
 70
     1
 10
0.0
 20
0.0
 30
0.0
  3
*D1
  1

  0
LINE
  5
503
  8
ë±07-Éíû@
  6
CONTINUOUS
 62
     5
 10
-272.1347418445358
 20
542.4284360900636
 30
0.0
 11
-272.1347418445358
 21
553.9277595535358
 31
0.0
  0
LINE
  5
504
  8
ë±07-Éíû@
  6
CONTINUOUS
 62
     5
 10
-251.2415576255654
 20
542.9284360900636
 30
0.0
 11
-251.2415576255654
 21
553.9277595535358
 31
0.0
  0
LINE
  5
505
  8
ë±07-Éíû@
  6
CONTINUOUS
 62
     5
 10
-270.6347418445358
 20
552.9277595535358
 30
0.0
 11
-252.7415576255654
 21
552.9277595535358
 31
0.0
  0
INSERT
  5
506
  8
ë±07-Éíû@
  6
CONTINUOUS
 62
     5
 66
     1
  2
_OPEN
 10
-272.1347418445358
 20
552.9277595535358
 30
0.0
 41
1.5
 42
1.5
 43
1.5
 50
180.0
  0
SEQEND
  5
507
  8
ë±90-ÿg2
  6
CONTINUOUS
 62
     7
  0
INSERT
  5
508
  8
ë±07-Éíû@
  6
CONTINUOUS
 62
     5
 66
     1
  2
_OPEN
 10
-251.2415576255654
 20
552.9277595535358
 30
0.0
 41
1.5
 42
1.5
 43
1.5
  0
SEQEND
  5
509
  8
ë±90-ÿg2
  6
CONTINUOUS
 62
     7
  0
INSERT
  5
50A
  8
ë±07-Éíû@
  6
CONTINUOUS
 62
     5
 66
     1
  2
*X87
 10
0.0
 20
0.0
 30
0.0
  0
SEQEND
  5
8F0
  8
ë±90-ÿg2
  6
CONTINUOUS
 62
     7
  0
POINT
  5
50B
  8
DEFPOINTS
  6
CONTINUOUS
 62
     0
 10
-272.1347418445358
 20
542.4284360900636
 30
0.0
  0
POINT
  5
50C
  8
DEFPOINTS
  6
CONTINUOUS
 62
     0
 10
-251.2415576255654
 20
542.9284360900636
 30
0.0
  0
POINT
  5
50D
  8
DEFPOINTS
  6
CONTINUOUS
 62
     0
 10
-251.2415576255654
 20
552.9277595535358
 30
0.0
  0
ENDBLK
  5
50E
  8
0
 62
     7
  0
BLOCK
  8
0
  2
*D2
 70
     1
 10
0.0
 20
0.0
 30
0.0
  3
*D2
  1

  0
LINE
  5
4F4
  8
ë±08-ïLÄû
  6
CONTINUOUS
 62
     5
 10
-268.1347418445358
 20
147.412484460874
 30
0.0
 11
-277.0961520135072
 21
147.412484460874
 31
0.0
  0
LINE
  5
4F5
  8
ë±08-ïLÄû
  6
CONTINUOUS
 62
     5
 10
-268.8347418445356
 20
152.412484460874
 30
0.0
 11
-277.0961520135072
 21
152.412484460874
 31
0.0
  0
LINE
  5
4F6
  8
ë±08-ïLÄû
  6
CONTINUOUS
 62
     5
 10
-276.0961520135072
 20
148.912484460874
 30
0.0
 11
-276.0961520135072
 21
150.912484460874
 31
0.0
  0
INSERT
  5
4F7
  8
ë±08-ïLÄû
  6
CONTINUOUS
 62
     5
 66
     1
  2
_OPEN
 10
-276.0961520135072
 20
147.412484460874
 30
0.0
 41
1.5
 42
1.5
 43
1.5
 50
270.0
  0
SEQEND
  5
4F8
  8
ë±90-ÿg2
  6
CONTINUOUS
 62
     7
  0
INSERT
  5
4F9
  8
ë±08-ïLÄû
  6
CONTINUOUS
 62
     5
 66
     1
  2
_OPEN
 10
-276.0961520135072
 20
152.412484460874
 30
0.0
 41
1.5
 42
1.5
 43
1.5
 50
90.0
  0
SEQEND
  5
4FA
  8
ë±90-ÿg2
  6
CONTINUOUS
 62
     7
  0
TEXT
  5
4FB
  8
ë±08-ïLÄû
  6
CONTINUOUS
 62
     5
 10
-276.5961520135072
 20
148.162484460874
 30
0.0
 40
5.0
  1
5
 50
90.0
1001
ACAD
1000
MTEXTBEGIN
1070
    73
1070
     1
1070
    44
1040
1.0
1070
    74
1070
     0
1000
MTEXTEND
  0
POINT
  5
4FC
  8
DEFPOINTS
  6
CONTINUOUS
 62
     0
 10
-268.1347418445358
 20
147.412484460874
 30
0.0
  0
POINT
  5
4FD
  8
DEFPOINTS
  6
CONTINUOUS
 62
     0
 10
-268.8347418445356
 20
152.412484460874
 30
0.0
  0
POINT
  5
4FE
  8
DEFPOINTS
  6
CONTINUOUS
 62
     0
 10
-276.0961520135072
 20
152.412484460874
 30
0.0
  0
ENDBLK
  5
4FF
  8
0
 62
     7
  0
BLOCK
  8
0
  2
*D3
 70
     1
 10
0.0
 20
0.0
 30
0.0
  3
*D3
  1

  0
LINE
  5
4E5
  8
ë±08-ïLÄû
  6
CONTINUOUS
 62
     5
 10
-258.2415576255654
 20
147.412484460874
 30
0.0
 11
-244.966972059648
 21
147.412484460874
 31
0.0
  0
LINE
  5
4E6
  8
ë±08-ïLÄû
  6
CONTINUOUS
 62
     5
 10
-257.5415576255651
 20
152.412484460874
 30
0.0
 11
-244.966972059648
 21
152.412484460874
 31
0.0
  0
LINE
  5
4E7
  8
ë±08-ïLÄû
  6
CONTINUOUS
 62
     5
 10
-245.966972059648
 20
148.912484460874
 30
0.0
 11
-245.966972059648
 21
150.912484460874
 31
0.0
  0
INSERT
  5
4E8
  8
ë±08-ïLÄû
  6
CONTINUOUS
 62
     5
 66
     1
  2
_OPEN
 10
-245.966972059648
 20
147.412484460874
 30
0.0
 41
1.5
 42
1.5
 43
1.5
 50
270.0
  0
SEQEND
  5
4E9
  8
ë±90-ÿg2
  6
CONTINUOUS
 62
     7
  0
INSERT
  5
4EA
  8
ë±08-ïLÄû
  6
CONTINUOUS
 62
     5
 66
     1
  2
_OPEN
 10
-245.966972059648
 20
152.412484460874
 30
0.0
 41
1.5
 42
1.5
 43
1.5
 50
90.0
  0
SEQEND
  5
4EB
  8
ë±90-ÿg2
  6
CONTINUOUS
 62
     7
  0
TEXT
  5
4EC
  8
ë±08-ïLÄû
  6
CONTINUOUS
 62
     5
 10
-246.466972059648
 20
148.162484460874
 30
0.0
 40
5.0
  1
5
 50
90.0
1001
ACAD
1000
MTEXTBEGIN
1070
    73
1070
     1
1070
    44
1040
1.0
1070
    74
1070
     0
1000
MTEXTEND
  0
POINT
  5
4ED
  8
DEFPOINTS
  6
CONTINUOUS
 62
     0
 10
-258.2415576255654
 20
147.412484460874
 30
0.0
  0
POINT
  5
4EE
  8
DEFPOINTS
  6
CONTINUOUS
 62
     0
 10
-257.5415576255651
 20
152.412484460874
 30
0.0
  0
POINT
  5
4EF
  8
DEFPOINTS
  6
CONTINUOUS
 62
     0
 10
-245.966972059648
 20
152.412484460874
 30
0.0
  0
ENDBLK
  5
4F0
  8
0
 62
     7
  0
BLOCK
  8
0
  2
*D4
 70
     1
 10
0.0
 20
0.0
 30
0.0
  3
*D4
  1

  0
LINE
  5
4D6
  8
ë±08-ïLÄû
  6
CONTINUOUS
 62
     5
 10
-265.6347418445358
 20
157.412484460874
 30
0.0
 11
-260.3602089801738
 21
157.412484460874
 31
0.0
  0
LINE
  5
4D7
  8
ë±08-ïLÄû
  6
CONTINUOUS
 62
     5
 10
-265.6347418445358
 20
147.412484460874
 30
0.0
 11
-260.3602089801738
 21
147.412484460874
 31
0.0
  0
LINE
  5
4D8
  8
ë±08-ïLÄû
  6
CONTINUOUS
 62
     5
 10
-261.3602089801737
 20
155.912484460874
 30
0.0
 11
-261.3602089801737
 21
148.912484460874
 31
0.0
  0
INSERT
  5
4D9
  8
ë±08-ïLÄû
  6
CONTINUOUS
 62
     5
 66
     1
  2
_OPEN
 10
-261.3602089801737
 20
157.412484460874
 30
0.0
 41
1.5
 42
1.5
 43
1.5
 50
90.0
  0
SEQEND
  5
4DA
  8
ë±90-ÿg2
  6
CONTINUOUS
 62
     7
  0
INSERT
  5
4DB
  8
ë±08-ïLÄû
  6
CONTINUOUS
 62
     5
 66
     1
  2
_OPEN
 10
-261.3602089801737
 20
147.412484460874
 30
0.0
 41
1.5
 42
1.5
 43
1.5
 50
270.0
  0
SEQEND
  5
4DC
  8
ë±90-ÿg2
  6
CONTINUOUS
 62
     7
  0
TEXT
  5
4DD
  8
ë±08-ïLÄû
  6
CONTINUOUS
 62
     5
 10
-262.0268764801738
 20
149.079134460874
 30
0.0
 40
3.333349999999999
  1
(10)
 50
90.0
1001
ACAD
1000
MTEXTBEGIN
1070
    73
1070
     1
1070
    44
1040
1.0
1070
    74
1070
     0
1000
MTEXTEND
  0
POINT
  5
4DE
  8
DEFPOINTS
  6
CONTINUOUS
 62
     0
 10
-265.6347418445358
 20
157.412484460874
 30
0.0
  0
POINT
  5
4DF
  8
DEFPOINTS
  6
CONTINUOUS
 62
     0
 10
-265.6347418445358
 20
147.412484460874
 30
0.0
  0
POINT
  5
4E0
  8
DEFPOINTS
  6
CONTINUOUS
 62
     0
 10
-261.3602089801737
 20
147.412484460874
 30
0.0
  0
ENDBLK
  5
4E1
  8
0
 62
     7
  0
BLOCK
  8
0
  2
*D5
 70
     1
 10
0.0
 20
0.0
 30
0.0
  3
*D5
  1

  0
LINE
  5
4C5
  8
ë±08-ïLÄû
  6
CONTINUOUS
 62
     5
 10
-265.6347418445358
 20
147.412484460874
 30
0.0
 11
-265.6347418445358
 21
136.9115021955681
 31
0.0
  0
LINE
  5
4C6
  8
ë±08-ïLÄû
  6
CONTINUOUS
 62
     5
 10
-268.1347418445358
 20
147.412484460874
 30
0.0
 11
-268.1347418445358
 21
136.9115021955681
 31
0.0
  0
LINE
  5
4C7
  8
ë±08-ïLÄû
  6
CONTINUOUS
 62
     5
 10
-269.6347418445358
 20
137.9115021955681
 30
0.0
 11
-289.7225038524099
 21
137.9115021955681
 31
0.0
  0
LINE
  5
4C8
  8
ë±08-ïLÄû
  6
CONTINUOUS
 62
     5
 10
-265.6347418445358
 20
137.9115021955681
 30
0.0
 11
-268.1347418445358
 21
137.9115021955681
 31
0.0
  0
LINE
  5
4C9
  8
ë±08-ïLÄû
  6
CONTINUOUS
 62
     5
 10
-264.1347418445358
 20
137.9115021955681
 30
0.0
 11
-262.6347418445358
 21
137.9115021955681
 31
0.0
  0
INSERT
  5
4CA
  8
ë±08-ïLÄû
  6
CONTINUOUS
 62
     5
 66
     1
  2
_OPEN
 10
-265.6347418445358
 20
137.9115021955681
 30
0.0
 41
1.5
 42
1.5
 43
1.5
 50
180.0
  0
SEQEND
  5
4CB
  8
ë±90-ÿg2
  6
CONTINUOUS
 62
     7
  0
INSERT
  5
4CC
  8
ë±08-ïLÄû
  6
CONTINUOUS
 62
     5
 66
     1
  2
_OPEN
 10
-268.1347418445358
 20
137.9115021955681
 30
0.0
 41
1.5
 42
1.5
 43
1.5
  0
SEQEND
  5
4CD
  8
ë±90-ÿg2
  6
CONTINUOUS
 62
     7
  0
INSERT
  5
4CE
  8
ë±08-ïLÄû
  6
CONTINUOUS
 62
     5
 66
     1
  2
*X88
 10
0.0
 20
0.0
 30
0.0
  0
SEQEND
  5
8F6
  8
ë±90-ÿg2
  6
CONTINUOUS
 62
     7
  0
POINT
  5
4CF
  8
DEFPOINTS
  6
CONTINUOUS
 62
     0
 10
-265.6347418445358
 20
147.412484460874
 30
0.0
  0
POINT
  5
4D0
  8
DEFPOINTS
  6
CONTINUOUS
 62
     0
 10
-268.1347418445358
 20
147.412484460874
 30
0.0
  0
POINT
  5
4D1
  8
DEFPOINTS
  6
CONTINUOUS
 62
     0
 10
-268.1347418445358
 20
137.9115021955681
 30
0.0
  0
ENDBLK
  5
4D2
  8
0
 62
     7
  0
BLOCK
  8
0
  2
*D6
 70
     1
 10
0.0
 20
0.0
 30
0.0
  3
*D6
  1

  0
LINE
  5
4B4
  8
ë±08-ïLÄû
  6
CONTINUOUS
 62
     5
 10
-260.7415576255654
 20
147.412484460874
 30
0.0
 11
-260.7415576255654
 21
130.6243900228123
 31
0.0
  0
LINE
  5
4B5
  8
ë±08-ïLÄû
  6
CONTINUOUS
 62
     5
 10
-258.2415576255654
 20
147.412484460874
 30
0.0
 11
-258.2415576255654
 21
130.6243900228123
 31
0.0
  0
LINE
  5
4B6
  8
ë±08-ïLÄû
  6
CONTINUOUS
 62
     5
 10
-256.7415576255654
 20
131.6243900228123
 30
0.0
 11
-236.6537956176914
 21
131.6243900228123
 31
0.0
  0
LINE
  5
4B7
  8
ë±08-ïLÄû
  6
CONTINUOUS
 62
     5
 10
-260.7415576255654
 20
131.6243900228123
 30
0.0
 11
-258.2415576255654
 21
131.6243900228123
 31
0.0
  0
LINE
  5
4B8
  8
ë±08-ïLÄû
  6
CONTINUOUS
 62
     5
 10
-262.2415576255654
 20
131.6243900228123
 30
0.0
 11
-263.7415576255654
 21
131.6243900228123
 31
0.0
  0
INSERT
  5
4B9
  8
ë±08-ïLÄû
  6
CONTINUOUS
 62
     5
 66
     1
  2
_OPEN
 10
-260.7415576255654
 20
131.6243900228123
 30
0.0
 41
1.5
 42
1.5
 43
1.5
  0
SEQEND
  5
4BA
  8
ë±90-ÿg2
  6
CONTINUOUS
 62
     7
  0
INSERT
  5
4BB
  8
ë±08-ïLÄû
  6
CONTINUOUS
 62
     5
 66
     1
  2
_OPEN
 10
-258.2415576255654
 20
131.6243900228123
 30
0.0
 41
1.5
 42
1.5
 43
1.5
 50
180.0
  0
SEQEND
  5
4BC
  8
ë±90-ÿg2
  6
CONTINUOUS
 62
     7
  0
INSERT
  5
4BD
  8
ë±08-ïLÄû
  6
CONTINUOUS
 62
     5
 66
     1
  2
*X89
 10
0.0
 20
0.0
 30
0.0
  0
SEQEND
  5
8FC
  8
ë±90-ÿg2
  6
CONTINUOUS
 62
     7
  0
POINT
  5
4BE
  8
DEFPOINTS
  6
CONTINUOUS
 62
     0
 10
-260.7415576255654
 20
147.412484460874
 30
0.0
  0
POINT
  5
4BF
  8
DEFPOINTS
  6
CONTINUOUS
 62
     0
 10
-258.2415576255654
 20
147.412484460874
 30
0.0
  0
POINT
  5
4C0
  8
DEFPOINTS
  6
CONTINUOUS
 62
     0
 10
-258.2415576255654
 20
131.6243900228123
 30
0.0
  0
ENDBLK
  5
4C1
  8
0
 62
     7
  0
BLOCK
  8
0
  2
*D7
 70
     1
 10
0.0
 20
0.0
 30
0.0
  3
*D7
  1

  0
LINE
  5
3F6
  8
ë±07-Éíû@
  6
CONTINUOUS
 62
     5
 10
-549.110487823227
 20
247.4084360900627
 30
0.0
 11
-576.8782446508484
 21
247.4084360900627
 31
0.0
  0
LINE
  5
3F7
  8
ë±07-Éíû@
  6
CONTINUOUS
 62
     5
 10
-534.8616131386755
 20
147.4124844608735
 30
0.0
 11
-576.8782446508484
 21
147.4124844608735
 31
0.0
  0
LINE
  5
3F8
  8
ë±07-Éíû@
  6
CONTINUOUS
 62
     5
 10
-575.8782446508483
 20
245.9084360900628
 30
0.0
 11
-575.8782446508483
 21
148.9124844608735
 31
0.0
  0
INSERT
  5
3F9
  8
ë±07-Éíû@
  6
CONTINUOUS
 62
     5
 66
     1
  2
_OPEN
 10
-575.8782446508483
 20
247.4084360900627
 30
0.0
 41
1.5
 42
1.5
 43
1.5
 50
90.0
  0
SEQEND
  5
3FA
  8
ë±90-ÿg2
  6
CONTINUOUS
 62
     7
  0
INSERT
  5
3FB
  8
ë±07-Éíû@
  6
CONTINUOUS
 62
     5
 66
     1
  2
_OPEN
 10
-575.8782446508483
 20
147.4124844608735
 30
0.0
 41
1.5
 42
1.5
 43
1.5
 50
270.0
  0
SEQEND
  5
3FC
  8
ë±90-ÿg2
  6
CONTINUOUS
 62
     7
  0
INSERT
  5
3FD
  8
ë±07-Éíû@
  6
CONTINUOUS
 62
     5
 66
     1
  2
*X90
 10
0.0
 20
0.0
 30
0.0
  0
SEQEND
  5
902
  8
ë±90-ÿg2
  6
CONTINUOUS
 62
     7
  0
POINT
  5
3FE
  8
DEFPOINTS
  6
CONTINUOUS
 62
     0
 10
-549.110487823227
 20
247.4084360900627
 30
0.0
  0
POINT
  5
3FF
  8
DEFPOINTS
  6
CONTINUOUS
 62
     0
 10
-534.8616131386755
 20
147.4124844608735
 30
0.0
  0
POINT
  5
400
  8
DEFPOINTS
  6
CONTINUOUS
 62
     0
 10
-575.8782446508483
 20
147.4124844608735
 30
0.0
  0
ENDBLK
  5
401
  8
0
 62
     7
  0
BLOCK
  8
0
  2
*D8
 70
     1
 10
0.0
 20
0.0
 30
0.0
  3
*D8
  1

  0
LINE
  5
3E5
  8
ë±07-Éíû@
  6
CONTINUOUS
 62
     5
 10
-549.110487823227
 20
247.4084360900627
 30
0.0
 11
-556.2155102765959
 21
247.4084360900627
 31
0.0
  0
LINE
  5
3E6
  8
ë±07-Éíû@
  6
CONTINUOUS
 62
     5
 10
-549.110487823227
 20
243.7807951269064
 30
0.0
 11
-556.2155102765959
 21
243.7807951269064
 31
0.0
  0
LINE
  5
3E7
  8
ë±07-Éíû@
  6
CONTINUOUS
 62
     5
 10
-555.2155102765958
 20
242.2807951269064
 30
0.0
 11
-555.2155102765958
 21
232.6546918077899
 31
0.0
  0
LINE
  5
3E8
  8
ë±07-Éíû@
  6
CONTINUOUS
 62
     5
 10
-555.2155102765958
 20
247.4084360900627
 30
0.0
 11
-555.2155102765958
 21
243.7807951269064
 31
0.0
  0
LINE
  5
3E9
  8
ë±07-Éíû@
  6
CONTINUOUS
 62
     5
 10
-555.2155102765958
 20
248.9084360900628
 30
0.0
 11
-555.2155102765958
 21
250.4084360900628
 31
0.0
  0
INSERT
  5
3EA
  8
ë±07-Éíû@
  6
CONTINUOUS
 62
     5
 66
     1
  2
_OPEN
 10
-555.2155102765958
 20
247.4084360900627
 30
0.0
 41
1.5
 42
1.5
 43
1.5
 50
270.0
  0
SEQEND
  5
3EB
  8
ë±90-ÿg2
  6
CONTINUOUS
 62
     7
  0
INSERT
  5
3EC
  8
ë±07-Éíû@
  6
CONTINUOUS
 62
     5
 66
     1
  2
_OPEN
 10
-555.2155102765958
 20
243.7807951269064
 30
0.0
 41
1.5
 42
1.5
 43
1.5
 50
90.0
  0
SEQEND
  5
3ED
  8
ë±90-ÿg2
  6
CONTINUOUS
 62
     7
  0
TEXT
  5
3EE
  8
ë±07-Éíû@
  6
CONTINUOUS
 62
     5
 10
-555.7155102765959
 20
232.4046918077899
 30
0.0
 40
5.0
  1
3.6
 50
90.0
1001
ACAD
1000
MTEXTBEGIN
1070
    73
1070
     1
1070
    44
1040
1.0
1070
    74
1070
     0
1000
MTEXTEND
  0
POINT
  5
3EF
  8
DEFPOINTS
  6
CONTINUOUS
 62
     0
 10
-549.110487823227
 20
247.4084360900627
 30
0.0
  0
POINT
  5
3F0
  8
DEFPOINTS
  6
CONTINUOUS
 62
     0
 10
-549.110487823227
 20
243.7807951269064
 30
0.0
  0
POINT
  5
3F1
  8
DEFPOINTS
  6
CONTINUOUS
 62
     0
 10
-555.2155102765958
 20
243.7807951269064
 30
0.0
  0
ENDBLK
  5
3F2
  8
0
 62
     7
  0
BLOCK
  8
0
  2
*D9
 70
     1
 10
0.0
 20
0.0
 30
0.0
  3
*D9
  1

  0
LINE
  5
3D6
  8
ë±07-Éíû@
  6
CONTINUOUS
 62
     5
 10
-549.110487823227
 20
247.4084360900627
 30
0.0
 11
-563.9121864925686
 21
247.4084360900627
 31
0.0
  0
LINE
  5
3D7
  8
ë±07-Éíû@
  6
CONTINUOUS
 62
     5
 10
-535.3616131386756
 20
230.0319204423548
 30
0.0
 11
-563.9121864925686
 21
230.0319204423548
 31
0.0
  0
LINE
  5
3D8
  8
ë±07-Éíû@
  6
CONTINUOUS
 62
     5
 10
-562.9121864925686
 20
245.9084360900628
 30
0.0
 11
-562.9121864925686
 21
231.5319204423548
 31
0.0
  0
INSERT
  5
3D9
  8
ë±07-Éíû@
  6
CONTINUOUS
 62
     5
 66
     1
  2
_OPEN
 10
-562.9121864925686
 20
247.4084360900627
 30
0.0
 41
1.5
 42
1.5
 43
1.5
 50
90.0
  0
SEQEND
  5
3DA
  8
ë±90-ÿg2
  6
CONTINUOUS
 62
     7
  0
INSERT
  5
3DB
  8
ë±07-Éíû@
  6
CONTINUOUS
 62
     5
 66
     1
  2
_OPEN
 10
-562.9121864925686
 20
230.0319204423548
 30
0.0
 41
1.5
 42
1.5
 43
1.5
 50
270.0
  0
SEQEND
  5
3DC
  8
ë±90-ÿg2
  6
CONTINUOUS
 62
     7
  0
TEXT
  5
3DD
  8
ë±07-Éíû@
  6
CONTINUOUS
 62
     5
 10
-563.4121864925686
 20
233.7590231142118
 30
0.0
 40
5.0
  1
17.4
 50
90.0
1001
ACAD
1000
MTEXTBEGIN
1070
    73
1070
     1
1070
    44
1040
1.0
1070
    74
1070
     0
1000
MTEXTEND
  0
POINT
  5
3DE
  8
DEFPOINTS
  6
CONTINUOUS
 62
     0
 10
-549.110487823227
 20
247.4084360900627
 30
0.0
  0
POINT
  5
3DF
  8
DEFPOINTS
  6
CONTINUOUS
 62
     0
 10
-535.3616131386756
 20
230.0319204423548
 30
0.0
  0
POINT
  5
3E0
  8
DEFPOINTS
  6
CONTINUOUS
 62
     0
 10
-562.9121864925686
 20
230.0319204423548
 30
0.0
  0
ENDBLK
  5
3E1
  8
0
 62
     7
  0
BLOCK
  8
0
  2
*D10
 70
     1
 10
0.0
 20
0.0
 30
0.0
  3
*D10
  1

  0
LINE
  5
3C5
  8
ë±07-Éíû@
  6
CONTINUOUS
 62
     5
 10
-486.110487823227
 20
247.4084360900621
 30
0.0
 11
-478.8542918261436
 21
247.4084360900621
 31
0.0
  0
LINE
  5
3C6
  8
ë±07-Éíû@
  6
CONTINUOUS
 62
     5
 10
-486.110487823227
 20
243.8528011714512
 30
0.0
 11
-478.8542918261436
 21
243.8528011714512
 31
0.0
  0
LINE
  5
3C7
  8
ë±07-Éíû@
  6
CONTINUOUS
 62
     5
 10
-479.8542918261436
 20
242.3528011714513
 30
0.0
 11
-479.8542918261436
 21
228.2599520399632
 31
0.0
  0
LINE
  5
3C8
  8
ë±07-Éíû@
  6
CONTINUOUS
 62
     5
 10
-479.8542918261436
 20
247.4084360900621
 30
0.0
 11
-479.8542918261436
 21
243.8528011714512
 31
0.0
  0
LINE
  5
3C9
  8
ë±07-Éíû@
  6
CONTINUOUS
 62
     5
 10
-479.8542918261436
 20
248.9084360900621
 30
0.0
 11
-479.8542918261436
 21
250.4084360900621
 31
0.0
  0
INSERT
  5
3CA
  8
ë±07-Éíû@
  6
CONTINUOUS
 62
     5
 66
     1
  2
_OPEN
 10
-479.8542918261436
 20
247.4084360900621
 30
0.0
 41
1.5
 42
1.5
 43
1.5
 50
270.0
  0
SEQEND
  5
3CB
  8
ë±90-ÿg2
  6
CONTINUOUS
 62
     7
  0
INSERT
  5
3CC
  8
ë±07-Éíû@
  6
CONTINUOUS
 62
     5
 66
     1
  2
_OPEN
 10
-479.8542918261436
 20
243.8528011714512
 30
0.0
 41
1.5
 42
1.5
 43
1.5
 50
90.0
  0
SEQEND
  5
3CD
  8
ë±90-ÿg2
  6
CONTINUOUS
 62
     7
  0
TEXT
  5
3CE
  8
ë±07-Éíû@
  6
CONTINUOUS
 62
     5
 10
-480.3542918261435
 20
228.0099520399632
 30
0.0
 40
5.0
  1
3.6
 50
90.0
1001
ACAD
1000
MTEXTBEGIN
1070
    73
1070
     1
1070
    44
1040
1.0
1070
    74
1070
     0
1000
MTEXTEND
  0
POINT
  5
3CF
  8
DEFPOINTS
  6
CONTINUOUS
 62
     0
 10
-486.110487823227
 20
247.4084360900621
 30
0.0
  0
POINT
  5
3D0
  8
DEFPOINTS
  6
CONTINUOUS
 62
     0
 10
-486.110487823227
 20
243.8528011714512
 30
0.0
  0
POINT
  5
3D1
  8
DEFPOINTS
  6
CONTINUOUS
 62
     0
 10
-479.8542918261436
 20
243.8528011714512
 30
0.0
  0
ENDBLK
  5
3D2
  8
0
 62
     7
  0
BLOCK
  8
0
  2
*D11
 70
     1
 10
0.0
 20
0.0
 30
0.0
  3
*D11
  1

  0
LINE
  5
3B4
  8
ë±07-Éíû@
  6
CONTINUOUS
 62
     5
 10
-486.110487823227
 20
247.4084360900621
 30
0.0
 11
-471.5181866355472
 21
247.4084360900621
 31
0.0
  0
LINE
  5
3B5
  8
ë±07-Éíû@
  6
CONTINUOUS
 62
     5
 10
-492.8616131386755
 20
237.101675856003
 30
0.0
 11
-471.5181866355472
 21
237.101675856003
 31
0.0
  0
LINE
  5
3B6
  8
ë±07-Éíû@
  6
CONTINUOUS
 62
     5
 10
-472.5181866355472
 20
235.601675856003
 30
0.0
 11
-472.5181866355472
 21
223.4981224654094
 31
0.0
  0
LINE
  5
3B7
  8
ë±07-Éíû@
  6
CONTINUOUS
 62
     5
 10
-472.5181866355472
 20
247.4084360900621
 30
0.0
 11
-472.5181866355472
 21
237.101675856003
 31
0.0
  0
LINE
  5
3B8
  8
ë±07-Éíû@
  6
CONTINUOUS
 62
     5
 10
-472.5181866355472
 20
248.9084360900621
 30
0.0
 11
-472.5181866355472
 21
250.4084360900621
 31
0.0
  0
INSERT
  5
3B9
  8
ë±07-Éíû@
  6
CONTINUOUS
 62
     5
 66
     1
  2
_OPEN
 10
-472.5181866355472
 20
247.4084360900621
 30
0.0
 41
1.5
 42
1.5
 43
1.5
 50
270.0
  0
SEQEND
  5
3BA
  8
ë±90-ÿg2
  6
CONTINUOUS
 62
     7
  0
INSERT
  5
3BB
  8
ë±07-Éíû@
  6
CONTINUOUS
 62
     5
 66
     1
  2
_OPEN
 10
-472.5181866355472
 20
237.101675856003
 30
0.0
 41
1.5
 42
1.5
 43
1.5
 50
90.0
  0
SEQEND
  5
3BC
  8
ë±90-ÿg2
  6
CONTINUOUS
 62
     7
  0
TEXT
  5
3BD
  8
ë±07-Éíû@
  6
CONTINUOUS
 62
     5
 10
-473.0181866355472
 20
223.2481224654094
 30
0.0
 40
5.0
  1
10.3
 50
90.0
1001
ACAD
1000
MTEXTBEGIN
1070
    73
1070
     1
1070
    44
1040
1.0
1070
    74
1070
     0
1000
MTEXTEND
  0
POINT
  5
3BE
  8
DEFPOINTS
  6
CONTINUOUS
 62
     0
 10
-486.110487823227
 20
247.4084360900621
 30
0.0
  0
POINT
  5
3BF
  8
DEFPOINTS
  6
CONTINUOUS
 62
     0
 10
-492.8616131386755
 20
237.101675856003
 30
0.0
  0
POINT
  5
3C0
  8
DEFPOINTS
  6
CONTINUOUS
 62
     0
 10
-472.5181866355472
 20
237.101675856003
 30
0.0
  0
ENDBLK
  5
3C1
  8
0
 62
     7
  0
BLOCK
  8
0
  2
*D12
 70
     1
 10
0.0
 20
0.0
 30
0.0
  3
*D12
  1

  0
LINE
  5
3A5
  8
ë±07-Éíû@
  6
CONTINUOUS
 62
     5
 10
-493.3616131386755
 20
147.4124844608726
 30
0.0
 11
-459.2162243239089
 21
147.4124844608726
 31
0.0
  0
LINE
  5
3A6
  8
ë±07-Éíû@
  6
CONTINUOUS
 62
     5
 10
-486.110487823227
 20
247.4084360900623
 30
0.0
 11
-459.2162243239089
 21
247.4084360900623
 31
0.0
  0
LINE
  5
3A7
  8
ë±07-Éíû@
  6
CONTINUOUS
 62
     5
 10
-460.2162243239089
 20
148.9124844608726
 30
0.0
 11
-460.2162243239089
 21
245.9084360900623
 31
0.0
  0
INSERT
  5
3A8
  8
ë±07-Éíû@
  6
CONTINUOUS
 62
     5
 66
     1
  2
_OPEN
 10
-460.2162243239089
 20
147.4124844608726
 30
0.0
 41
1.5
 42
1.5
 43
1.5
 50
270.0
  0
SEQEND
  5
3A9
  8
ë±90-ÿg2
  6
CONTINUOUS
 62
     7
  0
INSERT
  5
3AA
  8
ë±07-Éíû@
  6
CONTINUOUS
 62
     5
 66
     1
  2
_OPEN
 10
-460.2162243239089
 20
247.4084360900623
 30
0.0
 41
1.5
 42
1.5
 43
1.5
 50
90.0
  0
SEQEND
  5
3AB
  8
ë±90-ÿg2
  6
CONTINUOUS
 62
     7
  0
INSERT
  5
3AC
  8
ë±07-Éíû@
  6
CONTINUOUS
 62
     5
 66
     1
  2
*X91
 10
0.0
 20
0.0
 30
0.0
  0
SEQEND
  5
908
  8
ë±90-ÿg2
  6
CONTINUOUS
 62
     7
  0
POINT
  5
3AD
  8
DEFPOINTS
  6
CONTINUOUS
 62
     0
 10
-493.3616131386755
 20
147.4124844608726
 30
0.0
  0
POINT
  5
3AE
  8
DEFPOINTS
  6
CONTINUOUS
 62
     0
 10
-486.110487823227
 20
247.4084360900623
 30
0.0
  0
POINT
  5
3AF
  8
DEFPOINTS
  6
CONTINUOUS
 62
     0
 10
-460.2162243239089
 20
247.4084360900623
 30
0.0
  0
ENDBLK
  5
3B0
  8
0
 62
     7
  0
BLOCK
  8
0
  2
*D13
 70
     1
 10
0.0
 20
0.0
 30
0.0
  3
*D13
  1

  0
LINE
  5
38F
  8
ë±07-Éíû@
  6
CONTINUOUS
 62
     5
 10
-535.3616131386757
 20
147.908436090063
 30
0.0
 11
-535.3616131386757
 21
130.2696949403006
 31
0.0
  0
LINE
  5
390
  8
ë±07-Éíû@
  6
CONTINUOUS
 62
     5
 10
-692.3654918282275
 20
247.408436090063
 30
0.0
 11
-692.3654918282275
 21
130.2696949403006
 31
0.0
  0
LINE
  5
391
  8
ë±07-Éíû@
  6
CONTINUOUS
 62
     5
 10
-536.8616131386756
 20
131.2696949403006
 30
0.0
 11
-690.8654918282275
 21
131.2696949403006
 31
0.0
  0
INSERT
  5
392
  8
ë±07-Éíû@
  6
CONTINUOUS
 62
     5
 66
     1
  2
_OPEN
 10
-535.3616131386757
 20
131.2696949403006
 30
0.0
 41
1.5
 42
1.5
 43
1.5
 50
360.0
  0
SEQEND
  5
393
  8
ë±90-ÿg2
  6
CONTINUOUS
 62
     7
  0
INSERT
  5
394
  8
ë±07-Éíû@
  6
CONTINUOUS
 62
     5
 66
     1
  2
_OPEN
 10
-692.3654918282275
 20
131.2696949403006
 30
0.0
 41
1.5
 42
1.5
 43
1.5
 50
180.0
  0
SEQEND
  5
395
  8
ë±90-ÿg2
  6
CONTINUOUS
 62
     7
  0
TEXT
  5
396
  8
ë±07-Éíû@
  6
CONTINUOUS
 62
     5
 10
-620.6135524834516
 20
132.0196949403007
 30
0.0
 40
5.0
  1
(157)
1001
ACAD
1000
MTEXTBEGIN
1070
    73
1070
     1
1070
    44
1040
1.0
1070
    74
1070
     0
1000
MTEXTEND
  0
POINT
  5
397
  8
DEFPOINTS
  6
CONTINUOUS
 62
     0
 10
-535.3616131386757
 20
147.908436090063
 30
0.0
  0
POINT
  5
398
  8
DEFPOINTS
  6
CONTINUOUS
 62
     0
 10
-692.3654918282275
 20
247.408436090063
 30
0.0
  0
POINT
  5
399
  8
DEFPOINTS
  6
CONTINUOUS
 62
     0
 10
-692.3654918282275
 20
131.2696949403006
 30
0.0
  0
ENDBLK
  5
39A
  8
0
 62
     7
  0
BLOCK
  8
0
  2
*D14
 70
     1
 10
0.0
 20
0.0
 30
0.0
  3
*D14
  1

  0
LINE
  5
380
  8
ë±07-Éíû@
  6
CONTINUOUS
 62
     5
 10
-692.3654918282275
 20
247.4084360900632
 30
0.0
 11
-692.3654918282275
 21
119.7459618232842
 31
0.0
  0
LINE
  5
381
  8
ë±07-Éíû@
  6
CONTINUOUS
 62
     5
 10
-506.3616131386756
 20
147.9124844608737
 30
0.0
 11
-506.3616131386756
 21
119.7459618232842
 31
0.0
  0
LINE
  5
382
  8
ë±07-Éíû@
  6
CONTINUOUS
 62
     5
 10
-690.8654918282275
 20
120.7459618232842
 30
0.0
 11
-507.8616131386755
 21
120.7459618232842
 31
0.0
  0
INSERT
  5
383
  8
ë±07-Éíû@
  6
CONTINUOUS
 62
     5
 66
     1
  2
_OPEN
 10
-692.3654918282275
 20
120.7459618232842
 30
0.0
 41
1.5
 42
1.5
 43
1.5
 50
180.0
  0
SEQEND
  5
384
  8
ë±90-ÿg2
  6
CONTINUOUS
 62
     7
  0
INSERT
  5
385
  8
ë±07-Éíû@
  6
CONTINUOUS
 62
     5
 66
     1
  2
_OPEN
 10
-506.3616131386756
 20
120.7459618232842
 30
0.0
 41
1.5
 42
1.5
 43
1.5
  0
SEQEND
  5
386
  8
ë±90-ÿg2
  6
CONTINUOUS
 62
     7
  0
TEXT
  5
387
  8
ë±07-Éíû@
  6
CONTINUOUS
 62
     5
 10
-606.1135524834514
 20
121.4959618232842
 30
0.0
 40
5.0
  1
(186)
1001
ACAD
1000
MTEXTBEGIN
1070
    73
1070
     1
1070
    44
1040
1.0
1070
    74
1070
     0
1000
MTEXTEND
  0
POINT
  5
388
  8
DEFPOINTS
  6
CONTINUOUS
 62
     0
 10
-692.3654918282275
 20
247.4084360900632
 30
0.0
  0
POINT
  5
389
  8
DEFPOINTS
  6
CONTINUOUS
 62
     0
 10
-506.3616131386756
 20
147.9124844608737
 30
0.0
  0
POINT
  5
38A
  8
DEFPOINTS
  6
CONTINUOUS
 62
     0
 10
-506.3616131386756
 20
120.7459618232842
 30
0.0
  0
ENDBLK
  5
38B
  8
0
 62
     7
  0
BLOCK
  8
0
  2
*D15
 70
     1
 10
0.0
 20
0.0
 30
0.0
  3
*D15
  1

  0
LINE
  5
371
  8
ë±07-Éíû@
  6
CONTINUOUS
 62
     5
 10
-682.4254918282274
 20
261.2384360900626
 30
0.0
 11
-733.3654918282274
 21
261.2384360900626
 31
0.0
  0
LINE
  5
372
  8
ë±07-Éíû@
  6
CONTINUOUS
 62
     5
 10
-682.4254918182271
 20
531.5784360900624
 30
0.0
 11
-733.3654918282274
 21
531.5784360900624
 31
0.0
  0
LINE
  5
373
  8
ë±07-Éíû@
  6
CONTINUOUS
 62
     5
 10
-732.3654918282273
 20
262.7384360900626
 30
0.0
 11
-732.3654918282273
 21
530.0784360900625
 31
0.0
  0
INSERT
  5
374
  8
ë±07-Éíû@
  6
CONTINUOUS
 62
     5
 66
     1
  2
_OPEN
 10
-732.3654918282273
 20
261.2384360900626
 30
0.0
 41
1.5
 42
1.5
 43
1.5
 50
270.0
  0
SEQEND
  5
375
  8
ë±90-ÿg2
  6
CONTINUOUS
 62
     7
  0
INSERT
  5
376
  8
ë±07-Éíû@
  6
CONTINUOUS
 62
     5
 66
     1
  2
_OPEN
 10
-732.3654918282273
 20
531.5784360900624
 30
0.0
 41
1.5
 42
1.5
 43
1.5
 50
90.0
  0
SEQEND
  5
377
  8
ë±90-ÿg2
  6
CONTINUOUS
 62
     7
  0
TEXT
  5
378
  8
ë±07-Éíû@
  6
CONTINUOUS
 62
     5
 10
-733.1154918282273
 20
366.2094203420312
 30
0.0
 40
5.0
  1
270.34(Active area)
 50
90.0
1001
ACAD
1000
MTEXTBEGIN
1070
    73
1070
     1
1070
    44
1040
1.0
1070
    74
1070
     0
1000
MTEXTEND
  0
POINT
  5
379
  8
DEFPOINTS
  6
CONTINUOUS
 62
     0
 10
-682.4254918282274
 20
261.2384360900626
 30
0.0
  0
POINT
  5
37A
  8
DEFPOINTS
  6
CONTINUOUS
 62
     0
 10
-682.4254918182271
 20
531.5784360900624
 30
0.0
  0
POINT
  5
37B
  8
DEFPOINTS
  6
CONTINUOUS
 62
     0
 10
-732.3654918282273
 20
531.5784360900624
 30
0.0
  0
ENDBLK
  5
37C
  8
0
 62
     7
  0
BLOCK
  8
0
  2
*D16
 70
     1
 10
0.0
 20
0.0
 30
0.0
  3
*D16
  1

  0
LINE
  5
362
  8
ë±07-Éíû@
  6
CONTINUOUS
 62
     5
 10
-684.4254918282274
 20
533.5784360900634
 30
0.0
 11
-743.3654918282273
 21
533.5784360900634
 31
0.0
  0
LINE
  5
363
  8
ë±07-Éíû@
  6
CONTINUOUS
 62
     5
 10
-684.4254918282274
 20
259.2384360900626
 30
0.0
 11
-743.3654918282273
 21
259.2384360900626
 31
0.0
  0
LINE
  5
364
  8
ë±07-Éíû@
  6
CONTINUOUS
 62
     5
 10
-742.3654918282274
 20
532.0784360900634
 30
0.0
 11
-742.3654918282274
 21
260.7384360900626
 31
0.0
  0
INSERT
  5
365
  8
ë±07-Éíû@
  6
CONTINUOUS
 62
     5
 66
     1
  2
_OPEN
 10
-742.3654918282274
 20
533.5784360900634
 30
0.0
 41
1.5
 42
1.5
 43
1.5
 50
90.0
  0
SEQEND
  5
366
  8
ë±90-ÿg2
  6
CONTINUOUS
 62
     7
  0
INSERT
  5
367
  8
ë±07-Éíû@
  6
CONTINUOUS
 62
     5
 66
     1
  2
_OPEN
 10
-742.3654918282274
 20
259.2384360900626
 30
0.0
 41
1.5
 42
1.5
 43
1.5
 50
270.0
  0
SEQEND
  5
368
  8
ë±90-ÿg2
  6
CONTINUOUS
 62
     7
  0
TEXT
  5
369
  8
ë±07-Éíû@
  6
CONTINUOUS
 62
     5
 10
-744.1154918282274
 20
364.2094203420312
 30
0.0
 40
5.0
  1
274.34(Viewing area)
 50
90.0
1001
ACAD
1000
MTEXTBEGIN
1070
    73
1070
     1
1070
    44
1040
1.0
1070
    74
1070
     0
1000
MTEXTEND
  0
POINT
  5
36A
  8
DEFPOINTS
  6
CONTINUOUS
 62
     0
 10
-684.4254918282274
 20
533.5784360900634
 30
0.0
  0
POINT
  5
36B
  8
DEFPOINTS
  6
CONTINUOUS
 62
     0
 10
-684.4254918282274
 20
259.2384360900626
 30
0.0
  0
POINT
  5
36C
  8
DEFPOINTS
  6
CONTINUOUS
 62
     0
 10
-742.3654918282274
 20
259.2384360900626
 30
0.0
  0
ENDBLK
  5
36D
  8
0
 62
     7
  0
BLOCK
  8
0
  2
*D17
 70
     1
 10
0.0
 20
0.0
 30
0.0
  3
*D17
  1

  0
LINE
  5
353
  8
ë±07-Éíû@
  6
CONTINUOUS
 62
     5
 10
-692.3654918282275
 20
543.9084360900627
 30
0.0
 11
-763.3654918282273
 21
543.9084360900627
 31
0.0
  0
LINE
  5
354
  8
ë±07-Éíû@
  6
CONTINUOUS
 62
     5
 10
-692.3654918282275
 20
247.4084360900627
 30
0.0
 11
-763.3654918282273
 21
247.4084360900627
 31
0.0
  0
LINE
  5
355
  8
ë±07-Éíû@
  6
CONTINUOUS
 62
     5
 10
-762.3654918282272
 20
542.4084360900628
 30
0.0
 11
-762.3654918282272
 21
248.9084360900628
 31
0.0
  0
INSERT
  5
356
  8
ë±07-Éíû@
  6
CONTINUOUS
 62
     5
 66
     1
  2
_OPEN
 10
-762.3654918282272
 20
543.9084360900627
 30
0.0
 41
1.5
 42
1.5
 43
1.5
 50
90.0
  0
SEQEND
  5
357
  8
ë±90-ÿg2
  6
CONTINUOUS
 62
     7
  0
INSERT
  5
358
  8
ë±07-Éíû@
  6
CONTINUOUS
 62
     5
 66
     1
  2
_OPEN
 10
-762.3654918282272
 20
247.4084360900627
 30
0.0
 41
1.5
 42
1.5
 43
1.5
 50
270.0
  0
SEQEND
  5
359
  8
ë±90-ÿg2
  6
CONTINUOUS
 62
     7
  0
INSERT
  5
35A
  8
ë±07-Éíû@
  6
CONTINUOUS
 62
     5
 66
     1
  2
*X92
 10
0.0
 20
0.0
 30
0.0
  0
SEQEND
  5
90E
  8
ë±90-ÿg2
  6
CONTINUOUS
 62
     7
  0
POINT
  5
35B
  8
DEFPOINTS
  6
CONTINUOUS
 62
     0
 10
-692.3654918282275
 20
543.9084360900627
 30
0.0
  0
POINT
  5
35C
  8
DEFPOINTS
  6
CONTINUOUS
 62
     0
 10
-692.3654918282275
 20
247.4084360900627
 30
0.0
  0
POINT
  5
35D
  8
DEFPOINTS
  6
CONTINUOUS
 62
     0
 10
-762.3654918282272
 20
247.4084360900627
 30
0.0
  0
ENDBLK
  5
35E
  8
0
 62
     7
  0
BLOCK
  8
0
  2
*D18
 70
     1
 10
0.0
 20
0.0
 30
0.0
  3
*D18
  1

  0
LINE
  5
344
  8
ë±07-Éíû@
  6
CONTINUOUS
 62
     5
 10
-344.5054918282274
 20
531.5784360900624
 30
0.0
 11
-344.5054918282274
 21
566.9284360900636
 31
0.0
  0
LINE
  5
345
  8
ë±07-Éíû@
  6
CONTINUOUS
 62
     5
 10
-682.4254918182271
 20
531.5784360900624
 30
0.0
 11
-682.4254918182271
 21
566.9284360900636
 31
0.0
  0
LINE
  5
346
  8
ë±07-Éíû@
  6
CONTINUOUS
 62
     5
 10
-346.0054918282274
 20
565.9284360900636
 30
0.0
 11
-680.925491818227
 21
565.9284360900636
 31
0.0
  0
INSERT
  5
347
  8
ë±07-Éíû@
  6
CONTINUOUS
 62
     5
 66
     1
  2
_OPEN
 10
-344.5054918282274
 20
565.9284360900636
 30
0.0
 41
1.5
 42
1.5
 43
1.5
  0
SEQEND
  5
348
  8
ë±90-ÿg2
  6
CONTINUOUS
 62
     7
  0
INSERT
  5
349
  8
ë±07-Éíû@
  6
CONTINUOUS
 62
     5
 66
     1
  2
_OPEN
 10
-682.4254918182271
 20
565.9284360900636
 30
0.0
 41
1.5
 42
1.5
 43
1.5
 50
180.0
  0
SEQEND
  5
34A
  8
ë±90-ÿg2
  6
CONTINUOUS
 62
     7
  0
TEXT
  5
34B
  8
ë±07-Éíû@
  6
CONTINUOUS
 62
     5
 10
-542.7235334925761
 20
566.6784360900636
 30
0.0
 40
5.0
  1
337.92(Active area)
1001
ACAD
1000
MTEXTBEGIN
1070
    73
1070
     1
1070
    44
1040
1.0
1070
    74
1070
     0
1000
MTEXTEND
  0
POINT
  5
34C
  8
DEFPOINTS
  6
CONTINUOUS
 62
     0
 10
-344.5054918282274
 20
531.5784360900624
 30
0.0
  0
POINT
  5
34D
  8
DEFPOINTS
  6
CONTINUOUS
 62
     0
 10
-682.4254918182271
 20
531.5784360900624
 30
0.0
  0
POINT
  5
34E
  8
DEFPOINTS
  6
CONTINUOUS
 62
     0
 10
-682.4254918182271
 20
565.9284360900636
 30
0.0
  0
ENDBLK
  5
34F
  8
0
 62
     7
  0
BLOCK
  8
0
  2
*D19
 70
     1
 10
0.0
 20
0.0
 30
0.0
  3
*D19
  1

  0
LINE
  5
335
  8
ë±07-Éíû@
  6
CONTINUOUS
 62
     5
 10
-684.4254918282274
 20
533.5784360900634
 30
0.0
 11
-684.4254918282274
 21
578.9284360900636
 31
0.0
  0
LINE
  5
336
  8
ë±07-Éíû@
  6
CONTINUOUS
 62
     5
 10
-342.5054918282274
 20
533.5784360900625
 30
0.0
 11
-342.5054918282274
 21
578.9284360900636
 31
0.0
  0
LINE
  5
337
  8
ë±07-Éíû@
  6
CONTINUOUS
 62
     5
 10
-682.9254918282274
 20
577.9284360900637
 30
0.0
 11
-344.0054918282274
 21
577.9284360900637
 31
0.0
  0
INSERT
  5
338
  8
ë±07-Éíû@
  6
CONTINUOUS
 62
     5
 66
     1
  2
_OPEN
 10
-684.4254918282274
 20
577.9284360900637
 30
0.0
 41
1.5
 42
1.5
 43
1.5
 50
180.0
  0
SEQEND
  5
339
  8
ë±90-ÿg2
  6
CONTINUOUS
 62
     7
  0
INSERT
  5
33A
  8
ë±07-Éíû@
  6
CONTINUOUS
 62
     5
 66
     1
  2
_OPEN
 10
-342.5054918282274
 20
577.9284360900637
 30
0.0
 41
1.5
 42
1.5
 43
1.5
  0
SEQEND
  5
33B
  8
ë±90-ÿg2
  6
CONTINUOUS
 62
     7
  0
TEXT
  5
33C
  8
ë±07-Éíû@
  6
CONTINUOUS
 62
     5
 10
-542.5316115028689
 20
579.6784360900637
 30
0.0
 40
5.0
  1
341.92(Viewing area)
1001
ACAD
1000
MTEXTBEGIN
1070
    73
1070
     1
1070
    44
1040
1.0
1070
    74
1070
     0
1000
MTEXTEND
  0
POINT
  5
33D
  8
DEFPOINTS
  6
CONTINUOUS
 62
     0
 10
-684.4254918282274
 20
533.5784360900634
 30
0.0
  0
POINT
  5
33E
  8
DEFPOINTS
  6
CONTINUOUS
 62
     0
 10
-342.5054918282274
 20
533.5784360900625
 30
0.0
  0
POINT
  5
33F
  8
DEFPOINTS
  6
CONTINUOUS
 62
     0
 10
-342.5054918282274
 20
577.9284360900637
 30
0.0
  0
ENDBLK
  5
340
  8
0
 62
     7
  0
BLOCK
  8
0
  2
*D20
 70
     1
 10
0.0
 20
0.0
 30
0.0
  3
*D20
  1

  0
LINE
  5
326
  8
ë±07-Éíû@
  6
CONTINUOUS
 62
     5
 10
-333.8654918282275
 20
543.9084360900627
 30
0.0
 11
-333.8654918282275
 21
602.9284360900637
 31
0.0
  0
LINE
  5
327
  8
ë±07-Éíû@
  6
CONTINUOUS
 62
     5
 10
-692.3654918282275
 20
543.9084360900627
 30
0.0
 11
-692.3654918282275
 21
602.9284360900637
 31
0.0
  0
LINE
  5
328
  8
ë±07-Éíû@
  6
CONTINUOUS
 62
     5
 10
-335.3654918282275
 20
601.9284360900636
 30
0.0
 11
-690.8654918282275
 21
601.9284360900636
 31
0.0
  0
INSERT
  5
329
  8
ë±07-Éíû@
  6
CONTINUOUS
 62
     5
 66
     1
  2
_OPEN
 10
-333.8654918282275
 20
601.9284360900636
 30
0.0
 41
1.5
 42
1.5
 43
1.5
  0
SEQEND
  5
32A
  8
ë±90-ÿg2
  6
CONTINUOUS
 62
     7
  0
INSERT
  5
32B
  8
ë±07-Éíû@
  6
CONTINUOUS
 62
     5
 66
     1
  2
_OPEN
 10
-692.3654918282275
 20
601.9284360900636
 30
0.0
 41
1.5
 42
1.5
 43
1.5
 50
180.0
  0
SEQEND
  5
32C
  8
ë±90-ÿg2
  6
CONTINUOUS
 62
     7
  0
INSERT
  5
32D
  8
ë±07-Éíû@
  6
CONTINUOUS
 62
     5
 66
     1
  2
*X93
 10
0.0
 20
0.0
 30
0.0
  0
SEQEND
  5
914
  8
ë±90-ÿg2
  6
CONTINUOUS
 62
     7
  0
POINT
  5
32E
  8
DEFPOINTS
  6
CONTINUOUS
 62
     0
 10
-333.8654918282275
 20
543.9084360900627
 30
0.0
  0
POINT
  5
32F
  8
DEFPOINTS
  6
CONTINUOUS
 62
     0
 10
-692.3654918282275
 20
543.9084360900627
 30
0.0
  0
POINT
  5
330
  8
DEFPOINTS
  6
CONTINUOUS
 62
     0
 10
-692.3654918282275
 20
601.9284360900636
 30
0.0
  0
ENDBLK
  5
331
  8
0
 62
     7
  0
BLOCK
  8
0
  2
*D21
 70
     1
 10
0.0
 20
0.0
 30
0.0
  3
*D21
  1

  0
LINE
  5
315
  8
ë±07-Éíû@
  6
CONTINUOUS
 62
     5
 10
-684.4254918282274
 20
259.2384360900626
 30
0.0
 11
-743.3654918282274
 21
259.2384360900626
 31
0.0
  0
LINE
  5
316
  8
ë±07-Éíû@
  6
CONTINUOUS
 62
     5
 10
-692.3654918282275
 20
247.4084360900627
 30
0.0
 11
-743.3654918282274
 21
247.4084360900627
 31
0.0
  0
LINE
  5
317
  8
ë±07-Éíû@
  6
CONTINUOUS
 62
     5
 10
-742.3654918282275
 20
245.9084360900628
 30
0.0
 11
-742.3654918282275
 21
231.3048826994697
 31
0.0
  0
LINE
  5
318
  8
ë±07-Éíû@
  6
CONTINUOUS
 62
     5
 10
-742.3654918282275
 20
259.2384360900626
 30
0.0
 11
-742.3654918282275
 21
247.4084360900627
 31
0.0
  0
LINE
  5
319
  8
ë±07-Éíû@
  6
CONTINUOUS
 62
     5
 10
-742.3654918282275
 20
260.7384360900626
 30
0.0
 11
-742.3654918282275
 21
262.2384360900626
 31
0.0
  0
INSERT
  5
31A
  8
ë±07-Éíû@
  6
CONTINUOUS
 62
     5
 66
     1
  2
_OPEN
 10
-742.3654918282275
 20
259.2384360900626
 30
0.0
 41
1.5
 42
1.5
 43
1.5
 50
270.0
  0
SEQEND
  5
31B
  8
ë±90-ÿg2
  6
CONTINUOUS
 62
     7
  0
INSERT
  5
31C
  8
ë±07-Éíû@
  6
CONTINUOUS
 62
     5
 66
     1
  2
_OPEN
 10
-742.3654918282275
 20
247.4084360900627
 30
0.0
 41
1.5
 42
1.5
 43
1.5
 50
90.0
  0
SEQEND
  5
31D
  8
ë±90-ÿg2
  6
CONTINUOUS
 62
     7
  0
TEXT
  5
31E
  8
ë±07-Éíû@
  6
CONTINUOUS
 62
     5
 10
-742.8654918282274
 20
231.0548826994698
 30
0.0
 40
5.0
  1
11.83
 50
90.0
1001
ACAD
1000
MTEXTBEGIN
1070
    73
1070
     1
1070
    44
1040
1.0
1070
    74
1070
     0
1000
MTEXTEND
  0
POINT
  5
31F
  8
DEFPOINTS
  6
CONTINUOUS
 62
     0
 10
-684.4254918282274
 20
259.2384360900626
 30
0.0
  0
POINT
  5
320
  8
DEFPOINTS
  6
CONTINUOUS
 62
     0
 10
-692.3654918282275
 20
247.4084360900627
 30
0.0
  0
POINT
  5
321
  8
DEFPOINTS
  6
CONTINUOUS
 62
     0
 10
-742.3654918282275
 20
247.4084360900627
 30
0.0
  0
ENDBLK
  5
322
  8
0
 62
     7
  0
BLOCK
  8
0
  2
*D22
 70
     1
 10
0.0
 20
0.0
 30
0.0
  3
*D22
  1

  0
LINE
  5
304
  8
ë±07-Éíû@
  6
CONTINUOUS
 62
     5
 10
-682.4254918282274
 20
261.2384360900624
 30
0.0
 11
-733.3654918282275
 21
261.2384360900624
 31
0.0
  0
LINE
  5
305
  8
ë±07-Éíû@
  6
CONTINUOUS
 62
     5
 10
-692.3654918282275
 20
247.4084360900627
 30
0.0
 11
-733.3654918282275
 21
247.4084360900627
 31
0.0
  0
LINE
  5
306
  8
ë±07-Éíû@
  6
CONTINUOUS
 62
     5
 10
-732.3654918282275
 20
245.9084360900628
 30
0.0
 11
-732.3654918282275
 21
230.3048826994698
 31
0.0
  0
LINE
  5
307
  8
ë±07-Éíû@
  6
CONTINUOUS
 62
     5
 10
-732.3654918282275
 20
261.2384360900624
 30
0.0
 11
-732.3654918282275
 21
247.4084360900627
 31
0.0
  0
LINE
  5
308
  8
ë±07-Éíû@
  6
CONTINUOUS
 62
     5
 10
-732.3654918282275
 20
262.7384360900624
 30
0.0
 11
-732.3654918282275
 21
264.2384360900623
 31
0.0
  0
INSERT
  5
309
  8
ë±07-Éíû@
  6
CONTINUOUS
 62
     5
 66
     1
  2
_OPEN
 10
-732.3654918282275
 20
261.2384360900624
 30
0.0
 41
1.5
 42
1.5
 43
1.5
 50
270.0
  0
SEQEND
  5
30A
  8
ë±90-ÿg2
  6
CONTINUOUS
 62
     7
  0
INSERT
  5
30B
  8
ë±07-Éíû@
  6
CONTINUOUS
 62
     5
 66
     1
  2
_OPEN
 10
-732.3654918282275
 20
247.4084360900627
 30
0.0
 41
1.5
 42
1.5
 43
1.5
 50
90.0
  0
SEQEND
  5
30C
  8
ë±90-ÿg2
  6
CONTINUOUS
 62
     7
  0
TEXT
  5
30D
  8
ë±07-Éíû@
  6
CONTINUOUS
 62
     5
 10
-732.8654918282275
 20
230.0548826994698
 30
0.0
 40
5.0
  1
13.83
 50
90.0
1001
ACAD
1000
MTEXTBEGIN
1070
    73
1070
     1
1070
    44
1040
1.0
1070
    74
1070
     0
1000
MTEXTEND
  0
POINT
  5
30E
  8
DEFPOINTS
  6
CONTINUOUS
 62
     0
 10
-682.4254918282274
 20
261.2384360900624
 30
0.0
  0
POINT
  5
30F
  8
DEFPOINTS
  6
CONTINUOUS
 62
     0
 10
-692.3654918282275
 20
247.4084360900627
 30
0.0
  0
POINT
  5
310
  8
DEFPOINTS
  6
CONTINUOUS
 62
     0
 10
-732.3654918282275
 20
247.4084360900627
 30
0.0
  0
ENDBLK
  5
311
  8
0
 62
     7
  0
BLOCK
  8
0
  2
*D23
 70
     1
 10
0.0
 20
0.0
 30
0.0
  3
*D23
  1

  0
LINE
  5
2F3
  8
ë±07-Éíû@
  6
CONTINUOUS
 62
     5
 10
-682.4254918182271
 20
531.5784360900624
 30
0.0
 11
-733.3654918282276
 21
531.5784360900624
 31
0.0
  0
LINE
  5
2F4
  8
ë±07-Éíû@
  6
CONTINUOUS
 62
     5
 10
-692.3654918282275
 20
543.9084360900627
 30
0.0
 11
-733.3654918282276
 21
543.9084360900627
 31
0.0
  0
LINE
  5
2F5
  8
ë±07-Éíû@
  6
CONTINUOUS
 62
     5
 10
-732.3654918282276
 20
545.4084360900627
 30
0.0
 11
-732.3654918282276
 21
564.904499082189
 31
0.0
  0
LINE
  5
2F6
  8
ë±07-Éíû@
  6
CONTINUOUS
 62
     5
 10
-732.3654918282276
 20
531.5784360900624
 30
0.0
 11
-732.3654918282276
 21
543.9084360900627
 31
0.0
  0
LINE
  5
2F7
  8
ë±07-Éíû@
  6
CONTINUOUS
 62
     5
 10
-732.3654918282276
 20
530.0784360900625
 30
0.0
 11
-732.3654918282276
 21
528.5784360900625
 31
0.0
  0
INSERT
  5
2F8
  8
ë±07-Éíû@
  6
CONTINUOUS
 62
     5
 66
     1
  2
_OPEN
 10
-732.3654918282276
 20
531.5784360900624
 30
0.0
 41
1.5
 42
1.5
 43
1.5
 50
90.0
  0
SEQEND
  5
2F9
  8
ë±90-ÿg2
  6
CONTINUOUS
 62
     7
  0
INSERT
  5
2FA
  8
ë±07-Éíû@
  6
CONTINUOUS
 62
     5
 66
     1
  2
_OPEN
 10
-732.3654918282276
 20
543.9084360900627
 30
0.0
 41
1.5
 42
1.5
 43
1.5
 50
270.0
  0
SEQEND
  5
2FB
  8
ë±90-ÿg2
  6
CONTINUOUS
 62
     7
  0
TEXT
  5
2FC
  8
ë±07-Éíû@
  6
CONTINUOUS
 62
     5
 10
-733.1154918282276
 20
546.656467586126
 30
0.0
 40
5.0
  1
(12.33)
 50
90.0
1001
ACAD
1000
MTEXTBEGIN
1070
    73
1070
     1
1070
    44
1040
1.0
1070
    74
1070
     0
1000
MTEXTEND
  0
POINT
  5
2FD
  8
DEFPOINTS
  6
CONTINUOUS
 62
     0
 10
-682.4254918182271
 20
531.5784360900624
 30
0.0
  0
POINT
  5
2FE
  8
DEFPOINTS
  6
CONTINUOUS
 62
     0
 10
-692.3654918282275
 20
543.9084360900627
 30
0.0
  0
POINT
  5
2FF
  8
DEFPOINTS
  6
CONTINUOUS
 62
     0
 10
-732.3654918282276
 20
543.9084360900627
 30
0.0
  0
ENDBLK
  5
300
  8
0
 62
     7
  0
BLOCK
  8
0
  2
*D24
 70
     1
 10
0.0
 20
0.0
 30
0.0
  3
*D24
  1

  0
LINE
  5
2E2
  8
ë±07-Éíû@
  6
CONTINUOUS
 62
     5
 10
-684.4254918282274
 20
533.5784360900634
 30
0.0
 11
-743.3654918282276
 21
533.5784360900634
 31
0.0
  0
LINE
  5
2E3
  8
ë±07-Éíû@
  6
CONTINUOUS
 62
     5
 10
-692.3654918282275
 20
543.9084360900636
 30
0.0
 11
-743.3654918282276
 21
543.9084360900636
 31
0.0
  0
LINE
  5
2E4
  8
ë±07-Éíû@
  6
CONTINUOUS
 62
     5
 10
-742.3654918282275
 20
545.4084360900636
 30
0.0
 11
-742.3654918282275
 21
564.9044990821898
 31
0.0
  0
LINE
  5
2E5
  8
ë±07-Éíû@
  6
CONTINUOUS
 62
     5
 10
-742.3654918282275
 20
533.5784360900634
 30
0.0
 11
-742.3654918282275
 21
543.9084360900636
 31
0.0
  0
LINE
  5
2E6
  8
ë±07-Éíû@
  6
CONTINUOUS
 62
     5
 10
-742.3654918282275
 20
532.0784360900634
 30
0.0
 11
-742.3654918282275
 21
530.5784360900633
 31
0.0
  0
INSERT
  5
2E7
  8
ë±07-Éíû@
  6
CONTINUOUS
 62
     5
 66
     1
  2
_OPEN
 10
-742.3654918282275
 20
533.5784360900634
 30
0.0
 41
1.5
 42
1.5
 43
1.5
 50
90.0
  0
SEQEND
  5
2E8
  8
ë±90-ÿg2
  6
CONTINUOUS
 62
     7
  0
INSERT
  5
2E9
  8
ë±07-Éíû@
  6
CONTINUOUS
 62
     5
 66
     1
  2
_OPEN
 10
-742.3654918282275
 20
543.9084360900636
 30
0.0
 41
1.5
 42
1.5
 43
1.5
 50
270.0
  0
SEQEND
  5
2EA
  8
ë±90-ÿg2
  6
CONTINUOUS
 62
     7
  0
TEXT
  5
2EB
  8
ë±07-Éíû@
  6
CONTINUOUS
 62
     5
 10
-743.1154918282276
 20
546.656467586127
 30
0.0
 40
5.0
  1
(10.33)
 50
90.0
1001
ACAD
1000
MTEXTBEGIN
1070
    73
1070
     1
1070
    44
1040
1.0
1070
    74
1070
     0
1000
MTEXTEND
  0
POINT
  5
2EC
  8
DEFPOINTS
  6
CONTINUOUS
 62
     0
 10
-684.4254918282274
 20
533.5784360900634
 30
0.0
  0
POINT
  5
2ED
  8
DEFPOINTS
  6
CONTINUOUS
 62
     0
 10
-692.3654918282275
 20
543.9084360900636
 30
0.0
  0
POINT
  5
2EE
  8
DEFPOINTS
  6
CONTINUOUS
 62
     0
 10
-742.3654918282275
 20
543.9084360900636
 30
0.0
  0
ENDBLK
  5
2EF
  8
0
 62
     7
  0
BLOCK
  8
0
  2
*D25
 70
     1
 10
0.0
 20
0.0
 30
0.0
  3
*D25
  1

  0
LINE
  5
2D1
  8
ë±07-Éíû@
  6
CONTINUOUS
 62
     5
 10
-684.4254918282274
 20
533.5784360900625
 30
0.0
 11
-684.4254918282274
 21
578.9284360900636
 31
0.0
  0
LINE
  5
2D2
  8
ë±07-Éíû@
  6
CONTINUOUS
 62
     5
 10
-692.3654918282275
 20
543.9084360900627
 30
0.0
 11
-692.3654918282275
 21
578.9284360900636
 31
0.0
  0
LINE
  5
2D3
  8
ë±07-Éíû@
  6
CONTINUOUS
 62
     5
 10
-693.8654918282274
 20
577.9284360900637
 30
0.0
 11
-711.3796066629884
 21
577.9284360900637
 31
0.0
  0
LINE
  5
2D4
  8
ë±07-Éíû@
  6
CONTINUOUS
 62
     5
 10
-684.4254918282274
 20
577.9284360900637
 30
0.0
 11
-692.3654918282275
 21
577.9284360900637
 31
0.0
  0
LINE
  5
2D5
  8
ë±07-Éíû@
  6
CONTINUOUS
 62
     5
 10
-682.9254918282274
 20
577.9284360900637
 30
0.0
 11
-681.4254918282274
 21
577.9284360900637
 31
0.0
  0
INSERT
  5
2D6
  8
ë±07-Éíû@
  6
CONTINUOUS
 62
     5
 66
     1
  2
_OPEN
 10
-684.4254918282274
 20
577.9284360900637
 30
0.0
 41
1.5
 42
1.5
 43
1.5
 50
180.0
  0
SEQEND
  5
2D7
  8
ë±90-ÿg2
  6
CONTINUOUS
 62
     7
  0
INSERT
  5
2D8
  8
ë±07-Éíû@
  6
CONTINUOUS
 62
     5
 66
     1
  2
_OPEN
 10
-692.3654918282275
 20
577.9284360900637
 30
0.0
 41
1.5
 42
1.5
 43
1.5
  0
SEQEND
  5
2D9
  8
ë±90-ÿg2
  6
CONTINUOUS
 62
     7
  0
TEXT
  5
2DA
  8
ë±07-Éíû@
  6
CONTINUOUS
 62
     5
 10
-711.6315751669255
 20
578.6784360900635
 30
0.0
 40
5.0
  1
(7.94)
1001
ACAD
1000
MTEXTBEGIN
1070
    73
1070
     1
1070
    44
1040
1.0
1070
    74
1070
     0
1000
MTEXTEND
  0
POINT
  5
2DB
  8
DEFPOINTS
  6
CONTINUOUS
 62
     0
 10
-684.4254918282274
 20
533.5784360900625
 30
0.0
  0
POINT
  5
2DC
  8
DEFPOINTS
  6
CONTINUOUS
 62
     0
 10
-692.3654918282275
 20
543.9084360900627
 30
0.0
  0
POINT
  5
2DD
  8
DEFPOINTS
  6
CONTINUOUS
 62
     0
 10
-692.3654918282275
 20
577.9284360900637
 30
0.0
  0
ENDBLK
  5
2DE
  8
0
 62
     7
  0
BLOCK
  8
0
  2
*D26
 70
     1
 10
0.0
 20
0.0
 30
0.0
  3
*D26
  1

  0
LINE
  5
2C0
  8
ë±07-Éíû@
  6
CONTINUOUS
 62
     5
 10
-682.4254918282274
 20
531.5784360900624
 30
0.0
 11
-682.4254918282274
 21
566.9284360900636
 31
0.0
  0
LINE
  5
2C1
  8
ë±07-Éíû@
  6
CONTINUOUS
 62
     5
 10
-692.3654918282275
 20
543.9084360900627
 30
0.0
 11
-692.3654918282275
 21
566.9284360900636
 31
0.0
  0
LINE
  5
2C2
  8
ë±07-Éíû@
  6
CONTINUOUS
 62
     5
 10
-693.8654918282274
 20
565.9284360900636
 30
0.0
 11
-711.3976585056231
 21
565.9284360900636
 31
0.0
  0
LINE
  5
2C3
  8
ë±07-Éíû@
  6
CONTINUOUS
 62
     5
 10
-682.4254918282274
 20
565.9284360900636
 30
0.0
 11
-692.3654918282275
 21
565.9284360900636
 31
0.0
  0
LINE
  5
2C4
  8
ë±07-Éíû@
  6
CONTINUOUS
 62
     5
 10
-680.9254918282274
 20
565.9284360900636
 30
0.0
 11
-679.4254918282274
 21
565.9284360900636
 31
0.0
  0
INSERT
  5
2C5
  8
ë±07-Éíû@
  6
CONTINUOUS
 62
     5
 66
     1
  2
_OPEN
 10
-682.4254918282274
 20
565.9284360900636
 30
0.0
 41
1.5
 42
1.5
 43
1.5
 50
180.0
  0
SEQEND
  5
2C6
  8
ë±90-ÿg2
  6
CONTINUOUS
 62
     7
  0
INSERT
  5
2C7
  8
ë±07-Éíû@
  6
CONTINUOUS
 62
     5
 66
     1
  2
_OPEN
 10
-692.3654918282275
 20
565.9284360900636
 30
0.0
 41
1.5
 42
1.5
 43
1.5
  0
SEQEND
  5
2C8
  8
ë±90-ÿg2
  6
CONTINUOUS
 62
     7
  0
TEXT
  5
2C9
  8
ë±07-Éíû@
  6
CONTINUOUS
 62
     5
 10
-711.6496270095602
 20
566.6784360900635
 30
0.0
 40
5.0
  1
(9.94)
1001
ACAD
1000
MTEXTBEGIN
1070
    73
1070
     1
1070
    44
1040
1.0
1070
    74
1070
     0
1000
MTEXTEND
  0
POINT
  5
2CA
  8
DEFPOINTS
  6
CONTINUOUS
 62
     0
 10
-682.4254918282274
 20
531.5784360900624
 30
0.0
  0
POINT
  5
2CB
  8
DEFPOINTS
  6
CONTINUOUS
 62
     0
 10
-692.3654918282275
 20
543.9084360900627
 30
0.0
  0
POINT
  5
2CC
  8
DEFPOINTS
  6
CONTINUOUS
 62
     0
 10
-692.3654918282275
 20
565.9284360900636
 30
0.0
  0
ENDBLK
  5
2CD
  8
0
 62
     7
  0
BLOCK
  8
0
  2
*D27
 70
     1
 10
0.0
 20
0.0
 30
0.0
  3
*D27
  1

  0
LINE
  5
2AF
  8
ë±07-Éíû@
  6
CONTINUOUS
 62
     5
 10
-344.5054918282274
 20
531.5784360900624
 30
0.0
 11
-344.5054918282274
 21
566.9284360900636
 31
0.0
  0
LINE
  5
2B0
  8
ë±07-Éíû@
  6
CONTINUOUS
 62
     5
 10
-333.8654918282275
 20
543.9084360900627
 30
0.0
 11
-333.8654918282275
 21
566.9284360900636
 31
0.0
  0
LINE
  5
2B1
  8
ë±07-Éíû@
  6
CONTINUOUS
 62
     5
 10
-332.3654918282275
 20
565.9284360900636
 30
0.0
 11
-316.3654918282275
 21
565.9284360900636
 31
0.0
  0
LINE
  5
2B2
  8
ë±07-Éíû@
  6
CONTINUOUS
 62
     5
 10
-344.5054918282274
 20
565.9284360900636
 30
0.0
 11
-333.8654918282275
 21
565.9284360900636
 31
0.0
  0
LINE
  5
2B3
  8
ë±07-Éíû@
  6
CONTINUOUS
 62
     5
 10
-346.0054918282274
 20
565.9284360900636
 30
0.0
 11
-347.5054918282274
 21
565.9284360900636
 31
0.0
  0
INSERT
  5
2B4
  8
ë±07-Éíû@
  6
CONTINUOUS
 62
     5
 66
     1
  2
_OPEN
 10
-344.5054918282274
 20
565.9284360900636
 30
0.0
 41
1.5
 42
1.5
 43
1.5
  0
SEQEND
  5
2B5
  8
ë±90-ÿg2
  6
CONTINUOUS
 62
     7
  0
INSERT
  5
2B6
  8
ë±07-Éíû@
  6
CONTINUOUS
 62
     5
 66
     1
  2
_OPEN
 10
-333.8654918282275
 20
565.9284360900636
 30
0.0
 41
1.5
 42
1.5
 43
1.5
 50
180.0
  0
SEQEND
  5
2B7
  8
ë±90-ÿg2
  6
CONTINUOUS
 62
     7
  0
TEXT
  5
2B8
  8
ë±07-Éíû@
  6
CONTINUOUS
 62
     5
 10
-331.1154918282275
 20
566.4284360900636
 30
0.0
 40
5.0
  1
10.64
1001
ACAD
1000
MTEXTBEGIN
1070
    73
1070
     1
1070
    44
1040
1.0
1070
    74
1070
     0
1000
MTEXTEND
  0
POINT
  5
2B9
  8
DEFPOINTS
  6
CONTINUOUS
 62
     0
 10
-344.5054918282274
 20
531.5784360900624
 30
0.0
  0
POINT
  5
2BA
  8
DEFPOINTS
  6
CONTINUOUS
 62
     0
 10
-333.8654918282275
 20
543.9084360900627
 30
0.0
  0
POINT
  5
2BB
  8
DEFPOINTS
  6
CONTINUOUS
 62
     0
 10
-333.8654918282275
 20
565.9284360900636
 30
0.0
  0
ENDBLK
  5
2BC
  8
0
 62
     7
  0
BLOCK
  8
0
  2
*D28
 70
     1
 10
0.0
 20
0.0
 30
0.0
  3
*D28
  1

  0
LINE
  5
29E
  8
ë±07-Éíû@
  6
CONTINUOUS
 62
     5
 10
-342.5054918282274
 20
533.5784360900625
 30
0.0
 11
-342.5054918282274
 21
578.9284360900636
 31
0.0
  0
LINE
  5
29F
  8
ë±07-Éíû@
  6
CONTINUOUS
 62
     5
 10
-333.8654918282275
 20
543.9084360900627
 30
0.0
 11
-333.8654918282275
 21
578.9284360900636
 31
0.0
  0
LINE
  5
2A0
  8
ë±07-Éíû@
  6
CONTINUOUS
 62
     5
 10
-332.3654918282275
 20
577.9284360900637
 30
0.0
 11
-318.8654918282275
 21
577.9284360900637
 31
0.0
  0
LINE
  5
2A1
  8
ë±07-Éíû@
  6
CONTINUOUS
 62
     5
 10
-342.5054918282274
 20
577.9284360900637
 30
0.0
 11
-333.8654918282275
 21
577.9284360900637
 31
0.0
  0
LINE
  5
2A2
  8
ë±07-Éíû@
  6
CONTINUOUS
 62
     5
 10
-344.0054918282274
 20
577.9284360900637
 30
0.0
 11
-345.5054918282274
 21
577.9284360900637
 31
0.0
  0
INSERT
  5
2A3
  8
ë±07-Éíû@
  6
CONTINUOUS
 62
     5
 66
     1
  2
_OPEN
 10
-342.5054918282274
 20
577.9284360900637
 30
0.0
 41
1.5
 42
1.5
 43
1.5
  0
SEQEND
  5
2A4
  8
ë±90-ÿg2
  6
CONTINUOUS
 62
     7
  0
INSERT
  5
2A5
  8
ë±07-Éíû@
  6
CONTINUOUS
 62
     5
 66
     1
  2
_OPEN
 10
-333.8654918282275
 20
577.9284360900637
 30
0.0
 41
1.5
 42
1.5
 43
1.5
 50
180.0
  0
SEQEND
  5
2A6
  8
ë±90-ÿg2
  6
CONTINUOUS
 62
     7
  0
TEXT
  5
2A7
  8
ë±07-Éíû@
  6
CONTINUOUS
 62
     5
 10
-331.1154918282275
 20
578.4284360900636
 30
0.0
 40
5.0
  1
8.64
1001
ACAD
1000
MTEXTBEGIN
1070
    73
1070
     1
1070
    44
1040
1.0
1070
    74
1070
     0
1000
MTEXTEND
  0
POINT
  5
2A8
  8
DEFPOINTS
  6
CONTINUOUS
 62
     0
 10
-342.5054918282274
 20
533.5784360900625
 30
0.0
  0
POINT
  5
2A9
  8
DEFPOINTS
  6
CONTINUOUS
 62
     0
 10
-333.8654918282275
 20
543.9084360900627
 30
0.0
  0
POINT
  5
2AA
  8
DEFPOINTS
  6
CONTINUOUS
 62
     0
 10
-333.8654918282275
 20
577.9284360900637
 30
0.0
  0
ENDBLK
  5
2AB
  8
0
 62
     7
  0
BLOCK
  8
0
  2
*D29
 70
     1
 10
0.0
 20
0.0
 30
0.0
  3
*D29
  1

  0
LINE
  5
28F
  8
ë±07-Éíû@
  6
CONTINUOUS
 62
     5
 10
-684.9254918282274
 20
258.7384360900626
 30
0.0
 11
-754.3659839542121
 21
258.7384360900626
 31
0.0
  0
LINE
  5
290
  8
ë±07-Éíû@
  6
CONTINUOUS
 62
     5
 10
-684.9254918282274
 20
534.0784360900625
 30
0.0
 11
-754.3659839542121
 21
534.0784360900625
 31
0.0
  0
LINE
  5
291
  8
ë±07-Éíû@
  6
CONTINUOUS
 62
     5
 10
-753.3659839542121
 20
260.2384360900626
 30
0.0
 11
-753.3659839542121
 21
532.5784360900625
 31
0.0
  0
INSERT
  5
292
  8
ë±07-Éíû@
  6
CONTINUOUS
 62
     5
 66
     1
  2
_OPEN
 10
-753.3659839542121
 20
258.7384360900626
 30
0.0
 41
1.5
 42
1.5
 43
1.5
 50
270.0
  0
SEQEND
  5
293
  8
ë±90-ÿg2
  6
CONTINUOUS
 62
     7
  0
INSERT
  5
294
  8
ë±07-Éíû@
  6
CONTINUOUS
 62
     5
 66
     1
  2
_OPEN
 10
-753.3659839542121
 20
534.0784360900625
 30
0.0
 41
1.5
 42
1.5
 43
1.5
 50
90.0
  0
SEQEND
  5
295
  8
ë±90-ÿg2
  6
CONTINUOUS
 62
     7
  0
TEXT
  5
296
  8
ë±07-Éíû@
  6
CONTINUOUS
 62
     5
 10
-753.8659839542121
 20
385.9584360900625
 30
0.0
 40
5.0
  1
275.34
 50
90.0
1001
ACAD
1000
MTEXTBEGIN
1070
    73
1070
     1
1070
    44
1040
1.0
1070
    74
1070
     0
1000
MTEXTEND
  0
POINT
  5
297
  8
DEFPOINTS
  6
CONTINUOUS
 62
     0
 10
-684.9254918282274
 20
258.7384360900626
 30
0.0
  0
POINT
  5
298
  8
DEFPOINTS
  6
CONTINUOUS
 62
     0
 10
-684.9254918282274
 20
534.0784360900625
 30
0.0
  0
POINT
  5
299
  8
DEFPOINTS
  6
CONTINUOUS
 62
     0
 10
-753.3659839542121
 20
534.0784360900625
 30
0.0
  0
ENDBLK
  5
29A
  8
0
 62
     7
  0
BLOCK
  8
0
  2
*D30
 70
     1
 10
0.0
 20
0.0
 30
0.0
  3
*D30
  1

  0
LINE
  5
27E
  8
ë±07-Éíû@
  6
CONTINUOUS
 62
     5
 10
-684.9254918282274
 20
258.7384360900626
 30
0.0
 11
-754.3659839542121
 21
258.7384360900626
 31
0.0
  0
LINE
  5
27F
  8
ë±07-Éíû@
  6
CONTINUOUS
 62
     5
 10
-692.3654918282275
 20
247.4084360900627
 30
0.0
 11
-754.3659839542121
 21
247.4084360900627
 31
0.0
  0
LINE
  5
280
  8
ë±07-Éíû@
  6
CONTINUOUS
 62
     5
 10
-753.3659839542122
 20
245.9084360900628
 30
0.0
 11
-753.3659839542122
 21
197.6497897416376
 31
0.0
  0
LINE
  5
281
  8
ë±07-Éíû@
  6
CONTINUOUS
 62
     5
 10
-753.3659839542122
 20
258.7384360900626
 30
0.0
 11
-753.3659839542122
 21
247.4084360900627
 31
0.0
  0
LINE
  5
282
  8
ë±07-Éíû@
  6
CONTINUOUS
 62
     5
 10
-753.3659839542122
 20
260.2384360900626
 30
0.0
 11
-753.3659839542122
 21
261.7384360900626
 31
0.0
  0
INSERT
  5
283
  8
ë±07-Éíû@
  6
CONTINUOUS
 62
     5
 66
     1
  2
_OPEN
 10
-753.3659839542122
 20
258.7384360900626
 30
0.0
 41
1.5
 42
1.5
 43
1.5
 50
270.0
  0
SEQEND
  5
284
  8
ë±90-ÿg2
  6
CONTINUOUS
 62
     7
  0
INSERT
  5
285
  8
ë±07-Éíû@
  6
CONTINUOUS
 62
     5
 66
     1
  2
_OPEN
 10
-753.3659839542122
 20
247.4084360900627
 30
0.0
 41
1.5
 42
1.5
 43
1.5
 50
90.0
  0
SEQEND
  5
286
  8
ë±90-ÿg2
  6
CONTINUOUS
 62
     7
  0
INSERT
  5
287
  8
ë±07-Éíû@
  6
CONTINUOUS
 62
     5
 66
     1
  2
*X94
 10
0.0
 20
0.0
 30
0.0
  0
SEQEND
  5
91A
  8
ë±90-ÿg2
  6
CONTINUOUS
 62
     7
  0
POINT
  5
288
  8
DEFPOINTS
  6
CONTINUOUS
 62
     0
 10
-684.9254918282274
 20
258.7384360900626
 30
0.0
  0
POINT
  5
289
  8
DEFPOINTS
  6
CONTINUOUS
 62
     0
 10
-692.3654918282275
 20
247.4084360900627
 30
0.0
  0
POINT
  5
28A
  8
DEFPOINTS
  6
CONTINUOUS
 62
     0
 10
-753.3659839542122
 20
247.4084360900627
 30
0.0
  0
ENDBLK
  5
28B
  8
0
 62
     7
  0
BLOCK
  8
0
  2
*D31
 70
     1
 10
0.0
 20
0.0
 30
0.0
  3
*D31
  1

  0
LINE
  5
26D
  8
ë±07-Éíû@
  6
CONTINUOUS
 62
     5
 10
-684.9254918282274
 20
534.0784360900625
 30
0.0
 11
-754.365983954213
 21
534.0784360900625
 31
0.0
  0
LINE
  5
26E
  8
ë±07-Éíû@
  6
CONTINUOUS
 62
     5
 10
-692.3654918282275
 20
543.9084360900627
 30
0.0
 11
-754.365983954213
 21
543.9084360900627
 31
0.0
  0
LINE
  5
26F
  8
ë±07-Éíû@
  6
CONTINUOUS
 62
     5
 10
-753.3659839542131
 20
545.4084360900627
 30
0.0
 11
-753.3659839542131
 21
595.6831657771857
 31
0.0
  0
LINE
  5
270
  8
ë±07-Éíû@
  6
CONTINUOUS
 62
     5
 10
-753.3659839542131
 20
534.0784360900625
 30
0.0
 11
-753.3659839542131
 21
543.9084360900627
 31
0.0
  0
LINE
  5
271
  8
ë±07-Éíû@
  6
CONTINUOUS
 62
     5
 10
-753.3659839542131
 20
532.5784360900625
 30
0.0
 11
-753.3659839542131
 21
531.0784360900624
 31
0.0
  0
INSERT
  5
272
  8
ë±07-Éíû@
  6
CONTINUOUS
 62
     5
 66
     1
  2
_OPEN
 10
-753.3659839542131
 20
534.0784360900625
 30
0.0
 41
1.5
 42
1.5
 43
1.5
 50
90.0
  0
SEQEND
  5
273
  8
ë±90-ÿg2
  6
CONTINUOUS
 62
     7
  0
INSERT
  5
274
  8
ë±07-Éíû@
  6
CONTINUOUS
 62
     5
 66
     1
  2
_OPEN
 10
-753.3659839542131
 20
543.9084360900627
 30
0.0
 41
1.5
 42
1.5
 43
1.5
 50
270.0
  0
SEQEND
  5
275
  8
ë±90-ÿg2
  6
CONTINUOUS
 62
     7
  0
INSERT
  5
276
  8
ë±07-Éíû@
  6
CONTINUOUS
 62
     5
 66
     1
  2
*X95
 10
0.0
 20
0.0
 30
0.0
  0
SEQEND
  5
920
  8
ë±90-ÿg2
  6
CONTINUOUS
 62
     7
  0
POINT
  5
277
  8
DEFPOINTS
  6
CONTINUOUS
 62
     0
 10
-684.9254918282274
 20
534.0784360900625
 30
0.0
  0
POINT
  5
278
  8
DEFPOINTS
  6
CONTINUOUS
 62
     0
 10
-692.3654918282275
 20
543.9084360900627
 30
0.0
  0
POINT
  5
279
  8
DEFPOINTS
  6
CONTINUOUS
 62
     0
 10
-753.3659839542131
 20
543.9084360900627
 30
0.0
  0
ENDBLK
  5
27A
  8
0
 62
     7
  0
BLOCK
  8
0
  2
*D32
 70
     1
 10
0.0
 20
0.0
 30
0.0
  3
*D32
  1

  0
LINE
  5
25C
  8
ë±07-Éíû@
  6
CONTINUOUS
 62
     5
 10
-342.0054918282274
 20
534.0784360900625
 30
0.0
 11
-342.0054918282274
 21
590.9284360900636
 31
0.0
  0
LINE
  5
25D
  8
ë±07-Éíû@
  6
CONTINUOUS
 62
     5
 10
-333.8654918282275
 20
543.9084360900636
 30
0.0
 11
-333.8654918282275
 21
590.9284360900636
 31
0.0
  0
LINE
  5
25E
  8
ë±07-Éíû@
  6
CONTINUOUS
 62
     5
 10
-332.3654918282275
 20
589.9284360900636
 30
0.0
 11
-286.6068454798023
 21
589.9284360900636
 31
0.0
  0
LINE
  5
25F
  8
ë±07-Éíû@
  6
CONTINUOUS
 62
     5
 10
-342.0054918282274
 20
589.9284360900636
 30
0.0
 11
-333.8654918282275
 21
589.9284360900636
 31
0.0
  0
LINE
  5
260
  8
ë±07-Éíû@
  6
CONTINUOUS
 62
     5
 10
-343.5054918282274
 20
589.9284360900636
 30
0.0
 11
-345.0054918282274
 21
589.9284360900636
 31
0.0
  0
INSERT
  5
261
  8
ë±07-Éíû@
  6
CONTINUOUS
 62
     5
 66
     1
  2
_OPEN
 10
-342.0054918282274
 20
589.9284360900636
 30
0.0
 41
1.5
 42
1.5
 43
1.5
  0
SEQEND
  5
262
  8
ë±90-ÿg2
  6
CONTINUOUS
 62
     7
  0
INSERT
  5
263
  8
ë±07-Éíû@
  6
CONTINUOUS
 62
     5
 66
     1
  2
_OPEN
 10
-333.8654918282275
 20
589.9284360900636
 30
0.0
 41
1.5
 42
1.5
 43
1.5
 50
180.0
  0
SEQEND
  5
264
  8
ë±90-ÿg2
  6
CONTINUOUS
 62
     7
  0
INSERT
  5
265
  8
ë±07-Éíû@
  6
CONTINUOUS
 62
     5
 66
     1
  2
*X96
 10
0.0
 20
0.0
 30
0.0
  0
SEQEND
  5
926
  8
ë±90-ÿg2
  6
CONTINUOUS
 62
     7
  0
POINT
  5
266
  8
DEFPOINTS
  6
CONTINUOUS
 62
     0
 10
-342.0054918282274
 20
534.0784360900625
 30
0.0
  0
POINT
  5
267
  8
DEFPOINTS
  6
CONTINUOUS
 62
     0
 10
-333.8654918282275
 20
543.9084360900636
 30
0.0
  0
POINT
  5
268
  8
DEFPOINTS
  6
CONTINUOUS
 62
     0
 10
-333.8654918282275
 20
589.9284360900636
 30
0.0
  0
ENDBLK
  5
269
  8
0
 62
     7
  0
BLOCK
  8
0
  2
*D33
 70
     1
 10
0.0
 20
0.0
 30
0.0
  3
*D33
  1

  0
LINE
  5
24D
  8
ë±07-Éíû@
  6
CONTINUOUS
 62
     5
 10
-342.0054918282274
 20
534.0784360900625
 30
0.0
 11
-342.0054918282274
 21
590.9284360900636
 31
0.0
  0
LINE
  5
24E
  8
ë±07-Éíû@
  6
CONTINUOUS
 62
     5
 10
-684.9254918282274
 20
534.0784360900625
 30
0.0
 11
-684.9254918282274
 21
590.9284360900636
 31
0.0
  0
LINE
  5
24F
  8
ë±07-Éíû@
  6
CONTINUOUS
 62
     5
 10
-343.5054918282274
 20
589.9284360900636
 30
0.0
 11
-683.4254918282274
 21
589.9284360900636
 31
0.0
  0
INSERT
  5
250
  8
ë±07-Éíû@
  6
CONTINUOUS
 62
     5
 66
     1
  2
_OPEN
 10
-342.0054918282274
 20
589.9284360900636
 30
0.0
 41
1.5
 42
1.5
 43
1.5
  0
SEQEND
  5
251
  8
ë±90-ÿg2
  6
CONTINUOUS
 62
     7
  0
INSERT
  5
252
  8
ë±07-Éíû@
  6
CONTINUOUS
 62
     5
 66
     1
  2
_OPEN
 10
-684.9254918282274
 20
589.9284360900636
 30
0.0
 41
1.5
 42
1.5
 43
1.5
 50
180.0
  0
SEQEND
  5
253
  8
ë±90-ÿg2
  6
CONTINUOUS
 62
     7
  0
TEXT
  5
254
  8
ë±07-Éíû@
  6
CONTINUOUS
 62
     5
 10
-523.2250705584454
 20
590.4284360900637
 30
0.0
 40
5.0
  1
342.92
1001
ACAD
1000
MTEXTBEGIN
1070
    73
1070
     1
1070
    44
1040
1.0
1070
    74
1070
     0
1000
MTEXTEND
  0
POINT
  5
255
  8
DEFPOINTS
  6
CONTINUOUS
 62
     0
 10
-342.0054918282274
 20
534.0784360900625
 30
0.0
  0
POINT
  5
256
  8
DEFPOINTS
  6
CONTINUOUS
 62
     0
 10
-684.9254918282274
 20
534.0784360900625
 30
0.0
  0
POINT
  5
257
  8
DEFPOINTS
  6
CONTINUOUS
 62
     0
 10
-684.9254918282274
 20
589.9284360900636
 30
0.0
  0
ENDBLK
  5
258
  8
0
 62
     7
  0
BLOCK
  8
0
  2
*D34
 70
     1
 10
0.0
 20
0.0
 30
0.0
  3
*D34
  1

  0
LINE
  5
23C
  8
ë±07-Éíû@
  6
CONTINUOUS
 62
     5
 10
-684.9254918282274
 20
534.0784360900625
 30
0.0
 11
-684.9254918282274
 21
590.9284360900636
 31
0.0
  0
LINE
  5
23D
  8
ë±07-Éíû@
  6
CONTINUOUS
 62
     5
 10
-692.3654918282275
 20
543.9084360900627
 30
0.0
 11
-692.3654918282275
 21
590.9284360900636
 31
0.0
  0
LINE
  5
23E
  8
ë±07-Éíû@
  6
CONTINUOUS
 62
     5
 10
-693.8654918282274
 20
589.9284360900636
 30
0.0
 11
-745.1221696727157
 21
589.9284360900636
 31
0.0
  0
LINE
  5
23F
  8
ë±07-Éíû@
  6
CONTINUOUS
 62
     5
 10
-684.9254918282274
 20
589.9284360900636
 30
0.0
 11
-692.3654918282275
 21
589.9284360900636
 31
0.0
  0
LINE
  5
240
  8
ë±07-Éíû@
  6
CONTINUOUS
 62
     5
 10
-683.4254918282274
 20
589.9284360900636
 30
0.0
 11
-681.9254918282275
 21
589.9284360900636
 31
0.0
  0
INSERT
  5
241
  8
ë±07-Éíû@
  6
CONTINUOUS
 62
     5
 66
     1
  2
_OPEN
 10
-684.9254918282274
 20
589.9284360900636
 30
0.0
 41
1.5
 42
1.5
 43
1.5
 50
180.0
  0
SEQEND
  5
242
  8
ë±90-ÿg2
  6
CONTINUOUS
 62
     7
  0
INSERT
  5
243
  8
ë±07-Éíû@
  6
CONTINUOUS
 62
     5
 66
     1
  2
_OPEN
 10
-692.3654918282275
 20
589.9284360900636
 30
0.0
 41
1.5
 42
1.5
 43
1.5
  0
SEQEND
  5
244
  8
ë±90-ÿg2
  6
CONTINUOUS
 62
     7
  0
INSERT
  5
245
  8
ë±07-Éíû@
  6
CONTINUOUS
 62
     5
 66
     1
  2
*X97
 10
0.0
 20
0.0
 30
0.0
  0
SEQEND
  5
92C
  8
ë±90-ÿg2
  6
CONTINUOUS
 62
     7
  0
POINT
  5
246
  8
DEFPOINTS
  6
CONTINUOUS
 62
     0
 10
-684.9254918282274
 20
534.0784360900625
 30
0.0
  0
POINT
  5
247
  8
DEFPOINTS
  6
CONTINUOUS
 62
     0
 10
-692.3654918282275
 20
543.9084360900627
 30
0.0
  0
POINT
  5
248
  8
DEFPOINTS
  6
CONTINUOUS
 62
     0
 10
-692.3654918282275
 20
589.9284360900636
 30
0.0
  0
ENDBLK
  5
249
  8
0
 62
     7
  0
BLOCK
  8
0
  2
*D35
 70
     1
 10
0.0
 20
0.0
 30
0.0
  3
*D35
  1

  0
LINE
  5
1DB
  8
ë±07-Éíû@
  6
CONTINUOUS
 62
     5
 10
-492.8616131386755
 20
147.908436090062
 30
0.0
 11
-492.8616131386755
 21
119.7459618232842
 31
0.0
  0
LINE
  5
1DC
  8
ë±07-Éíû@
  6
CONTINUOUS
 62
     5
 10
-506.3616131386756
 20
147.908436090063
 30
0.0
 11
-506.3616131386756
 21
119.7459618232842
 31
0.0
  0
LINE
  5
1DD
  8
ë±07-Éíû@
  6
CONTINUOUS
 62
     5
 10
-491.3616131386755
 20
120.7459618232842
 30
0.0
 11
-470.9815097922188
 21
120.7459618232842
 31
0.0
  0
LINE
  5
1DE
  8
ë±07-Éíû@
  6
CONTINUOUS
 62
     5
 10
-492.8616131386755
 20
120.7459618232842
 30
0.0
 11
-506.3616131386756
 21
120.7459618232842
 31
0.0
  0
LINE
  5
1DF
  8
ë±07-Éíû@
  6
CONTINUOUS
 62
     5
 10
-507.8616131386755
 20
120.7459618232842
 30
0.0
 11
-509.3616131386755
 21
120.7459618232842
 31
0.0
  0
INSERT
  5
1E0
  8
ë±07-Éíû@
  6
CONTINUOUS
 62
     5
 66
     1
  2
_OPEN
 10
-492.8616131386755
 20
120.7459618232842
 30
0.0
 41
1.5
 42
1.5
 43
1.5
 50
180.0
  0
SEQEND
  5
1E1
  8
ë±90-ÿg2
  6
CONTINUOUS
 62
     7
  0
INSERT
  5
1E2
  8
ë±07-Éíû@
  6
CONTINUOUS
 62
     5
 66
     1
  2
_OPEN
 10
-506.3616131386756
 20
120.7459618232842
 30
0.0
 41
1.5
 42
1.5
 43
1.5
  0
SEQEND
  5
1E3
  8
ë±90-ÿg2
  6
CONTINUOUS
 62
     7
  0
INSERT
  5
1E4
  8
ë±07-Éíû@
  6
CONTINUOUS
 62
     5
 66
     1
  2
*X98
 10
0.0
 20
0.0
 30
0.0
  0
SEQEND
  5
932
  8
ë±90-ÿg2
  6
CONTINUOUS
 62
     7
  0
POINT
  5
1E5
  8
DEFPOINTS
  6
CONTINUOUS
 62
     0
 10
-492.8616131386755
 20
147.908436090062
 30
0.0
  0
POINT
  5
1E6
  8
DEFPOINTS
  6
CONTINUOUS
 62
     0
 10
-506.3616131386756
 20
147.908436090063
 30
0.0
  0
POINT
  5
1E7
  8
DEFPOINTS
  6
CONTINUOUS
 62
     0
 10
-506.3616131386756
 20
120.7459618232842
 30
0.0
  0
ENDBLK
  5
1E8
  8
0
 62
     7
  0
BLOCK
  8
0
  2
*D36
 70
     1
 10
0.0
 20
0.0
 30
0.0
  3
*D36
  1

  0
LINE
  5
1CA
  8
ë±07-Éíû@
  6
CONTINUOUS
 62
     5
 10
-517.8616131386755
 20
147.908436090063
 30
0.0
 11
-517.8616131386755
 21
130.2696949403007
 31
0.0
  0
LINE
  5
1CB
  8
ë±07-Éíû@
  6
CONTINUOUS
 62
     5
 10
-535.3616131386757
 20
147.908436090063
 30
0.0
 11
-535.3616131386757
 21
130.2696949403007
 31
0.0
  0
LINE
  5
1CC
  8
ë±07-Éíû@
  6
CONTINUOUS
 62
     5
 10
-516.3616131386755
 20
131.2696949403007
 30
0.0
 11
-471.4414924171429
 21
131.2696949403007
 31
0.0
  0
LINE
  5
1CD
  8
ë±07-Éíû@
  6
CONTINUOUS
 62
     5
 10
-517.8616131386755
 20
131.2696949403007
 30
0.0
 11
-535.3616131386757
 21
131.2696949403007
 31
0.0
  0
LINE
  5
1CE
  8
ë±07-Éíû@
  6
CONTINUOUS
 62
     5
 10
-536.8616131386756
 20
131.2696949403007
 30
0.0
 11
-538.3616131386757
 21
131.2696949403007
 31
0.0
  0
INSERT
  5
1CF
  8
ë±07-Éíû@
  6
CONTINUOUS
 62
     5
 66
     1
  2
_OPEN
 10
-517.8616131386755
 20
131.2696949403007
 30
0.0
 41
1.5
 42
1.5
 43
1.5
 50
180.0
  0
SEQEND
  5
1D0
  8
ë±90-ÿg2
  6
CONTINUOUS
 62
     7
  0
INSERT
  5
1D1
  8
ë±07-Éíû@
  6
CONTINUOUS
 62
     5
 66
     1
  2
_OPEN
 10
-535.3616131386757
 20
131.2696949403007
 30
0.0
 41
1.5
 42
1.5
 43
1.5
  0
SEQEND
  5
1D2
  8
ë±90-ÿg2
  6
CONTINUOUS
 62
     7
  0
INSERT
  5
1D3
  8
ë±07-Éíû@
  6
CONTINUOUS
 62
     5
 66
     1
  2
*X99
 10
0.0
 20
0.0
 30
0.0
  0
SEQEND
  5
938
  8
ë±90-ÿg2
  6
CONTINUOUS
 62
     7
  0
POINT
  5
1D4
  8
DEFPOINTS
  6
CONTINUOUS
 62
     0
 10
-517.8616131386755
 20
147.908436090063
 30
0.0
  0
POINT
  5
1D5
  8
DEFPOINTS
  6
CONTINUOUS
 62
     0
 10
-535.3616131386757
 20
147.908436090063
 30
0.0
  0
POINT
  5
1D6
  8
DEFPOINTS
  6
CONTINUOUS
 62
     0
 10
-535.3616131386757
 20
131.2696949403007
 30
0.0
  0
ENDBLK
  5
1D7
  8
0
 62
     7
  0
BLOCK
  8
0
  2
*D37
 70
     1
 10
0.0
 20
0.0
 30
0.0
  3
*D37
  1

  0
LINE
  5
90
  8
ë±07-Éíû@
  6
CONTINUOUS
 62
     5
 10
-514.1104878232272
 20
244.1909603184687
 30
0.0
 11
-514.1104878232272
 21
206.3058337209733
 31
0.0
  0
LINE
  5
91
  8
ë±07-Éíû@
  6
CONTINUOUS
 62
     5
 10
-549.1104878232272
 20
244.1950086892795
 30
0.0
 11
-549.1104878232272
 21
206.3058337209733
 31
0.0
  0
LINE
  5
92
  8
ë±07-Éíû@
  6
CONTINUOUS
 62
     5
 10
-552.1104878232272
 20
207.3058337209733
 30
0.0
 11
-561.7140412138205
 21
207.3058337209733
 31
0.0
  0
LINE
  5
93
  8
ë±07-Éíû@
  6
CONTINUOUS
 62
     5
 10
-514.1104878232272
 20
207.3058337209733
 30
0.0
 11
-549.1104878232272
 21
207.3058337209733
 31
0.0
  0
LINE
  5
94
  8
ë±07-Éíû@
  6
CONTINUOUS
 62
     5
 10
-511.1104878232272
 20
207.3058337209733
 30
0.0
 11
-508.1104878232272
 21
207.3058337209733
 31
0.0
  0
INSERT
  5
95
  8
ë±07-Éíû@
  6
CONTINUOUS
 62
     5
 66
     1
  2
_OPEN
 10
-514.1104878232272
 20
207.3058337209733
 30
0.0
 41
3.0
 42
3.0
 43
3.0
 50
180.0
  0
SEQEND
  5
96
  8
ë±90-ÿg2
  6
CONTINUOUS
 62
     7
  0
INSERT
  5
97
  8
ë±07-Éíû@
  6
CONTINUOUS
 62
     5
 66
     1
  2
_OPEN
 10
-549.1104878232272
 20
207.3058337209733
 30
0.0
 41
3.0
 42
3.0
 43
3.0
  0
SEQEND
  5
98
  8
ë±90-ÿg2
  6
CONTINUOUS
 62
     7
  0
TEXT
  5
99
  8
ë±07-Éíû@
  6
CONTINUOUS
 62
     5
 10
-561.9640412138205
 20
207.8058337209733
 30
0.0
 40
5.0
  1
35
1001
ACAD
1000
MTEXTBEGIN
1070
    73
1070
     1
1070
    44
1040
1.0
1070
    74
1070
     0
1000
MTEXTEND
  0
POINT
  5
9A
  8
DEFPOINTS
  6
CONTINUOUS
 62
     0
 10
-514.1104878232272
 20
244.1909603184687
 30
0.0
  0
POINT
  5
9B
  8
DEFPOINTS
  6
CONTINUOUS
 62
     0
 10
-549.1104878232272
 20
244.1950086892795
 30
0.0
  0
POINT
  5
9C
  8
DEFPOINTS
  6
CONTINUOUS
 62
     0
 10
-549.1104878232272
 20
207.3058337209733
 30
0.0
  0
ENDBLK
  5
9D
  8
0
 62
     7
  0
BLOCK
  8
0
  2
*D38
 70
     1
 10
0.0
 20
0.0
 30
0.0
  3
*D38
  1

  0
LINE
  5
7E
  8
ë±07-Éíû@
  6
CONTINUOUS
 62
     5
 10
-513.1104878232272
 20
244.2629663630133
 30
0.0
 11
-513.1104878232272
 21
210.0877522538523
 31
0.0
  0
LINE
  5
7F
  8
ë±07-Éíû@
  6
CONTINUOUS
 62
     5
 10
-486.1104878232272
 20
244.2670147338241
 30
0.0
 11
-486.1104878232272
 21
210.0877522538523
 31
0.0
  0
LINE
  5
80
  8
ë±07-Éíû@
  6
CONTINUOUS
 62
     5
 10
-483.1104878232272
 20
211.0877522538523
 30
0.0
 11
-473.5470035712587
 21
211.0877522538523
 31
0.0
  0
LINE
  5
81
  8
ë±07-Éíû@
  6
CONTINUOUS
 62
     5
 10
-513.1104878232272
 20
211.0877522538523
 30
0.0
 11
-486.1104878232272
 21
211.0877522538523
 31
0.0
  0
LINE
  5
82
  8
ë±07-Éíû@
  6
CONTINUOUS
 62
     5
 10
-516.1104878232272
 20
211.0877522538523
 30
0.0
 11
-519.1104878232272
 21
211.0877522538523
 31
0.0
  0
INSERT
  5
83
  8
ë±07-Éíû@
  6
CONTINUOUS
 62
     5
 66
     1
  2
_OPEN
 10
-513.1104878232272
 20
211.0877522538523
 30
0.0
 41
3.0
 42
3.0
 43
3.0
  0
SEQEND
  5
84
  8
ë±90-ÿg2
  6
CONTINUOUS
 62
     7
  0
INSERT
  5
85
  8
ë±07-Éíû@
  6
CONTINUOUS
 62
     5
 66
     1
  2
_OPEN
 10
-486.1104878232272
 20
211.0877522538523
 30
0.0
 41
3.0
 42
3.0
 43
3.0
 50
180.0
  0
SEQEND
  5
86
  8
ë±90-ÿg2
  6
CONTINUOUS
 62
     7
  0
TEXT
  5
87
  8
ë±07-Éíû@
  6
CONTINUOUS
 62
     5
 10
-480.2970035712587
 20
211.5877522538523
 30
0.0
 40
5.0
  1
27
1001
ACAD
1000
MTEXTBEGIN
1070
    73
1070
     1
1070
    44
1040
1.0
1070
    74
1070
     0
1000
MTEXTEND
  0
POINT
  5
88
  8
DEFPOINTS
  6
CONTINUOUS
 62
     0
 10
-513.1104878232272
 20
244.2629663630133
 30
0.0
  0
POINT
  5
8A
  8
DEFPOINTS
  6
CONTINUOUS
 62
     0
 10
-486.1104878232272
 20
244.2670147338241
 30
0.0
  0
POINT
  5
8B
  8
DEFPOINTS
  6
CONTINUOUS
 62
     0
 10
-486.1104878232272
 20
211.0877522538523
 30
0.0
  0
ENDBLK
  5
8C
  8
0
 62
     7
  0
BLOCK
  8
ë±90-ÿg2
  2
*D39
 70
     1
 10
0.0
 20
0.0
 30
0.0
  3
*D39
  1

  0
LINE
  5
51D
  8
ë±07-Éíû@
  6
CONTINUOUS
 62
     5
 10
-522.8373487494884
 20
175.1116569941203
 30
0.0
 11
-522.8373487494884
 21
140.9364428849593
 31
0.0
  0
LINE
  5
51F
  8
ë±07-Éíû@
  6
CONTINUOUS
 62
     5
 10
-495.8373487494884
 20
175.1157053649311
 30
0.0
 11
-495.8373487494884
 21
140.9364428849593
 31
0.0
  0
LINE
  5
520
  8
ë±07-Éíû@
  6
CONTINUOUS
 62
     5
 10
-492.8373487494885
 20
141.9364428849593
 30
0.0
 11
-483.27386449752
 21
141.9364428849593
 31
0.0
  0
LINE
  5
521
  8
ë±07-Éíû@
  6
CONTINUOUS
 62
     5
 10
-522.8373487494884
 20
141.9364428849593
 30
0.0
 11
-495.8373487494884
 21
141.9364428849593
 31
0.0
  0
LINE
  5
522
  8
ë±07-Éíû@
  6
CONTINUOUS
 62
     5
 10
-525.8373487494885
 20
141.9364428849593
 30
0.0
 11
-528.8373487494884
 21
141.9364428849593
 31
0.0
  0
INSERT
  5
523
  8
ë±07-Éíû@
  6
CONTINUOUS
 62
     5
  2
_OPEN
 10
-522.8373487494884
 20
141.9364428849593
 30
0.0
 41
3.0
 42
3.0
 43
3.0
  0
INSERT
  5
524
  8
ë±07-Éíû@
  6
CONTINUOUS
 62
     5
  2
_OPEN
 10
-495.8373487494884
 20
141.9364428849593
 30
0.0
 41
3.0
 42
3.0
 43
3.0
 50
180.0
  0
TEXT
  5
525
  8
ë±07-Éíû@
  6
CONTINUOUS
 62
     5
 10
-490.02386449752
 20
142.4364428849593
 30
0.0
 40
5.0
  1
27
  0
POINT
  5
526
  8
DEFPOINTS
  6
CONTINUOUS
 62
     0
 10
-522.8373487494884
 20
175.1116569941203
 30
0.0
  0
POINT
  5
527
  8
DEFPOINTS
  6
CONTINUOUS
 62
     0
 10
-495.8373487494884
 20
175.1157053649311
 30
0.0
  0
POINT
  5
528
  8
DEFPOINTS
  6
CONTINUOUS
 62
     0
 10
-495.8373487494884
 20
141.9364428849593
 30
0.0
  0
ENDBLK
  5
52A
  8
ë±90-ÿg2
  6
CONTINUOUS
 62
     7
  0
BLOCK
  8
ë±90-ÿg2
  2
*D40
 70
     1
 10
0.0
 20
0.0
 30
0.0
  3
*D40
  1

  0
LINE
  5
52C
  8
ë±07-Éíû@
  6
CONTINUOUS
 62
     5
 10
-523.8373487494884
 20
175.0396509495756
 30
0.0
 11
-523.8373487494884
 21
137.1545243520803
 31
0.0
  0
LINE
  5
52D
  8
ë±07-Éíû@
  6
CONTINUOUS
 62
     5
 10
-558.8373487494884
 20
175.0436993203864
 30
0.0
 11
-558.8373487494884
 21
137.1545243520803
 31
0.0
  0
LINE
  5
52E
  8
ë±07-Éíû@
  6
CONTINUOUS
 62
     5
 10
-561.8373487494884
 20
138.1545243520803
 30
0.0
 11
-571.4409021400817
 21
138.1545243520803
 31
0.0
  0
LINE
  5
52F
  8
ë±07-Éíû@
  6
CONTINUOUS
 62
     5
 10
-523.8373487494884
 20
138.1545243520803
 30
0.0
 11
-558.8373487494884
 21
138.1545243520803
 31
0.0
  0
LINE
  5
530
  8
ë±07-Éíû@
  6
CONTINUOUS
 62
     5
 10
-520.8373487494884
 20
138.1545243520803
 30
0.0
 11
-517.8373487494885
 21
138.1545243520803
 31
0.0
  0
INSERT
  5
531
  8
ë±07-Éíû@
  6
CONTINUOUS
 62
     5
  2
_OPEN
 10
-523.8373487494884
 20
138.1545243520803
 30
0.0
 41
3.0
 42
3.0
 43
3.0
 50
180.0
  0
INSERT
  5
532
  8
ë±07-Éíû@
  6
CONTINUOUS
 62
     5
  2
_OPEN
 10
-558.8373487494884
 20
138.1545243520803
 30
0.0
 41
3.0
 42
3.0
 43
3.0
  0
TEXT
  5
533
  8
ë±07-Éíû@
  6
CONTINUOUS
 62
     5
 10
-571.6909021400818
 20
138.6545243520803
 30
0.0
 40
5.0
  1
35
  0
POINT
  5
534
  8
DEFPOINTS
  6
CONTINUOUS
 62
     0
 10
-523.8373487494884
 20
175.0396509495756
 30
0.0
  0
POINT
  5
535
  8
DEFPOINTS
  6
CONTINUOUS
 62
     0
 10
-558.8373487494884
 20
175.0436993203864
 30
0.0
  0
POINT
  5
536
  8
DEFPOINTS
  6
CONTINUOUS
 62
     0
 10
-558.8373487494884
 20
138.1545243520803
 30
0.0
  0
ENDBLK
  5
538
  8
ë±90-ÿg2
  6
CONTINUOUS
 62
     7
  0
BLOCK
  8
ë±90-ÿg2
  2
*D41
 70
     1
 10
0.0
 20
0.0
 30
0.0
  3
*D41
  1

  0
LINE
  5
53A
  8
ë±07-Éíû@
  6
CONTINUOUS
 62
     5
 10
-527.5884740649368
 20
78.75712672116998
 30
0.0
 11
-527.5884740649368
 21
61.11838557140773
 31
0.0
  0
LINE
  5
53C
  8
ë±07-Éíû@
  6
CONTINUOUS
 62
     5
 10
-545.0884740649369
 20
78.75712672116998
 30
0.0
 11
-545.0884740649369
 21
61.11838557140774
 31
0.0
  0
LINE
  5
53D
  8
ë±07-Éíû@
  6
CONTINUOUS
 62
     5
 10
-526.0884740649368
 20
62.11838557140772
 30
0.0
 11
-481.1683533434042
 21
62.11838557140771
 31
0.0
  0
LINE
  5
53E
  8
ë±07-Éíû@
  6
CONTINUOUS
 62
     5
 10
-527.5884740649368
 20
62.11838557140772
 30
0.0
 11
-545.0884740649369
 21
62.11838557140773
 31
0.0
  0
LINE
  5
53F
  8
ë±07-Éíû@
  6
CONTINUOUS
 62
     5
 10
-546.5884740649369
 20
62.11838557140773
 30
0.0
 11
-548.0884740649369
 21
62.11838557140773
 31
0.0
  0
INSERT
  5
540
  8
ë±07-Éíû@
  6
CONTINUOUS
 62
     5
  2
_OPEN
 10
-527.5884740649368
 20
62.11838557140772
 30
0.0
 41
1.5
 42
1.5
 43
1.5
 50
180.0
  0
INSERT
  5
541
  8
ë±07-Éíû@
  6
CONTINUOUS
 62
     5
  2
_OPEN
 10
-545.0884740649369
 20
62.11838557140773
 30
0.0
 41
1.5
 42
1.5
 43
1.5
 50
360.0
  0
INSERT
  5
542
  8
ë±07-Éíû@
  6
CONTINUOUS
 62
     5
 66
     1
  2
*X100
 10
0.0
 20
0.0
 30
0.0
  0
SEQEND
  5
93E
  8
ë±90-ÿg2
  6
CONTINUOUS
 62
     7
  0
POINT
  5
543
  8
DEFPOINTS
  6
CONTINUOUS
 62
     0
 10
-527.5884740649368
 20
78.75712672116998
 30
0.0
  0
POINT
  5
544
  8
DEFPOINTS
  6
CONTINUOUS
 62
     0
 10
-545.0884740649369
 20
78.75712672116998
 30
0.0
  0
POINT
  5
545
  8
DEFPOINTS
  6
CONTINUOUS
 62
     0
 10
-545.0884740649369
 20
62.11838557140773
 30
0.0
  0
ENDBLK
  5
547
  8
ë±90-ÿg2
  6
CONTINUOUS
 62
     7
  0
BLOCK
  8
ë±90-ÿg2
  2
*D42
 70
     1
 10
0.0
 20
0.0
 30
0.0
  3
*D42
  1

  0
LINE
  5
549
  8
ë±07-Éíû@
  6
CONTINUOUS
 62
     5
 10
-502.5884740649368
 20
78.75712672116907
 30
0.0
 11
-502.5884740649368
 21
50.59465245439122
 31
0.0
  0
LINE
  5
54A
  8
ë±07-Éíû@
  6
CONTINUOUS
 62
     5
 10
-516.0884740649367
 20
78.75712672116998
 30
0.0
 11
-516.0884740649367
 21
50.59465245439122
 31
0.0
  0
LINE
  5
54B
  8
ë±07-Éíû@
  6
CONTINUOUS
 62
     5
 10
-501.0884740649368
 20
51.59465245439122
 30
0.0
 11
-480.70837071848
 21
51.59465245439122
 31
0.0
  0
LINE
  5
54C
  8
ë±07-Éíû@
  6
CONTINUOUS
 62
     5
 10
-502.5884740649368
 20
51.59465245439122
 30
0.0
 11
-516.0884740649367
 21
51.59465245439122
 31
0.0
  0
LINE
  5
54D
  8
ë±07-Éíû@
  6
CONTINUOUS
 62
     5
 10
-517.5884740649368
 20
51.59465245439122
 30
0.0
 11
-519.0884740649368
 21
51.59465245439122
 31
0.0
  0
INSERT
  5
54E
  8
ë±07-Éíû@
  6
CONTINUOUS
 62
     5
  2
_OPEN
 10
-502.5884740649368
 20
51.59465245439122
 30
0.0
 41
1.5
 42
1.5
 43
1.5
 50
180.0
  0
INSERT
  5
54F
  8
ë±07-Éíû@
  6
CONTINUOUS
 62
     5
  2
_OPEN
 10
-516.0884740649367
 20
51.59465245439122
 30
0.0
 41
1.5
 42
1.5
 43
1.5
  0
INSERT
  5
550
  8
ë±07-Éíû@
  6
CONTINUOUS
 62
     5
 66
     1
  2
*X101
 10
0.0
 20
0.0
 30
0.0
  0
SEQEND
  5
944
  8
ë±90-ÿg2
  6
CONTINUOUS
 62
     7
  0
POINT
  5
551
  8
DEFPOINTS
  6
CONTINUOUS
 62
     0
 10
-502.5884740649368
 20
78.75712672116907
 30
0.0
  0
POINT
  5
552
  8
DEFPOINTS
  6
CONTINUOUS
 62
     0
 10
-516.0884740649367
 20
78.75712672116998
 30
0.0
  0
POINT
  5
553
  8
DEFPOINTS
  6
CONTINUOUS
 62
     0
 10
-516.0884740649367
 20
51.59465245439122
 30
0.0
  0
ENDBLK
  5
555
  8
ë±90-ÿg2
  6
CONTINUOUS
 62
     7
  0
BLOCK
  8
ë±90-ÿg2
  2
*D43
 70
     1
 10
0.0
 20
0.0
 30
0.0
  3
*D43
  1

  0
LINE
  5
557
  8
ë±07-Éíû@
  6
CONTINUOUS
 62
     5
 10
-694.6523527544886
 20
464.9271267211695
 30
0.0
 11
-694.6523527544886
 21
521.7771267211706
 31
0.0
  0
LINE
  5
559
  8
ë±07-Éíû@
  6
CONTINUOUS
 62
     5
 10
-702.0923527544887
 20
474.7571267211697
 30
0.0
 11
-702.0923527544887
 21
521.7771267211706
 31
0.0
  0
LINE
  5
55A
  8
ë±07-Éíû@
  6
CONTINUOUS
 62
     5
 10
-703.5923527544887
 20
520.7771267211706
 30
0.0
 11
-754.8490305989769
 21
520.7771267211706
 31
0.0
  0
LINE
  5
55B
  8
ë±07-Éíû@
  6
CONTINUOUS
 62
     5
 10
-694.6523527544886
 20
520.7771267211706
 30
0.0
 11
-702.0923527544887
 21
520.7771267211706
 31
0.0
  0
LINE
  5
55C
  8
ë±07-Éíû@
  6
CONTINUOUS
 62
     5
 10
-693.1523527544887
 20
520.7771267211706
 30
0.0
 11
-691.6523527544886
 21
520.7771267211706
 31
0.0
  0
INSERT
  5
55D
  8
ë±07-Éíû@
  6
CONTINUOUS
 62
     5
  2
_OPEN
 10
-694.6523527544886
 20
520.7771267211706
 30
0.0
 41
1.5
 42
1.5
 43
1.5
 50
180.0
  0
INSERT
  5
55E
  8
ë±07-Éíû@
  6
CONTINUOUS
 62
     5
  2
_OPEN
 10
-702.0923527544887
 20
520.7771267211706
 30
0.0
 41
1.5
 42
1.5
 43
1.5
  0
INSERT
  5
55F
  8
ë±07-Éíû@
  6
CONTINUOUS
 62
     5
 66
     1
  2
*X102
 10
0.0
 20
0.0
 30
0.0
  0
SEQEND
  5
94A
  8
ë±90-ÿg2
  6
CONTINUOUS
 62
     7
  0
POINT
  5
560
  8
DEFPOINTS
  6
CONTINUOUS
 62
     0
 10
-694.6523527544886
 20
464.9271267211695
 30
0.0
  0
POINT
  5
561
  8
DEFPOINTS
  6
CONTINUOUS
 62
     0
 10
-702.0923527544887
 20
474.7571267211697
 30
0.0
  0
POINT
  5
562
  8
DEFPOINTS
  6
CONTINUOUS
 62
     0
 10
-702.0923527544887
 20
520.7771267211706
 30
0.0
  0
ENDBLK
  5
564
  8
ë±90-ÿg2
  6
CONTINUOUS
 62
     7
  0
BLOCK
  8
ë±90-ÿg2
  2
*D44
 70
     1
 10
0.0
 20
0.0
 30
0.0
  3
*D44
  1

  0
LINE
  5
566
  8
ë±07-Éíû@
  6
CONTINUOUS
 62
     5
 10
-351.7323527544886
 20
464.9271267211695
 30
0.0
 11
-351.7323527544886
 21
521.7771267211706
 31
0.0
  0
LINE
  5
567
  8
ë±07-Éíû@
  6
CONTINUOUS
 62
     5
 10
-694.6523527544886
 20
464.9271267211695
 30
0.0
 11
-694.6523527544886
 21
521.7771267211706
 31
0.0
  0
LINE
  5
568
  8
ë±07-Éíû@
  6
CONTINUOUS
 62
     5
 10
-353.2323527544886
 20
520.7771267211706
 30
0.0
 11
-693.1523527544887
 21
520.7771267211706
 31
0.0
  0
INSERT
  5
569
  8
ë±07-Éíû@
  6
CONTINUOUS
 62
     5
  2
_OPEN
 10
-351.7323527544886
 20
520.7771267211706
 30
0.0
 41
1.5
 42
1.5
 43
1.5
  0
INSERT
  5
56A
  8
ë±07-Éíû@
  6
CONTINUOUS
 62
     5
  2
_OPEN
 10
-694.6523527544886
 20
520.7771267211706
 30
0.0
 41
1.5
 42
1.5
 43
1.5
 50
180.0
  0
TEXT
  5
56B
  8
ë±07-Éíû@
  6
CONTINUOUS
 62
     5
 10
-532.9519314847066
 20
521.2771267211706
 30
0.0
 40
5.0
  1
342.92
  0
POINT
  5
56C
  8
DEFPOINTS
  6
CONTINUOUS
 62
     0
 10
-351.7323527544886
 20
464.9271267211695
 30
0.0
  0
POINT
  5
56D
  8
DEFPOINTS
  6
CONTINUOUS
 62
     0
 10
-694.6523527544886
 20
464.9271267211695
 30
0.0
  0
POINT
  5
56E
  8
DEFPOINTS
  6
CONTINUOUS
 62
     0
 10
-694.6523527544886
 20
520.7771267211706
 30
0.0
  0
ENDBLK
  5
570
  8
ë±90-ÿg2
  6
CONTINUOUS
 62
     7
  0
BLOCK
  8
ë±90-ÿg2
  2
*D45
 70
     1
 10
0.0
 20
0.0
 30
0.0
  3
*D45
  1

  0
LINE
  5
572
  8
ë±07-Éíû@
  6
CONTINUOUS
 62
     5
 10
-351.7323527544886
 20
464.9271267211695
 30
0.0
 11
-351.7323527544886
 21
521.7771267211706
 31
0.0
  0
LINE
  5
573
  8
ë±07-Éíû@
  6
CONTINUOUS
 62
     5
 10
-343.5923527544887
 20
474.7571267211706
 30
0.0
 11
-343.5923527544887
 21
521.7771267211706
 31
0.0
  0
LINE
  5
574
  8
ë±07-Éíû@
  6
CONTINUOUS
 62
     5
 10
-342.0923527544887
 20
520.7771267211706
 30
0.0
 11
-296.3337064060636
 21
520.7771267211706
 31
0.0
  0
LINE
  5
575
  8
ë±07-Éíû@
  6
CONTINUOUS
 62
     5
 10
-351.7323527544886
 20
520.7771267211706
 30
0.0
 11
-343.5923527544887
 21
520.7771267211706
 31
0.0
  0
LINE
  5
576
  8
ë±07-Éíû@
  6
CONTINUOUS
 62
     5
 10
-353.2323527544886
 20
520.7771267211706
 30
0.0
 11
-354.7323527544886
 21
520.7771267211706
 31
0.0
  0
INSERT
  5
577
  8
ë±07-Éíû@
  6
CONTINUOUS
 62
     5
  2
_OPEN
 10
-351.7323527544886
 20
520.7771267211706
 30
0.0
 41
1.5
 42
1.5
 43
1.5
  0
INSERT
  5
578
  8
ë±07-Éíû@
  6
CONTINUOUS
 62
     5
  2
_OPEN
 10
-343.5923527544887
 20
520.7771267211706
 30
0.0
 41
1.5
 42
1.5
 43
1.5
 50
180.0
  0
INSERT
  5
579
  8
ë±07-Éíû@
  6
CONTINUOUS
 62
     5
 66
     1
  2
*X103
 10
0.0
 20
0.0
 30
0.0
  0
SEQEND
  5
950
  8
ë±90-ÿg2
  6
CONTINUOUS
 62
     7
  0
POINT
  5
57A
  8
DEFPOINTS
  6
CONTINUOUS
 62
     0
 10
-351.7323527544886
 20
464.9271267211695
 30
0.0
  0
POINT
  5
57B
  8
DEFPOINTS
  6
CONTINUOUS
 62
     0
 10
-343.5923527544887
 20
474.7571267211706
 30
0.0
  0
POINT
  5
57C
  8
DEFPOINTS
  6
CONTINUOUS
 62
     0
 10
-343.5923527544887
 20
520.7771267211706
 30
0.0
  0
ENDBLK
  5
57E
  8
ë±90-ÿg2
  6
CONTINUOUS
 62
     7
  0
BLOCK
  8
ë±90-ÿg2
  2
*D46
 70
     1
 10
0.0
 20
0.0
 30
0.0
  3
*D46
  1

  0
LINE
  5
580
  8
ë±07-Éíû@
  6
CONTINUOUS
 62
     5
 10
-694.6523527544886
 20
464.9271267211695
 30
0.0
 11
-764.0928448804743
 21
464.9271267211695
 31
0.0
  0
LINE
  5
581
  8
ë±07-Éíû@
  6
CONTINUOUS
 62
     5
 10
-702.0923527544887
 20
474.7571267211697
 30
0.0
 11
-764.0928448804743
 21
474.7571267211697
 31
0.0
  0
LINE
  5
582
  8
ë±07-Éíû@
  6
CONTINUOUS
 62
     5
 10
-763.0928448804743
 20
476.2571267211697
 30
0.0
 11
-763.0928448804743
 21
526.5318564082926
 31
0.0
  0
LINE
  5
583
  8
ë±07-Éíû@
  6
CONTINUOUS
 62
     5
 10
-763.0928448804743
 20
464.9271267211695
 30
0.0
 11
-763.0928448804743
 21
474.7571267211697
 31
0.0
  0
LINE
  5
584
  8
ë±07-Éíû@
  6
CONTINUOUS
 62
     5
 10
-763.0928448804743
 20
463.4271267211694
 30
0.0
 11
-763.0928448804743
 21
461.9271267211694
 31
0.0
  0
INSERT
  5
585
  8
ë±07-Éíû@
  6
CONTINUOUS
 62
     5
  2
_OPEN
 10
-763.0928448804743
 20
464.9271267211695
 30
0.0
 41
1.5
 42
1.5
 43
1.5
 50
90.0
  0
INSERT
  5
586
  8
ë±07-Éíû@
  6
CONTINUOUS
 62
     5
  2
_OPEN
 10
-763.0928448804743
 20
474.7571267211697
 30
0.0
 41
1.5
 42
1.5
 43
1.5
 50
270.0
  0
INSERT
  5
587
  8
ë±07-Éíû@
  6
CONTINUOUS
 62
     5
 66
     1
  2
*X104
 10
0.0
 20
0.0
 30
0.0
  0
SEQEND
  5
956
  8
ë±90-ÿg2
  6
CONTINUOUS
 62
     7
  0
POINT
  5
588
  8
DEFPOINTS
  6
CONTINUOUS
 62
     0
 10
-694.6523527544886
 20
464.9271267211695
 30
0.0
  0
POINT
  5
589
  8
DEFPOINTS
  6
CONTINUOUS
 62
     0
 10
-702.0923527544887
 20
474.7571267211697
 30
0.0
  0
POINT
  5
58A
  8
DEFPOINTS
  6
CONTINUOUS
 62
     0
 10
-763.0928448804743
 20
474.7571267211697
 30
0.0
  0
ENDBLK
  5
58C
  8
ë±90-ÿg2
  6
CONTINUOUS
 62
     7
  0
BLOCK
  8
ë±90-ÿg2
  2
*D47
 70
     1
 10
0.0
 20
0.0
 30
0.0
  3
*D47
  1

  0
LINE
  5
58E
  8
ë±07-Éíû@
  6
CONTINUOUS
 62
     5
 10
-694.6523527544886
 20
189.5871267211695
 30
0.0
 11
-764.0928448804734
 21
189.5871267211695
 31
0.0
  0
LINE
  5
58F
  8
ë±07-Éíû@
  6
CONTINUOUS
 62
     5
 10
-702.0923527544887
 20
178.2571267211697
 30
0.0
 11
-764.0928448804734
 21
178.2571267211697
 31
0.0
  0
LINE
  5
590
  8
ë±07-Éíû@
  6
CONTINUOUS
 62
     5
 10
-763.0928448804734
 20
176.7571267211697
 30
0.0
 11
-763.0928448804734
 21
128.4984803727446
 31
0.0
  0
LINE
  5
591
  8
ë±07-Éíû@
  6
CONTINUOUS
 62
     5
 10
-763.0928448804734
 20
189.5871267211695
 30
0.0
 11
-763.0928448804734
 21
178.2571267211697
 31
0.0
  0
LINE
  5
592
  8
ë±07-Éíû@
  6
CONTINUOUS
 62
     5
 10
-763.0928448804734
 20
191.0871267211695
 30
0.0
 11
-763.0928448804734
 21
192.5871267211696
 31
0.0
  0
INSERT
  5
593
  8
ë±07-Éíû@
  6
CONTINUOUS
 62
     5
  2
_OPEN
 10
-763.0928448804734
 20
189.5871267211695
 30
0.0
 41
1.5
 42
1.5
 43
1.5
 50
270.0
  0
INSERT
  5
594
  8
ë±07-Éíû@
  6
CONTINUOUS
 62
     5
  2
_OPEN
 10
-763.0928448804734
 20
178.2571267211697
 30
0.0
 41
1.5
 42
1.5
 43
1.5
 50
90.0
  0
INSERT
  5
595
  8
ë±07-Éíû@
  6
CONTINUOUS
 62
     5
 66
     1
  2
*X105
 10
0.0
 20
0.0
 30
0.0
  0
SEQEND
  5
95C
  8
ë±90-ÿg2
  6
CONTINUOUS
 62
     7
  0
POINT
  5
596
  8
DEFPOINTS
  6
CONTINUOUS
 62
     0
 10
-694.6523527544886
 20
189.5871267211695
 30
0.0
  0
POINT
  5
597
  8
DEFPOINTS
  6
CONTINUOUS
 62
     0
 10
-702.0923527544887
 20
178.2571267211697
 30
0.0
  0
POINT
  5
598
  8
DEFPOINTS
  6
CONTINUOUS
 62
     0
 10
-763.0928448804734
 20
178.2571267211697
 30
0.0
  0
ENDBLK
  5
59A
  8
ë±90-ÿg2
  6
CONTINUOUS
 62
     7
  0
BLOCK
  8
ë±90-ÿg2
  2
*D48
 70
     1
 10
0.0
 20
0.0
 30
0.0
  3
*D48
  1

  0
LINE
  5
59C
  8
ë±07-Éíû@
  6
CONTINUOUS
 62
     5
 10
-694.6523527544886
 20
189.5871267211695
 30
0.0
 11
-764.0928448804733
 21
189.5871267211695
 31
0.0
  0
LINE
  5
59D
  8
ë±07-Éíû@
  6
CONTINUOUS
 62
     5
 10
-694.6523527544886
 20
464.9271267211695
 30
0.0
 11
-764.0928448804733
 21
464.9271267211695
 31
0.0
  0
LINE
  5
59E
  8
ë±07-Éíû@
  6
CONTINUOUS
 62
     5
 10
-763.0928448804732
 20
191.0871267211695
 30
0.0
 11
-763.0928448804732
 21
463.4271267211694
 31
0.0
  0
INSERT
  5
59F
  8
ë±07-Éíû@
  6
CONTINUOUS
 62
     5
  2
_OPEN
 10
-763.0928448804732
 20
189.5871267211695
 30
0.0
 41
1.5
 42
1.5
 43
1.5
 50
270.0
  0
INSERT
  5
5A0
  8
ë±07-Éíû@
  6
CONTINUOUS
 62
     5
  2
_OPEN
 10
-763.0928448804732
 20
464.9271267211695
 30
0.0
 41
1.5
 42
1.5
 43
1.5
 50
90.0
  0
TEXT
  5
5A1
  8
ë±07-Éíû@
  6
CONTINUOUS
 62
     5
 10
-763.5928448804733
 20
316.8071267211695
 30
0.0
 40
5.0
  1
275.34
 50
90.0
  0
POINT
  5
5A2
  8
DEFPOINTS
  6
CONTINUOUS
 62
     0
 10
-694.6523527544886
 20
189.5871267211695
 30
0.0
  0
POINT
  5
5A3
  8
DEFPOINTS
  6
CONTINUOUS
 62
     0
 10
-694.6523527544886
 20
464.9271267211695
 30
0.0
  0
POINT
  5
5A4
  8
DEFPOINTS
  6
CONTINUOUS
 62
     0
 10
-763.0928448804732
 20
464.9271267211695
 30
0.0
  0
ENDBLK
  5
5A6
  8
ë±90-ÿg2
  6
CONTINUOUS
 62
     7
  0
BLOCK
  8
ë±90-ÿg2
  2
*D49
 70
     1
 10
0.0
 20
0.0
 30
0.0
  3
*D49
  1

  0
LINE
  5
5A8
  8
ë±07-Éíû@
  6
CONTINUOUS
 62
     5
 10
-352.2323527544886
 20
464.4271267211695
 30
0.0
 11
-352.2323527544886
 21
509.7771267211706
 31
0.0
  0
LINE
  5
5AA
  8
ë±07-Éíû@
  6
CONTINUOUS
 62
     5
 10
-343.5923527544887
 20
474.7571267211697
 30
0.0
 11
-343.5923527544887
 21
509.7771267211706
 31
0.0
  0
LINE
  5
5AB
  8
ë±07-Éíû@
  6
CONTINUOUS
 62
     5
 10
-342.0923527544887
 20
508.7771267211706
 30
0.0
 11
-328.5923527544887
 21
508.7771267211706
 31
0.0
  0
LINE
  5
5AC
  8
ë±07-Éíû@
  6
CONTINUOUS
 62
     5
 10
-352.2323527544886
 20
508.7771267211706
 30
0.0
 11
-343.5923527544887
 21
508.7771267211706
 31
0.0
  0
LINE
  5
5AD
  8
ë±07-Éíû@
  6
CONTINUOUS
 62
     5
 10
-353.7323527544886
 20
508.7771267211706
 30
0.0
 11
-355.2323527544886
 21
508.7771267211706
 31
0.0
  0
INSERT
  5
5AE
  8
ë±07-Éíû@
  6
CONTINUOUS
 62
     5
  2
_OPEN
 10
-352.2323527544886
 20
508.7771267211706
 30
0.0
 41
1.5
 42
1.5
 43
1.5
  0
INSERT
  5
5AF
  8
ë±07-Éíû@
  6
CONTINUOUS
 62
     5
  2
_OPEN
 10
-343.5923527544887
 20
508.7771267211706
 30
0.0
 41
1.5
 42
1.5
 43
1.5
 50
180.0
  0
TEXT
  5
5B0
  8
ë±07-Éíû@
  6
CONTINUOUS
 62
     5
 10
-340.8423527544887
 20
509.2771267211706
 30
0.0
 40
5.0
  1
8.64
  0
POINT
  5
5B1
  8
DEFPOINTS
  6
CONTINUOUS
 62
     0
 10
-352.2323527544886
 20
464.4271267211695
 30
0.0
  0
POINT
  5
5B2
  8
DEFPOINTS
  6
CONTINUOUS
 62
     0
 10
-343.5923527544887
 20
474.7571267211697
 30
0.0
  0
POINT
  5
5B3
  8
DEFPOINTS
  6
CONTINUOUS
 62
     0
 10
-343.5923527544887
 20
508.7771267211706
 30
0.0
  0
ENDBLK
  5
5B5
  8
ë±90-ÿg2
  6
CONTINUOUS
 62
     7
  0
BLOCK
  8
ë±90-ÿg2
  2
*D50
 70
     1
 10
0.0
 20
0.0
 30
0.0
  3
*D50
  1

  0
LINE
  5
5B7
  8
ë±07-Éíû@
  6
CONTINUOUS
 62
     5
 10
-354.2323527544886
 20
462.4271267211694
 30
0.0
 11
-354.2323527544886
 21
497.7771267211706
 31
0.0
  0
LINE
  5
5B8
  8
ë±07-Éíû@
  6
CONTINUOUS
 62
     5
 10
-343.5923527544887
 20
474.7571267211697
 30
0.0
 11
-343.5923527544887
 21
497.7771267211706
 31
0.0
  0
LINE
  5
5B9
  8
ë±07-Éíû@
  6
CONTINUOUS
 62
     5
 10
-342.0923527544887
 20
496.7771267211706
 30
0.0
 11
-326.0923527544887
 21
496.7771267211706
 31
0.0
  0
LINE
  5
5BA
  8
ë±07-Éíû@
  6
CONTINUOUS
 62
     5
 10
-354.2323527544886
 20
496.7771267211706
 30
0.0
 11
-343.5923527544887
 21
496.7771267211706
 31
0.0
  0
LINE
  5
5BB
  8
ë±07-Éíû@
  6
CONTINUOUS
 62
     5
 10
-355.7323527544886
 20
496.7771267211706
 30
0.0
 11
-357.2323527544886
 21
496.7771267211706
 31
0.0
  0
INSERT
  5
5BC
  8
ë±07-Éíû@
  6
CONTINUOUS
 62
     5
  2
_OPEN
 10
-354.2323527544886
 20
496.7771267211706
 30
0.0
 41
1.5
 42
1.5
 43
1.5
  0
INSERT
  5
5BD
  8
ë±07-Éíû@
  6
CONTINUOUS
 62
     5
  2
_OPEN
 10
-343.5923527544887
 20
496.7771267211706
 30
0.0
 41
1.5
 42
1.5
 43
1.5
 50
180.0
  0
TEXT
  5
5BE
  8
ë±07-Éíû@
  6
CONTINUOUS
 62
     5
 10
-340.8423527544887
 20
497.2771267211706
 30
0.0
 40
5.0
  1
10.64
  0
POINT
  5
5BF
  8
DEFPOINTS
  6
CONTINUOUS
 62
     0
 10
-354.2323527544886
 20
462.4271267211694
 30
0.0
  0
POINT
  5
5C0
  8
DEFPOINTS
  6
CONTINUOUS
 62
     0
 10
-343.5923527544887
 20
474.7571267211697
 30
0.0
  0
POINT
  5
5C1
  8
DEFPOINTS
  6
CONTINUOUS
 62
     0
 10
-343.5923527544887
 20
496.7771267211706
 30
0.0
  0
ENDBLK
  5
5C3
  8
ë±90-ÿg2
  6
CONTINUOUS
 62
     7
  0
BLOCK
  8
ë±90-ÿg2
  2
*D51
 70
     1
 10
0.0
 20
0.0
 30
0.0
  3
*D51
  1

  0
LINE
  5
5C5
  8
ë±07-Éíû@
  6
CONTINUOUS
 62
     5
 10
-692.1523527544886
 20
462.4271267211694
 30
0.0
 11
-692.1523527544886
 21
497.7771267211706
 31
0.0
  0
LINE
  5
5C6
  8
ë±07-Éíû@
  6
CONTINUOUS
 62
     5
 10
-702.0923527544887
 20
474.7571267211697
 30
0.0
 11
-702.0923527544887
 21
497.7771267211706
 31
0.0
  0
LINE
  5
5C7
  8
ë±07-Éíû@
  6
CONTINUOUS
 62
     5
 10
-703.5923527544887
 20
496.7771267211706
 30
0.0
 11
-721.1245194318844
 21
496.7771267211706
 31
0.0
  0
LINE
  5
5C8
  8
ë±07-Éíû@
  6
CONTINUOUS
 62
     5
 10
-692.1523527544886
 20
496.7771267211706
 30
0.0
 11
-702.0923527544887
 21
496.7771267211706
 31
0.0
  0
LINE
  5
5C9
  8
ë±07-Éíû@
  6
CONTINUOUS
 62
     5
 10
-690.6523527544886
 20
496.7771267211706
 30
0.0
 11
-689.1523527544887
 21
496.7771267211706
 31
0.0
  0
INSERT
  5
5CA
  8
ë±07-Éíû@
  6
CONTINUOUS
 62
     5
  2
_OPEN
 10
-692.1523527544886
 20
496.7771267211706
 30
0.0
 41
1.5
 42
1.5
 43
1.5
 50
180.0
  0
INSERT
  5
5CB
  8
ë±07-Éíû@
  6
CONTINUOUS
 62
     5
  2
_OPEN
 10
-702.0923527544887
 20
496.7771267211706
 30
0.0
 41
1.5
 42
1.5
 43
1.5
  0
TEXT
  5
5CC
  8
ë±07-Éíû@
  6
CONTINUOUS
 62
     5
 10
-721.3764879358214
 20
497.5271267211706
 30
0.0
 40
5.0
  1
(9.94)
  0
POINT
  5
5CD
  8
DEFPOINTS
  6
CONTINUOUS
 62
     0
 10
-692.1523527544886
 20
462.4271267211694
 30
0.0
  0
POINT
  5
5CE
  8
DEFPOINTS
  6
CONTINUOUS
 62
     0
 10
-702.0923527544887
 20
474.7571267211697
 30
0.0
  0
POINT
  5
5CF
  8
DEFPOINTS
  6
CONTINUOUS
 62
     0
 10
-702.0923527544887
 20
496.7771267211706
 30
0.0
  0
ENDBLK
  5
5D1
  8
ë±90-ÿg2
  6
CONTINUOUS
 62
     7
  0
BLOCK
  8
ë±90-ÿg2
  2
*D52
 70
     1
 10
0.0
 20
0.0
 30
0.0
  3
*D52
  1

  0
LINE
  5
5D3
  8
ë±07-Éíû@
  6
CONTINUOUS
 62
     5
 10
-694.1523527544886
 20
464.4271267211695
 30
0.0
 11
-694.1523527544886
 21
509.7771267211706
 31
0.0
  0
LINE
  5
5D4
  8
ë±07-Éíû@
  6
CONTINUOUS
 62
     5
 10
-702.0923527544887
 20
474.7571267211697
 30
0.0
 11
-702.0923527544887
 21
509.7771267211706
 31
0.0
  0
LINE
  5
5D5
  8
ë±07-Éíû@
  6
CONTINUOUS
 62
     5
 10
-703.5923527544887
 20
508.7771267211706
 30
0.0
 11
-721.1064675892496
 21
508.7771267211706
 31
0.0
  0
LINE
  5
5D6
  8
ë±07-Éíû@
  6
CONTINUOUS
 62
     5
 10
-694.1523527544886
 20
508.7771267211706
 30
0.0
 11
-702.0923527544887
 21
508.7771267211706
 31
0.0
  0
LINE
  5
5D7
  8
ë±07-Éíû@
  6
CONTINUOUS
 62
     5
 10
-692.6523527544887
 20
508.7771267211706
 30
0.0
 11
-691.1523527544886
 21
508.7771267211706
 31
0.0
  0
INSERT
  5
5D8
  8
ë±07-Éíû@
  6
CONTINUOUS
 62
     5
  2
_OPEN
 10
-694.1523527544886
 20
508.7771267211706
 30
0.0
 41
1.5
 42
1.5
 43
1.5
 50
180.0
  0
INSERT
  5
5D9
  8
ë±07-Éíû@
  6
CONTINUOUS
 62
     5
  2
_OPEN
 10
-702.0923527544887
 20
508.7771267211706
 30
0.0
 41
1.5
 42
1.5
 43
1.5
  0
TEXT
  5
5DA
  8
ë±07-Éíû@
  6
CONTINUOUS
 62
     5
 10
-721.3584360931867
 20
509.5271267211706
 30
0.0
 40
5.0
  1
(7.94)
  0
POINT
  5
5DB
  8
DEFPOINTS
  6
CONTINUOUS
 62
     0
 10
-694.1523527544886
 20
464.4271267211695
 30
0.0
  0
POINT
  5
5DC
  8
DEFPOINTS
  6
CONTINUOUS
 62
     0
 10
-702.0923527544887
 20
474.7571267211697
 30
0.0
  0
POINT
  5
5DD
  8
DEFPOINTS
  6
CONTINUOUS
 62
     0
 10
-702.0923527544887
 20
508.7771267211706
 30
0.0
  0
ENDBLK
  5
5DF
  8
ë±90-ÿg2
  6
CONTINUOUS
 62
     7
  0
BLOCK
  8
ë±90-ÿg2
  2
*D53
 70
     1
 10
0.0
 20
0.0
 30
0.0
  3
*D53
  1

  0
LINE
  5
5E1
  8
ë±07-Éíû@
  6
CONTINUOUS
 62
     5
 10
-694.1523527544886
 20
464.4271267211704
 30
0.0
 11
-753.0923527544888
 21
464.4271267211704
 31
0.0
  0
LINE
  5
5E2
  8
ë±07-Éíû@
  6
CONTINUOUS
 62
     5
 10
-702.0923527544887
 20
474.7571267211706
 30
0.0
 11
-753.0923527544888
 21
474.7571267211706
 31
0.0
  0
LINE
  5
5E3
  8
ë±07-Éíû@
  6
CONTINUOUS
 62
     5
 10
-752.0923527544888
 20
476.2571267211706
 30
0.0
 11
-752.0923527544888
 21
495.7531897132967
 31
0.0
  0
LINE
  5
5E4
  8
ë±07-Éíû@
  6
CONTINUOUS
 62
     5
 10
-752.0923527544888
 20
464.4271267211704
 30
0.0
 11
-752.0923527544888
 21
474.7571267211706
 31
0.0
  0
LINE
  5
5E5
  8
ë±07-Éíû@
  6
CONTINUOUS
 62
     5
 10
-752.0923527544888
 20
462.9271267211704
 30
0.0
 11
-752.0923527544888
 21
461.4271267211703
 31
0.0
  0
INSERT
  5
5E6
  8
ë±07-Éíû@
  6
CONTINUOUS
 62
     5
  2
_OPEN
 10
-752.0923527544888
 20
464.4271267211704
 30
0.0
 41
1.5
 42
1.5
 43
1.5
 50
90.0
  0
INSERT
  5
5E7
  8
ë±07-Éíû@
  6
CONTINUOUS
 62
     5
  2
_OPEN
 10
-752.0923527544888
 20
474.7571267211706
 30
0.0
 41
1.5
 42
1.5
 43
1.5
 50
270.0
  0
TEXT
  5
5E8
  8
ë±07-Éíû@
  6
CONTINUOUS
 62
     5
 10
-752.8423527544888
 20
477.5051582172337
 30
0.0
 40
5.0
  1
(10.33)
 50
90.0
  0
POINT
  5
5E9
  8
DEFPOINTS
  6
CONTINUOUS
 62
     0
 10
-694.1523527544886
 20
464.4271267211704
 30
0.0
  0
POINT
  5
5EA
  8
DEFPOINTS
  6
CONTINUOUS
 62
     0
 10
-702.0923527544887
 20
474.7571267211706
 30
0.0
  0
POINT
  5
5EB
  8
DEFPOINTS
  6
CONTINUOUS
 62
     0
 10
-752.0923527544888
 20
474.7571267211706
 30
0.0
  0
ENDBLK
  5
5ED
  8
ë±90-ÿg2
  6
CONTINUOUS
 62
     7
  0
BLOCK
  8
ë±90-ÿg2
  2
*D54
 70
     1
 10
0.0
 20
0.0
 30
0.0
  3
*D54
  1

  0
LINE
  5
5EF
  8
ë±07-Éíû@
  6
CONTINUOUS
 62
     5
 10
-692.1523527444882
 20
462.4271267211694
 30
0.0
 11
-743.0923527544888
 21
462.4271267211694
 31
0.0
  0
LINE
  5
5F0
  8
ë±07-Éíû@
  6
CONTINUOUS
 62
     5
 10
-702.0923527544887
 20
474.7571267211697
 30
0.0
 11
-743.0923527544888
 21
474.7571267211697
 31
0.0
  0
LINE
  5
5F1
  8
ë±07-Éíû@
  6
CONTINUOUS
 62
     5
 10
-742.0923527544888
 20
476.2571267211697
 30
0.0
 11
-742.0923527544888
 21
495.7531897132959
 31
0.0
  0
LINE
  5
5F2
  8
ë±07-Éíû@
  6
CONTINUOUS
 62
     5
 10
-742.0923527544888
 20
462.4271267211694
 30
0.0
 11
-742.0923527544888
 21
474.7571267211697
 31
0.0
  0
LINE
  5
5F3
  8
ë±07-Éíû@
  6
CONTINUOUS
 62
     5
 10
-742.0923527544888
 20
460.9271267211695
 30
0.0
 11
-742.0923527544888
 21
459.4271267211694
 31
0.0
  0
INSERT
  5
5F4
  8
ë±07-Éíû@
  6
CONTINUOUS
 62
     5
  2
_OPEN
 10
-742.0923527544888
 20
462.4271267211694
 30
0.0
 41
1.5
 42
1.5
 43
1.5
 50
90.0
  0
INSERT
  5
5F5
  8
ë±07-Éíû@
  6
CONTINUOUS
 62
     5
  2
_OPEN
 10
-742.0923527544888
 20
474.7571267211697
 30
0.0
 41
1.5
 42
1.5
 43
1.5
 50
270.0
  0
TEXT
  5
5F6
  8
ë±07-Éíû@
  6
CONTINUOUS
 62
     5
 10
-742.8423527544888
 20
477.5051582172331
 30
0.0
 40
5.0
  1
(12.33)
 50
90.0
  0
POINT
  5
5F7
  8
DEFPOINTS
  6
CONTINUOUS
 62
     0
 10
-692.1523527444882
 20
462.4271267211694
 30
0.0
  0
POINT
  5
5F8
  8
DEFPOINTS
  6
CONTINUOUS
 62
     0
 10
-702.0923527544887
 20
474.7571267211697
 30
0.0
  0
POINT
  5
5F9
  8
DEFPOINTS
  6
CONTINUOUS
 62
     0
 10
-742.0923527544888
 20
474.7571267211697
 30
0.0
  0
ENDBLK
  5
5FB
  8
ë±90-ÿg2
  6
CONTINUOUS
 62
     7
  0
BLOCK
  8
ë±90-ÿg2
  2
*D55
 70
     1
 10
0.0
 20
0.0
 30
0.0
  3
*D55
  1

  0
LINE
  5
5FD
  8
ë±07-Éíû@
  6
CONTINUOUS
 62
     5
 10
-692.1523527544886
 20
192.0871267211693
 30
0.0
 11
-743.0923527544887
 21
192.0871267211693
 31
0.0
  0
LINE
  5
5FE
  8
ë±07-Éíû@
  6
CONTINUOUS
 62
     5
 10
-702.0923527544887
 20
178.2571267211697
 30
0.0
 11
-743.0923527544887
 21
178.2571267211697
 31
0.0
  0
LINE
  5
5FF
  8
ë±07-Éíû@
  6
CONTINUOUS
 62
     5
 10
-742.0923527544887
 20
176.7571267211697
 30
0.0
 11
-742.0923527544887
 21
161.1535733305767
 31
0.0
  0
LINE
  5
600
  8
ë±07-Éíû@
  6
CONTINUOUS
 62
     5
 10
-742.0923527544887
 20
192.0871267211693
 30
0.0
 11
-742.0923527544887
 21
178.2571267211697
 31
0.0
  0
LINE
  5
601
  8
ë±07-Éíû@
  6
CONTINUOUS
 62
     5
 10
-742.0923527544887
 20
193.5871267211693
 30
0.0
 11
-742.0923527544887
 21
195.0871267211693
 31
0.0
  0
INSERT
  5
602
  8
ë±07-Éíû@
  6
CONTINUOUS
 62
     5
  2
_OPEN
 10
-742.0923527544887
 20
192.0871267211693
 30
0.0
 41
1.5
 42
1.5
 43
1.5
 50
270.0
  0
INSERT
  5
603
  8
ë±07-Éíû@
  6
CONTINUOUS
 62
     5
  2
_OPEN
 10
-742.0923527544887
 20
178.2571267211697
 30
0.0
 41
1.5
 42
1.5
 43
1.5
 50
90.0
  0
TEXT
  5
604
  8
ë±07-Éíû@
  6
CONTINUOUS
 62
     5
 10
-742.5923527544887
 20
160.9035733305767
 30
0.0
 40
5.0
  1
13.83
 50
90.0
  0
POINT
  5
605
  8
DEFPOINTS
  6
CONTINUOUS
 62
     0
 10
-692.1523527544886
 20
192.0871267211693
 30
0.0
  0
POINT
  5
606
  8
DEFPOINTS
  6
CONTINUOUS
 62
     0
 10
-702.0923527544887
 20
178.2571267211697
 30
0.0
  0
POINT
  5
607
  8
DEFPOINTS
  6
CONTINUOUS
 62
     0
 10
-742.0923527544887
 20
178.2571267211697
 30
0.0
  0
ENDBLK
  5
609
  8
ë±90-ÿg2
  6
CONTINUOUS
 62
     7
  0
BLOCK
  8
ë±90-ÿg2
  2
*D56
 70
     1
 10
0.0
 20
0.0
 30
0.0
  3
*D56
  1

  0
LINE
  5
60B
  8
ë±07-Éíû@
  6
CONTINUOUS
 62
     5
 10
-694.1523527544886
 20
190.0871267211695
 30
0.0
 11
-753.0923527544887
 21
190.0871267211695
 31
0.0
  0
LINE
  5
60C
  8
ë±07-Éíû@
  6
CONTINUOUS
 62
     5
 10
-702.0923527544887
 20
178.2571267211697
 30
0.0
 11
-753.0923527544887
 21
178.2571267211697
 31
0.0
  0
LINE
  5
60D
  8
ë±07-Éíû@
  6
CONTINUOUS
 62
     5
 10
-752.0923527544887
 20
176.7571267211697
 30
0.0
 11
-752.0923527544887
 21
162.1535733305767
 31
0.0
  0
LINE
  5
60E
  8
ë±07-Éíû@
  6
CONTINUOUS
 62
     5
 10
-752.0923527544887
 20
190.0871267211695
 30
0.0
 11
-752.0923527544887
 21
178.2571267211697
 31
0.0
  0
LINE
  5
60F
  8
ë±07-Éíû@
  6
CONTINUOUS
 62
     5
 10
-752.0923527544887
 20
191.5871267211695
 30
0.0
 11
-752.0923527544887
 21
193.0871267211695
 31
0.0
  0
INSERT
  5
610
  8
ë±07-Éíû@
  6
CONTINUOUS
 62
     5
  2
_OPEN
 10
-752.0923527544887
 20
190.0871267211695
 30
0.0
 41
1.5
 42
1.5
 43
1.5
 50
270.0
  0
INSERT
  5
611
  8
ë±07-Éíû@
  6
CONTINUOUS
 62
     5
  2
_OPEN
 10
-752.0923527544887
 20
178.2571267211697
 30
0.0
 41
1.5
 42
1.5
 43
1.5
 50
90.0
  0
TEXT
  5
612
  8
ë±07-Éíû@
  6
CONTINUOUS
 62
     5
 10
-752.5923527544887
 20
161.9035733305767
 30
0.0
 40
5.0
  1
11.83
 50
90.0
  0
POINT
  5
613
  8
DEFPOINTS
  6
CONTINUOUS
 62
     0
 10
-694.1523527544886
 20
190.0871267211695
 30
0.0
  0
POINT
  5
614
  8
DEFPOINTS
  6
CONTINUOUS
 62
     0
 10
-702.0923527544887
 20
178.2571267211697
 30
0.0
  0
POINT
  5
615
  8
DEFPOINTS
  6
CONTINUOUS
 62
     0
 10
-752.0923527544887
 20
178.2571267211697
 30
0.0
  0
ENDBLK
  5
617
  8
ë±90-ÿg2
  6
CONTINUOUS
 62
     7
  0
BLOCK
  8
ë±90-ÿg2
  2
*D57
 70
     1
 10
0.0
 20
0.0
 30
0.0
  3
*D57
  1

  0
LINE
  5
619
  8
ë±07-Éíû@
  6
CONTINUOUS
 62
     5
 10
-343.5923527544887
 20
474.7571267211697
 30
0.0
 11
-343.5923527544887
 21
533.7771267211706
 31
0.0
  0
LINE
  5
61A
  8
ë±07-Éíû@
  6
CONTINUOUS
 62
     5
 10
-702.0923527544887
 20
474.7571267211697
 30
0.0
 11
-702.0923527544887
 21
533.7771267211706
 31
0.0
  0
LINE
  5
61B
  8
ë±07-Éíû@
  6
CONTINUOUS
 62
     5
 10
-345.0923527544887
 20
532.7771267211706
 30
0.0
 11
-700.5923527544887
 21
532.7771267211706
 31
0.0
  0
INSERT
  5
61C
  8
ë±07-Éíû@
  6
CONTINUOUS
 62
     5
  2
_OPEN
 10
-343.5923527544887
 20
532.7771267211706
 30
0.0
 41
1.5
 42
1.5
 43
1.5
  0
INSERT
  5
61D
  8
ë±07-Éíû@
  6
CONTINUOUS
 62
     5
  2
_OPEN
 10
-702.0923527544887
 20
532.7771267211706
 30
0.0
 41
1.5
 42
1.5
 43
1.5
 50
180.0
  0
INSERT
  5
61E
  8
ë±07-Éíû@
  6
CONTINUOUS
 62
     5
 66
     1
  2
*X106
 10
0.0
 20
0.0
 30
0.0
  0
SEQEND
  5
962
  8
ë±90-ÿg2
  6
CONTINUOUS
 62
     7
  0
POINT
  5
61F
  8
DEFPOINTS
  6
CONTINUOUS
 62
     0
 10
-343.5923527544887
 20
474.7571267211697
 30
0.0
  0
POINT
  5
620
  8
DEFPOINTS
  6
CONTINUOUS
 62
     0
 10
-702.0923527544887
 20
474.7571267211697
 30
0.0
  0
POINT
  5
621
  8
DEFPOINTS
  6
CONTINUOUS
 62
     0
 10
-702.0923527544887
 20
532.7771267211706
 30
0.0
  0
ENDBLK
  5
623
  8
ë±90-ÿg2
  6
CONTINUOUS
 62
     7
  0
BLOCK
  8
ë±90-ÿg2
  2
*D58
 70
     1
 10
0.0
 20
0.0
 30
0.0
  3
*D58
  1

  0
LINE
  5
625
  8
ë±07-Éíû@
  6
CONTINUOUS
 62
     5
 10
-694.1523527544886
 20
464.4271267211704
 30
0.0
 11
-694.1523527544886
 21
509.7771267211706
 31
0.0
  0
LINE
  5
626
  8
ë±07-Éíû@
  6
CONTINUOUS
 62
     5
 10
-352.2323527544886
 20
464.4271267211695
 30
0.0
 11
-352.2323527544886
 21
509.7771267211706
 31
0.0
  0
LINE
  5
627
  8
ë±07-Éíû@
  6
CONTINUOUS
 62
     5
 10
-692.6523527544887
 20
508.7771267211706
 30
0.0
 11
-353.7323527544886
 21
508.7771267211706
 31
0.0
  0
INSERT
  5
628
  8
ë±07-Éíû@
  6
CONTINUOUS
 62
     5
  2
_OPEN
 10
-694.1523527544886
 20
508.7771267211706
 30
0.0
 41
1.5
 42
1.5
 43
1.5
 50
180.0
  0
INSERT
  5
629
  8
ë±07-Éíû@
  6
CONTINUOUS
 62
     5
  2
_OPEN
 10
-352.2323527544886
 20
508.7771267211706
 30
0.0
 41
1.5
 42
1.5
 43
1.5
  0
TEXT
  5
62A
  8
ë±07-Éíû@
  6
CONTINUOUS
 62
     5
 10
-552.2584724291301
 20
510.5271267211707
 30
0.0
 40
5.0
  1
341.92(Viewing area)
  0
POINT
  5
62B
  8
DEFPOINTS
  6
CONTINUOUS
 62
     0
 10
-694.1523527544886
 20
464.4271267211704
 30
0.0
  0
POINT
  5
62C
  8
DEFPOINTS
  6
CONTINUOUS
 62
     0
 10
-352.2323527544886
 20
464.4271267211695
 30
0.0
  0
POINT
  5
62D
  8
DEFPOINTS
  6
CONTINUOUS
 62
     0
 10
-352.2323527544886
 20
508.7771267211706
 30
0.0
  0
ENDBLK
  5
62F
  8
ë±90-ÿg2
  6
CONTINUOUS
 62
     7
  0
BLOCK
  8
ë±90-ÿg2
  2
*D59
 70
     1
 10
0.0
 20
0.0
 30
0.0
  3
*D59
  1

  0
LINE
  5
631
  8
ë±07-Éíû@
  6
CONTINUOUS
 62
     5
 10
-354.2323527544886
 20
462.4271267211694
 30
0.0
 11
-354.2323527544886
 21
497.7771267211705
 31
0.0
  0
LINE
  5
632
  8
ë±07-Éíû@
  6
CONTINUOUS
 62
     5
 10
-692.1523527444882
 20
462.4271267211694
 30
0.0
 11
-692.1523527444882
 21
497.7771267211706
 31
0.0
  0
LINE
  5
633
  8
ë±07-Éíû@
  6
CONTINUOUS
 62
     5
 10
-355.7323527544886
 20
496.7771267211706
 30
0.0
 11
-690.6523527444883
 21
496.7771267211706
 31
0.0
  0
INSERT
  5
634
  8
ë±07-Éíû@
  6
CONTINUOUS
 62
     5
  2
_OPEN
 10
-354.2323527544886
 20
496.7771267211706
 30
0.0
 41
1.5
 42
1.5
 43
1.5
 50
360.0
  0
INSERT
  5
635
  8
ë±07-Éíû@
  6
CONTINUOUS
 62
     5
  2
_OPEN
 10
-692.1523527444882
 20
496.7771267211706
 30
0.0
 41
1.5
 42
1.5
 43
1.5
 50
180.0
  0
TEXT
  5
636
  8
ë±07-Éíû@
  6
CONTINUOUS
 62
     5
 10
-552.4503944188373
 20
497.5271267211706
 30
0.0
 40
5.0
  1
337.92(Active area)
  0
POINT
  5
637
  8
DEFPOINTS
  6
CONTINUOUS
 62
     0
 10
-354.2323527544886
 20
462.4271267211694
 30
0.0
  0
POINT
  5
638
  8
DEFPOINTS
  6
CONTINUOUS
 62
     0
 10
-692.1523527444882
 20
462.4271267211694
 30
0.0
  0
POINT
  5
639
  8
DEFPOINTS
  6
CONTINUOUS
 62
     0
 10
-692.1523527444882
 20
496.7771267211706
 30
0.0
  0
ENDBLK
  5
63B
  8
ë±90-ÿg2
  6
CONTINUOUS
 62
     7
  0
BLOCK
  8
ë±90-ÿg2
  2
*D60
 70
     1
 10
0.0
 20
0.0
 30
0.0
  3
*D60
  1

  0
LINE
  5
63D
  8
ë±07-Éíû@
  6
CONTINUOUS
 62
     5
 10
-702.0923527544887
 20
474.7571267211697
 30
0.0
 11
-773.0923527544884
 21
474.7571267211697
 31
0.0
  0
LINE
  5
63E
  8
ë±07-Éíû@
  6
CONTINUOUS
 62
     5
 10
-702.0923527544887
 20
178.2571267211697
 30
0.0
 11
-773.0923527544884
 21
178.2571267211697
 31
0.0
  0
LINE
  5
63F
  8
ë±07-Éíû@
  6
CONTINUOUS
 62
     5
 10
-772.0923527544885
 20
473.2571267211697
 30
0.0
 11
-772.0923527544885
 21
179.7571267211697
 31
0.0
  0
INSERT
  5
640
  8
ë±07-Éíû@
  6
CONTINUOUS
 62
     5
  2
_OPEN
 10
-772.0923527544885
 20
474.7571267211697
 30
0.0
 41
1.5
 42
1.5
 43
1.5
 50
90.0
  0
INSERT
  5
641
  8
ë±07-Éíû@
  6
CONTINUOUS
 62
     5
  2
_OPEN
 10
-772.0923527544885
 20
178.2571267211697
 30
0.0
 41
1.5
 42
1.5
 43
1.5
 50
270.0
  0
INSERT
  5
642
  8
ë±07-Éíû@
  6
CONTINUOUS
 62
     5
 66
     1
  2
*X107
 10
0.0
 20
0.0
 30
0.0
  0
SEQEND
  5
968
  8
ë±90-ÿg2
  6
CONTINUOUS
 62
     7
  0
POINT
  5
643
  8
DEFPOINTS
  6
CONTINUOUS
 62
     0
 10
-702.0923527544887
 20
474.7571267211697
 30
0.0
  0
POINT
  5
644
  8
DEFPOINTS
  6
CONTINUOUS
 62
     0
 10
-702.0923527544887
 20
178.2571267211697
 30
0.0
  0
POINT
  5
645
  8
DEFPOINTS
  6
CONTINUOUS
 62
     0
 10
-772.0923527544885
 20
178.2571267211697
 30
0.0
  0
ENDBLK
  5
647
  8
ë±90-ÿg2
  6
CONTINUOUS
 62
     7
  0
BLOCK
  8
ë±90-ÿg2
  2
*D61
 70
     1
 10
0.0
 20
0.0
 30
0.0
  3
*D61
  1

  0
LINE
  5
649
  8
ë±07-Éíû@
  6
CONTINUOUS
 62
     5
 10
-694.1523527544886
 20
464.4271267211704
 30
0.0
 11
-753.0923527544886
 21
464.4271267211704
 31
0.0
  0
LINE
  5
64A
  8
ë±07-Éíû@
  6
CONTINUOUS
 62
     5
 10
-694.1523527544886
 20
190.0871267211695
 30
0.0
 11
-753.0923527544886
 21
190.0871267211695
 31
0.0
  0
LINE
  5
64B
  8
ë±07-Éíû@
  6
CONTINUOUS
 62
     5
 10
-752.0923527544886
 20
462.9271267211704
 30
0.0
 11
-752.0923527544886
 21
191.5871267211695
 31
0.0
  0
INSERT
  5
64C
  8
ë±07-Éíû@
  6
CONTINUOUS
 62
     5
  2
_OPEN
 10
-752.0923527544886
 20
464.4271267211704
 30
0.0
 41
1.5
 42
1.5
 43
1.5
 50
90.0
  0
INSERT
  5
64D
  8
ë±07-Éíû@
  6
CONTINUOUS
 62
     5
  2
_OPEN
 10
-752.0923527544886
 20
190.0871267211695
 30
0.0
 41
1.5
 42
1.5
 43
1.5
 50
270.0
  0
TEXT
  5
64E
  8
ë±07-Éíû@
  6
CONTINUOUS
 62
     5
 10
-753.8423527544885
 20
295.0581109731382
 30
0.0
 40
5.0
  1
274.34(Viewing area)
 50
90.0
  0
POINT
  5
64F
  8
DEFPOINTS
  6
CONTINUOUS
 62
     0
 10
-694.1523527544886
 20
464.4271267211704
 30
0.0
  0
POINT
  5
650
  8
DEFPOINTS
  6
CONTINUOUS
 62
     0
 10
-694.1523527544886
 20
190.0871267211695
 30
0.0
  0
POINT
  5
651
  8
DEFPOINTS
  6
CONTINUOUS
 62
     0
 10
-752.0923527544886
 20
190.0871267211695
 30
0.0
  0
ENDBLK
  5
653
  8
ë±90-ÿg2
  6
CONTINUOUS
 62
     7
  0
BLOCK
  8
ë±90-ÿg2
  2
*D62
 70
     1
 10
0.0
 20
0.0
 30
0.0
  3
*D62
  1

  0
LINE
  5
655
  8
ë±07-Éíû@
  6
CONTINUOUS
 62
     5
 10
-692.1523527544886
 20
192.0871267211695
 30
0.0
 11
-743.0923527544885
 21
192.0871267211695
 31
0.0
  0
LINE
  5
656
  8
ë±07-Éíû@
  6
CONTINUOUS
 62
     5
 10
-692.1523527444882
 20
462.4271267211694
 30
0.0
 11
-743.0923527544885
 21
462.4271267211694
 31
0.0
  0
LINE
  5
657
  8
ë±07-Éíû@
  6
CONTINUOUS
 62
     5
 10
-742.0923527544886
 20
193.5871267211696
 30
0.0
 11
-742.0923527544886
 21
460.9271267211695
 31
0.0
  0
INSERT
  5
658
  8
ë±07-Éíû@
  6
CONTINUOUS
 62
     5
  2
_OPEN
 10
-742.0923527544886
 20
192.0871267211695
 30
0.0
 41
1.5
 42
1.5
 43
1.5
 50
270.0
  0
INSERT
  5
659
  8
ë±07-Éíû@
  6
CONTINUOUS
 62
     5
  2
_OPEN
 10
-742.0923527544886
 20
462.4271267211694
 30
0.0
 41
1.5
 42
1.5
 43
1.5
 50
90.0
  0
TEXT
  5
65A
  8
ë±07-Éíû@
  6
CONTINUOUS
 62
     5
 10
-742.8423527544886
 20
297.0581109731382
 30
0.0
 40
5.0
  1
270.34(Active area)
 50
90.0
  0
POINT
  5
65B
  8
DEFPOINTS
  6
CONTINUOUS
 62
     0
 10
-692.1523527544886
 20
192.0871267211695
 30
0.0
  0
POINT
  5
65C
  8
DEFPOINTS
  6
CONTINUOUS
 62
     0
 10
-692.1523527444882
 20
462.4271267211694
 30
0.0
  0
POINT
  5
65D
  8
DEFPOINTS
  6
CONTINUOUS
 62
     0
 10
-742.0923527544886
 20
462.4271267211694
 30
0.0
  0
ENDBLK
  5
65F
  8
ë±90-ÿg2
  6
CONTINUOUS
 62
     7
  0
BLOCK
  8
ë±90-ÿg2
  2
*D63
 70
     1
 10
0.0
 20
0.0
 30
0.0
  3
*D63
  1

  0
LINE
  5
661
  8
ë±07-Éíû@
  6
CONTINUOUS
 62
     5
 10
-702.0923527544887
 20
178.2571267211702
 30
0.0
 11
-702.0923527544887
 21
50.59465245439122
 31
0.0
  0
LINE
  5
663
  8
ë±07-Éíû@
  6
CONTINUOUS
 62
     5
 10
-516.0884740649367
 20
78.76117509198076
 30
0.0
 11
-516.0884740649367
 21
50.59465245439122
 31
0.0
  0
LINE
  5
664
  8
ë±07-Éíû@
  6
CONTINUOUS
 62
     5
 10
-700.5923527544887
 20
51.59465245439122
 30
0.0
 11
-517.5884740649368
 21
51.59465245439122
 31
0.0
  0
INSERT
  5
665
  8
ë±07-Éíû@
  6
CONTINUOUS
 62
     5
  2
_OPEN
 10
-702.0923527544887
 20
51.59465245439122
 30
0.0
 41
1.5
 42
1.5
 43
1.5
 50
180.0
  0
INSERT
  5
666
  8
ë±07-Éíû@
  6
CONTINUOUS
 62
     5
  2
_OPEN
 10
-516.0884740649367
 20
51.59465245439122
 30
0.0
 41
1.5
 42
1.5
 43
1.5
  0
TEXT
  5
667
  8
ë±07-Éíû@
  6
CONTINUOUS
 62
     5
 10
-615.8404134097127
 20
52.34465245439122
 30
0.0
 40
5.0
  1
(186)
  0
POINT
  5
668
  8
DEFPOINTS
  6
CONTINUOUS
 62
     0
 10
-702.0923527544887
 20
178.2571267211702
 30
0.0
  0
POINT
  5
669
  8
DEFPOINTS
  6
CONTINUOUS
 62
     0
 10
-516.0884740649367
 20
78.76117509198076
 30
0.0
  0
POINT
  5
66A
  8
DEFPOINTS
  6
CONTINUOUS
 62
     0
 10
-516.0884740649367
 20
51.59465245439122
 30
0.0
  0
ENDBLK
  5
66C
  8
ë±90-ÿg2
  6
CONTINUOUS
 62
     7
  0
BLOCK
  8
ë±90-ÿg2
  2
*D64
 70
     1
 10
0.0
 20
0.0
 30
0.0
  3
*D64
  1

  0
LINE
  5
66E
  8
ë±07-Éíû@
  6
CONTINUOUS
 62
     5
 10
-545.0884740649369
 20
78.75712672116998
 30
0.0
 11
-545.0884740649369
 21
61.11838557140764
 31
0.0
  0
LINE
  5
66F
  8
ë±07-Éíû@
  6
CONTINUOUS
 62
     5
 10
-702.0923527544887
 20
178.2571267211699
 30
0.0
 11
-702.0923527544887
 21
61.11838557140766
 31
0.0
  0
LINE
  5
670
  8
ë±07-Éíû@
  6
CONTINUOUS
 62
     5
 10
-546.5884740649369
 20
62.11838557140764
 30
0.0
 11
-700.5923527544887
 21
62.11838557140765
 31
0.0
  0
INSERT
  5
671
  8
ë±07-Éíû@
  6
CONTINUOUS
 62
     5
  2
_OPEN
 10
-545.0884740649369
 20
62.11838557140764
 30
0.0
 41
1.5
 42
1.5
 43
1.5
 50
360.0
  0
INSERT
  5
672
  8
ë±07-Éíû@
  6
CONTINUOUS
 62
     5
  2
_OPEN
 10
-702.0923527544887
 20
62.11838557140765
 30
0.0
 41
1.5
 42
1.5
 43
1.5
 50
180.0
  0
TEXT
  5
673
  8
ë±07-Éíû@
  6
CONTINUOUS
 62
     5
 10
-630.3404134097128
 20
62.86838557140765
 30
0.0
 40
5.0
  1
(157)
  0
POINT
  5
674
  8
DEFPOINTS
  6
CONTINUOUS
 62
     0
 10
-545.0884740649369
 20
78.75712672116998
 30
0.0
  0
POINT
  5
675
  8
DEFPOINTS
  6
CONTINUOUS
 62
     0
 10
-702.0923527544887
 20
178.2571267211699
 30
0.0
  0
POINT
  5
676
  8
DEFPOINTS
  6
CONTINUOUS
 62
     0
 10
-702.0923527544887
 20
62.11838557140765
 30
0.0
  0
ENDBLK
  5
678
  8
ë±90-ÿg2
  6
CONTINUOUS
 62
     7
  0
BLOCK
  8
ë±90-ÿg2
  2
*D65
 70
     1
 10
0.0
 20
0.0
 30
0.0
  3
*D65
  1

  0
LINE
  5
67A
  8
ë±07-Éíû@
  6
CONTINUOUS
 62
     5
 10
-503.0884740649367
 20
78.26117509197962
 30
0.0
 11
-468.9430852501701
 21
78.26117509197962
 31
0.0
  0
LINE
  5
67B
  8
ë±07-Éíû@
  6
CONTINUOUS
 62
     5
 10
-495.8373487494883
 20
178.2571267211693
 30
0.0
 11
-468.9430852501701
 21
178.2571267211693
 31
0.0
  0
LINE
  5
67C
  8
ë±07-Éíû@
  6
CONTINUOUS
 62
     5
 10
-469.9430852501701
 20
79.76117509197962
 30
0.0
 11
-469.9430852501701
 21
176.7571267211693
 31
0.0
  0
INSERT
  5
67D
  8
ë±07-Éíû@
  6
CONTINUOUS
 62
     5
  2
_OPEN
 10
-469.9430852501701
 20
78.26117509197962
 30
0.0
 41
1.5
 42
1.5
 43
1.5
 50
270.0
  0
INSERT
  5
67E
  8
ë±07-Éíû@
  6
CONTINUOUS
 62
     5
  2
_OPEN
 10
-469.9430852501701
 20
178.2571267211693
 30
0.0
 41
1.5
 42
1.5
 43
1.5
 50
90.0
  0
INSERT
  5
67F
  8
ë±07-Éíû@
  6
CONTINUOUS
 62
     5
 66
     1
  2
*X108
 10
0.0
 20
0.0
 30
0.0
  0
SEQEND
  5
96E
  8
ë±90-ÿg2
  6
CONTINUOUS
 62
     7
  0
POINT
  5
680
  8
DEFPOINTS
  6
CONTINUOUS
 62
     0
 10
-503.0884740649367
 20
78.26117509197962
 30
0.0
  0
POINT
  5
681
  8
DEFPOINTS
  6
CONTINUOUS
 62
     0
 10
-495.8373487494883
 20
178.2571267211693
 30
0.0
  0
POINT
  5
682
  8
DEFPOINTS
  6
CONTINUOUS
 62
     0
 10
-469.9430852501701
 20
178.2571267211693
 30
0.0
  0
ENDBLK
  5
684
  8
ë±90-ÿg2
  6
CONTINUOUS
 62
     7
  0
BLOCK
  8
ë±90-ÿg2
  2
*D66
 70
     1
 10
0.0
 20
0.0
 30
0.0
  3
*D66
  1

  0
LINE
  5
686
  8
ë±07-Éíû@
  6
CONTINUOUS
 62
     5
 10
-495.8373487494883
 20
178.257126721169
 30
0.0
 11
-481.2450475618085
 21
178.257126721169
 31
0.0
  0
LINE
  5
687
  8
ë±07-Éíû@
  6
CONTINUOUS
 62
     5
 10
-502.5884740649368
 20
167.95036648711
 30
0.0
 11
-481.2450475618085
 21
167.95036648711
 31
0.0
  0
LINE
  5
688
  8
ë±07-Éíû@
  6
CONTINUOUS
 62
     5
 10
-482.2450475618085
 20
166.45036648711
 30
0.0
 11
-482.2450475618085
 21
154.3468130965164
 31
0.0
  0
LINE
  5
689
  8
ë±07-Éíû@
  6
CONTINUOUS
 62
     5
 10
-482.2450475618085
 20
178.257126721169
 30
0.0
 11
-482.2450475618085
 21
167.95036648711
 31
0.0
  0
LINE
  5
68A
  8
ë±07-Éíû@
  6
CONTINUOUS
 62
     5
 10
-482.2450475618085
 20
179.7571267211691
 30
0.0
 11
-482.2450475618085
 21
181.257126721169
 31
0.0
  0
INSERT
  5
68B
  8
ë±07-Éíû@
  6
CONTINUOUS
 62
     5
  2
_OPEN
 10
-482.2450475618085
 20
178.257126721169
 30
0.0
 41
1.5
 42
1.5
 43
1.5
 50
270.0
  0
INSERT
  5
68C
  8
ë±07-Éíû@
  6
CONTINUOUS
 62
     5
  2
_OPEN
 10
-482.2450475618085
 20
167.95036648711
 30
0.0
 41
1.5
 42
1.5
 43
1.5
 50
90.0
  0
TEXT
  5
68D
  8
ë±07-Éíû@
  6
CONTINUOUS
 62
     5
 10
-482.7450475618085
 20
154.0968130965165
 30
0.0
 40
5.0
  1
10.3
 50
90.0
  0
POINT
  5
68E
  8
DEFPOINTS
  6
CONTINUOUS
 62
     0
 10
-495.8373487494883
 20
178.257126721169
 30
0.0
  0
POINT
  5
68F
  8
DEFPOINTS
  6
CONTINUOUS
 62
     0
 10
-502.5884740649368
 20
167.95036648711
 30
0.0
  0
POINT
  5
690
  8
DEFPOINTS
  6
CONTINUOUS
 62
     0
 10
-482.2450475618085
 20
167.95036648711
 30
0.0
  0
ENDBLK
  5
692
  8
ë±90-ÿg2
  6
CONTINUOUS
 62
     7
  0
BLOCK
  8
ë±90-ÿg2
  2
*D67
 70
     1
 10
0.0
 20
0.0
 30
0.0
  3
*D67
  1

  0
LINE
  5
694
  8
ë±07-Éíû@
  6
CONTINUOUS
 62
     5
 10
-495.8373487494883
 20
178.257126721169
 30
0.0
 11
-488.5811527524047
 21
178.257126721169
 31
0.0
  0
LINE
  5
695
  8
ë±07-Éíû@
  6
CONTINUOUS
 62
     5
 10
-495.8373487494883
 20
174.7014918025582
 30
0.0
 11
-488.5811527524047
 21
174.7014918025582
 31
0.0
  0
LINE
  5
696
  8
ë±07-Éíû@
  6
CONTINUOUS
 62
     5
 10
-489.5811527524048
 20
173.2014918025582
 30
0.0
 11
-489.5811527524048
 21
159.1086426710702
 31
0.0
  0
LINE
  5
697
  8
ë±07-Éíû@
  6
CONTINUOUS
 62
     5
 10
-489.5811527524048
 20
178.257126721169
 30
0.0
 11
-489.5811527524048
 21
174.7014918025582
 31
0.0
  0
LINE
  5
698
  8
ë±07-Éíû@
  6
CONTINUOUS
 62
     5
 10
-489.5811527524048
 20
179.7571267211691
 30
0.0
 11
-489.5811527524048
 21
181.257126721169
 31
0.0
  0
INSERT
  5
699
  8
ë±07-Éíû@
  6
CONTINUOUS
 62
     5
  2
_OPEN
 10
-489.5811527524048
 20
178.257126721169
 30
0.0
 41
1.5
 42
1.5
 43
1.5
 50
270.0
  0
INSERT
  5
69A
  8
ë±07-Éíû@
  6
CONTINUOUS
 62
     5
  2
_OPEN
 10
-489.5811527524048
 20
174.7014918025582
 30
0.0
 41
1.5
 42
1.5
 43
1.5
 50
90.0
  0
TEXT
  5
69B
  8
ë±07-Éíû@
  6
CONTINUOUS
 62
     5
 10
-490.0811527524048
 20
158.8586426710702
 30
0.0
 40
5.0
  1
3.6
 50
90.0
  0
POINT
  5
69C
  8
DEFPOINTS
  6
CONTINUOUS
 62
     0
 10
-495.8373487494883
 20
178.257126721169
 30
0.0
  0
POINT
  5
69D
  8
DEFPOINTS
  6
CONTINUOUS
 62
     0
 10
-495.8373487494883
 20
174.7014918025582
 30
0.0
  0
POINT
  5
69E
  8
DEFPOINTS
  6
CONTINUOUS
 62
     0
 10
-489.5811527524048
 20
174.7014918025582
 30
0.0
  0
ENDBLK
  5
6A0
  8
ë±90-ÿg2
  6
CONTINUOUS
 62
     7
  0
BLOCK
  8
ë±90-ÿg2
  2
*D68
 70
     1
 10
0.0
 20
0.0
 30
0.0
  3
*D68
  1

  0
LINE
  5
6A2
  8
ë±07-Éíû@
  6
CONTINUOUS
 62
     5
 10
-558.8373487494883
 20
178.2571267211697
 30
0.0
 11
-573.6390474188298
 21
178.2571267211697
 31
0.0
  0
LINE
  5
6A3
  8
ë±07-Éíû@
  6
CONTINUOUS
 62
     5
 10
-545.0884740649367
 20
160.8806110734618
 30
0.0
 11
-573.6390474188298
 21
160.8806110734618
 31
0.0
  0
LINE
  5
6A4
  8
ë±07-Éíû@
  6
CONTINUOUS
 62
     5
 10
-572.6390474188298
 20
176.7571267211697
 30
0.0
 11
-572.6390474188298
 21
162.3806110734618
 31
0.0
  0
INSERT
  5
6A5
  8
ë±07-Éíû@
  6
CONTINUOUS
 62
     5
  2
_OPEN
 10
-572.6390474188298
 20
178.2571267211697
 30
0.0
 41
1.5
 42
1.5
 43
1.5
 50
90.0
  0
INSERT
  5
6A6
  8
ë±07-Éíû@
  6
CONTINUOUS
 62
     5
  2
_OPEN
 10
-572.6390474188298
 20
160.8806110734618
 30
0.0
 41
1.5
 42
1.5
 43
1.5
 50
270.0
  0
TEXT
  5
6A7
  8
ë±07-Éíû@
  6
CONTINUOUS
 62
     5
 10
-573.1390474188298
 20
164.6077137453188
 30
0.0
 40
5.0
  1
17.4
 50
90.0
  0
POINT
  5
6A8
  8
DEFPOINTS
  6
CONTINUOUS
 62
     0
 10
-558.8373487494883
 20
178.2571267211697
 30
0.0
  0
POINT
  5
6A9
  8
DEFPOINTS
  6
CONTINUOUS
 62
     0
 10
-545.0884740649367
 20
160.8806110734618
 30
0.0
  0
POINT
  5
6AA
  8
DEFPOINTS
  6
CONTINUOUS
 62
     0
 10
-572.6390474188298
 20
160.8806110734618
 30
0.0
  0
ENDBLK
  5
6AC
  8
ë±90-ÿg2
  6
CONTINUOUS
 62
     7
  0
BLOCK
  8
ë±90-ÿg2
  2
*D69
 70
     1
 10
0.0
 20
0.0
 30
0.0
  3
*D69
  1

  0
LINE
  5
6AE
  8
ë±07-Éíû@
  6
CONTINUOUS
 62
     5
 10
-558.8373487494883
 20
178.2571267211697
 30
0.0
 11
-565.942371202857
 21
178.2571267211697
 31
0.0
  0
LINE
  5
6AF
  8
ë±07-Éíû@
  6
CONTINUOUS
 62
     5
 10
-558.8373487494883
 20
174.6294857580133
 30
0.0
 11
-565.942371202857
 21
174.6294857580133
 31
0.0
  0
LINE
  5
6B0
  8
ë±07-Éíû@
  6
CONTINUOUS
 62
     5
 10
-564.942371202857
 20
173.1294857580133
 30
0.0
 11
-564.942371202857
 21
163.5033824388968
 31
0.0
  0
LINE
  5
6B1
  8
ë±07-Éíû@
  6
CONTINUOUS
 62
     5
 10
-564.942371202857
 20
178.2571267211697
 30
0.0
 11
-564.942371202857
 21
174.6294857580133
 31
0.0
  0
LINE
  5
6B2
  8
ë±07-Éíû@
  6
CONTINUOUS
 62
     5
 10
-564.942371202857
 20
179.7571267211697
 30
0.0
 11
-564.942371202857
 21
181.2571267211697
 31
0.0
  0
INSERT
  5
6B3
  8
ë±07-Éíû@
  6
CONTINUOUS
 62
     5
  2
_OPEN
 10
-564.942371202857
 20
178.2571267211697
 30
0.0
 41
1.5
 42
1.5
 43
1.5
 50
270.0
  0
INSERT
  5
6B4
  8
ë±07-Éíû@
  6
CONTINUOUS
 62
     5
  2
_OPEN
 10
-564.942371202857
 20
174.6294857580133
 30
0.0
 41
1.5
 42
1.5
 43
1.5
 50
90.0
  0
TEXT
  5
6B5
  8
ë±07-Éíû@
  6
CONTINUOUS
 62
     5
 10
-565.442371202857
 20
163.2533824388969
 30
0.0
 40
5.0
  1
3.6
 50
90.0
  0
POINT
  5
6B6
  8
DEFPOINTS
  6
CONTINUOUS
 62
     0
 10
-558.8373487494883
 20
178.2571267211697
 30
0.0
  0
POINT
  5
6B7
  8
DEFPOINTS
  6
CONTINUOUS
 62
     0
 10
-558.8373487494883
 20
174.6294857580133
 30
0.0
  0
POINT
  5
6B8
  8
DEFPOINTS
  6
CONTINUOUS
 62
     0
 10
-564.942371202857
 20
174.6294857580133
 30
0.0
  0
ENDBLK
  5
6BA
  8
ë±90-ÿg2
  6
CONTINUOUS
 62
     7
  0
BLOCK
  8
ë±90-ÿg2
  2
*D70
 70
     1
 10
0.0
 20
0.0
 30
0.0
  3
*D70
  1

  0
LINE
  5
6BC
  8
ë±07-Éíû@
  6
CONTINUOUS
 62
     5
 10
-558.8373487494883
 20
178.2571267211697
 30
0.0
 11
-586.6051055771095
 21
178.2571267211697
 31
0.0
  0
LINE
  5
6BD
  8
ë±07-Éíû@
  6
CONTINUOUS
 62
     5
 10
-544.5884740649368
 20
78.26117509198053
 30
0.0
 11
-586.6051055771095
 21
78.26117509198053
 31
0.0
  0
LINE
  5
6BE
  8
ë±07-Éíû@
  6
CONTINUOUS
 62
     5
 10
-585.6051055771096
 20
176.7571267211697
 30
0.0
 11
-585.6051055771096
 21
79.76117509198053
 31
0.0
  0
INSERT
  5
6BF
  8
ë±07-Éíû@
  6
CONTINUOUS
 62
     5
  2
_OPEN
 10
-585.6051055771096
 20
178.2571267211697
 30
0.0
 41
1.5
 42
1.5
 43
1.5
 50
90.0
  0
INSERT
  5
6C0
  8
ë±07-Éíû@
  6
CONTINUOUS
 62
     5
  2
_OPEN
 10
-585.6051055771096
 20
78.26117509198053
 30
0.0
 41
1.5
 42
1.5
 43
1.5
 50
270.0
  0
INSERT
  5
6C1
  8
ë±07-Éíû@
  6
CONTINUOUS
 62
     5
 66
     1
  2
*X109
 10
0.0
 20
0.0
 30
0.0
  0
SEQEND
  5
974
  8
ë±90-ÿg2
  6
CONTINUOUS
 62
     7
  0
POINT
  5
6C2
  8
DEFPOINTS
  6
CONTINUOUS
 62
     0
 10
-558.8373487494883
 20
178.2571267211697
 30
0.0
  0
POINT
  5
6C3
  8
DEFPOINTS
  6
CONTINUOUS
 62
     0
 10
-544.5884740649368
 20
78.26117509198053
 30
0.0
  0
POINT
  5
6C4
  8
DEFPOINTS
  6
CONTINUOUS
 62
     0
 10
-585.6051055771096
 20
78.26117509198053
 30
0.0
  0
ENDBLK
  5
6C6
  8
ë±90-ÿg2
  6
CONTINUOUS
 62
     7
  0
BLOCK
  8
ë±90-ÿg2
  2
*D71
 70
     1
 10
0.0
 20
0.0
 30
0.0
  3
*D71
  1

  0
LINE
  5
6C8
  8
ë±08-ïLÄû
  6
CONTINUOUS
 62
     5
 10
-270.4684185518266
 20
78.26117509198098
 30
0.0
 11
-270.4684185518266
 21
61.47308065391934
 31
0.0
  0
LINE
  5
6C9
  8
ë±08-ïLÄû
  6
CONTINUOUS
 62
     5
 10
-267.9684185518266
 20
78.26117509198098
 30
0.0
 11
-267.9684185518266
 21
61.47308065391934
 31
0.0
  0
LINE
  5
6CA
  8
ë±08-ïLÄû
  6
CONTINUOUS
 62
     5
 10
-266.4684185518266
 20
62.47308065391933
 30
0.0
 11
-246.3806565439526
 21
62.47308065391933
 31
0.0
  0
LINE
  5
6CB
  8
ë±08-ïLÄû
  6
CONTINUOUS
 62
     5
 10
-270.4684185518266
 20
62.47308065391933
 30
0.0
 11
-267.9684185518266
 21
62.47308065391933
 31
0.0
  0
LINE
  5
6CC
  8
ë±08-ïLÄû
  6
CONTINUOUS
 62
     5
 10
-271.9684185518266
 20
62.47308065391933
 30
0.0
 11
-273.4684185518266
 21
62.47308065391933
 31
0.0
  0
INSERT
  5
6CD
  8
ë±08-ïLÄû
  6
CONTINUOUS
 62
     5
  2
_OPEN
 10
-270.4684185518266
 20
62.47308065391933
 30
0.0
 41
1.5
 42
1.5
 43
1.5
  0
INSERT
  5
6CE
  8
ë±08-ïLÄû
  6
CONTINUOUS
 62
     5
  2
_OPEN
 10
-267.9684185518266
 20
62.47308065391933
 30
0.0
 41
1.5
 42
1.5
 43
1.5
 50
180.0
  0
INSERT
  5
6CF
  8
ë±08-ïLÄû
  6
CONTINUOUS
 62
     5
 66
     1
  2
*X110
 10
0.0
 20
0.0
 30
0.0
  0
SEQEND
  5
97A
  8
ë±90-ÿg2
  6
CONTINUOUS
 62
     7
  0
POINT
  5
6D0
  8
DEFPOINTS
  6
CONTINUOUS
 62
     0
 10
-270.4684185518266
 20
78.26117509198098
 30
0.0
  0
POINT
  5
6D1
  8
DEFPOINTS
  6
CONTINUOUS
 62
     0
 10
-267.9684185518266
 20
78.26117509198098
 30
0.0
  0
POINT
  5
6D2
  8
DEFPOINTS
  6
CONTINUOUS
 62
     0
 10
-267.9684185518266
 20
62.47308065391933
 30
0.0
  0
ENDBLK
  5
6D4
  8
ë±90-ÿg2
  6
CONTINUOUS
 62
     7
  0
BLOCK
  8
ë±90-ÿg2
  2
*D72
 70
     1
 10
0.0
 20
0.0
 30
0.0
  3
*D72
  1

  0
LINE
  5
6D6
  8
ë±08-ïLÄû
  6
CONTINUOUS
 62
     5
 10
-275.3616027707971
 20
78.26117509198098
 30
0.0
 11
-275.3616027707971
 21
67.76019282667511
 31
0.0
  0
LINE
  5
6D7
  8
ë±08-ïLÄû
  6
CONTINUOUS
 62
     5
 10
-277.8616027707971
 20
78.26117509198098
 30
0.0
 11
-277.8616027707971
 21
67.76019282667511
 31
0.0
  0
LINE
  5
6D8
  8
ë±08-ïLÄû
  6
CONTINUOUS
 62
     5
 10
-279.3616027707971
 20
68.76019282667511
 30
0.0
 11
-299.4493647786711
 21
68.76019282667511
 31
0.0
  0
LINE
  5
6D9
  8
ë±08-ïLÄû
  6
CONTINUOUS
 62
     5
 10
-275.3616027707971
 20
68.76019282667511
 30
0.0
 11
-277.8616027707971
 21
68.76019282667511
 31
0.0
  0
LINE
  5
6DA
  8
ë±08-ïLÄû
  6
CONTINUOUS
 62
     5
 10
-273.861602770797
 20
68.76019282667511
 30
0.0
 11
-272.361602770797
 21
68.76019282667511
 31
0.0
  0
INSERT
  5
6DB
  8
ë±08-ïLÄû
  6
CONTINUOUS
 62
     5
  2
_OPEN
 10
-275.3616027707971
 20
68.76019282667511
 30
0.0
 41
1.5
 42
1.5
 43
1.5
 50
180.0
  0
INSERT
  5
6DC
  8
ë±08-ïLÄû
  6
CONTINUOUS
 62
     5
  2
_OPEN
 10
-277.8616027707971
 20
68.76019282667511
 30
0.0
 41
1.5
 42
1.5
 43
1.5
  0
INSERT
  5
6DD
  8
ë±08-ïLÄû
  6
CONTINUOUS
 62
     5
 66
     1
  2
*X111
 10
0.0
 20
0.0
 30
0.0
  0
SEQEND
  5
980
  8
ë±90-ÿg2
  6
CONTINUOUS
 62
     7
  0
POINT
  5
6DE
  8
DEFPOINTS
  6
CONTINUOUS
 62
     0
 10
-275.3616027707971
 20
78.26117509198098
 30
0.0
  0
POINT
  5
6DF
  8
DEFPOINTS
  6
CONTINUOUS
 62
     0
 10
-277.8616027707971
 20
78.26117509198098
 30
0.0
  0
POINT
  5
6E0
  8
DEFPOINTS
  6
CONTINUOUS
 62
     0
 10
-277.8616027707971
 20
68.76019282667511
 30
0.0
  0
ENDBLK
  5
6E2
  8
ë±90-ÿg2
  6
CONTINUOUS
 62
     7
  0
BLOCK
  8
ë±90-ÿg2
  2
*D73
 70
     1
 10
0.0
 20
0.0
 30
0.0
  3
*D73
  1

  0
LINE
  5
6E4
  8
ë±08-ïLÄû
  6
CONTINUOUS
 62
     5
 10
-275.3616027707971
 20
88.26117509198098
 30
0.0
 11
-270.087069906435
 21
88.26117509198098
 31
0.0
  0
LINE
  5
6E5
  8
ë±08-ïLÄû
  6
CONTINUOUS
 62
     5
 10
-275.3616027707971
 20
78.26117509198098
 30
0.0
 11
-270.087069906435
 21
78.26117509198098
 31
0.0
  0
LINE
  5
6E6
  8
ë±08-ïLÄû
  6
CONTINUOUS
 62
     5
 10
-271.087069906435
 20
86.76117509198098
 30
0.0
 11
-271.087069906435
 21
79.76117509198099
 31
0.0
  0
INSERT
  5
6E7
  8
ë±08-ïLÄû
  6
CONTINUOUS
 62
     5
  2
_OPEN
 10
-271.087069906435
 20
88.26117509198098
 30
0.0
 41
1.5
 42
1.5
 43
1.5
 50
90.0
  0
INSERT
  5
6E8
  8
ë±08-ïLÄû
  6
CONTINUOUS
 62
     5
  2
_OPEN
 10
-271.087069906435
 20
78.26117509198098
 30
0.0
 41
1.5
 42
1.5
 43
1.5
 50
270.0
  0
TEXT
  5
6E9
  8
ë±08-ïLÄû
  6
CONTINUOUS
 62
     5
 10
-271.753737406435
 20
79.92782509198099
 30
0.0
 40
3.333349999999999
  1
(10)
 50
90.0
  0
POINT
  5
6EA
  8
DEFPOINTS
  6
CONTINUOUS
 62
     0
 10
-275.3616027707971
 20
88.26117509198098
 30
0.0
  0
POINT
  5
6EB
  8
DEFPOINTS
  6
CONTINUOUS
 62
     0
 10
-275.3616027707971
 20
78.26117509198098
 30
0.0
  0
POINT
  5
6EC
  8
DEFPOINTS
  6
CONTINUOUS
 62
     0
 10
-271.087069906435
 20
78.26117509198098
 30
0.0
  0
ENDBLK
  5
6EE
  8
ë±90-ÿg2
  6
CONTINUOUS
 62
     7
  0
BLOCK
  8
ë±90-ÿg2
  2
*D74
 70
     1
 10
0.0
 20
0.0
 30
0.0
  3
*D74
  1

  0
LINE
  5
6F0
  8
ë±08-ïLÄû
  6
CONTINUOUS
 62
     5
 10
-267.9684185518266
 20
78.26117509198098
 30
0.0
 11
-254.6938329859092
 21
78.26117509198098
 31
0.0
  0
LINE
  5
6F1
  8
ë±08-ïLÄû
  6
CONTINUOUS
 62
     5
 10
-267.2684185518264
 20
83.26117509198098
 30
0.0
 11
-254.6938329859092
 21
83.26117509198098
 31
0.0
  0
LINE
  5
6F2
  8
ë±08-ïLÄû
  6
CONTINUOUS
 62
     5
 10
-255.6938329859093
 20
79.76117509198099
 30
0.0
 11
-255.6938329859093
 21
81.76117509198098
 31
0.0
  0
INSERT
  5
6F3
  8
ë±08-ïLÄû
  6
CONTINUOUS
 62
     5
  2
_OPEN
 10
-255.6938329859093
 20
78.26117509198098
 30
0.0
 41
1.5
 42
1.5
 43
1.5
 50
270.0
  0
INSERT
  5
6F4
  8
ë±08-ïLÄû
  6
CONTINUOUS
 62
     5
  2
_OPEN
 10
-255.6938329859093
 20
83.26117509198098
 30
0.0
 41
1.5
 42
1.5
 43
1.5
 50
90.0
  0
TEXT
  5
6F5
  8
ë±08-ïLÄû
  6
CONTINUOUS
 62
     5
 10
-256.1938329859092
 20
79.01117509198098
 30
0.0
 40
5.0
  1
5
 50
90.0
  0
POINT
  5
6F6
  8
DEFPOINTS
  6
CONTINUOUS
 62
     0
 10
-267.9684185518266
 20
78.26117509198098
 30
0.0
  0
POINT
  5
6F7
  8
DEFPOINTS
  6
CONTINUOUS
 62
     0
 10
-267.2684185518264
 20
83.26117509198098
 30
0.0
  0
POINT
  5
6F8
  8
DEFPOINTS
  6
CONTINUOUS
 62
     0
 10
-255.6938329859093
 20
83.26117509198098
 30
0.0
  0
ENDBLK
  5
6FA
  8
ë±90-ÿg2
  6
CONTINUOUS
 62
     7
  0
BLOCK
  8
ë±90-ÿg2
  2
*D75
 70
     1
 10
0.0
 20
0.0
 30
0.0
  3
*D75
  1

  0
LINE
  5
6FC
  8
ë±08-ïLÄû
  6
CONTINUOUS
 62
     5
 10
-277.8616027707971
 20
78.26117509198098
 30
0.0
 11
-286.8230129397684
 21
78.26117509198098
 31
0.0
  0
LINE
  5
6FD
  8
ë±08-ïLÄû
  6
CONTINUOUS
 62
     5
 10
-278.5616027707969
 20
83.26117509198098
 30
0.0
 11
-286.8230129397684
 21
83.26117509198098
 31
0.0
  0
LINE
  5
6FE
  8
ë±08-ïLÄû
  6
CONTINUOUS
 62
     5
 10
-285.8230129397684
 20
79.76117509198099
 30
0.0
 11
-285.8230129397684
 21
81.76117509198098
 31
0.0
  0
INSERT
  5
6FF
  8
ë±08-ïLÄû
  6
CONTINUOUS
 62
     5
  2
_OPEN
 10
-285.8230129397684
 20
78.26117509198098
 30
0.0
 41
1.5
 42
1.5
 43
1.5
 50
270.0
  0
INSERT
  5
700
  8
ë±08-ïLÄû
  6
CONTINUOUS
 62
     5
  2
_OPEN
 10
-285.8230129397684
 20
83.26117509198098
 30
0.0
 41
1.5
 42
1.5
 43
1.5
 50
90.0
  0
TEXT
  5
701
  8
ë±08-ïLÄû
  6
CONTINUOUS
 62
     5
 10
-286.3230129397684
 20
79.01117509198098
 30
0.0
 40
5.0
  1
5
 50
90.0
  0
POINT
  5
702
  8
DEFPOINTS
  6
CONTINUOUS
 62
     0
 10
-277.8616027707971
 20
78.26117509198098
 30
0.0
  0
POINT
  5
703
  8
DEFPOINTS
  6
CONTINUOUS
 62
     0
 10
-278.5616027707969
 20
83.26117509198098
 30
0.0
  0
POINT
  5
704
  8
DEFPOINTS
  6
CONTINUOUS
 62
     0
 10
-285.8230129397684
 20
83.26117509198098
 30
0.0
  0
ENDBLK
  5
706
  8
ë±90-ÿg2
  6
CONTINUOUS
 62
     7
  0
BLOCK
  8
ë±90-ÿg2
  2
*D76
 70
     1
 10
0.0
 20
0.0
 30
0.0
  3
*D76
  1

  0
LINE
  5
708
  8
ë±07-Éíû@
  6
CONTINUOUS
 62
     5
 10
-281.8616027707971
 20
473.2771267211706
 30
0.0
 11
-281.8616027707971
 21
484.7764501846428
 31
0.0
  0
LINE
  5
709
  8
ë±07-Éíû@
  6
CONTINUOUS
 62
     5
 10
-260.9684185518266
 20
473.7771267211706
 30
0.0
 11
-260.9684185518266
 21
484.7764501846428
 31
0.0
  0
LINE
  5
70A
  8
ë±07-Éíû@
  6
CONTINUOUS
 62
     5
 10
-280.361602770797
 20
483.7764501846428
 30
0.0
 11
-262.4684185518266
 21
483.7764501846428
 31
0.0
  0
INSERT
  5
70B
  8
ë±07-Éíû@
  6
CONTINUOUS
 62
     5
  2
_OPEN
 10
-281.8616027707971
 20
483.7764501846428
 30
0.0
 41
1.5
 42
1.5
 43
1.5
 50
180.0
  0
INSERT
  5
70C
  8
ë±07-Éíû@
  6
CONTINUOUS
 62
     5
  2
_OPEN
 10
-260.9684185518266
 20
483.7764501846428
 30
0.0
 41
1.5
 42
1.5
 43
1.5
  0
INSERT
  5
70D
  8
ë±07-Éíû@
  6
CONTINUOUS
 62
     5
 66
     1
  2
*X112
 10
0.0
 20
0.0
 30
0.0
  0
SEQEND
  5
986
  8
ë±90-ÿg2
  6
CONTINUOUS
 62
     7
  0
POINT
  5
70E
  8
DEFPOINTS
  6
CONTINUOUS
 62
     0
 10
-281.8616027707971
 20
473.2771267211706
 30
0.0
  0
POINT
  5
70F
  8
DEFPOINTS
  6
CONTINUOUS
 62
     0
 10
-260.9684185518266
 20
473.7771267211706
 30
0.0
  0
POINT
  5
710
  8
DEFPOINTS
  6
CONTINUOUS
 62
     0
 10
-260.9684185518266
 20
483.7764501846428
 30
0.0
  0
ENDBLK
  5
712
  8
ë±90-ÿg2
  6
CONTINUOUS
 62
     7
  0
BLOCK
  8
ë±90-ÿg2
  2
*X77
 70
     1
 10
0.0
 20
0.0
 30
0.0
  3
*X77
  1

  0
TEXT
  5
717
  8
ë±08-ïLÄû
  6
CONTINUOUS
 62
     5
 10
-584.5571104009735
 20
129.8910493912652
 30
0.0
 40
4.0
  1
ÑPart No. label
  0
TEXT
  5
718
  8
ë±08-ïLÄû
  6
CONTINUOUS
 62
     5
 10
-584.5571104009735
 20
123.2243827245985
 30
0.0
 40
4.0
  1
ÑLot label
  0
ENDBLK
  5
71A
  8
ë±90-ÿg2
  6
CONTINUOUS
 62
     7
  0
BLOCK
  8
ë±90-ÿg2
  2
*X78
 70
     1
 10
0.0
 20
0.0
 30
0.0
  3
*X78
  1

  0
INSERT
  5
71D
  8
ë±08-ïLÄû
  6
CONTINUOUS
 62
     5
  2
_OPEN
 10
-536.1157312736219
 20
136.3905827412089
 30
0.0
 41
1.5
 42
1.5
 43
1.5
 50
52.4430407182993
  0
LINE
  5
71E
  8
ë±08-ïLÄû
  6
CONTINUOUS
 62
     5
 10
-537.0300560066866
 20
135.2014610979335
 30
0.0
 11
-546.6237770676403
 21
122.7243827245986
 31
0.0
  0
LINE
  5
71F
  8
ë±08-ïLÄû
  6
CONTINUOUS
 62
     5
 10
-546.6237770676403
 20
122.7243827245986
 30
0.0
 11
-583.7571104009736
 21
122.7243827245986
 31
0.0
  0
ENDBLK
  5
721
  8
ë±90-ÿg2
  6
CONTINUOUS
 62
     7
  0
BLOCK
  8
ë±90-ÿg2
  2
*X79
 70
     1
 10
0.0
 20
0.0
 30
0.0
  3
*X79
  1

  0
LINE
  5
72E
  8
ë±08-ïLÄû
  6
PHANTOM2
 62
     7
 10
-521.0081202156457
 20
174.6254130207774
 30
0.0
 11
-522.3373487494877
 21
175.9546415546194
 31
0.0
1001
GradientColor1ACI
1070
     5
1001
GradientColor2ACI
1070
     2
1001
ACAD
1010
0.0
1020
0.0
1030
0.0
  0
LINE
  5
72F
  8
ë±08-ïLÄû
  6
PHANTOM2
 62
     7
 10
-519.6610817974852
 20
174.6254130207771
 30
0.0
 11
-522.3373487494877
 21
177.30167997278
 31
0.0
1001
GradientColor1ACI
1070
     5
1001
GradientColor2ACI
1070
     2
1001
ACAD
1010
0.0
1020
0.0
1030
0.0
  0
LINE
  5
730
  8
ë±08-ïLÄû
  6
PHANTOM2
 62
     7
 10
-518.3140433793246
 20
174.6254130207771
 30
0.0
 11
-522.3373487494877
 21
178.6487183909405
 31
0.0
1001
GradientColor1ACI
1070
     5
1001
GradientColor2ACI
1070
     2
1001
ACAD
1010
0.0
1020
0.0
1030
0.0
  0
LINE
  5
731
  8
ë±08-ïLÄû
  6
PHANTOM2
 62
     7
 10
-516.9670049611638
 20
174.6254130207769
 30
0.0
 11
-522.337348749488
 21
179.995756809101
 31
0.0
1001
GradientColor1ACI
1070
     5
1001
GradientColor2ACI
1070
     2
1001
ACAD
1010
0.0
1020
0.0
1030
0.0
  0
LINE
  5
732
  8
ë±08-ïLÄû
  6
PHANTOM2
 62
     7
 10
-515.6199665430035
 20
174.6254130207771
 30
0.0
 11
-522.3373487494877
 21
181.3427952272613
 31
0.0
1001
GradientColor1ACI
1070
     5
1001
GradientColor2ACI
1070
     2
1001
ACAD
1010
0.0
1020
0.0
1030
0.0
  0
LINE
  5
733
  8
ë±08-ïLÄû
  6
PHANTOM2
 62
     7
 10
-514.2729281248429
 20
174.6254130207771
 30
0.0
 11
-521.472928124843
 21
181.8254130207772
 31
0.0
1001
GradientColor1ACI
1070
     5
1001
GradientColor2ACI
1070
     2
1001
ACAD
1010
0.0
1020
0.0
1030
0.0
  0
LINE
  5
734
  8
ë±08-ïLÄû
  6
PHANTOM2
 62
     7
 10
-512.9258897066825
 20
174.6254130207771
 30
0.0
 11
-520.1258897066825
 21
181.8254130207772
 31
0.0
1001
GradientColor1ACI
1070
     5
1001
GradientColor2ACI
1070
     2
1001
ACAD
1010
0.0
1020
0.0
1030
0.0
  0
LINE
  5
735
  8
ë±08-ïLÄû
  6
PHANTOM2
 62
     7
 10
-511.5788512885219
 20
174.6254130207771
 30
0.0
 11
-518.7788512885218
 21
181.8254130207769
 31
0.0
1001
GradientColor1ACI
1070
     5
1001
GradientColor2ACI
1070
     2
1001
ACAD
1010
0.0
1020
0.0
1030
0.0
  0
LINE
  5
736
  8
ë±08-ïLÄû
  6
PHANTOM2
 62
     7
 10
-510.2318128703614
 20
174.6254130207771
 30
0.0
 11
-517.4318128703614
 21
181.8254130207772
 31
0.0
1001
GradientColor1ACI
1070
     5
1001
GradientColor2ACI
1070
     2
1001
ACAD
1010
0.0
1020
0.0
1030
0.0
  0
LINE
  5
737
  8
ë±08-ïLÄû
  6
PHANTOM2
 62
     7
 10
-508.8847744522011
 20
174.6254130207774
 30
0.0
 11
-516.0847744522011
 21
181.8254130207774
 31
0.0
1001
GradientColor1ACI
1070
     5
1001
GradientColor2ACI
1070
     2
1001
ACAD
1010
0.0
1020
0.0
1030
0.0
  0
LINE
  5
738
  8
ë±08-ïLÄû
  6
PHANTOM2
 62
     7
 10
-507.5377360340403
 20
174.6254130207771
 30
0.0
 11
-514.7377360340404
 21
181.8254130207772
 31
0.0
1001
GradientColor1ACI
1070
     5
1001
GradientColor2ACI
1070
     2
1001
ACAD
1010
0.0
1020
0.0
1030
0.0
  0
LINE
  5
739
  8
ë±08-ïLÄû
  6
PHANTOM2
 62
     7
 10
-506.1906976158797
 20
174.6254130207771
 30
0.0
 11
-513.39069761588
 21
181.8254130207774
 31
0.0
1001
GradientColor1ACI
1070
     5
1001
GradientColor2ACI
1070
     2
1001
ACAD
1010
0.0
1020
0.0
1030
0.0
  0
LINE
  5
73A
  8
ë±08-ïLÄû
  6
PHANTOM2
 62
     7
 10
-504.8436591977192
 20
174.6254130207771
 30
0.0
 11
-512.0436591977193
 21
181.8254130207772
 31
0.0
1001
GradientColor1ACI
1070
     5
1001
GradientColor2ACI
1070
     2
1001
ACAD
1010
0.0
1020
0.0
1030
0.0
  0
LINE
  5
73B
  8
ë±08-ïLÄû
  6
PHANTOM2
 62
     7
 10
-503.4966207795587
 20
174.6254130207774
 30
0.0
 11
-510.6966207795587
 21
181.8254130207772
 31
0.0
1001
GradientColor1ACI
1070
     5
1001
GradientColor2ACI
1070
     2
1001
ACAD
1010
0.0
1020
0.0
1030
0.0
  0
LINE
  5
73C
  8
ë±08-ïLÄû
  6
PHANTOM2
 62
     7
 10
-502.1495823613982
 20
174.6254130207774
 30
0.0
 11
-509.3495823613982
 21
181.8254130207772
 31
0.0
1001
GradientColor1ACI
1070
     5
1001
GradientColor2ACI
1070
     2
1001
ACAD
1010
0.0
1020
0.0
1030
0.0
  0
LINE
  5
73D
  8
ë±08-ïLÄû
  6
PHANTOM2
 62
     7
 10
-500.8025439432376
 20
174.6254130207774
 30
0.0
 11
-508.0025439432376
 21
181.8254130207772
 31
0.0
1001
GradientColor1ACI
1070
     5
1001
GradientColor2ACI
1070
     2
1001
ACAD
1010
0.0
1020
0.0
1030
0.0
  0
LINE
  5
73E
  8
ë±08-ïLÄû
  6
PHANTOM2
 62
     7
 10
-499.4555055250771
 20
174.6254130207771
 30
0.0
 11
-506.6555055250769
 21
181.8254130207769
 31
0.0
1001
GradientColor1ACI
1070
     5
1001
GradientColor2ACI
1070
     2
1001
ACAD
1010
0.0
1020
0.0
1030
0.0
  0
LINE
  5
73F
  8
ë±08-ïLÄû
  6
PHANTOM2
 62
     7
 10
-498.1084671069165
 20
174.6254130207771
 30
0.0
 11
-505.3084671069166
 21
181.8254130207772
 31
0.0
1001
GradientColor1ACI
1070
     5
1001
GradientColor2ACI
1070
     2
1001
ACAD
1010
0.0
1020
0.0
1030
0.0
  0
LINE
  5
740
  8
ë±08-ïLÄû
  6
PHANTOM2
 62
     7
 10
-496.761428688756
 20
174.6254130207771
 30
0.0
 11
-503.9614286887561
 21
181.8254130207772
 31
0.0
1001
GradientColor1ACI
1070
     5
1001
GradientColor2ACI
1070
     2
1001
ACAD
1010
0.0
1020
0.0
1030
0.0
  0
LINE
  5
741
  8
ë±08-ïLÄû
  6
PHANTOM2
 62
     7
 10
-496.3373487494878
 20
175.5483714996694
 30
0.0
 11
-502.6143902705955
 21
181.8254130207772
 31
0.0
1001
GradientColor1ACI
1070
     5
1001
GradientColor2ACI
1070
     2
1001
ACAD
1010
0.0
1020
0.0
1030
0.0
  0
LINE
  5
742
  8
ë±08-ïLÄû
  6
PHANTOM2
 62
     7
 10
-496.3373487494879
 20
176.8954099178302
 30
0.0
 11
-501.267351852435
 21
181.8254130207772
 31
0.0
1001
GradientColor1ACI
1070
     5
1001
GradientColor2ACI
1070
     2
1001
ACAD
1010
0.0
1020
0.0
1030
0.0
  0
LINE
  5
743
  8
ë±08-ïLÄû
  6
PHANTOM2
 62
     7
 10
-496.3373487494878
 20
178.2424483359905
 30
0.0
 11
-499.9203134342744
 21
181.8254130207772
 31
0.0
1001
GradientColor1ACI
1070
     5
1001
GradientColor2ACI
1070
     2
1001
ACAD
1010
0.0
1020
0.0
1030
0.0
  0
LINE
  5
744
  8
ë±08-ïLÄû
  6
PHANTOM2
 62
     7
 10
-496.3373487494879
 20
179.5894867541512
 30
0.0
 11
-498.5732750161141
 21
181.8254130207774
 31
0.0
1001
GradientColor1ACI
1070
     5
1001
GradientColor2ACI
1070
     2
1001
ACAD
1010
0.0
1020
0.0
1030
0.0
  0
LINE
  5
745
  8
ë±08-ïLÄû
  6
PHANTOM2
 62
     7
 10
-496.3373487494878
 20
180.9365251723115
 30
0.0
 11
-497.2262365979534
 21
181.8254130207772
 31
0.0
1001
GradientColor1ACI
1070
     5
1001
GradientColor2ACI
1070
     2
1001
ACAD
1010
0.0
1020
0.0
1030
0.0
  0
ENDBLK
  5
747
  8
ë±90-ÿg2
  6
CONTINUOUS
 62
     7
  0
BLOCK
  8
ë±90-ÿg2
  2
*X80
 70
     1
 10
0.0
 20
0.0
 30
0.0
  3
*X80
  1

  0
LINE
  5
74A
  8
ë±08-ïLÄû
  6
PHANTOM2
 62
     7
 10
-557.3781575059765
 20
174.6254130207771
 30
0.0
 11
-558.3373487494879
 21
175.5846042642886
 31
0.0
1001
GradientColor1ACI
1070
     5
1001
GradientColor2ACI
1070
     2
1001
ACAD
1010
0.0
1020
0.0
1030
0.0
  0
LINE
  5
74B
  8
ë±08-ïLÄû
  6
PHANTOM2
 62
     7
 10
-556.0311190878159
 20
174.6254130207771
 30
0.0
 11
-558.3373487494879
 21
176.9316426824493
 31
0.0
1001
GradientColor1ACI
1070
     5
1001
GradientColor2ACI
1070
     2
1001
ACAD
1010
0.0
1020
0.0
1030
0.0
  0
LINE
  5
74C
  8
ë±08-ïLÄû
  6
PHANTOM2
 62
     7
 10
-554.6840806696555
 20
174.6254130207771
 30
0.0
 11
-558.3373487494878
 21
178.2786811006094
 31
0.0
1001
GradientColor1ACI
1070
     5
1001
GradientColor2ACI
1070
     2
1001
ACAD
1010
0.0
1020
0.0
1030
0.0
  0
LINE
  5
74D
  8
ë±08-ïLÄû
  6
PHANTOM2
 62
     7
 10
-553.3370422514949
 20
174.6254130207771
 30
0.0
 11
-558.3373487494879
 21
179.6257195187702
 31
0.0
1001
GradientColor1ACI
1070
     5
1001
GradientColor2ACI
1070
     2
1001
ACAD
1010
0.0
1020
0.0
1030
0.0
  0
LINE
  5
74E
  8
ë±08-ïLÄû
  6
PHANTOM2
 62
     7
 10
-551.9900038333344
 20
174.6254130207771
 30
0.0
 11
-558.3373487494878
 21
180.9727579369305
 31
0.0
1001
GradientColor1ACI
1070
     5
1001
GradientColor2ACI
1070
     2
1001
ACAD
1010
0.0
1020
0.0
1030
0.0
  0
LINE
  5
74F
  8
ë±08-ïLÄû
  6
PHANTOM2
 62
     7
 10
-550.6429654151738
 20
174.6254130207771
 30
0.0
 11
-557.8429654151741
 21
181.8254130207774
 31
0.0
1001
GradientColor1ACI
1070
     5
1001
GradientColor2ACI
1070
     2
1001
ACAD
1010
0.0
1020
0.0
1030
0.0
  0
LINE
  5
750
  8
ë±08-ïLÄû
  6
PHANTOM2
 62
     7
 10
-549.2959269970133
 20
174.6254130207771
 30
0.0
 11
-556.4959269970134
 21
181.8254130207772
 31
0.0
1001
GradientColor1ACI
1070
     5
1001
GradientColor2ACI
1070
     2
1001
ACAD
1010
0.0
1020
0.0
1030
0.0
  0
LINE
  5
751
  8
ë±08-ïLÄû
  6
PHANTOM2
 62
     7
 10
-547.9488885788527
 20
174.6254130207774
 30
0.0
 11
-555.1488885788526
 21
181.8254130207772
 31
0.0
1001
GradientColor1ACI
1070
     5
1001
GradientColor2ACI
1070
     2
1001
ACAD
1010
0.0
1020
0.0
1030
0.0
  0
LINE
  5
752
  8
ë±08-ïLÄû
  6
PHANTOM2
 62
     7
 10
-546.6018501606923
 20
174.6254130207774
 30
0.0
 11
-553.8018501606923
 21
181.8254130207774
 31
0.0
1001
GradientColor1ACI
1070
     5
1001
GradientColor2ACI
1070
     2
1001
ACAD
1010
0.0
1020
0.0
1030
0.0
  0
LINE
  5
753
  8
ë±08-ïLÄû
  6
PHANTOM2
 62
     7
 10
-545.2548117425317
 20
174.6254130207774
 30
0.0
 11
-552.4548117425317
 21
181.8254130207772
 31
0.0
1001
GradientColor1ACI
1070
     5
1001
GradientColor2ACI
1070
     2
1001
ACAD
1010
0.0
1020
0.0
1030
0.0
  0
LINE
  5
754
  8
ë±08-ïLÄû
  6
PHANTOM2
 62
     7
 10
-543.9077733243712
 20
174.6254130207771
 30
0.0
 11
-551.1077733243712
 21
181.8254130207772
 31
0.0
1001
GradientColor1ACI
1070
     5
1001
GradientColor2ACI
1070
     2
1001
ACAD
1010
0.0
1020
0.0
1030
0.0
  0
LINE
  5
755
  8
ë±08-ïLÄû
  6
PHANTOM2
 62
     7
 10
-542.5607349062106
 20
174.6254130207771
 30
0.0
 11
-549.7607349062106
 21
181.8254130207772
 31
0.0
1001
GradientColor1ACI
1070
     5
1001
GradientColor2ACI
1070
     2
1001
ACAD
1010
0.0
1020
0.0
1030
0.0
  0
LINE
  5
756
  8
ë±08-ïLÄû
  6
PHANTOM2
 62
     7
 10
-541.2136964880499
 20
174.6254130207769
 30
0.0
 11
-548.4136964880499
 21
181.8254130207769
 31
0.0
1001
GradientColor1ACI
1070
     5
1001
GradientColor2ACI
1070
     2
1001
ACAD
1010
0.0
1020
0.0
1030
0.0
  0
LINE
  5
757
  8
ë±08-ïLÄû
  6
PHANTOM2
 62
     7
 10
-539.8666580698895
 20
174.6254130207771
 30
0.0
 11
-547.0666580698896
 21
181.8254130207772
 31
0.0
1001
GradientColor1ACI
1070
     5
1001
GradientColor2ACI
1070
     2
1001
ACAD
1010
0.0
1020
0.0
1030
0.0
  0
LINE
  5
758
  8
ë±08-ïLÄû
  6
PHANTOM2
 62
     7
 10
-538.519619651729
 20
174.6254130207771
 30
0.0
 11
-545.7196196517291
 21
181.8254130207772
 31
0.0
1001
GradientColor1ACI
1070
     5
1001
GradientColor2ACI
1070
     2
1001
ACAD
1010
0.0
1020
0.0
1030
0.0
  0
LINE
  5
759
  8
ë±08-ïLÄû
  6
PHANTOM2
 62
     7
 10
-537.1725812335685
 20
174.6254130207771
 30
0.0
 11
-544.3725812335685
 21
181.8254130207772
 31
0.0
1001
GradientColor1ACI
1070
     5
1001
GradientColor2ACI
1070
     2
1001
ACAD
1010
0.0
1020
0.0
1030
0.0
  0
LINE
  5
75A
  8
ë±08-ïLÄû
  6
PHANTOM2
 62
     7
 10
-535.8255428154079
 20
174.6254130207771
 30
0.0
 11
-543.0255428154082
 21
181.8254130207774
 31
0.0
1001
GradientColor1ACI
1070
     5
1001
GradientColor2ACI
1070
     2
1001
ACAD
1010
0.0
1020
0.0
1030
0.0
  0
LINE
  5
75B
  8
ë±08-ïLÄû
  6
PHANTOM2
 62
     7
 10
-534.4785043972474
 20
174.6254130207771
 30
0.0
 11
-541.6785043972474
 21
181.8254130207772
 31
0.0
1001
GradientColor1ACI
1070
     5
1001
GradientColor2ACI
1070
     2
1001
ACAD
1010
0.0
1020
0.0
1030
0.0
  0
LINE
  5
75C
  8
ë±08-ïLÄû
  6
PHANTOM2
 62
     7
 10
-533.1314659790868
 20
174.6254130207771
 30
0.0
 11
-540.3314659790869
 21
181.8254130207772
 31
0.0
1001
GradientColor1ACI
1070
     5
1001
GradientColor2ACI
1070
     2
1001
ACAD
1010
0.0
1020
0.0
1030
0.0
  0
LINE
  5
75D
  8
ë±08-ïLÄû
  6
PHANTOM2
 62
     7
 10
-531.7844275609263
 20
174.6254130207771
 30
0.0
 11
-538.9844275609264
 21
181.8254130207772
 31
0.0
1001
GradientColor1ACI
1070
     5
1001
GradientColor2ACI
1070
     2
1001
ACAD
1010
0.0
1020
0.0
1030
0.0
  0
LINE
  5
75E
  8
ë±08-ïLÄû
  6
PHANTOM2
 62
     7
 10
-530.437389142766
 20
174.6254130207774
 30
0.0
 11
-537.637389142766
 21
181.8254130207774
 31
0.0
1001
GradientColor1ACI
1070
     5
1001
GradientColor2ACI
1070
     2
1001
ACAD
1010
0.0
1020
0.0
1030
0.0
  0
LINE
  5
75F
  8
ë±08-ïLÄû
  6
PHANTOM2
 62
     7
 10
-529.0903507246053
 20
174.6254130207774
 30
0.0
 11
-536.2903507246053
 21
181.8254130207772
 31
0.0
1001
GradientColor1ACI
1070
     5
1001
GradientColor2ACI
1070
     2
1001
ACAD
1010
0.0
1020
0.0
1030
0.0
  0
LINE
  5
760
  8
ë±08-ïLÄû
  6
PHANTOM2
 62
     7
 10
-527.7433123064447
 20
174.6254130207771
 30
0.0
 11
-534.9433123064447
 21
181.8254130207772
 31
0.0
1001
GradientColor1ACI
1070
     5
1001
GradientColor2ACI
1070
     2
1001
ACAD
1010
0.0
1020
0.0
1030
0.0
  0
LINE
  5
761
  8
ë±08-ïLÄû
  6
PHANTOM2
 62
     7
 10
-526.3962738882842
 20
174.6254130207774
 30
0.0
 11
-533.5962738882842
 21
181.8254130207774
 31
0.0
1001
GradientColor1ACI
1070
     5
1001
GradientColor2ACI
1070
     2
1001
ACAD
1010
0.0
1020
0.0
1030
0.0
  0
LINE
  5
762
  8
ë±08-ïLÄû
  6
PHANTOM2
 62
     7
 10
-525.0492354701236
 20
174.6254130207771
 30
0.0
 11
-532.2492354701237
 21
181.8254130207772
 31
0.0
1001
GradientColor1ACI
1070
     5
1001
GradientColor2ACI
1070
     2
1001
ACAD
1010
0.0
1020
0.0
1030
0.0
  0
LINE
  5
763
  8
ë±08-ïLÄû
  6
PHANTOM2
 62
     7
 10
-524.3373487494877
 20
175.260564718302
 30
0.0
 11
-530.9021970519632
 21
181.8254130207772
 31
0.0
1001
GradientColor1ACI
1070
     5
1001
GradientColor2ACI
1070
     2
1001
ACAD
1010
0.0
1020
0.0
1030
0.0
  0
LINE
  5
764
  8
ë±08-ïLÄû
  6
PHANTOM2
 62
     7
 10
-524.3373487494877
 20
176.6076031364625
 30
0.0
 11
-529.5551586338026
 21
181.8254130207772
 31
0.0
1001
GradientColor1ACI
1070
     5
1001
GradientColor2ACI
1070
     2
1001
ACAD
1010
0.0
1020
0.0
1030
0.0
  0
LINE
  5
765
  8
ë±08-ïLÄû
  6
PHANTOM2
 62
     7
 10
-524.3373487494877
 20
177.9546415546231
 30
0.0
 11
-528.2081202156421
 21
181.8254130207772
 31
0.0
1001
GradientColor1ACI
1070
     5
1001
GradientColor2ACI
1070
     2
1001
ACAD
1010
0.0
1020
0.0
1030
0.0
  0
LINE
  5
766
  8
ë±08-ïLÄû
  6
PHANTOM2
 62
     7
 10
-524.3373487494877
 20
179.3016799727834
 30
0.0
 11
-526.8610817974815
 21
181.8254130207772
 31
0.0
1001
GradientColor1ACI
1070
     5
1001
GradientColor2ACI
1070
     2
1001
ACAD
1010
0.0
1020
0.0
1030
0.0
  0
LINE
  5
767
  8
ë±08-ïLÄû
  6
PHANTOM2
 62
     7
 10
-524.3373487494877
 20
180.6487183909439
 30
0.0
 11
-525.5140433793208
 21
181.8254130207769
 31
0.0
1001
GradientColor1ACI
1070
     5
1001
GradientColor2ACI
1070
     2
1001
ACAD
1010
0.0
1020
0.0
1030
0.0
  0
ENDBLK
  5
769
  8
ë±90-ÿg2
  6
CONTINUOUS
 62
     7
  0
BLOCK
  8
ë±90-ÿg2
  2
*X81
 70
     1
 10
0.0
 20
0.0
 30
0.0
  3
*X81
  1

  0
LINE
  5
775
  8
ë±08-ïLÄû
  6
CONTINUOUS
 62
     7
 10
-538.1525589846175
 20
157.8390536033861
 30
0.0
 11
-537.7151665114371
 21
158.2764460765664
 31
0.0
1001
GradientColor1ACI
1070
     5
1001
GradientColor2ACI
1070
     2
1001
ACAD
1010
0.0
1020
0.0
1030
0.0
  0
LINE
  5
776
  8
ë±08-ïLÄû
  6
CONTINUOUS
 62
     7
 10
-538.1525589846175
 20
156.4920151852258
 30
0.0
 11
-536.3681280932769
 21
158.2764460765663
 31
0.0
1001
GradientColor1ACI
1070
     5
1001
GradientColor2ACI
1070
     2
1001
ACAD
1010
0.0
1020
0.0
1030
0.0
  0
LINE
  5
777
  8
ë±08-ïLÄû
  6
CONTINUOUS
 62
     7
 10
-538.1525589846175
 20
155.1449767670654
 30
0.0
 11
-535.0210896751165
 21
158.2764460765663
 31
0.0
1001
GradientColor1ACI
1070
     5
1001
GradientColor2ACI
1070
     2
1001
ACAD
1010
0.0
1020
0.0
1030
0.0
  0
LINE
  5
778
  8
ë±08-ïLÄû
  6
CONTINUOUS
 62
     7
 10
-538.1525589846175
 20
153.797938348905
 30
0.0
 11
-534.1525589846175
 21
157.7979383489051
 31
0.0
1001
GradientColor1ACI
1070
     5
1001
GradientColor2ACI
1070
     2
1001
ACAD
1010
0.0
1020
0.0
1030
0.0
  0
LINE
  5
779
  8
ë±08-ïLÄû
  6
CONTINUOUS
 62
     7
 10
-538.1525589846173
 20
152.4508999307448
 30
0.0
 11
-534.1525589846175
 21
156.4508999307447
 31
0.0
1001
GradientColor1ACI
1070
     5
1001
GradientColor2ACI
1070
     2
1001
ACAD
1010
0.0
1020
0.0
1030
0.0
  0
LINE
  5
77A
  8
ë±08-ïLÄû
  6
CONTINUOUS
 62
     7
 10
-538.1525589846175
 20
151.1038615125844
 30
0.0
 11
-534.1525589846175
 21
155.1038615125844
 31
0.0
1001
GradientColor1ACI
1070
     5
1001
GradientColor2ACI
1070
     2
1001
ACAD
1010
0.0
1020
0.0
1030
0.0
  0
LINE
  5
77B
  8
ë±08-ïLÄû
  6
CONTINUOUS
 62
     7
 10
-538.1525589846175
 20
149.7568230944241
 30
0.0
 11
-534.1525589846176
 21
153.756823094424
 31
0.0
1001
GradientColor1ACI
1070
     5
1001
GradientColor2ACI
1070
     2
1001
ACAD
1010
0.0
1020
0.0
1030
0.0
  0
LINE
  5
77C
  8
ë±08-ïLÄû
  6
CONTINUOUS
 62
     7
 10
-538.1525589846173
 20
148.4097846762638
 30
0.0
 11
-534.1525589846173
 21
152.4097846762638
 31
0.0
1001
GradientColor1ACI
1070
     5
1001
GradientColor2ACI
1070
     2
1001
ACAD
1010
0.0
1020
0.0
1030
0.0
  0
LINE
  5
77D
  8
ë±08-ïLÄû
  6
CONTINUOUS
 62
     7
 10
-538.1525589846173
 20
147.0627462581034
 30
0.0
 11
-534.1525589846175
 21
151.0627462581034
 31
0.0
1001
GradientColor1ACI
1070
     5
1001
GradientColor2ACI
1070
     2
1001
ACAD
1010
0.0
1020
0.0
1030
0.0
  0
LINE
  5
77E
  8
ë±08-ïLÄû
  6
CONTINUOUS
 62
     7
 10
-538.1525589846175
 20
145.715707839943
 30
0.0
 11
-534.1525589846175
 21
149.715707839943
 31
0.0
1001
GradientColor1ACI
1070
     5
1001
GradientColor2ACI
1070
     2
1001
ACAD
1010
0.0
1020
0.0
1030
0.0
  0
LINE
  5
77F
  8
ë±08-ïLÄû
  6
CONTINUOUS
 62
     7
 10
-538.1525589846175
 20
144.3686694217827
 30
0.0
 11
-534.1525589846175
 21
148.3686694217826
 31
0.0
1001
GradientColor1ACI
1070
     5
1001
GradientColor2ACI
1070
     2
1001
ACAD
1010
0.0
1020
0.0
1030
0.0
  0
LINE
  5
780
  8
ë±08-ïLÄû
  6
CONTINUOUS
 62
     7
 10
-538.1525589846173
 20
143.0216310036224
 30
0.0
 11
-534.1525589846175
 21
147.0216310036223
 31
0.0
1001
GradientColor1ACI
1070
     5
1001
GradientColor2ACI
1070
     2
1001
ACAD
1010
0.0
1020
0.0
1030
0.0
  0
LINE
  5
781
  8
ë±08-ïLÄû
  6
CONTINUOUS
 62
     7
 10
-538.1525589846175
 20
141.674592585462
 30
0.0
 11
-534.1525589846176
 21
145.6745925854619
 31
0.0
1001
GradientColor1ACI
1070
     5
1001
GradientColor2ACI
1070
     2
1001
ACAD
1010
0.0
1020
0.0
1030
0.0
  0
LINE
  5
782
  8
ë±08-ïLÄû
  6
CONTINUOUS
 62
     7
 10
-538.1525589846175
 20
140.3275541673017
 30
0.0
 11
-534.1525589846176
 21
144.3275541673016
 31
0.0
1001
GradientColor1ACI
1070
     5
1001
GradientColor2ACI
1070
     2
1001
ACAD
1010
0.0
1020
0.0
1030
0.0
  0
LINE
  5
783
  8
ë±08-ïLÄû
  6
CONTINUOUS
 62
     7
 10
-538.1525589846175
 20
138.9805157491414
 30
0.0
 11
-534.1525589846175
 21
142.9805157491413
 31
0.0
1001
GradientColor1ACI
1070
     5
1001
GradientColor2ACI
1070
     2
1001
ACAD
1010
0.0
1020
0.0
1030
0.0
  0
LINE
  5
784
  8
ë±08-ïLÄû
  6
CONTINUOUS
 62
     7
 10
-538.1525589846175
 20
137.633477330981
 30
0.0
 11
-534.1525589846175
 21
141.633477330981
 31
0.0
1001
GradientColor1ACI
1070
     5
1001
GradientColor2ACI
1070
     2
1001
ACAD
1010
0.0
1020
0.0
1030
0.0
  0
LINE
  5
785
  8
ë±08-ïLÄû
  6
CONTINUOUS
 62
     7
 10
-538.1525589846175
 20
136.2864389128206
 30
0.0
 11
-534.1525589846175
 21
140.2864389128206
 31
0.0
1001
GradientColor1ACI
1070
     5
1001
GradientColor2ACI
1070
     2
1001
ACAD
1010
0.0
1020
0.0
1030
0.0
  0
LINE
  5
786
  8
ë±08-ïLÄû
  6
CONTINUOUS
 62
     7
 10
-538.1525589846175
 20
134.9394004946603
 30
0.0
 11
-534.1525589846175
 21
138.9394004946602
 31
0.0
1001
GradientColor1ACI
1070
     5
1001
GradientColor2ACI
1070
     2
1001
ACAD
1010
0.0
1020
0.0
1030
0.0
  0
LINE
  5
787
  8
ë±08-ïLÄû
  6
CONTINUOUS
 62
     7
 10
-538.1525589846173
 20
133.5923620765
 30
0.0
 11
-534.1525589846175
 21
137.5923620764999
 31
0.0
1001
GradientColor1ACI
1070
     5
1001
GradientColor2ACI
1070
     2
1001
ACAD
1010
0.0
1020
0.0
1030
0.0
  0
LINE
  5
788
  8
ë±08-ïLÄû
  6
CONTINUOUS
 62
     7
 10
-538.1214365663907
 20
132.2764460765663
 30
0.0
 11
-534.1525589846175
 21
136.2453236583396
 31
0.0
1001
GradientColor1ACI
1070
     5
1001
GradientColor2ACI
1070
     2
1001
ACAD
1010
0.0
1020
0.0
1030
0.0
  0
LINE
  5
789
  8
ë±08-ïLÄû
  6
CONTINUOUS
 62
     7
 10
-536.7743981482304
 20
132.2764460765664
 30
0.0
 11
-534.1525589846176
 21
134.8982852401792
 31
0.0
1001
GradientColor1ACI
1070
     5
1001
GradientColor2ACI
1070
     2
1001
ACAD
1010
0.0
1020
0.0
1030
0.0
  0
LINE
  5
78A
  8
ë±08-ïLÄû
  6
CONTINUOUS
 62
     7
 10
-535.42735973007
 20
132.2764460765664
 30
0.0
 11
-534.1525589846175
 21
133.5512468220189
 31
0.0
1001
GradientColor1ACI
1070
     5
1001
GradientColor2ACI
1070
     2
1001
ACAD
1010
0.0
1020
0.0
1030
0.0
  0
ENDBLK
  5
78C
  8
ë±90-ÿg2
  6
CONTINUOUS
 62
     7
  0
BLOCK
  8
ë±90-ÿg2
  2
*X82
 70
     1
 10
0.0
 20
0.0
 30
0.0
  3
*X82
  1

  0
INSERT
  5
860
  8
ë±08-ïLÄû
  6
CONTINUOUS
 62
     5
  2
_OPEN
 10
-269.2121840604681
 20
141.1025759838054
 30
0.0
 41
1.5
 42
1.5
 43
1.5
 50
337.0038097266451
  0
LINE
  5
861
  8
ë±08-ïLÄû
  6
CONTINUOUS
 62
     5
 10
-270.592980308496
 20
141.6885808655529
 30
0.0
 11
-280.293025469634
 21
145.8052445845606
 31
0.0
  0
LINE
  5
862
  8
ë±08-ïLÄû
  6
CONTINUOUS
 62
     5
 10
-280.293025469634
 20
145.8052445845606
 30
0.0
 11
-315.4930254696339
 21
145.8052445845606
 31
0.0
  0
ENDBLK
  5
864
  8
ë±90-ÿg2
  6
CONTINUOUS
 62
     7
  0
BLOCK
  8
ë±90-ÿg2
  2
*X83
 70
     1
 10
0.0
 20
0.0
 30
0.0
  3
*X83
  1

  0
INSERT
  5
867
  8
ë±08-ïLÄû
  6
CONTINUOUS
 62
     5
  2
_OPEN
 10
-266.9585432570924
 20
141.1676316262543
 30
0.0
 41
1.5
 42
1.5
 43
1.5
 50
207.8999606854051
  0
LINE
  5
868
  8
ë±08-ïLÄû
  6
CONTINUOUS
 62
     5
 10
-265.6328943303412
 20
141.8695254380259
 30
0.0
 11
-262.0970794230028
 21
143.7416399571489
 31
0.0
  0
LINE
  5
869
  8
ë±08-ïLÄû
  6
CONTINUOUS
 62
     5
 10
-262.0970794230028
 20
143.7416399571489
 30
0.0
 11
-234.0970794230028
 21
143.7416399571489
 31
0.0
  0
ENDBLK
  5
86B
  8
ë±90-ÿg2
  6
CONTINUOUS
 62
     7
  0
BLOCK
  8
ë±90-ÿg2
  2
*X84
 70
     1
 10
0.0
 20
0.0
 30
0.0
  3
*X84
  1

  0
LINE
  5
873
  8
ë±08-ïLÄû
  6
CONTINUOUS
 62
     7
 10
-269.6684185518265
 20
156.1890378542663
 30
0.0
 11
-268.9684185518266
 21
156.8890378542662
 31
0.0
1001
GradientColor1ACI
1070
     5
1001
GradientColor2ACI
1070
     2
1001
ACAD
1010
0.0
1020
0.0
1030
0.0
  0
LINE
  5
874
  8
ë±08-ïLÄû
  6
CONTINUOUS
 62
     7
 10
-269.6684185518265
 20
154.841999436106
 30
0.0
 11
-268.9684185518266
 21
155.5419994361059
 31
0.0
1001
GradientColor1ACI
1070
     5
1001
GradientColor2ACI
1070
     2
1001
ACAD
1010
0.0
1020
0.0
1030
0.0
  0
LINE
  5
875
  8
ë±08-ïLÄû
  6
CONTINUOUS
 62
     7
 10
-269.6684185518265
 20
153.4949610179456
 30
0.0
 11
-268.9684185518267
 21
154.1949610179455
 31
0.0
1001
GradientColor1ACI
1070
     5
1001
GradientColor2ACI
1070
     2
1001
ACAD
1010
0.0
1020
0.0
1030
0.0
  0
LINE
  5
876
  8
ë±08-ïLÄû
  6
CONTINUOUS
 62
     7
 10
-269.6684185518265
 20
152.1479225997853
 30
0.0
 11
-268.9684185518266
 21
152.8479225997851
 31
0.0
1001
GradientColor1ACI
1070
     5
1001
GradientColor2ACI
1070
     2
1001
ACAD
1010
0.0
1020
0.0
1030
0.0
  0
LINE
  5
877
  8
ë±08-ïLÄû
  6
CONTINUOUS
 62
     7
 10
-269.6684185518265
 20
150.800884181625
 30
0.0
 11
-268.9684185518267
 21
151.5008841816248
 31
0.0
1001
GradientColor1ACI
1070
     5
1001
GradientColor2ACI
1070
     2
1001
ACAD
1010
0.0
1020
0.0
1030
0.0
  0
LINE
  5
878
  8
ë±08-ïLÄû
  6
CONTINUOUS
 62
     7
 10
-269.6684185518265
 20
149.4538457634646
 30
0.0
 11
-268.9684185518266
 21
150.1538457634645
 31
0.0
1001
GradientColor1ACI
1070
     5
1001
GradientColor2ACI
1070
     2
1001
ACAD
1010
0.0
1020
0.0
1030
0.0
  0
LINE
  5
879
  8
ë±08-ïLÄû
  6
CONTINUOUS
 62
     7
 10
-269.6684185518265
 20
148.1068073453043
 30
0.0
 11
-268.9684185518267
 21
148.8068073453041
 31
0.0
1001
GradientColor1ACI
1070
     5
1001
GradientColor2ACI
1070
     2
1001
ACAD
1010
0.0
1020
0.0
1030
0.0
  0
LINE
  5
87A
  8
ë±08-ïLÄû
  6
CONTINUOUS
 62
     7
 10
-269.6684185518265
 20
146.759768927144
 30
0.0
 11
-268.9684185518266
 21
147.4597689271439
 31
0.0
1001
GradientColor1ACI
1070
     5
1001
GradientColor2ACI
1070
     2
1001
ACAD
1010
0.0
1020
0.0
1030
0.0
  0
LINE
  5
87B
  8
ë±08-ïLÄû
  6
CONTINUOUS
 62
     7
 10
-269.6684185518264
 20
145.4127305089837
 30
0.0
 11
-268.9684185518266
 21
146.1127305089835
 31
0.0
1001
GradientColor1ACI
1070
     5
1001
GradientColor2ACI
1070
     2
1001
ACAD
1010
0.0
1020
0.0
1030
0.0
  0
LINE
  5
87C
  8
ë±08-ïLÄû
  6
CONTINUOUS
 62
     7
 10
-269.6684185518265
 20
144.0656920908234
 30
0.0
 11
-268.9684185518266
 21
144.7656920908232
 31
0.0
1001
GradientColor1ACI
1070
     5
1001
GradientColor2ACI
1070
     2
1001
ACAD
1010
0.0
1020
0.0
1030
0.0
  0
LINE
  5
87D
  8
ë±08-ïLÄû
  6
CONTINUOUS
 62
     7
 10
-269.6684185518265
 20
142.718653672663
 30
0.0
 11
-268.9684185518266
 21
143.4186536726628
 31
0.0
1001
GradientColor1ACI
1070
     5
1001
GradientColor2ACI
1070
     2
1001
ACAD
1010
0.0
1020
0.0
1030
0.0
  0
LINE
  5
87E
  8
ë±08-ïLÄû
  6
CONTINUOUS
 62
     7
 10
-269.6684185518265
 20
141.3716152545027
 30
0.0
 11
-268.9684185518266
 21
142.0716152545024
 31
0.0
1001
GradientColor1ACI
1070
     5
1001
GradientColor2ACI
1070
     2
1001
ACAD
1010
0.0
1020
0.0
1030
0.0
  0
LINE
  5
87F
  8
ë±08-ïLÄû
  6
CONTINUOUS
 62
     7
 10
-269.6684185518265
 20
140.0245768363423
 30
0.0
 11
-268.9684185518266
 21
140.7245768363422
 31
0.0
1001
GradientColor1ACI
1070
     5
1001
GradientColor2ACI
1070
     2
1001
ACAD
1010
0.0
1020
0.0
1030
0.0
  0
LINE
  5
880
  8
ë±08-ïLÄû
  6
CONTINUOUS
 62
     7
 10
-269.6684185518265
 20
138.6775384181819
 30
0.0
 11
-268.9684185518266
 21
139.3775384181818
 31
0.0
1001
GradientColor1ACI
1070
     5
1001
GradientColor2ACI
1070
     2
1001
ACAD
1010
0.0
1020
0.0
1030
0.0
  0
LINE
  5
881
  8
ë±08-ïLÄû
  6
CONTINUOUS
 62
     7
 10
-269.6684185518265
 20
137.3305000000216
 30
0.0
 11
-268.9684185518266
 21
138.0305000000214
 31
0.0
1001
GradientColor1ACI
1070
     5
1001
GradientColor2ACI
1070
     2
1001
ACAD
1010
0.0
1020
0.0
1030
0.0
  0
LINE
  5
882
  8
ë±08-ïLÄû
  6
CONTINUOUS
 62
     7
 10
-269.6684185518264
 20
135.9834615818613
 30
0.0
 11
-268.9684185518266
 21
136.6834615818611
 31
0.0
1001
GradientColor1ACI
1070
     5
1001
GradientColor2ACI
1070
     2
1001
ACAD
1010
0.0
1020
0.0
1030
0.0
  0
LINE
  5
883
  8
ë±08-ïLÄû
  6
CONTINUOUS
 62
     7
 10
-269.6684185518265
 20
134.636423163701
 30
0.0
 11
-268.9684185518266
 21
135.3364231637008
 31
0.0
1001
GradientColor1ACI
1070
     5
1001
GradientColor2ACI
1070
     2
1001
ACAD
1010
0.0
1020
0.0
1030
0.0
  0
LINE
  5
884
  8
ë±08-ïLÄû
  6
CONTINUOUS
 62
     7
 10
-269.6684185518265
 20
133.2893847455406
 30
0.0
 11
-268.9684185518266
 21
133.9893847455404
 31
0.0
1001
GradientColor1ACI
1070
     5
1001
GradientColor2ACI
1070
     2
1001
ACAD
1010
0.0
1020
0.0
1030
0.0
  0
LINE
  5
885
  8
ë±08-ïLÄû
  6
CONTINUOUS
 62
     7
 10
-269.6684185518265
 20
131.9423463273802
 30
0.0
 11
-268.9684185518268
 21
132.64234632738
 31
0.0
1001
GradientColor1ACI
1070
     5
1001
GradientColor2ACI
1070
     2
1001
ACAD
1010
0.0
1020
0.0
1030
0.0
  0
LINE
  5
886
  8
ë±08-ïLÄû
  6
CONTINUOUS
 62
     7
 10
-268.983232013669
 20
131.2804944473774
 30
0.0
 11
-268.9684185518266
 21
131.2953079092198
 31
0.0
1001
GradientColor1ACI
1070
     5
1001
GradientColor2ACI
1070
     2
1001
ACAD
1010
0.0
1020
0.0
1030
0.0
  0
ENDBLK
  5
888
  8
ë±90-ÿg2
  6
CONTINUOUS
 62
     7
  0
BLOCK
  8
ë±90-ÿg2
  2
*X85
 70
     1
 10
0.0
 20
0.0
 30
0.0
  3
*X85
  1

  0
LINE
  5
890
  8
ë±08-ïLÄû
  6
CONTINUOUS
 62
     7
 10
-267.2684185518264
 20
156.1890378542663
 30
0.0
 11
-266.5684185518265
 21
156.8890378542662
 31
0.0
1001
GradientColor1ACI
1070
     5
1001
GradientColor2ACI
1070
     2
1001
ACAD
1010
0.0
1020
0.0
1030
0.0
  0
LINE
  5
891
  8
ë±08-ïLÄû
  6
CONTINUOUS
 62
     7
 10
-267.2684185518264
 20
154.841999436106
 30
0.0
 11
-266.5684185518265
 21
155.5419994361058
 31
0.0
1001
GradientColor1ACI
1070
     5
1001
GradientColor2ACI
1070
     2
1001
ACAD
1010
0.0
1020
0.0
1030
0.0
  0
LINE
  5
892
  8
ë±08-ïLÄû
  6
CONTINUOUS
 62
     7
 10
-267.2684185518264
 20
153.4949610179456
 30
0.0
 11
-266.5684185518266
 21
154.1949610179454
 31
0.0
1001
GradientColor1ACI
1070
     5
1001
GradientColor2ACI
1070
     2
1001
ACAD
1010
0.0
1020
0.0
1030
0.0
  0
LINE
  5
893
  8
ë±08-ïLÄû
  6
CONTINUOUS
 62
     7
 10
-267.2684185518264
 20
152.1479225997854
 30
0.0
 11
-266.5684185518265
 21
152.8479225997852
 31
0.0
1001
GradientColor1ACI
1070
     5
1001
GradientColor2ACI
1070
     2
1001
ACAD
1010
0.0
1020
0.0
1030
0.0
  0
LINE
  5
894
  8
ë±08-ïLÄû
  6
CONTINUOUS
 62
     7
 10
-267.2684185518264
 20
150.800884181625
 30
0.0
 11
-266.5684185518265
 21
151.5008841816248
 31
0.0
1001
GradientColor1ACI
1070
     5
1001
GradientColor2ACI
1070
     2
1001
ACAD
1010
0.0
1020
0.0
1030
0.0
  0
LINE
  5
895
  8
ë±08-ïLÄû
  6
CONTINUOUS
 62
     7
 10
-267.2684185518264
 20
149.4538457634646
 30
0.0
 11
-266.5684185518266
 21
150.1538457634644
 31
0.0
1001
GradientColor1ACI
1070
     5
1001
GradientColor2ACI
1070
     2
1001
ACAD
1010
0.0
1020
0.0
1030
0.0
  0
LINE
  5
896
  8
ë±08-ïLÄû
  6
CONTINUOUS
 62
     7
 10
-267.2684185518263
 20
148.1068073453044
 30
0.0
 11
-266.5684185518265
 21
148.8068073453041
 31
0.0
1001
GradientColor1ACI
1070
     5
1001
GradientColor2ACI
1070
     2
1001
ACAD
1010
0.0
1020
0.0
1030
0.0
  0
LINE
  5
897
  8
ë±08-ïLÄû
  6
CONTINUOUS
 62
     7
 10
-267.2684185518263
 20
146.759768927144
 30
0.0
 11
-266.5684185518265
 21
147.4597689271439
 31
0.0
1001
GradientColor1ACI
1070
     5
1001
GradientColor2ACI
1070
     2
1001
ACAD
1010
0.0
1020
0.0
1030
0.0
  0
LINE
  5
898
  8
ë±08-ïLÄû
  6
CONTINUOUS
 62
     7
 10
-267.2684185518264
 20
145.4127305089836
 30
0.0
 11
-266.5684185518265
 21
146.1127305089835
 31
0.0
1001
GradientColor1ACI
1070
     5
1001
GradientColor2ACI
1070
     2
1001
ACAD
1010
0.0
1020
0.0
1030
0.0
  0
LINE
  5
899
  8
ë±08-ïLÄû
  6
CONTINUOUS
 62
     7
 10
-267.2684185518264
 20
144.0656920908234
 30
0.0
 11
-266.5684185518266
 21
144.7656920908231
 31
0.0
1001
GradientColor1ACI
1070
     5
1001
GradientColor2ACI
1070
     2
1001
ACAD
1010
0.0
1020
0.0
1030
0.0
  0
LINE
  5
89A
  8
ë±08-ïLÄû
  6
CONTINUOUS
 62
     7
 10
-267.2684185518264
 20
142.718653672663
 30
0.0
 11
-266.5684185518265
 21
143.4186536726628
 31
0.0
1001
GradientColor1ACI
1070
     5
1001
GradientColor2ACI
1070
     2
1001
ACAD
1010
0.0
1020
0.0
1030
0.0
  0
LINE
  5
89B
  8
ë±08-ïLÄû
  6
CONTINUOUS
 62
     7
 10
-267.2684185518263
 20
141.3716152545027
 30
0.0
 11
-266.5684185518265
 21
142.0716152545024
 31
0.0
1001
GradientColor1ACI
1070
     5
1001
GradientColor2ACI
1070
     2
1001
ACAD
1010
0.0
1020
0.0
1030
0.0
  0
LINE
  5
89C
  8
ë±08-ïLÄû
  6
CONTINUOUS
 62
     7
 10
-267.2684185518264
 20
140.0245768363423
 30
0.0
 11
-266.5684185518265
 21
140.7245768363421
 31
0.0
1001
GradientColor1ACI
1070
     5
1001
GradientColor2ACI
1070
     2
1001
ACAD
1010
0.0
1020
0.0
1030
0.0
  0
LINE
  5
89D
  8
ë±08-ïLÄû
  6
CONTINUOUS
 62
     7
 10
-267.2684185518264
 20
138.6775384181819
 30
0.0
 11
-266.5684185518266
 21
139.3775384181818
 31
0.0
1001
GradientColor1ACI
1070
     5
1001
GradientColor2ACI
1070
     2
1001
ACAD
1010
0.0
1020
0.0
1030
0.0
  0
LINE
  5
89E
  8
ë±08-ïLÄû
  6
CONTINUOUS
 62
     7
 10
-267.2684185518263
 20
137.3305000000217
 30
0.0
 11
-266.5684185518265
 21
138.0305000000214
 31
0.0
1001
GradientColor1ACI
1070
     5
1001
GradientColor2ACI
1070
     2
1001
ACAD
1010
0.0
1020
0.0
1030
0.0
  0
LINE
  5
89F
  8
ë±08-ïLÄû
  6
CONTINUOUS
 62
     7
 10
-267.2684185518263
 20
135.9834615818613
 30
0.0
 11
-266.5684185518265
 21
136.6834615818611
 31
0.0
1001
GradientColor1ACI
1070
     5
1001
GradientColor2ACI
1070
     2
1001
ACAD
1010
0.0
1020
0.0
1030
0.0
  0
LINE
  5
8A0
  8
ë±08-ïLÄû
  6
CONTINUOUS
 62
     7
 10
-267.2684185518264
 20
134.636423163701
 30
0.0
 11
-266.5684185518266
 21
135.3364231637008
 31
0.0
1001
GradientColor1ACI
1070
     5
1001
GradientColor2ACI
1070
     2
1001
ACAD
1010
0.0
1020
0.0
1030
0.0
  0
LINE
  5
8A1
  8
ë±08-ïLÄû
  6
CONTINUOUS
 62
     7
 10
-267.2684185518263
 20
133.2893847455407
 30
0.0
 11
-266.5684185518265
 21
133.9893847455405
 31
0.0
1001
GradientColor1ACI
1070
     5
1001
GradientColor2ACI
1070
     2
1001
ACAD
1010
0.0
1020
0.0
1030
0.0
  0
LINE
  5
8A2
  8
ë±08-ïLÄû
  6
CONTINUOUS
 62
     7
 10
-267.2684185518264
 20
131.9423463273803
 30
0.0
 11
-266.5684185518265
 21
132.6423463273801
 31
0.0
1001
GradientColor1ACI
1070
     5
1001
GradientColor2ACI
1070
     2
1001
ACAD
1010
0.0
1020
0.0
1030
0.0
  0
LINE
  5
8A3
  8
ë±08-ïLÄû
  6
CONTINUOUS
 62
     7
 10
-266.5832320136689
 20
131.2804944473774
 30
0.0
 11
-266.5684185518265
 21
131.2953079092197
 31
0.0
1001
GradientColor1ACI
1070
     5
1001
GradientColor2ACI
1070
     2
1001
ACAD
1010
0.0
1020
0.0
1030
0.0
  0
ENDBLK
  5
8A5
  8
ë±90-ÿg2
  6
CONTINUOUS
 62
     7
  0
BLOCK
  8
ë±90-ÿg2
  2
*X86
 70
     1
 10
0.0
 20
0.0
 30
0.0
  3
*X86
  1

  0
LINE
  5
8A8
  8
ë±08-ïLÄû
  6
CONTINUOUS
 62
     7
 10
-276.861602770797
 20
177.5777372529843
 30
0.0
 11
-275.8822133026114
 21
178.55712672117
 31
0.0
1001
GradientColor1ACI
1070
     5
1001
GradientColor2ACI
1070
     2
1001
ACAD
1010
0.0
1020
0.0
1030
0.0
  0
LINE
  5
8A9
  8
ë±08-ïLÄû
  6
CONTINUOUS
 62
     7
 10
-276.861602770797
 20
176.230698834824
 30
0.0
 11
-276.1616027707968
 21
176.9306988348243
 31
0.0
1001
GradientColor1ACI
1070
     5
1001
GradientColor2ACI
1070
     2
1001
ACAD
1010
0.0
1020
0.0
1030
0.0
  0
LINE
  5
8AA
  8
ë±08-ïLÄû
  6
CONTINUOUS
 62
     7
 10
-275.5351748844511
 20
177.5571267211699
 30
0.0
 11
-274.5351748844511
 21
178.55712672117
 31
0.0
1001
GradientColor1ACI
1070
     5
1001
GradientColor2ACI
1070
     2
1001
ACAD
1010
0.0
1020
0.0
1030
0.0
  0
LINE
  5
8AB
  8
ë±08-ïLÄû
  6
CONTINUOUS
 62
     7
 10
-276.488136466291
 20
175.2571267211697
 30
0.0
 11
-276.1616027707968
 21
175.5836604166639
 31
0.0
1001
GradientColor1ACI
1070
     5
1001
GradientColor2ACI
1070
     2
1001
ACAD
1010
0.0
1020
0.0
1030
0.0
  0
LINE
  5
8AC
  8
ë±08-ïLÄû
  6
CONTINUOUS
 62
     7
 10
-274.1881364662908
 20
177.5571267211699
 30
0.0
 11
-273.1881364662908
 21
178.5571267211699
 31
0.0
1001
GradientColor1ACI
1070
     5
1001
GradientColor2ACI
1070
     2
1001
ACAD
1010
0.0
1020
0.0
1030
0.0
  0
LINE
  5
8AD
  8
ë±08-ïLÄû
  6
CONTINUOUS
 62
     7
 10
-272.8410980481305
 20
177.5571267211699
 30
0.0
 11
-271.8410980481305
 21
178.5571267211699
 31
0.0
1001
GradientColor1ACI
1070
     5
1001
GradientColor2ACI
1070
     2
1001
ACAD
1010
0.0
1020
0.0
1030
0.0
  0
LINE
  5
8AE
  8
ë±08-ïLÄû
  6
CONTINUOUS
 62
     7
 10
-271.4940596299701
 20
177.55712672117
 30
0.0
 11
-270.49405962997
 21
178.55712672117
 31
0.0
1001
GradientColor1ACI
1070
     5
1001
GradientColor2ACI
1070
     2
1001
ACAD
1010
0.0
1020
0.0
1030
0.0
  0
LINE
  5
8AF
  8
ë±08-ïLÄû
  6
CONTINUOUS
 62
     7
 10
-270.1470212118097
 20
177.55712672117
 30
0.0
 11
-269.1470212118097
 21
178.55712672117
 31
0.0
1001
GradientColor1ACI
1070
     5
1001
GradientColor2ACI
1070
     2
1001
ACAD
1010
0.0
1020
0.0
1030
0.0
  0
LINE
  5
8B0
  8
ë±08-ïLÄû
  6
CONTINUOUS
 62
     7
 10
-267.2684185518264
 20
177.7416525448326
 30
0.0
 11
-266.7529443754892
 21
178.2571267211698
 31
0.0
1001
GradientColor1ACI
1070
     5
1001
GradientColor2ACI
1070
     2
1001
ACAD
1010
0.0
1020
0.0
1030
0.0
  0
LINE
  5
8B1
  8
ë±08-ïLÄû
  6
CONTINUOUS
 62
     7
 10
-267.2684185518264
 20
176.3946141266723
 30
0.0
 11
-266.5684185518265
 21
177.0946141266721
 31
0.0
1001
GradientColor1ACI
1070
     5
1001
GradientColor2ACI
1070
     2
1001
ACAD
1010
0.0
1020
0.0
1030
0.0
  0
LINE
  5
8B2
  8
ë±08-ïLÄû
  6
CONTINUOUS
 62
     7
 10
-266.1059059573287
 20
177.5571267211699
 30
0.0
 11
-265.4059059573289
 21
178.2571267211698
 31
0.0
1001
GradientColor1ACI
1070
     5
1001
GradientColor2ACI
1070
     2
1001
ACAD
1010
0.0
1020
0.0
1030
0.0
  0
LINE
  5
8B3
  8
ë±08-ïLÄû
  6
CONTINUOUS
 62
     7
 10
-267.0588675391686
 20
175.2571267211698
 30
0.0
 11
-266.5684185518266
 21
175.7475757085118
 31
0.0
1001
GradientColor1ACI
1070
     5
1001
GradientColor2ACI
1070
     2
1001
ACAD
1010
0.0
1020
0.0
1030
0.0
  0
LINE
  5
8B4
  8
ë±08-ïLÄû
  6
CONTINUOUS
 62
     7
 10
-264.7588675391684
 20
177.5571267211699
 30
0.0
 11
-264.0588675391686
 21
178.2571267211697
 31
0.0
1001
GradientColor1ACI
1070
     5
1001
GradientColor2ACI
1070
     2
1001
ACAD
1010
0.0
1020
0.0
1030
0.0
  0
LINE
  5
8B5
  8
ë±08-ïLÄû
  6
CONTINUOUS
 62
     7
 10
-260.9684185518267
 20
181.3475757085117
 30
0.0
 11
-260.9088675391689
 21
181.4071267211694
 31
0.0
1001
GradientColor1ACI
1070
     5
1001
GradientColor2ACI
1070
     2
1001
ACAD
1010
0.0
1020
0.0
1030
0.0
  0
LINE
  5
8B6
  8
ë±08-ïLÄû
  6
CONTINUOUS
 62
     7
 10
-263.4118291210081
 20
177.5571267211699
 30
0.0
 11
-262.7118291210083
 21
178.2571267211697
 31
0.0
1001
GradientColor1ACI
1070
     5
1001
GradientColor2ACI
1070
     2
1001
ACAD
1010
0.0
1020
0.0
1030
0.0
  0
LINE
  5
8B7
  8
ë±08-ïLÄû
  6
CONTINUOUS
 62
     7
 10
-260.9684185518266
 20
180.0005372903513
 30
0.0
 11
-260.2684185518263
 21
180.7005372903516
 31
0.0
1001
GradientColor1ACI
1070
     5
1001
GradientColor2ACI
1070
     2
1001
ACAD
1010
0.0
1020
0.0
1030
0.0
  0
LINE
  5
8B8
  8
ë±08-ïLÄû
  6
CONTINUOUS
 62
     7
 10
-262.0647907028477
 20
177.55712672117
 30
0.0
 11
-261.3647907028479
 21
178.2571267211698
 31
0.0
1001
GradientColor1ACI
1070
     5
1001
GradientColor2ACI
1070
     2
1001
ACAD
1010
0.0
1020
0.0
1030
0.0
  0
LINE
  5
8B9
  8
ë±08-ïLÄû
  6
CONTINUOUS
 62
     7
 10
-260.9684185518266
 20
178.653498872191
 30
0.0
 11
-260.2684185518263
 21
179.3534988721914
 31
0.0
1001
GradientColor1ACI
1070
     5
1001
GradientColor2ACI
1070
     2
1001
ACAD
1010
0.0
1020
0.0
1030
0.0
  0
LINE
  5
8BA
  8
ë±08-ïLÄû
  6
CONTINUOUS
 62
     7
 10
-260.7177522846874
 20
177.5571267211699
 30
0.0
 11
-260.2684185518263
 21
178.006460454031
 31
0.0
1001
GradientColor1ACI
1070
     5
1001
GradientColor2ACI
1070
     2
1001
ACAD
1010
0.0
1020
0.0
1030
0.0
  0
ENDBLK
  5
8BC
  8
ë±90-ÿg2
  6
CONTINUOUS
 62
     7
  0
BLOCK
  8
ë±90-ÿg2
  2
*X87
 70
     1
 10
0.0
 20
0.0
 30
0.0
  3
*X87
  1

  0
TEXT
  5
8EC
  8
ë±07-Éíû@
  6
CONTINUOUS
 62
     5
 10
-269.5637057927446
 20
553.4277595535358
 30
0.0
 40
5.0
  1
2.1
  0
TEXT
  5
8ED
  8
ë±07-Éíû@
  6
CONTINUOUS
 62
     5
 10
-262.0637057927445
 20
553.4277595535358
 30
0.0
 40
3.333499999999999
  1
ü}0.2
  0
ENDBLK
  5
8EF
  8
ë±90-ÿg2
  6
CONTINUOUS
 62
     7
  0
BLOCK
  8
ë±90-ÿg2
  2
*X88
 70
     1
 10
0.0
 20
0.0
 30
0.0
  3
*X88
  1

  0
TEXT
  5
8F2
  8
ë±08-ïLÄû
  6
CONTINUOUS
 62
     5
 10
-289.9685668445359
 20
138.4115021955681
 30
0.0
 40
5.0
  1
0.3
  0
TEXT
  5
8F3
  8
ë±08-ïLÄû
  6
CONTINUOUS
 62
     5
 10
-281.4685668445359
 20
138.4115021955681
 30
0.0
 40
3.333499999999999
  1
ü}0.05
  0
ENDBLK
  5
8F5
  8
ë±90-ÿg2
  6
CONTINUOUS
 62
     7
  0
BLOCK
  8
ë±90-ÿg2
  2
*X89
 70
     1
 10
0.0
 20
0.0
 30
0.0
  3
*X89
  1

  0
TEXT
  5
8F8
  8
ë±08-ïLÄû
  6
CONTINUOUS
 62
     5
 10
-255.4876206176913
 20
132.1243900228123
 30
0.0
 40
5.0
  1
0.3
  0
TEXT
  5
8F9
  8
ë±08-ïLÄû
  6
CONTINUOUS
 62
     5
 10
-246.9876206176913
 20
132.1243900228123
 30
0.0
 40
3.333499999999999
  1
ü}0.05
  0
ENDBLK
  5
8FB
  8
ë±90-ÿg2
  6
CONTINUOUS
 62
     7
  0
BLOCK
  8
ë±90-ÿg2
  2
*X90
 70
     1
 10
0.0
 20
0.0
 30
0.0
  3
*X90
  1

  0
TEXT
  5
8FE
  8
ë±07-Éíû@
  6
CONTINUOUS
 62
     5
 10
-576.3782446508484
 20
191.4439119046571
 30
0.0
 40
5.0
  1
100
 50
90.0
  0
TEXT
  5
8FF
  8
ë±07-Éíû@
  6
CONTINUOUS
 62
     5
 10
-576.3782446508484
 20
200.9439119046572
 30
0.0
 40
3.5
  1
ü}1
 50
90.0
  0
ENDBLK
  5
901
  8
ë±90-ÿg2
  6
CONTINUOUS
 62
     7
  0
BLOCK
  8
ë±90-ÿg2
  2
*X91
 70
     1
 10
0.0
 20
0.0
 30
0.0
  3
*X91
  1

  0
TEXT
  5
904
  8
ë±07-Éíû@
  6
CONTINUOUS
 62
     5
 10
-460.7162243239089
 20
190.4479602754675
 30
0.0
 40
5.0
  1
100
 50
90.0
  0
TEXT
  5
905
  8
ë±07-Éíû@
  6
CONTINUOUS
 62
     5
 10
-460.7162243239089
 20
199.9479602754675
 30
0.0
 40
3.5
  1
ü}1
 50
90.0
  0
ENDBLK
  5
907
  8
ë±90-ÿg2
  6
CONTINUOUS
 62
     7
  0
BLOCK
  8
ë±90-ÿg2
  2
*X92
 70
     1
 10
0.0
 20
0.0
 30
0.0
  3
*X92
  1

  0
TEXT
  5
90A
  8
ë±07-Éíû@
  6
CONTINUOUS
 62
     5
 10
-762.8654918282272
 20
383.5869101687455
 30
0.0
 40
5.0
  1
296.5
 50
90.0
  0
TEXT
  5
90B
  8
ë±07-Éíû@
  6
CONTINUOUS
 62
     5
 10
-762.8654918282272
 20
399.1049620113804
 30
0.0
 40
3.5
  1
ü}0.3
 50
90.0
  0
ENDBLK
  5
90D
  8
ë±90-ÿg2
  6
CONTINUOUS
 62
     7
  0
BLOCK
  8
ë±90-ÿg2
  2
*X93
 70
     1
 10
0.0
 20
0.0
 30
0.0
  3
*X93
  1

  0
TEXT
  5
910
  8
ë±07-Éíû@
  6
CONTINUOUS
 62
     5
 10
-523.7279918282275
 20
602.4284360900637
 30
0.0
 40
5.0
  1
358.5
  0
TEXT
  5
911
  8
ë±07-Éíû@
  6
CONTINUOUS
 62
     5
 10
-508.2279918282274
 20
602.4284360900637
 30
0.0
 40
3.5
  1
ü}0.3
  0
ENDBLK
  5
913
  8
ë±90-ÿg2
  6
CONTINUOUS
 62
     7
  0
BLOCK
  8
ë±90-ÿg2
  2
*X94
 70
     1
 10
0.0
 20
0.0
 30
0.0
  3
*X94
  1

  0
TEXT
  5
916
  8
ë±07-Éíû@
  6
CONTINUOUS
 62
     5
 10
-754.0326589542121
 20
197.3997897416376
 30
0.0
 40
5.0
  1
11.33
 50
90.0
  0
TEXT
  5
917
  8
ë±07-Éíû@
  6
CONTINUOUS
 62
     5
 10
-754.0326589542121
 20
210.8997897416376
 30
0.0
 40
3.333499999999999
  1
(Insulation area)
 50
90.0
  0
ENDBLK
  5
919
  8
ë±90-ÿg2
  6
CONTINUOUS
 62
     7
  0
BLOCK
  8
ë±90-ÿg2
  2
*X95
 70
     1
 10
0.0
 20
0.0
 30
0.0
  3
*X95
  1

  0
TEXT
  5
91C
  8
ë±07-Éíû@
  6
CONTINUOUS
 62
     5
 10
-754.1159839542131
 20
546.6564675861255
 30
0.0
 40
5.0
  1
(9.83)
 50
90.0
  0
TEXT
  5
91D
  8
ë±07-Éíû@
  6
CONTINUOUS
 62
     5
 10
-754.1159839542131
 20
562.6745194287605
 30
0.0
 40
3.333499999999999
  1
(Insulation area)
 50
90.0
  0
ENDBLK
  5
91F
  8
ë±90-ÿg2
  6
CONTINUOUS
 62
     7
  0
BLOCK
  8
ë±90-ÿg2
  2
*X96
 70
     1
 10
0.0
 20
0.0
 30
0.0
  3
*X96
  1

  0
TEXT
  5
922
  8
ë±07-Éíû@
  6
CONTINUOUS
 62
     5
 10
-331.1154918282275
 20
590.5951110900636
 30
0.0
 40
5.0
  1
8.14
  0
TEXT
  5
923
  8
ë±07-Éíû@
  6
CONTINUOUS
 62
     5
 10
-319.6154918282275
 20
590.5951110900636
 30
0.0
 40
3.333499999999999
  1
(Insulation area)
  0
ENDBLK
  5
925
  8
ë±90-ÿg2
  6
CONTINUOUS
 62
     7
  0
BLOCK
  8
ë±90-ÿg2
  2
*X97
 70
     1
 10
0.0
 20
0.0
 30
0.0
  3
*X97
  1

  0
TEXT
  5
928
  8
ë±07-Éíû@
  6
CONTINUOUS
 62
     5
 10
-745.3741381766527
 20
590.6784360900636
 30
0.0
 40
5.0
  1
(7.44)
  0
TEXT
  5
929
  8
ë±07-Éíû@
  6
CONTINUOUS
 62
     5
 10
-728.3741381766527
 20
590.6784360900636
 30
0.0
 40
3.333499999999999
  1
(Insulation area)
  0
ENDBLK
  5
92B
  8
ë±90-ÿg2
  6
CONTINUOUS
 62
     7
  0
BLOCK
  8
ë±90-ÿg2
  2
*X98
 70
     1
 10
0.0
 20
0.0
 30
0.0
  3
*X98
  1

  0
TEXT
  5
92E
  8
ë±07-Éíû@
  6
CONTINUOUS
 62
     5
 10
-489.6565097922188
 20
121.2459618232842
 30
0.0
 40
5.0
  1
13.5
  0
TEXT
  5
92F
  8
ë±07-Éíû@
  6
CONTINUOUS
 62
     5
 10
-478.6565097922188
 20
121.2459618232842
 30
0.0
 40
3.5
  1
ü}0.1
  0
ENDBLK
  5
931
  8
ë±90-ÿg2
  6
CONTINUOUS
 62
     7
  0
BLOCK
  8
ë±90-ÿg2
  2
*X99
 70
     1
 10
0.0
 20
0.0
 30
0.0
  3
*X99
  1

  0
TEXT
  5
934
  8
ë±07-Éíû@
  6
CONTINUOUS
 62
     5
 10
-490.1164924171429
 20
131.7696949403007
 30
0.0
 40
5.0
  1
17.5
  0
TEXT
  5
935
  8
ë±07-Éíû@
  6
CONTINUOUS
 62
     5
 10
-479.1164924171429
 20
131.7696949403007
 30
0.0
 40
3.5
  1
ü}0.1
  0
ENDBLK
  5
937
  8
ë±90-ÿg2
  6
CONTINUOUS
 62
     7
  0
BLOCK
  8
ë±90-ÿg2
  2
*X100
 70
     1
 10
0.0
 20
0.0
 30
0.0
  3
*X100
  1

  0
TEXT
  5
93A
  8
ë±07-Éíû@
  6
CONTINUOUS
 62
     5
 10
-499.8433533434041
 20
62.61838557140771
 30
0.0
 40
5.0
  1
17.5
  0
TEXT
  5
93B
  8
ë±07-Éíû@
  6
CONTINUOUS
 62
     5
 10
-488.8433533434041
 20
62.61838557140771
 30
0.0
 40
3.5
  1
ü}0.1
  0
ENDBLK
  5
93D
  8
ë±90-ÿg2
  6
CONTINUOUS
 62
     7
  0
BLOCK
  8
ë±90-ÿg2
  2
*X101
 70
     1
 10
0.0
 20
0.0
 30
0.0
  3
*X101
  1

  0
TEXT
  5
940
  8
ë±07-Éíû@
  6
CONTINUOUS
 62
     5
 10
-499.38337071848
 20
52.09465245439123
 30
0.0
 40
5.0
  1
13.5
  0
TEXT
  5
941
  8
ë±07-Éíû@
  6
CONTINUOUS
 62
     5
 10
-488.38337071848
 20
52.09465245439123
 30
0.0
 40
3.5
  1
ü}0.1
  0
ENDBLK
  5
943
  8
ë±90-ÿg2
  6
CONTINUOUS
 62
     7
  0
BLOCK
  8
ë±90-ÿg2
  2
*X102
 70
     1
 10
0.0
 20
0.0
 30
0.0
  3
*X102
  1

  0
TEXT
  5
946
  8
ë±07-Éíû@
  6
CONTINUOUS
 62
     5
 10
-755.100999102914
 20
521.5271267211705
 30
0.0
 40
5.0
  1
(7.44)
  0
TEXT
  5
947
  8
ë±07-Éíû@
  6
CONTINUOUS
 62
     5
 10
-738.100999102914
 20
521.5271267211705
 30
0.0
 40
3.333499999999999
  1
(Insulation area)
  0
ENDBLK
  5
949
  8
ë±90-ÿg2
  6
CONTINUOUS
 62
     7
  0
BLOCK
  8
ë±90-ÿg2
  2
*X103
 70
     1
 10
0.0
 20
0.0
 30
0.0
  3
*X103
  1

  0
TEXT
  5
94C
  8
ë±07-Éíû@
  6
CONTINUOUS
 62
     5
 10
-340.8423527544887
 20
521.4438017211705
 30
0.0
 40
5.0
  1
8.14
  0
TEXT
  5
94D
  8
ë±07-Éíû@
  6
CONTINUOUS
 62
     5
 10
-329.3423527544887
 20
521.4438017211705
 30
0.0
 40
3.333499999999999
  1
(Insulation area)
  0
ENDBLK
  5
94F
  8
ë±90-ÿg2
  6
CONTINUOUS
 62
     7
  0
BLOCK
  8
ë±90-ÿg2
  2
*X104
 70
     1
 10
0.0
 20
0.0
 30
0.0
  3
*X104
  1

  0
TEXT
  5
952
  8
ë±07-Éíû@
  6
CONTINUOUS
 62
     5
 10
-763.8428448804743
 20
477.5051582172326
 30
0.0
 40
5.0
  1
(9.83)
 50
90.0
  0
TEXT
  5
953
  8
ë±07-Éíû@
  6
CONTINUOUS
 62
     5
 10
-763.8428448804743
 20
493.5232100598675
 30
0.0
 40
3.333499999999999
  1
(Insulation area)
 50
90.0
  0
ENDBLK
  5
955
  8
ë±90-ÿg2
  6
CONTINUOUS
 62
     7
  0
BLOCK
  8
ë±90-ÿg2
  2
*X105
 70
     1
 10
0.0
 20
0.0
 30
0.0
  3
*X105
  1

  0
TEXT
  5
958
  8
ë±07-Éíû@
  6
CONTINUOUS
 62
     5
 10
-763.7595198804733
 20
128.2484803727446
 30
0.0
 40
5.0
  1
11.33
 50
90.0
  0
TEXT
  5
959
  8
ë±07-Éíû@
  6
CONTINUOUS
 62
     5
 10
-763.7595198804733
 20
141.7484803727447
 30
0.0
 40
3.333499999999999
  1
(Insulation area)
 50
90.0
  0
ENDBLK
  5
95B
  8
ë±90-ÿg2
  6
CONTINUOUS
 62
     7
  0
BLOCK
  8
ë±90-ÿg2
  2
*X106
 70
     1
 10
0.0
 20
0.0
 30
0.0
  3
*X106
  1

  0
TEXT
  5
95E
  8
ë±07-Éíû@
  6
CONTINUOUS
 62
     5
 10
-533.4548527544886
 20
533.2771267211706
 30
0.0
 40
5.0
  1
358.5
  0
TEXT
  5
95F
  8
ë±07-Éíû@
  6
CONTINUOUS
 62
     5
 10
-517.9548527544887
 20
533.2771267211706
 30
0.0
 40
3.5
  1
ü}0.3
  0
ENDBLK
  5
961
  8
ë±90-ÿg2
  6
CONTINUOUS
 62
     7
  0
BLOCK
  8
ë±90-ÿg2
  2
*X107
 70
     1
 10
0.0
 20
0.0
 30
0.0
  3
*X107
  1

  0
TEXT
  5
964
  8
ë±07-Éíû@
  6
CONTINUOUS
 62
     5
 10
-772.5923527544884
 20
314.4356007998523
 30
0.0
 40
5.0
  1
296.5
 50
90.0
  0
TEXT
  5
965
  8
ë±07-Éíû@
  6
CONTINUOUS
 62
     5
 10
-772.5923527544884
 20
329.9536526424872
 30
0.0
 40
3.5
  1
ü}0.3
 50
90.0
  0
ENDBLK
  5
967
  8
ë±90-ÿg2
  6
CONTINUOUS
 62
     7
  0
BLOCK
  8
ë±90-ÿg2
  2
*X108
 70
     1
 10
0.0
 20
0.0
 30
0.0
  3
*X108
  1

  0
TEXT
  5
96A
  8
ë±07-Éíû@
  6
CONTINUOUS
 62
     5
 10
-470.4430852501701
 20
121.2966509065745
 30
0.0
 40
5.0
  1
100
 50
90.0
  0
TEXT
  5
96B
  8
ë±07-Éíû@
  6
CONTINUOUS
 62
     5
 10
-470.4430852501701
 20
130.7966509065745
 30
0.0
 40
3.5
  1
ü}1
 50
90.0
  0
ENDBLK
  5
96D
  8
ë±90-ÿg2
  6
CONTINUOUS
 62
     7
  0
BLOCK
  8
ë±90-ÿg2
  2
*X109
 70
     1
 10
0.0
 20
0.0
 30
0.0
  3
*X109
  1

  0
TEXT
  5
970
  8
ë±07-Éíû@
  6
CONTINUOUS
 62
     5
 10
-586.1051055771095
 20
122.2926025357642
 30
0.0
 40
5.0
  1
100
 50
90.0
  0
TEXT
  5
971
  8
ë±07-Éíû@
  6
CONTINUOUS
 62
     5
 10
-586.1051055771095
 20
131.7926025357642
 30
0.0
 40
3.5
  1
ü}1
 50
90.0
  0
ENDBLK
  5
973
  8
ë±90-ÿg2
  6
CONTINUOUS
 62
     7
  0
BLOCK
  8
ë±90-ÿg2
  2
*X110
 70
     1
 10
0.0
 20
0.0
 30
0.0
  3
*X110
  1

  0
TEXT
  5
976
  8
ë±08-ïLÄû
  6
CONTINUOUS
 62
     5
 10
-265.2144815439526
 20
62.97308065391934
 30
0.0
 40
5.0
  1
0.3
  0
TEXT
  5
977
  8
ë±08-ïLÄû
  6
CONTINUOUS
 62
     5
 10
-256.7144815439526
 20
62.97308065391934
 30
0.0
 40
3.333499999999999
  1
ü}0.05
  0
ENDBLK
  5
979
  8
ë±90-ÿg2
  6
CONTINUOUS
 62
     7
  0
BLOCK
  8
ë±90-ÿg2
  2
*X111
 70
     1
 10
0.0
 20
0.0
 30
0.0
  3
*X111
  1

  0
TEXT
  5
97C
  8
ë±08-ïLÄû
  6
CONTINUOUS
 62
     5
 10
-299.6954277707971
 20
69.2601928266751
 30
0.0
 40
5.0
  1
0.3
  0
TEXT
  5
97D
  8
ë±08-ïLÄû
  6
CONTINUOUS
 62
     5
 10
-291.1954277707971
 20
69.2601928266751
 30
0.0
 40
3.333499999999999
  1
ü}0.05
  0
ENDBLK
  5
97F
  8
ë±90-ÿg2
  6
CONTINUOUS
 62
     7
  0
BLOCK
  8
ë±90-ÿg2
  2
*X112
 70
     1
 10
0.0
 20
0.0
 30
0.0
  3
*X112
  1

  0
TEXT
  5
982
  8
ë±07-Éíû@
  6
CONTINUOUS
 62
     5
 10
-279.2905667190058
 20
484.2764501846428
 30
0.0
 40
5.0
  1
2.1
  0
TEXT
  5
983
  8
ë±07-Éíû@
  6
CONTINUOUS
 62
     5
 10
-271.7905667190058
 20
484.2764501846428
 30
0.0
 40
3.333499999999999
  1
ü}0.2
  0
ENDBLK
  5
985
  8
ë±90-ÿg2
  6
CONTINUOUS
 62
     7
  0
ENDSEC
  0
SECTION
  2
ENTITIES
  0
TEXT
  5
6E
  8
ë±03-ïLÄû
  6
CONTINUOUS
 62
     5
 10
-452.0623078820947
 20
29.52095153415778
 30
0.0
 40
5.760000000000001
  1
without affecting product specification.
  0
TEXT
  5
70
  8
ë±03-ïLÄû
  6
CONTINUOUS
 62
     5
 10
-452.0623078820947
 20
39.62459839119777
 30
0.0
 40
5.760000000000001
  1
Edges and corners of ITO glass may be chamfered 
  0
TEXT
  5
71
  8
ë±03-ïLÄû
  6
CONTINUOUS
 62
     5
 10
-452.0623078820947
 20
49.72824524823749
 30
0.0
 40
5.760000000000001
  1
Unit: mm
  0
TEXT
  5
72
  8
ë±03-ïLÄû
  6
CONTINUOUS
 62
     5
 10
-452.0623078820947
 20
59.83189210527723
 30
0.0
 40
5.760000000000001
  1
EXCEPT WHERE INDICATED
  0
TEXT
  5
73
  8
ë±03-ïLÄû
  6
CONTINUOUS
 62
     5
 10
-452.0623078820947
 20
69.9355389623168
 30
0.0
 40
5.760000000000001
  1
TOLERANCE=ü}0.5mm
  0
TEXT
  5
74
  8
ë±08-ïLÄû
  6
CONTINUOUS
 62
     7
 10
-165.9897229878936
 20
482.0758760093378
 30
0.0
 40
3.5
  1
PIN ASSIGNMENT
  0
DIMENSION
  5
78
  8
ë±07-Éíû@
  6
CONTINUOUS
 62
     1
  2
*D39
 10
-495.8373487494884
 20
141.9364428849593
 30
0.0
 11
-486.52386449752
 21
141.9364428849593
 31
0.0
 70
   160
  3
DMC
 13
-522.8373487494884
 23
175.1116569941203
 33
0.0
 14
-495.8373487494884
 24
175.1157053649311
 34
0.0
1001
ACAD
1000
DSTYLE
1002
{
1070
    41
1040
3.0
1070
    47
1040
0.2
1070
    48
1040
0.2
1070
   141
1040
1.5
1070
   371
1070
    13
1070
   372
1070
    13
1002
}
  0
DIMENSION
  5
8D
  8
ë±07-Éíû@
  6
CONTINUOUS
 62
     1
  2
*D40
 10
-558.8373487494884
 20
138.1545243520803
 30
0.0
 11
-568.1909021400818
 21
138.1545243520803
 31
0.0
 70
   160
  3
DMC
 13
-523.8373487494884
 23
175.0396509495756
 33
0.0
 14
-558.8373487494884
 24
175.0436993203864
 34
0.0
1001
ACAD
1000
DSTYLE
1002
{
1070
    41
1040
3.0
1070
    47
1040
0.2
1070
    48
1040
0.2
1070
   141
1040
1.5
1070
   371
1070
    13
1070
   372
1070
    13
1002
}
  0
TEXT
  5
9E
  8
ë±08-ïLÄû
  6
CONTINUOUS
 62
     7
 10
-501.5622355265564
 20
71.16885847357986
 30
0.0
 40
2.5
  1
(Conductor side near side)
  0
TEXT
  5
9F
  8
ë±08-ïLÄû
  6
CONTINUOUS
 62
     7
 10
-580.1279064351253
 20
71.0522312578633
 30
0.0
 40
2.5
  1
(Conductor side far side)
 41
0.9
  0
TEXT
  5
A0
  8
ë±08-ïLÄû
  6
CONTINUOUS
 62
     7
 10
-500.7456759877682
 20
74.3686007562074
 30
0.0
 40
2.4
  1
Tail-1
  0
TEXT
  5
A1
  8
ë±08-ïLÄû
  6
CONTINUOUS
 62
     7
 10
-556.5579600367542
 20
74.36001129783386
 30
0.0
 40
2.4
  1
Tail-2
  0
INSERT
  5
A2
  8
ë±08-ïLÄû
  6
CONTINUOUS
 62
     5
 66
     1
  2
*X77
 10
0.0
 20
0.0
 30
0.0
  0
SEQEND
  5
71B
  8
ë±90-ÿg2
  6
CONTINUOUS
 62
     7
  0
INSERT
  5
A3
  8
ë±08-ïLÄû
  6
CONTINUOUS
 62
     7
 66
     1
  2
*X78
 10
0.0
 20
0.0
 30
0.0
  0
SEQEND
  5
722
  8
ë±90-ÿg2
  6
CONTINUOUS
 62
     7
  0
TEXT
  5
A4
  8
ë±08-ïLÄû
  6
CONTINUOUS
 62
     7
 10
-156.8790875282518
 20
61.56747612482178
 30
0.0
 40
4.5
  1
PROTECTION TAPE
  0
TEXT
  5
A5
  8
ë±08-ïLÄû
  6
CONTINUOUS
 62
     7
 10
-165.1366339565154
 20
61.64440486649795
 30
0.0
 40
4.68
  1
6
  0
LINE
  5
A6
  8
ë±08-ïLÄû
  6
CONTINUOUS
 62
     7
 10
-167.5276713240207
 20
60.300643304961
 30
0.0
 11
-73.43385846885962
 21
60.300643304961
 31
0.0
  0
TEXT
  5
A7
  8
ë±08-ïLÄû
  6
CONTINUOUS
 62
     7
 10
-157.1815973545615
 20
68.99648505461107
 30
0.0
 40
4.68
  1
STIFFENER
  0
TEXT
  5
A8
  8
ë±08-ïLÄû
  6
CONTINUOUS
 62
     7
 10
-157.1815973545615
 20
76.79648505461114
 30
0.0
 40
4.68
  1
REINFORCEMENT FILM
  0
LINE
  5
A9
  8
ë±08-ïLÄû
  6
CONTINUOUS
 62
     7
 10
-73.43385846885962
 20
60.30064330496106
 30
0.0
 11
-73.43385846885962
 21
107.1006433049611
 31
0.0
  0
TEXT
  5
AA
  8
ë±08-ïLÄû
  6
CONTINUOUS
 62
     7
 10
-165.1366339565154
 20
85.04440486649798
 30
0.0
 40
4.68
  1
3
  0
TEXT
  5
AB
  8
ë±08-ïLÄû
  6
CONTINUOUS
 62
     7
 10
-165.1366339565154
 20
77.24440486649808
 30
0.0
 40
4.68
  1
4
  0
TEXT
  5
AC
  8
ë±08-ïLÄû
  6
CONTINUOUS
 62
     7
 10
-165.1366339565154
 20
92.84440486649804
 30
0.0
 40
4.68
  1
2
  0
TEXT
  5
AD
  8
ë±08-ïLÄû
  6
CONTINUOUS
 62
     7
 10
-165.1366339565154
 20
69.44440486649802
 30
0.0
 40
4.68
  1
5
  0
LINE
  5
AE
  8
ë±08-ïLÄû
  6
CONTINUOUS
 62
     7
 10
-159.4120767551546
 20
107.1006433049611
 30
0.0
 11
-159.4120767551546
 21
60.30064330496106
 31
0.0
  0
LINE
  5
AF
  8
ë±08-ïLÄû
  6
CONTINUOUS
 62
     7
 10
-167.5276713240207
 20
107.1006433049611
 30
0.0
 11
-167.5276713240207
 21
60.30064330496106
 31
0.0
  0
TEXT
  5
B0
  8
ë±08-ïLÄû
  6
CONTINUOUS
 62
     7
 10
-165.1366339565154
 20
100.6444048664979
 30
0.0
 40
4.68
  1
1
  0
LINE
  5
B1
  8
ë±08-ïLÄû
  6
CONTINUOUS
 62
     7
 10
-167.5276713240207
 20
68.10064330496089
 30
0.0
 11
-73.43385846885962
 21
68.10064330496089
 31
0.0
  0
LINE
  5
B2
  8
ë±08-ïLÄû
  6
CONTINUOUS
 62
     7
 10
-167.5276713240207
 20
99.30064330496106
 30
0.0
 11
-73.43385846885962
 21
99.30064330496106
 31
0.0
  0
LINE
  5
B3
  8
ë±08-ïLÄû
  6
CONTINUOUS
 62
     7
 10
-167.5276713240207
 20
107.1006433049612
 30
0.0
 11
-73.43385846885962
 21
107.1006433049612
 31
0.0
  0
LINE
  5
B4
  8
ë±08-ïLÄû
  6
CONTINUOUS
 62
     7
 10
-167.5276713240207
 20
75.90064330496102
 30
0.0
 11
-73.43385846885962
 21
75.90064330496102
 31
0.0
  0
LINE
  5
B5
  8
ë±08-ïLÄû
  6
CONTINUOUS
 62
     7
 10
-167.5276713240207
 20
83.70064330496091
 30
0.0
 11
-73.43385846885962
 21
83.70064330496091
 31
0.0
  0
LINE
  5
B6
  8
ë±08-ïLÄû
  6
CONTINUOUS
 62
     7
 10
-167.5276713240207
 20
91.50064330496098
 30
0.0
 11
-73.43385846885962
 21
91.50064330496098
 31
0.0
  0
TEXT
  5
B7
  8
ë±08-ïLÄû
  6
CONTINUOUS
 62
     7
 10
-157.1815973545615
 20
100.1964850546112
 30
0.0
 40
4.68
  1
ITO FILM (ANTI-GLARE)
  0
TEXT
  5
B8
  8
ë±08-ïLÄû
  6
CONTINUOUS
 62
     7
 10
-157.1815973545615
 20
92.3964850546111
 30
0.0
 40
4.68
  1
ITO GLASS
  0
TEXT
  5
B9
  8
ë±08-ïLÄû
  6
CONTINUOUS
 62
     7
 10
-157.1815973545615
 20
84.59648505461103
 30
0.0
 40
4.68
  1
FPC
  0
TEXT
  5
BA
  8
ë±90-ÿg2
 10
-135.1828516947114
 20
40.33488688286723
 30
0.0
 40
5.877614223360004
  1
Oct/12/2023
  0
TEXT
  5
BB
  8
ë±90-ÿg2
 10
-228.6078013862018
 20
40.33488688286723
 30
0.0
 40
5.877614223360004
  1
MTR-G170B100B/SX
  0
LINE
  5
BC
  8
ë±90-ÿg2
  6
CONTINUOUS
 62
     7
 10
-232.8909519322917
 20
54.65338400880949
 30
0.0
 11
-68.3177536782116
 21
54.65338400880949
 31
0.0
  0
TEXT
  5
BD
  8
ë±90-ÿg2
 10
-121.1273829518993
 20
49.96989862893309
 30
0.0
 40
4.114329956352002
  1
DATE
  0
LINE
  5
BE
  8
ë±90-ÿg2
  6
CONTINUOUS
 62
     7
 10
-232.8909519322917
 20
54.65338400880949
 30
0.0
 11
-68.3177536782116
 21
54.65338400880949
 31
0.0
  0
TEXT
  5
BF
  8
ë±90-ÿg2
 10
-136.462319401717
 20
25.10902553654222
 30
0.0
 40
5.877614223360004
  1
DMC Co., Ltd.
  0
LINE
  5
C0
  8
ë±90-ÿg2
 10
-156.4819670286112
 20
54.65338400880949
 30
0.0
 11
-156.4819670286112
 21
19.38769866864976
 31
0.0
  0
TEXT
  5
C1
  8
ë±90-ÿg2
 10
-214.8150613936207
 20
26.50258954248164
 30
0.0
 40
3.526568534016003
  1
Multi Touch Resistive
  0
LINE
  5
C2
  8
ë±90-ÿg2
 10
-232.8909519322917
 20
54.65338400880949
 30
0.0
 11
-232.8909519322917
 21
19.38769866864976
 31
0.0
  0
TEXT
  5
C3
  8
ë±90-ÿg2
 10
-199.9435205177435
 20
32.19718997061927
 30
0.0
 40
3.526568534016003
  1
TYPE
  0
LINE
  5
C4
  8
ë±90-ÿg2
 10
-229.3643833982762
 20
25.2653128920096
 30
0.0
 11
-160.0085355626281
 21
25.2653128920096
 31
0.0
  0
TEXT
  5
C5
  8
ë±90-ÿg2
 10
-217.5248769162215
 20
20.2240008604337
 30
0.0
 40
3.526568534016003
  1
DIMENSIONAL DRAWING
  0
TEXT
  5
C6
  8
ë±90-ÿg2
 10
-204.9166980710586
 20
49.78977770652608
 30
0.0
 40
4.114329956352002
  1
PART No.
  0
LINE
  5
C7
  8
ë±90-ÿg2
 10
-232.8909519322917
 20
37.02054133872974
 30
0.0
 11
-68.3177536782116
 21
37.02054133872974
 31
0.0
  0
LINE
  5
C8
  8
ë±90-ÿg2
 10
-232.8909519322917
 20
31.14292711536967
 30
0.0
 11
-156.4819670286112
 21
31.14292711536967
 31
0.0
  0
LINE
  5
C9
  8
ë±90-ÿg2
 10
-232.8909519322917
 20
48.77576978544965
 30
0.0
 11
-68.3177536782116
 21
48.77576978544965
 31
0.0
  0
TEXT
  5
CA
  8
ë±90-ÿg1
 10
-109.5883683725592
 20
559.760121794701
 30
0.0
 40
4.0
  1
J
  0
LINE
  5
CE
  8
ë±90-ÿg1
 10
-148.3177536782116
 20
564.3876986686498
 30
0.0
 11
-148.3177536782116
 21
559.3876986686498
 31
0.0
  0
TEXT
  5
CF
  8
ë±90-ÿg1
 10
-189.5883683725592
 20
559.760121794701
 30
0.0
 40
4.0
  1
I
  0
LINE
  5
D0
  8
ë±90-ÿg1
 10
-228.3177536782116
 20
564.3876986686498
 30
0.0
 11
-228.3177536782116
 21
559.3876986686498
 31
0.0
  0
TEXT
  5
D1
  8
ë±90-ÿg1
 10
-66.91333267455229
 20
512.1763859645091
 30
0.0
 40
4.0
  1
1
  0
LINE
  5
D2
  8
ë±90-ÿg1
 10
-63.3177536782116
 20
469.3876986686497
 30
0.0
 11
-68.3177536782116
 21
469.3876986686497
 31
0.0
  0
TEXT
  5
D3
  8
ë±90-ÿg1
 10
-67.21483137785412
 20
422.176385964509
 30
0.0
 40
4.0
  1
2
  0
LINE
  5
D4
  8
ë±90-ÿg1
 10
-63.3177536782116
 20
379.3876986686498
 30
0.0
 11
-68.3177536782116
 21
379.3876986686498
 31
0.0
  0
TEXT
  5
D5
  8
ë±90-ÿg1
 10
-67.22031222205487
 20
332.176385964509
 30
0.0
 40
4.0
  1
3
  0
LINE
  5
D6
  8
ë±90-ÿg1
 10
-63.3177536782116
 20
289.3876986686498
 30
0.0
 11
-68.3177536782116
 21
289.3876986686498
 31
0.0
  0
TEXT
  5
D7
  8
ë±90-ÿg1
 10
-67.293404342136
 20
242.176385964509
 30
0.0
 40
4.0
  1
4
  0
LINE
  5
D8
  8
ë±90-ÿg1
 10
-63.3177536782116
 20
199.3876986686497
 30
0.0
 11
-68.3177536782116
 21
199.3876986686497
 31
0.0
  0
TEXT
  5
D9
  8
ë±90-ÿg1
 10
-67.293404342136
 20
152.176385964509
 30
0.0
 40
4.0
  1
5
  0
LINE
  5
DA
  8
ë±90-ÿg1
 10
-63.3177536782116
 20
109.3876986686497
 30
0.0
 11
-68.3177536782116
 21
109.3876986686497
 31
0.0
  0
TEXT
  5
DB
  8
ë±90-ÿg1
 10
-67.293404342136
 20
62.17638596450905
 30
0.0
 40
4.0
  1
6
  0
TEXT
  5
DC
  8
ë±90-ÿg1
 10
-109.5883683725592
 20
14.76012179470098
 30
0.0
 40
4.0
  1
J
  0
LINE
  5
DD
  8
ë±90-ÿg1
 10
-148.3177536782116
 20
19.38769866864976
 30
0.0
 11
-148.3177536782116
 21
14.38769866864976
 31
0.0
  0
TEXT
  5
DE
  8
ë±90-ÿg1
 10
-189.5883683725592
 20
14.76012179470098
 30
0.0
 40
4.0
  1
I
  0
LINE
  5
DF
  8
ë±90-ÿg1
 10
-228.3177536782116
 20
19.38769866864976
 30
0.0
 11
-228.3177536782116
 21
14.38769866864976
 31
0.0
  0
LINE
  5
E0
  8
ë±90-ÿg1
 10
-68.3177536782116
 20
559.3876986686498
 30
0.0
 11
-68.3177536782116
 21
19.38769866864976
 31
0.0
  0
LINE
  5
E1
  8
ë±90-ÿg1
 10
-63.3177536782116
 20
14.38769866864976
 30
0.0
 11
-63.3177536782116
 21
564.3876986686498
 31
0.0
  0
TEXT
  5
E2
  8
ë±90-ÿg1
 10
-269.5883683725592
 20
559.760121794701
 30
0.0
 40
4.0
  1
H
  0
LINE
  5
E3
  8
ë±90-ÿg1
 10
-308.3177536782116
 20
564.3876986686498
 30
0.0
 11
-308.3177536782116
 21
559.3876986686498
 31
0.0
  0
TEXT
  5
E4
  8
ë±90-ÿg1
 10
-349.5883683725592
 20
559.760121794701
 30
0.0
 40
4.0
  1
G
  0
LINE
  5
E5
  8
ë±90-ÿg1
 10
-388.3177536782116
 20
564.3876986686498
 30
0.0
 11
-388.3177536782116
 21
559.3876986686498
 31
0.0
  0
TEXT
  5
E6
  8
ë±90-ÿg1
 10
-429.5883683725592
 20
559.760121794701
 30
0.0
 40
4.0
  1
F
  0
LINE
  5
E7
  8
ë±90-ÿg1
 10
-468.3177536782116
 20
564.3876986686498
 30
0.0
 11
-468.3177536782116
 21
559.3876986686498
 31
0.0
  0
TEXT
  5
E8
  8
ë±90-ÿg1
 10
-509.5883683725592
 20
559.760121794701
 30
0.0
 40
4.0
  1
E
  0
LINE
  5
E9
  8
ë±90-ÿg1
 10
-548.3177536782116
 20
564.3876986686498
 30
0.0
 11
-548.3177536782116
 21
559.3876986686498
 31
0.0
  0
TEXT
  5
EA
  8
ë±90-ÿg1
 10
-589.5883683725592
 20
559.760121794701
 30
0.0
 40
4.0
  1
D
  0
LINE
  5
EB
  8
ë±90-ÿg1
 10
-628.3177536782115
 20
564.3876986686498
 30
0.0
 11
-628.3177536782115
 21
559.3876986686498
 31
0.0
  0
TEXT
  5
EC
  8
ë±90-ÿg1
 10
-669.5883683725591
 20
559.760121794701
 30
0.0
 40
4.0
  1
C
  0
LINE
  5
ED
  8
ë±90-ÿg1
 10
-708.3177536782116
 20
564.3876986686498
 30
0.0
 11
-708.3177536782116
 21
559.3876986686498
 31
0.0
  0
TEXT
  5
EE
  8
ë±90-ÿg1
 10
-749.5883683725592
 20
559.760121794701
 30
0.0
 40
4.0
  1
B
  0
LINE
  5
EF
  8
ë±90-ÿg1
 10
-788.3177536782116
 20
564.3876986686498
 30
0.0
 11
-788.3177536782116
 21
559.3876986686498
 31
0.0
  0
TEXT
  5
F0
  8
ë±90-ÿg1
 10
-829.5883683725591
 20
559.760121794701
 30
0.0
 40
4.0
  1
A
  0
TEXT
  5
F1
  8
ë±90-ÿg1
 10
-871.9133326745522
 20
512.1763859645091
 30
0.0
 40
4.0
  1
1
  0
LINE
  5
F2
  8
ë±90-ÿg1
 10
-868.3177536782116
 20
469.3876986686497
 30
0.0
 11
-873.3177536782116
 21
469.3876986686497
 31
0.0
  0
TEXT
  5
F3
  8
ë±90-ÿg1
 10
-872.2148313778541
 20
422.176385964509
 30
0.0
 40
4.0
  1
2
  0
LINE
  5
F4
  8
ë±90-ÿg1
 10
-868.3177536782116
 20
379.3876986686498
 30
0.0
 11
-873.3177536782116
 21
379.3876986686498
 31
0.0
  0
TEXT
  5
F5
  8
ë±90-ÿg1
 10
-872.2203122220548
 20
332.176385964509
 30
0.0
 40
4.0
  1
3
  0
LINE
  5
F6
  8
ë±90-ÿg1
 10
-868.3177536782116
 20
289.3876986686498
 30
0.0
 11
-873.3177536782116
 21
289.3876986686498
 31
0.0
  0
TEXT
  5
F7
  8
ë±90-ÿg1
 10
-872.2934043421359
 20
242.176385964509
 30
0.0
 40
4.0
  1
4
  0
LINE
  5
F8
  8
ë±90-ÿg1
 10
-868.3177536782116
 20
199.3876986686497
 30
0.0
 11
-873.3177536782116
 21
199.3876986686497
 31
0.0
  0
TEXT
  5
F9
  8
ë±90-ÿg1
 10
-872.2934043421359
 20
152.176385964509
 30
0.0
 40
4.0
  1
5
  0
TEXT
  5
FA
  8
ë±90-ÿg1
 10
-269.5883683725592
 20
14.76012179470098
 30
0.0
 40
4.0
  1
H
  0
LINE
  5
FB
  8
ë±90-ÿg1
 10
-308.3177536782116
 20
19.38769866864976
 30
0.0
 11
-308.3177536782116
 21
14.38769866864976
 31
0.0
  0
TEXT
  5
FC
  8
ë±90-ÿg1
 10
-349.5883683725592
 20
14.76012179470098
 30
0.0
 40
4.0
  1
G
  0
LINE
  5
FD
  8
ë±90-ÿg1
 10
-388.3177536782116
 20
19.38769866864976
 30
0.0
 11
-388.3177536782116
 21
14.38769866864976
 31
0.0
  0
TEXT
  5
FE
  8
ë±90-ÿg1
 10
-429.5883683725592
 20
14.76012179470098
 30
0.0
 40
4.0
  1
F
  0
LINE
  5
FF
  8
ë±90-ÿg1
 10
-468.3177536782116
 20
19.38769866864976
 30
0.0
 11
-468.3177536782116
 21
14.38769866864976
 31
0.0
  0
TEXT
  5
100
  8
ë±90-ÿg1
 10
-509.5883683725592
 20
14.76012179470098
 30
0.0
 40
4.0
  1
E
  0
LINE
  5
101
  8
ë±90-ÿg1
 10
-548.3177536782116
 20
19.38769866864976
 30
0.0
 11
-548.3177536782116
 21
14.38769866864976
 31
0.0
  0
TEXT
  5
102
  8
ë±90-ÿg1
 10
-589.5883683725592
 20
14.76012179470098
 30
0.0
 40
4.0
  1
D
  0
LINE
  5
103
  8
ë±90-ÿg1
 10
-628.3177536782115
 20
19.38769866864976
 30
0.0
 11
-628.3177536782115
 21
14.38769866864976
 31
0.0
  0
TEXT
  5
104
  8
ë±90-ÿg1
 10
-669.5883683725591
 20
14.76012179470098
 30
0.0
 40
4.0
  1
C
  0
LINE
  5
105
  8
ë±90-ÿg1
 10
-708.3177536782116
 20
19.38769866864976
 30
0.0
 11
-708.3177536782116
 21
14.38769866864976
 31
0.0
  0
LINE
  5
106
  8
ë±90-ÿg1
 10
-868.3177536782116
 20
109.3876986686497
 30
0.0
 11
-873.3177536782116
 21
109.3876986686497
 31
0.0
  0
TEXT
  5
107
  8
ë±90-ÿg1
 10
-872.2934043421359
 20
62.17638596450905
 30
0.0
 40
4.0
  1
6
  0
TEXT
  5
108
  8
ë±90-ÿg1
 10
-749.5883683725592
 20
14.76012179470098
 30
0.0
 40
4.0
  1
B
  0
LINE
  5
109
  8
ë±90-ÿg1
 10
-788.3177536782116
 20
19.38769866864976
 30
0.0
 11
-788.3177536782116
 21
14.38769866864976
 31
0.0
  0
TEXT
  5
10A
  8
ë±90-ÿg1
 10
-829.5883683725591
 20
14.76012179470098
 30
0.0
 40
4.0
  1
A
  0
LINE
  5
10B
  8
ë±90-ÿg1
 10
-868.3177536782116
 20
559.3876986686498
 30
0.0
 11
-868.3177536782116
 21
19.38769866864976
 31
0.0
  0
LINE
  5
10C
  8
ë±90-ÿg1
 10
-873.3177536782116
 20
14.38769866864976
 30
0.0
 11
-873.3177536782116
 21
564.3876986686498
 31
0.0
  0
LINE
  5
10D
  8
ë±90-ÿg1
 10
-868.3177536782116
 20
19.38769866864976
 30
0.0
 11
-68.3177536782116
 21
19.38769866864976
 31
0.0
  0
LINE
  5
10E
  8
ë±90-ÿg1
 10
-63.3177536782116
 20
14.38769866864976
 30
0.0
 11
-873.3177536782116
 21
14.38769866864976
 31
0.0
  0
LINE
  5
10F
  8
ë±90-ÿg1
 10
-868.3177536782116
 20
559.3876986686498
 30
0.0
 11
-68.3177536782116
 21
559.3876986686498
 31
0.0
  0
LINE
  5
110
  8
ë±90-ÿg1
 10
-63.3177536782116
 20
564.3876986686498
 30
0.0
 11
-873.3177536782116
 21
564.3876986686498
 31
0.0
  0
TEXT
  5
111
  8
ë±08-ïLÄû
  6
CONTINUOUS
 62
     7
 10
-123.1692913898405
 20
278.2517493369792
 30
0.0
 40
3.42144
  1
NC
  0
TEXT
  5
112
  8
ë±08-ïLÄû
  6
CONTINUOUS
 62
     7
 10
-123.1692913898405
 20
375.1925493369793
 30
0.0
 40
3.42144
  1
NC
  0
TEXT
  5
113
  8
ë±08-ïLÄû
  6
CONTINUOUS
 62
     7
 10
-123.1692913898405
 20
466.4309493369794
 30
0.0
 40
3.42144
  1
U9
  0
TEXT
  5
114
  8
ë±08-ïLÄû
  6
CONTINUOUS
 62
     7
 10
-122.8333357890383
 20
283.9541493369793
 30
0.0
 40
3.42144
  1
U8
  0
LINE
  5
115
  8
ë±08-ïLÄû
  6
CONTINUOUS
 62
     7
 10
-136.8109633022996
 20
279.7908278464045
 30
0.0
 11
-124.4268595056305
 21
279.7908278464045
 31
0.0
  0
LINE
  5
116
  8
ë±08-ïLÄû
  6
CONTINUOUS
 62
     7
 10
-136.8109633022996
 20
285.4932278464045
 30
0.0
 11
-124.4268595056305
 21
285.4932278464045
 31
0.0
  0
TEXT
  5
117
  8
ë±08-ïLÄû
  6
CONTINUOUS
 62
     7
 10
-141.8534158296777
 20
278.2517493369795
 30
0.0
 40
3.42144
  1
60
  0
TEXT
  5
118
  8
ë±08-ïLÄû
  6
CONTINUOUS
 62
     7
 10
-141.8534158296777
 20
283.9541493369793
 30
0.0
 40
3.42144
  1
59
  0
TEXT
  5
119
  8
ë±08-ïLÄû
  6
CONTINUOUS
 62
     7
 10
-123.1692913898405
 20
312.4661493369794
 30
0.0
 40
3.42144
  1
U3
  0
TEXT
  5
11A
  8
ë±08-ïLÄû
  6
CONTINUOUS
 62
     7
 10
-122.8333357890383
 20
289.6565493369792
 30
0.0
 40
3.42144
  1
U7
  0
TEXT
  5
11B
  8
ë±08-ïLÄû
  6
CONTINUOUS
 62
     7
 10
-122.8333357890383
 20
295.3589493369794
 30
0.0
 40
3.42144
  1
U6
  0
TEXT
  5
11C
  8
ë±08-ïLÄû
  6
CONTINUOUS
 62
     7
 10
-122.8333357890383
 20
301.0613493369793
 30
0.0
 40
3.42144
  1
U5
  0
TEXT
  5
11D
  8
ë±08-ïLÄû
  6
CONTINUOUS
 62
     7
 10
-122.8333357890383
 20
306.7637493369793
 30
0.0
 40
3.42144
  1
U4
  0
LINE
  5
11E
  8
ë±08-ïLÄû
  6
CONTINUOUS
 62
     7
 10
-136.8109633022996
 20
291.1956278464046
 30
0.0
 11
-124.4268595056305
 21
291.1956278464046
 31
0.0
  0
LINE
  5
11F
  8
ë±08-ïLÄû
  6
CONTINUOUS
 62
     7
 10
-136.8109633022996
 20
296.8980278464045
 30
0.0
 11
-124.4268595056305
 21
296.8980278464045
 31
0.0
  0
LINE
  5
120
  8
ë±08-ïLÄû
  6
CONTINUOUS
 62
     7
 10
-136.8109633022996
 20
302.6004278464045
 30
0.0
 11
-124.4268595056305
 21
302.6004278464045
 31
0.0
  0
LINE
  5
121
  8
ë±08-ïLÄû
  6
CONTINUOUS
 62
     7
 10
-136.8109633022996
 20
308.3028278464045
 30
0.0
 11
-124.4268595056305
 21
308.3028278464045
 31
0.0
  0
LINE
  5
122
  8
ë±08-ïLÄû
  6
CONTINUOUS
 62
     7
 10
-136.8109633022996
 20
314.0052278464044
 30
0.0
 11
-124.4268595056305
 21
314.0052278464044
 31
0.0
  0
LINE
  5
123
  8
ë±08-ïLÄû
  6
CONTINUOUS
 62
     7
 10
-136.8109633022996
 20
319.7076278464045
 30
0.0
 11
-124.4268595056305
 21
319.7076278464045
 31
0.0
  0
TEXT
  5
124
  8
ë±08-ïLÄû
  6
CONTINUOUS
 62
     7
 10
-141.8534158296777
 20
289.6565493369794
 30
0.0
 40
3.42144
  1
58
  0
TEXT
  5
125
  8
ë±08-ïLÄû
  6
CONTINUOUS
 62
     7
 10
-141.8534158296777
 20
295.3589493369794
 30
0.0
 40
3.42144
  1
57
  0
TEXT
  5
126
  8
ë±08-ïLÄû
  6
CONTINUOUS
 62
     7
 10
-141.8534158296777
 20
301.0613493369793
 30
0.0
 40
3.42144
  1
56
  0
TEXT
  5
127
  8
ë±08-ïLÄû
  6
CONTINUOUS
 62
     7
 10
-141.8534158296777
 20
306.7637493369793
 30
0.0
 40
3.42144
  1
55
  0
TEXT
  5
128
  8
ë±08-ïLÄû
  6
CONTINUOUS
 62
     7
 10
-141.8534158296777
 20
312.4661493369794
 30
0.0
 40
3.42144
  1
54
  0
TEXT
  5
129
  8
ë±08-ïLÄû
  6
CONTINUOUS
 62
     7
 10
-141.8534158296777
 20
318.1685493369793
 30
0.0
 40
3.42144
  1
53
  0
TEXT
  5
12A
  8
ë±08-ïLÄû
  6
CONTINUOUS
 62
     7
 10
-122.8333357890383
 20
318.1685493369793
 30
0.0
 40
3.42144
  1
U2
  0
TEXT
  5
12B
  8
ë±08-ïLÄû
  6
CONTINUOUS
 62
     7
 10
-122.8333357890383
 20
329.5733493369793
 30
0.0
 40
3.42144
  1
SDL
  0
TEXT
  5
12C
  8
ë±08-ïLÄû
  6
CONTINUOUS
 62
     7
 10
-123.1692913898405
 20
455.0261493369793
 30
0.0
 40
3.42144
  1
U11
  0
TEXT
  5
12D
  8
ë±08-ïLÄû
  6
CONTINUOUS
 62
     7
 10
-122.8333357890383
 20
323.8709493369793
 30
0.0
 40
3.42144
  1
U1
  0
LINE
  5
12E
  8
ë±08-ïLÄû
  6
CONTINUOUS
 62
     7
 10
-136.8109633022996
 20
325.4100278464045
 30
0.0
 11
-124.4268595056305
 21
325.4100278464045
 31
0.0
  0
LINE
  5
12F
  8
ë±08-ïLÄû
  6
CONTINUOUS
 62
     7
 10
-136.8109633022996
 20
331.1124278464045
 30
0.0
 11
-124.4268595056305
 21
331.1124278464045
 31
0.0
  0
TEXT
  5
130
  8
ë±08-ïLÄû
  6
CONTINUOUS
 62
     7
 10
-141.8534158296777
 20
323.8709493369793
 30
0.0
 40
3.42144
  1
52
  0
TEXT
  5
131
  8
ë±08-ïLÄû
  6
CONTINUOUS
 62
     7
 10
-141.8534158296777
 20
329.5733493369793
 30
0.0
 40
3.42144
  1
51
  0
TEXT
  5
132
  8
ë±08-ïLÄû
  6
CONTINUOUS
 62
     7
 10
-123.1692913898405
 20
398.0021493369794
 30
0.0
 40
3.42144
  1
D11
  0
TEXT
  5
133
  8
ë±08-ïLÄû
  6
CONTINUOUS
 62
     7
 10
-123.1692913898405
 20
460.7285493369794
 30
0.0
 40
3.42144
  1
U10
  0
TEXT
  5
134
  8
ë±08-ïLÄû
  6
CONTINUOUS
 62
     7
 10
-123.1692913898405
 20
358.0853493369794
 30
0.0
 40
3.42144
  1
D5
  0
TEXT
  5
135
  8
ë±08-ïLÄû
  6
CONTINUOUS
 62
     7
 10
-123.1692913898405
 20
363.7877493369794
 30
0.0
 40
3.42144
  1
D6
  0
TEXT
  5
136
  8
ë±08-ïLÄû
  6
CONTINUOUS
 62
     7
 10
-123.1692913898405
 20
369.4901493369794
 30
0.0
 40
3.42144
  1
D7
  0
TEXT
  5
137
  8
ë±08-ïLÄû
  6
CONTINUOUS
 62
     7
 10
-123.1692913898405
 20
409.4069493369793
 30
0.0
 40
3.42144
  1
D13
  0
TEXT
  5
138
  8
ë±08-ïLÄû
  6
CONTINUOUS
 62
     7
 10
-123.1692913898405
 20
415.1093493369793
 30
0.0
 40
3.42144
  1
D14
  0
TEXT
  5
139
  8
ë±08-ïLÄû
  6
CONTINUOUS
 62
     7
 10
-123.1692913898405
 20
420.8117493369793
 30
0.0
 40
3.42144
  1
D15
  0
TEXT
  5
13A
  8
ë±08-ïLÄû
  6
CONTINUOUS
 62
     7
 10
-123.1692913898405
 20
426.5141493369794
 30
0.0
 40
3.42144
  1
SUR
  0
TEXT
  5
13B
  8
ë±08-ïLÄû
  6
CONTINUOUS
 62
     7
 10
-123.1692913898405
 20
432.2165493369793
 30
0.0
 40
3.42144
  1
U15
  0
TEXT
  5
13C
  8
ë±08-ïLÄû
  6
CONTINUOUS
 62
     7
 10
-123.1692913898405
 20
437.9189493369794
 30
0.0
 40
3.42144
  1
U14
  0
TEXT
  5
13D
  8
ë±08-ïLÄû
  6
CONTINUOUS
 62
     7
 10
-123.1692913898405
 20
443.6213493369793
 30
0.0
 40
3.42144
  1
U13
  0
TEXT
  5
13E
  8
ë±08-ïLÄû
  6
CONTINUOUS
 62
     7
 10
-123.1692913898405
 20
449.3237493369794
 30
0.0
 40
3.42144
  1
U12
  0
LINE
  5
13F
  8
ë±08-ïLÄû
  6
CONTINUOUS
 62
     7
 10
-136.8109633022996
 20
467.9700278464046
 30
0.0
 11
-124.4268595056305
 21
467.9700278464046
 31
0.0
  0
TEXT
  5
140
  8
ë±08-ïLÄû
  6
CONTINUOUS
 62
     7
 10
-141.5772252958409
 20
466.4309493369794
 30
0.0
 40
3.42144
  1
27
  0
LINE
  5
141
  8
ë±08-ïLÄû
  6
CONTINUOUS
 62
     7
 10
-136.8109633022996
 20
462.2676278464045
 30
0.0
 11
-124.4268595056305
 21
462.2676278464045
 31
0.0
  0
TEXT
  5
142
  8
ë±08-ïLÄû
  6
CONTINUOUS
 62
     7
 10
-141.5772252958409
 20
460.7285493369794
 30
0.0
 40
3.42144
  1
28
  0
LINE
  5
143
  8
ë±08-ïLÄû
  6
CONTINUOUS
 62
     7
 10
-136.8109633022996
 20
456.5652278464046
 30
0.0
 11
-124.4268595056305
 21
456.5652278464046
 31
0.0
  0
TEXT
  5
144
  8
ë±08-ïLÄû
  6
CONTINUOUS
 62
     7
 10
-141.5772252958409
 20
455.0261493369793
 30
0.0
 40
3.42144
  1
29
  0
LINE
  5
145
  8
ë±08-ïLÄû
  6
CONTINUOUS
 62
     7
 10
-136.8109633022996
 20
450.8628278464045
 30
0.0
 11
-124.4268595056305
 21
450.8628278464045
 31
0.0
  0
TEXT
  5
146
  8
ë±08-ïLÄû
  6
CONTINUOUS
 62
     7
 10
-141.5736011167437
 20
449.3237493369794
 30
0.0
 40
3.42144
  1
30
  0
LINE
  5
147
  8
ë±08-ïLÄû
  6
CONTINUOUS
 62
     7
 10
-136.8109633022996
 20
445.1604278464046
 30
0.0
 11
-124.4268595056305
 21
445.1604278464046
 31
0.0
  0
TEXT
  5
148
  8
ë±08-ïLÄû
  6
CONTINUOUS
 62
     7
 10
-141.5736011167437
 20
443.6213493369793
 30
0.0
 40
3.42144
  1
31
  0
LINE
  5
149
  8
ë±08-ïLÄû
  6
CONTINUOUS
 62
     7
 10
-136.8109633022996
 20
439.4580278464046
 30
0.0
 11
-124.4268595056305
 21
439.4580278464046
 31
0.0
  0
TEXT
  5
14A
  8
ë±08-ïLÄû
  6
CONTINUOUS
 62
     7
 10
-141.5736011167437
 20
437.9189493369794
 30
0.0
 40
3.42144
  1
32
  0
LINE
  5
14B
  8
ë±08-ïLÄû
  6
CONTINUOUS
 62
     7
 10
-136.8109633022996
 20
433.7556278464045
 30
0.0
 11
-124.4268595056305
 21
433.7556278464045
 31
0.0
  0
TEXT
  5
14C
  8
ë±08-ïLÄû
  6
CONTINUOUS
 62
     7
 10
-141.5490040249274
 20
432.2165493369793
 30
0.0
 40
3.42144
  1
33
  0
LINE
  5
14D
  8
ë±08-ïLÄû
  6
CONTINUOUS
 62
     7
 10
-136.8109633022996
 20
428.0532278464045
 30
0.0
 11
-124.4268595056305
 21
428.0532278464045
 31
0.0
  0
TEXT
  5
14E
  8
ë±08-ïLÄû
  6
CONTINUOUS
 62
     7
 10
-141.5490040249274
 20
426.5141493369794
 30
0.0
 40
3.42144
  1
34
  0
TEXT
  5
14F
  8
ë±08-ïLÄû
  6
CONTINUOUS
 62
     7
 10
-122.8333357890383
 20
335.2757493369793
 30
0.0
 40
3.42144
  1
D1
  0
TEXT
  5
150
  8
ë±08-ïLÄû
  6
CONTINUOUS
 62
     7
 10
-122.8333357890383
 20
340.9781493369794
 30
0.0
 40
3.42144
  1
D2
  0
TEXT
  5
151
  8
ë±08-ïLÄû
  6
CONTINUOUS
 62
     7
 10
-122.8333357890383
 20
346.6805493369794
 30
0.0
 40
3.42144
  1
D3
  0
TEXT
  5
152
  8
ë±08-ïLÄû
  6
CONTINUOUS
 62
     7
 10
-122.8333357890383
 20
352.3829493369794
 30
0.0
 40
3.42144
  1
D4
  0
TEXT
  5
153
  8
ë±08-ïLÄû
  6
CONTINUOUS
 62
     7
 10
-123.1692913898405
 20
380.8949493369793
 30
0.0
 40
3.42144
  1
D8
  0
TEXT
  5
154
  8
ë±08-ïLÄû
  6
CONTINUOUS
 62
     7
 10
-123.1692913898405
 20
386.5973493369793
 30
0.0
 40
3.42144
  1
D9
  0
TEXT
  5
155
  8
ë±08-ïLÄû
  6
CONTINUOUS
 62
     7
 10
-123.1692913898405
 20
392.2997493369793
 30
0.0
 40
3.42144
  1
D10
  0
TEXT
  5
156
  8
ë±08-ïLÄû
  6
CONTINUOUS
 62
     7
 10
-123.1692913898405
 20
403.7045493369794
 30
0.0
 40
3.42144
  1
D12
  0
LINE
  5
157
  8
ë±08-ïLÄû
  6
CONTINUOUS
 62
     7
 10
-136.8109633022996
 20
336.8148278464045
 30
0.0
 11
-124.4268595056305
 21
336.8148278464045
 31
0.0
  0
LINE
  5
158
  8
ë±08-ïLÄû
  6
CONTINUOUS
 62
     7
 10
-136.8109633022996
 20
342.5172278464045
 30
0.0
 11
-124.4268595056305
 21
342.5172278464045
 31
0.0
  0
LINE
  5
159
  8
ë±08-ïLÄû
  6
CONTINUOUS
 62
     7
 10
-136.8109633022996
 20
348.2196278464045
 30
0.0
 11
-124.4268595056305
 21
348.2196278464045
 31
0.0
  0
LINE
  5
15A
  8
ë±08-ïLÄû
  6
CONTINUOUS
 62
     7
 10
-136.8109633022996
 20
353.9220278464045
 30
0.0
 11
-124.4268595056305
 21
353.9220278464045
 31
0.0
  0
LINE
  5
15B
  8
ë±08-ïLÄû
  6
CONTINUOUS
 62
     7
 10
-136.8109633022996
 20
359.6244278464046
 30
0.0
 11
-124.4268595056305
 21
359.6244278464046
 31
0.0
  0
LINE
  5
15C
  8
ë±08-ïLÄû
  6
CONTINUOUS
 62
     7
 10
-136.8109633022996
 20
365.3268278464046
 30
0.0
 11
-124.4268595056305
 21
365.3268278464046
 31
0.0
  0
LINE
  5
15D
  8
ë±08-ïLÄû
  6
CONTINUOUS
 62
     7
 10
-136.8109633022996
 20
371.0292278464046
 30
0.0
 11
-124.4268595056305
 21
371.0292278464046
 31
0.0
  0
LINE
  5
15E
  8
ë±08-ïLÄû
  6
CONTINUOUS
 62
     7
 10
-136.8109633022996
 20
376.7316278464046
 30
0.0
 11
-124.4268595056305
 21
376.7316278464046
 31
0.0
  0
LINE
  5
15F
  8
ë±08-ïLÄû
  6
CONTINUOUS
 62
     7
 10
-136.8109633022996
 20
382.4340278464046
 30
0.0
 11
-124.4268595056305
 21
382.4340278464046
 31
0.0
  0
LINE
  5
160
  8
ë±08-ïLÄû
  6
CONTINUOUS
 62
     7
 10
-136.8109633022996
 20
388.1364278464046
 30
0.0
 11
-124.4268595056305
 21
388.1364278464046
 31
0.0
  0
LINE
  5
161
  8
ë±08-ïLÄû
  6
CONTINUOUS
 62
     7
 10
-136.8109633022996
 20
393.8388278464046
 30
0.0
 11
-124.4268595056305
 21
393.8388278464046
 31
0.0
  0
LINE
  5
162
  8
ë±08-ïLÄû
  6
CONTINUOUS
 62
     7
 10
-136.8109633022996
 20
399.5412278464046
 30
0.0
 11
-124.4268595056305
 21
399.5412278464046
 31
0.0
  0
LINE
  5
163
  8
ë±08-ïLÄû
  6
CONTINUOUS
 62
     7
 10
-136.8109633022996
 20
405.2436278464046
 30
0.0
 11
-124.4268595056305
 21
405.2436278464046
 31
0.0
  0
LINE
  5
164
  8
ë±08-ïLÄû
  6
CONTINUOUS
 62
     7
 10
-136.8109633022996
 20
410.9460278464046
 30
0.0
 11
-124.4268595056305
 21
410.9460278464046
 31
0.0
  0
LINE
  5
165
  8
ë±08-ïLÄû
  6
CONTINUOUS
 62
     7
 10
-136.8109633022996
 20
416.6484278464047
 30
0.0
 11
-124.4268595056305
 21
416.6484278464047
 31
0.0
  0
LINE
  5
166
  8
ë±08-ïLÄû
  6
CONTINUOUS
 62
     7
 10
-136.8109633022996
 20
422.3508278464045
 30
0.0
 11
-124.4268595056305
 21
422.3508278464045
 31
0.0
  0
TEXT
  5
167
  8
ë±08-ïLÄû
  6
CONTINUOUS
 62
     7
 10
-141.8534158296777
 20
335.2757493369793
 30
0.0
 40
3.42144
  1
50
  0
TEXT
  5
168
  8
ë±08-ïLÄû
  6
CONTINUOUS
 62
     7
 10
-142.1502311161193
 20
340.9781493369794
 30
0.0
 40
3.42144
  1
49
  0
TEXT
  5
169
  8
ë±08-ïLÄû
  6
CONTINUOUS
 62
     7
 10
-142.1160629533851
 20
346.6805493369794
 30
0.0
 40
3.42144
  1
48
  0
TEXT
  5
16A
  8
ë±08-ïLÄû
  6
CONTINUOUS
 62
     7
 10
-142.1532886280388
 20
352.3829493369794
 30
0.0
 40
3.42144
  1
47
  0
TEXT
  5
16B
  8
ë±08-ïLÄû
  6
CONTINUOUS
 62
     7
 10
-142.1532886280388
 20
358.0853493369794
 30
0.0
 40
3.42144
  1
46
  0
TEXT
  5
16C
  8
ë±08-ïLÄû
  6
CONTINUOUS
 62
     7
 10
-142.1851029424931
 20
363.7877493369794
 30
0.0
 40
3.42144
  1
45
  0
TEXT
  5
16D
  8
ë±08-ïLÄû
  6
CONTINUOUS
 62
     7
 10
-142.1851029424931
 20
369.4901493369794
 30
0.0
 40
3.42144
  1
44
  0
TEXT
  5
16E
  8
ë±08-ïLÄû
  6
CONTINUOUS
 62
     7
 10
-142.1942505698036
 20
375.1925493369794
 30
0.0
 40
3.42144
  1
43
  0
TEXT
  5
16F
  8
ë±08-ïLÄû
  6
CONTINUOUS
 62
     7
 10
-142.1942505698036
 20
380.8949493369793
 30
0.0
 40
3.42144
  1
42
  0
TEXT
  5
170
  8
ë±08-ïLÄû
  6
CONTINUOUS
 62
     7
 10
-142.059289482514
 20
386.5973493369793
 30
0.0
 40
3.42144
  1
41
  0
TEXT
  5
171
  8
ë±08-ïLÄû
  6
CONTINUOUS
 62
     7
 10
-142.059289482514
 20
392.2997493369793
 30
0.0
 40
3.42144
  1
40
  0
TEXT
  5
172
  8
ë±08-ïLÄû
  6
CONTINUOUS
 62
     7
 10
-141.7229071273627
 20
398.0021493369794
 30
0.0
 40
3.42144
  1
39
  0
TEXT
  5
173
  8
ë±08-ïLÄû
  6
CONTINUOUS
 62
     7
 10
-141.7229071273627
 20
403.7045493369794
 30
0.0
 40
3.42144
  1
38
  0
TEXT
  5
174
  8
ë±08-ïLÄû
  6
CONTINUOUS
 62
     7
 10
-141.723118849166
 20
409.4069493369793
 30
0.0
 40
3.42144
  1
37
  0
TEXT
  5
175
  8
ë±08-ïLÄû
  6
CONTINUOUS
 62
     7
 10
-141.723118849166
 20
415.1093493369793
 30
0.0
 40
3.42144
  1
36
  0
TEXT
  5
176
  8
ë±08-ïLÄû
  6
CONTINUOUS
 62
     7
 10
-141.5490040249274
 20
420.8117493369793
 30
0.0
 40
3.42144
  1
35
  0
TEXT
  5
177
  8
ë±08-ïLÄû
  6
CONTINUOUS
 62
     7
 10
-158.7482143689553
 20
323.8709493369793
 30
0.0
 40
3.42144
  1
SUL
  0
TEXT
  5
178
  8
ë±08-ïLÄû
  6
CONTINUOUS
 62
     7
 10
-158.7482143689553
 20
335.2757493369793
 30
0.0
 40
3.42144
  1
L2
  0
TEXT
  5
179
  8
ë±08-ïLÄû
  6
CONTINUOUS
 62
     7
 10
-159.0841699697569
 20
455.0261493369793
 30
0.0
 40
3.42144
  1
R3
  0
TEXT
  5
17A
  8
ë±08-ïLÄû
  6
CONTINUOUS
 62
     7
 10
-158.7482143689553
 20
329.5733493369793
 30
0.0
 40
3.42144
  1
L1
  0
LINE
  5
17B
  8
ë±08-ïLÄû
  6
CONTINUOUS
 62
     7
 10
-172.7258418822166
 20
325.4100278464045
 30
0.0
 11
-160.3417380855476
 21
325.4100278464045
 31
0.0
  0
LINE
  5
17C
  8
ë±08-ïLÄû
  6
CONTINUOUS
 62
     7
 10
-172.7258418822166
 20
331.1124278464045
 30
0.0
 11
-160.3417380855476
 21
331.1124278464045
 31
0.0
  0
TEXT
  5
17D
  8
ë±08-ïLÄû
  6
CONTINUOUS
 62
     7
 10
-177.7682944095945
 20
323.8709493369793
 30
0.0
 40
3.42144
  1
26
  0
TEXT
  5
17E
  8
ë±08-ïLÄû
  6
CONTINUOUS
 62
     7
 10
-177.7682944095945
 20
329.5733493369793
 30
0.0
 40
3.42144
  1
25
  0
TEXT
  5
17F
  8
ë±08-ïLÄû
  6
CONTINUOUS
 62
     7
 10
-159.0841699697569
 20
398.0021493369794
 30
0.0
 40
3.42144
  1
SDR
  0
TEXT
  5
180
  8
ë±08-ïLÄû
  6
CONTINUOUS
 62
     7
 10
-159.0841699697569
 20
460.7285493369794
 30
0.0
 40
3.42144
  1
R2
  0
TEXT
  5
181
  8
ë±08-ïLÄû
  6
CONTINUOUS
 62
     7
 10
-159.0841699697569
 20
363.7877493369794
 30
0.0
 40
3.42144
  1
L7
  0
TEXT
  5
182
  8
ë±08-ïLÄû
  6
CONTINUOUS
 62
     7
 10
-159.0841699697569
 20
369.4901493369794
 30
0.0
 40
3.42144
  1
L8
  0
TEXT
  5
183
  8
ë±08-ïLÄû
  6
CONTINUOUS
 62
     7
 10
-159.0841699697569
 20
375.1925493369794
 30
0.0
 40
3.42144
  1
L9
  0
TEXT
  5
184
  8
ë±08-ïLÄû
  6
CONTINUOUS
 62
     7
 10
-159.0841699697569
 20
409.4069493369793
 30
0.0
 40
3.42144
  1
R11
  0
TEXT
  5
185
  8
ë±08-ïLÄû
  6
CONTINUOUS
 62
     7
 10
-159.0841699697569
 20
415.1093493369793
 30
0.0
 40
3.42144
  1
R10
  0
TEXT
  5
186
  8
ë±08-ïLÄû
  6
CONTINUOUS
 62
     7
 10
-159.0841699697569
 20
420.8117493369793
 30
0.0
 40
3.42144
  1
R9
  0
TEXT
  5
187
  8
ë±08-ïLÄû
  6
CONTINUOUS
 62
     7
 10
-159.0841699697569
 20
426.5141493369794
 30
0.0
 40
3.42144
  1
R8
  0
TEXT
  5
188
  8
ë±08-ïLÄû
  6
CONTINUOUS
 62
     7
 10
-159.0841699697569
 20
432.2165493369793
 30
0.0
 40
3.42144
  1
R7
  0
TEXT
  5
189
  8
ë±08-ïLÄû
  6
CONTINUOUS
 62
     7
 10
-159.0841699697569
 20
437.9189493369794
 30
0.0
 40
3.42144
  1
R6
  0
TEXT
  5
18A
  8
ë±08-ïLÄû
  6
CONTINUOUS
 62
     7
 10
-159.0841699697569
 20
443.6213493369793
 30
0.0
 40
3.42144
  1
R5
  0
TEXT
  5
18B
  8
ë±08-ïLÄû
  6
CONTINUOUS
 62
     7
 10
-159.0841699697569
 20
449.3237493369794
 30
0.0
 40
3.42144
  1
R4
  0
TEXT
  5
18C
  8
ë±08-ïLÄû
  6
CONTINUOUS
 62
     7
 10
-159.0841699697569
 20
466.4309493369794
 30
0.0
 40
3.42144
  1
R1
  0
TEXT
  5
18D
  8
ë±08-ïLÄû
  6
CONTINUOUS
 62
     7
 10
-173.8752707792992
 20
474.3249345353373
 30
0.0
 40
3.42144
  1
Tail-1
  0
TEXT
  5
18E
  8
ë±08-ïLÄû
  6
CONTINUOUS
 62
     7
 10
-137.2045632537215
 20
474.3249345353373
 30
0.0
 40
3.42144
  1
Tail-2
  0
LINE
  5
18F
  8
ë±08-ïLÄû
  6
CONTINUOUS
 62
     7
 10
-172.7258418822166
 20
467.9700278464046
 30
0.0
 11
-160.3417380855476
 21
467.9700278464046
 31
0.0
  0
TEXT
  5
190
  8
ë±08-ïLÄû
  6
CONTINUOUS
 62
     7
 10
-176.3614969936229
 20
466.4309493369794
 30
0.0
 40
3.42144
  1
1
  0
LINE
  5
191
  8
ë±08-ïLÄû
  6
CONTINUOUS
 62
     7
 10
-172.7258418822166
 20
462.2676278464045
 30
0.0
 11
-160.3417380855476
 21
462.2676278464045
 31
0.0
  0
TEXT
  5
192
  8
ë±08-ïLÄû
  6
CONTINUOUS
 62
     7
 10
-176.3614969936229
 20
460.7285493369794
 30
0.0
 40
3.42144
  1
2
  0
LINE
  5
193
  8
ë±08-ïLÄû
  6
CONTINUOUS
 62
     7
 10
-172.7258418822166
 20
456.5652278464046
 30
0.0
 11
-160.3417380855476
 21
456.5652278464046
 31
0.0
  0
TEXT
  5
194
  8
ë±08-ïLÄû
  6
CONTINUOUS
 62
     7
 10
-176.3614969936229
 20
455.0261493369793
 30
0.0
 40
3.42144
  1
3
  0
LINE
  5
195
  8
ë±08-ïLÄû
  6
CONTINUOUS
 62
     7
 10
-172.7258418822166
 20
450.8628278464045
 30
0.0
 11
-160.3417380855476
 21
450.8628278464045
 31
0.0
  0
TEXT
  5
196
  8
ë±08-ïLÄû
  6
CONTINUOUS
 62
     7
 10
-176.3614969936229
 20
449.3237493369794
 30
0.0
 40
3.42144
  1
4
  0
LINE
  5
197
  8
ë±08-ïLÄû
  6
CONTINUOUS
 62
     7
 10
-172.7258418822166
 20
445.1604278464046
 30
0.0
 11
-160.3417380855476
 21
445.1604278464046
 31
0.0
  0
TEXT
  5
198
  8
ë±08-ïLÄû
  6
CONTINUOUS
 62
     7
 10
-176.3614969936229
 20
443.6213493369793
 30
0.0
 40
3.42144
  1
5
  0
LINE
  5
199
  8
ë±08-ïLÄû
  6
CONTINUOUS
 62
     7
 10
-172.7258418822166
 20
439.4580278464046
 30
0.0
 11
-160.3417380855476
 21
439.4580278464046
 31
0.0
  0
TEXT
  5
19A
  8
ë±08-ïLÄû
  6
CONTINUOUS
 62
     7
 10
-176.3614969936229
 20
437.9189493369794
 30
0.0
 40
3.42144
  1
6
  0
LINE
  5
19B
  8
ë±08-ïLÄû
  6
CONTINUOUS
 62
     7
 10
-172.7258418822166
 20
433.7556278464045
 30
0.0
 11
-160.3417380855476
 21
433.7556278464045
 31
0.0
  0
TEXT
  5
19C
  8
ë±08-ïLÄû
  6
CONTINUOUS
 62
     7
 10
-176.3614969936229
 20
432.2165493369793
 30
0.0
 40
3.42144
  1
7
  0
LINE
  5
19D
  8
ë±08-ïLÄû
  6
CONTINUOUS
 62
     7
 10
-172.7258418822166
 20
428.0532278464045
 30
0.0
 11
-160.3417380855476
 21
428.0532278464045
 31
0.0
  0
TEXT
  5
19E
  8
ë±08-ïLÄû
  6
CONTINUOUS
 62
     7
 10
-176.3614969936229
 20
426.5141493369794
 30
0.0
 40
3.42144
  1
8
  0
TEXT
  5
19F
  8
ë±08-ïLÄû
  6
CONTINUOUS
 62
     7
 10
-158.7482143689553
 20
340.9781493369794
 30
0.0
 40
3.42144
  1
L3
  0
TEXT
  5
1A0
  8
ë±08-ïLÄû
  6
CONTINUOUS
 62
     7
 10
-158.7482143689553
 20
346.6805493369794
 30
0.0
 40
3.42144
  1
L4
  0
TEXT
  5
1A1
  8
ë±08-ïLÄû
  6
CONTINUOUS
 62
     7
 10
-158.7482143689553
 20
352.3829493369794
 30
0.0
 40
3.42144
  1
L5
  0
TEXT
  5
1A2
  8
ë±08-ïLÄû
  6
CONTINUOUS
 62
     7
 10
-158.7482143689553
 20
358.0853493369794
 30
0.0
 40
3.42144
  1
L6
  0
TEXT
  5
1A3
  8
ë±08-ïLÄû
  6
CONTINUOUS
 62
     7
 10
-159.0841699697569
 20
380.8949493369793
 30
0.0
 40
3.42144
  1
L10
  0
TEXT
  5
1A4
  8
ë±08-ïLÄû
  6
CONTINUOUS
 62
     7
 10
-159.0841699697569
 20
386.5973493369793
 30
0.0
 40
3.42144
  1
L11
  0
TEXT
  5
1A5
  8
ë±08-ïLÄû
  6
CONTINUOUS
 62
     7
 10
-159.0841699697569
 20
392.2997493369793
 30
0.0
 40
3.42144
  1
L12
  0
TEXT
  5
1A6
  8
ë±08-ïLÄû
  6
CONTINUOUS
 62
     7
 10
-159.0841699697569
 20
403.7045493369794
 30
0.0
 40
3.42144
  1
R12
  0
LINE
  5
1A7
  8
ë±08-ïLÄû
  6
CONTINUOUS
 62
     7
 10
-172.7258418822166
 20
336.8148278464045
 30
0.0
 11
-160.3417380855476
 21
336.8148278464045
 31
0.0
  0
LINE
  5
1A8
  8
ë±08-ïLÄû
  6
CONTINUOUS
 62
     7
 10
-172.7258418822166
 20
342.5172278464045
 30
0.0
 11
-160.3417380855476
 21
342.5172278464045
 31
0.0
  0
LINE
  5
1A9
  8
ë±08-ïLÄû
  6
CONTINUOUS
 62
     7
 10
-172.7258418822166
 20
348.2196278464045
 30
0.0
 11
-160.3417380855476
 21
348.2196278464045
 31
0.0
  0
LINE
  5
1AA
  8
ë±08-ïLÄû
  6
CONTINUOUS
 62
     7
 10
-172.7258418822166
 20
353.9220278464045
 30
0.0
 11
-160.3417380855476
 21
353.9220278464045
 31
0.0
  0
LINE
  5
1AB
  8
ë±08-ïLÄû
  6
CONTINUOUS
 62
     7
 10
-172.7258418822166
 20
359.6244278464046
 30
0.0
 11
-160.3417380855476
 21
359.6244278464046
 31
0.0
  0
LINE
  5
1AC
  8
ë±08-ïLÄû
  6
CONTINUOUS
 62
     7
 10
-172.7258418822166
 20
365.3268278464046
 30
0.0
 11
-160.3417380855476
 21
365.3268278464046
 31
0.0
  0
LINE
  5
1AD
  8
ë±08-ïLÄû
  6
CONTINUOUS
 62
     7
 10
-172.7258418822166
 20
371.0292278464046
 30
0.0
 11
-160.3417380855476
 21
371.0292278464046
 31
0.0
  0
LINE
  5
1AE
  8
ë±08-ïLÄû
  6
CONTINUOUS
 62
     7
 10
-172.7258418822166
 20
376.7316278464046
 30
0.0
 11
-160.3417380855476
 21
376.7316278464046
 31
0.0
  0
LINE
  5
1AF
  8
ë±08-ïLÄû
  6
CONTINUOUS
 62
     7
 10
-172.7258418822166
 20
382.4340278464046
 30
0.0
 11
-160.3417380855476
 21
382.4340278464046
 31
0.0
  0
LINE
  5
1B0
  8
ë±08-ïLÄû
  6
CONTINUOUS
 62
     7
 10
-172.7258418822166
 20
388.1364278464046
 30
0.0
 11
-160.3417380855476
 21
388.1364278464046
 31
0.0
  0
LINE
  5
1B1
  8
ë±08-ïLÄû
  6
CONTINUOUS
 62
     7
 10
-172.7258418822166
 20
393.8388278464046
 30
0.0
 11
-160.3417380855476
 21
393.8388278464046
 31
0.0
  0
LINE
  5
1B2
  8
ë±08-ïLÄû
  6
CONTINUOUS
 62
     7
 10
-172.7258418822166
 20
399.5412278464046
 30
0.0
 11
-160.3417380855476
 21
399.5412278464046
 31
0.0
  0
LINE
  5
1B3
  8
ë±08-ïLÄû
  6
CONTINUOUS
 62
     7
 10
-172.7258418822166
 20
405.2436278464046
 30
0.0
 11
-160.3417380855476
 21
405.2436278464046
 31
0.0
  0
LINE
  5
1B4
  8
ë±08-ïLÄû
  6
CONTINUOUS
 62
     7
 10
-172.7258418822166
 20
410.9460278464046
 30
0.0
 11
-160.3417380855476
 21
410.9460278464046
 31
0.0
  0
LINE
  5
1B5
  8
ë±08-ïLÄû
  6
CONTINUOUS
 62
     7
 10
-172.7258418822166
 20
416.6484278464047
 30
0.0
 11
-160.3417380855476
 21
416.6484278464047
 31
0.0
  0
LINE
  5
1B6
  8
ë±08-ïLÄû
  6
CONTINUOUS
 62
     7
 10
-172.7258418822166
 20
422.3508278464045
 30
0.0
 11
-160.3417380855476
 21
422.3508278464045
 31
0.0
  0
TEXT
  5
1B7
  8
ë±08-ïLÄû
  6
CONTINUOUS
 62
     7
 10
-177.7682944095945
 20
335.2757493369793
 30
0.0
 40
3.42144
  1
24
  0
TEXT
  5
1B8
  8
ë±08-ïLÄû
  6
CONTINUOUS
 62
     7
 10
-177.7682944095945
 20
340.9781493369794
 30
0.0
 40
3.42144
  1
23
  0
TEXT
  5
1B9
  8
ë±08-ïLÄû
  6
CONTINUOUS
 62
     7
 10
-177.7682944095945
 20
346.6805493369794
 30
0.0
 40
3.42144
  1
22
  0
TEXT
  5
1BA
  8
ë±08-ïLÄû
  6
CONTINUOUS
 62
     7
 10
-177.7682944095945
 20
352.3829493369794
 30
0.0
 40
3.42144
  1
21
  0
TEXT
  5
1BB
  8
ë±08-ïLÄû
  6
CONTINUOUS
 62
     7
 10
-177.7682944095945
 20
358.0853493369794
 30
0.0
 40
3.42144
  1
20
  0
TEXT
  5
1BC
  8
ë±08-ïLÄû
  6
CONTINUOUS
 62
     7
 10
-177.7682944095945
 20
363.7877493369794
 30
0.0
 40
3.42144
  1
19
  0
TEXT
  5
1BD
  8
ë±08-ïLÄû
  6
CONTINUOUS
 62
     7
 10
-177.7682944095945
 20
369.4901493369794
 30
0.0
 40
3.42144
  1
18
  0
TEXT
  5
1BE
  8
ë±08-ïLÄû
  6
CONTINUOUS
 62
     7
 10
-177.7682944095945
 20
375.1925493369794
 30
0.0
 40
3.42144
  1
17
  0
TEXT
  5
1BF
  8
ë±08-ïLÄû
  6
CONTINUOUS
 62
     7
 10
-177.7682944095945
 20
380.8949493369793
 30
0.0
 40
3.42144
  1
16
  0
TEXT
  5
1C0
  8
ë±08-ïLÄû
  6
CONTINUOUS
 62
     7
 10
-177.9741680624308
 20
386.5973493369793
 30
0.0
 40
3.42144
  1
15
  0
TEXT
  5
1C1
  8
ë±08-ïLÄû
  6
CONTINUOUS
 62
     7
 10
-177.9741680624308
 20
392.2997493369793
 30
0.0
 40
3.42144
  1
14
  0
TEXT
  5
1C2
  8
ë±08-ïLÄû
  6
CONTINUOUS
 62
     7
 10
-177.9741680624308
 20
398.0021493369794
 30
0.0
 40
3.42144
  1
13
  0
TEXT
  5
1C3
  8
ë±08-ïLÄû
  6
CONTINUOUS
 62
     7
 10
-177.9741680624308
 20
403.7045493369794
 30
0.0
 40
3.42144
  1
12
  0
TEXT
  5
1C4
  8
ë±08-ïLÄû
  6
CONTINUOUS
 62
     7
 10
-177.9741680624308
 20
409.4069493369793
 30
0.0
 40
3.42144
  1
11
  0
TEXT
  5
1C5
  8
ë±08-ïLÄû
  6
CONTINUOUS
 62
     7
 10
-177.9741680624308
 20
415.1093493369793
 30
0.0
 40
3.42144
  1
10
  0
TEXT
  5
1C6
  8
ë±08-ïLÄû
  6
CONTINUOUS
 62
     7
 10
-176.3614969936229
 20
420.8117493369793
 30
0.0
 40
3.42144
  1
9
  0
DIMENSION
  5
1C7
  8
ë±07-Éíû@
  6
CONTINUOUS
 62
     6
  2
*D41
 10
-545.0884740649369
 20
62.11838557140773
 30
0.0
 11
-490.3808533434041
 21
62.11838557140771
 31
0.0
 70
   160
  3
DMC
 13
-527.5884740649368
 23
78.75712672116998
 33
0.0
 14
-545.0884740649369
 24
78.75712672116998
 34
0.0
 50
180.0
1001
ACAD
1000
DSTYLE
1002
{
1070
    41
1040
1.5
1070
    47
1040
0.1
1070
    48
1040
0.1
1070
    71
1070
     1
1070
   141
1040
1.5
1070
   371
1070
    13
1070
   372
1070
    13
1002
}
  0
DIMENSION
  5
1D8
  8
ë±07-Éíû@
  6
CONTINUOUS
 62
     6
  2
*D42
 10
-516.0884740649367
 20
51.59465245439122
 30
0.0
 11
-489.92087071848
 21
51.59465245439122
 31
0.0
 70
   160
  3
DMC
 13
-502.5884740649368
 23
78.75712672116907
 33
0.0
 14
-516.0884740649367
 24
78.75712672116998
 34
0.0
 50
180.0
1001
ACAD
1000
DSTYLE
1002
{
1070
    41
1040
1.5
1070
    47
1040
0.1
1070
    48
1040
0.1
1070
    71
1070
     1
1070
   141
1040
1.5
1070
   371
1070
    13
1070
   372
1070
    13
1002
}
  0
ARC
  5
1E9
  8
ë±08-ïLÄû
  6
CONTINUOUS
 62
     7
 10
-267.9684185518266
 20
461.9721267211699
 30
0.0
 40
0.4161773402836389
 50
90.0
 51
270.0
  0
ARC
  5
1EA
  8
ë±08-ïLÄû
  6
CONTINUOUS
 62
     7
 10
-267.9684185518266
 20
458.4721267211699
 30
0.0
 40
0.4161773402836389
 50
90.0
 51
270.0
  0
ARC
  5
1EB
  8
ë±08-ïLÄû
  6
CONTINUOUS
 62
     7
 10
-267.9684185518266
 20
454.9721267211698
 30
0.0
 40
0.4161773402836389
 50
90.0
 51
270.0
  0
ARC
  5
1EC
  8
ë±08-ïLÄû
  6
CONTINUOUS
 62
     7
 10
-267.9684185518266
 20
451.4721267211698
 30
0.0
 40
0.4161773402836389
 50
90.0
 51
270.0
  0
ARC
  5
1ED
  8
ë±08-ïLÄû
  6
CONTINUOUS
 62
     7
 10
-267.9684185518266
 20
447.9721267211699
 30
0.0
 40
0.4161773402836389
 50
90.0
 51
270.0
  0
ARC
  5
1EE
  8
ë±08-ïLÄû
  6
CONTINUOUS
 62
     7
 10
-267.9684185518266
 20
444.4721267211699
 30
0.0
 40
0.4161773402836389
 50
90.0
 51
270.0
  0
ARC
  5
1EF
  8
ë±08-ïLÄû
  6
CONTINUOUS
 62
     7
 10
-267.9684185518266
 20
440.9721267211699
 30
0.0
 40
0.4161773402836389
 50
90.0
 51
270.0
  0
ARC
  5
1F0
  8
ë±08-ïLÄû
  6
CONTINUOUS
 62
     7
 10
-267.9684185518266
 20
437.4721267211699
 30
0.0
 40
0.4161773402836389
 50
90.0
 51
270.0
  0
ARC
  5
1F1
  8
ë±08-ïLÄû
  6
CONTINUOUS
 62
     7
 10
-267.9684185518266
 20
433.9721267211698
 30
0.0
 40
0.4161773402836389
 50
90.0
 51
270.0
  0
ARC
  5
1F2
  8
ë±08-ïLÄû
  6
CONTINUOUS
 62
     7
 10
-267.9684185518266
 20
430.4721267211698
 30
0.0
 40
0.4161773402836389
 50
90.0
 51
270.0
  0
ARC
  5
1F3
  8
ë±08-ïLÄû
  6
CONTINUOUS
 62
     7
 10
-267.9684185518266
 20
426.9721267211699
 30
0.0
 40
0.4161773402836389
 50
90.0
 51
270.0
  0
ARC
  5
1F4
  8
ë±08-ïLÄû
  6
CONTINUOUS
 62
     7
 10
-267.9684185518266
 20
423.4721267211699
 30
0.0
 40
0.4161773402836389
 50
90.0
 51
270.0
  0
ARC
  5
1F5
  8
ë±08-ïLÄû
  6
CONTINUOUS
 62
     7
 10
-267.9684185518266
 20
419.9721267211699
 30
0.0
 40
0.4161773402836389
 50
90.0
 51
270.0
  0
ARC
  5
1F6
  8
ë±08-ïLÄû
  6
CONTINUOUS
 62
     7
 10
-267.9684185518266
 20
416.4721267211699
 30
0.0
 40
0.4161773402836389
 50
90.0
 51
270.0
  0
ARC
  5
1F7
  8
ë±08-ïLÄû
  6
CONTINUOUS
 62
     7
 10
-267.9684185518266
 20
412.9721267211698
 30
0.0
 40
0.4161773402836389
 50
90.0
 51
270.0
  0
ARC
  5
1F8
  8
ë±08-ïLÄû
  6
CONTINUOUS
 62
     7
 10
-267.9684185518266
 20
409.4721267211698
 30
0.0
 40
0.4161773402836389
 50
90.0
 51
270.0
  0
ARC
  5
1F9
  8
ë±08-ïLÄû
  6
CONTINUOUS
 62
     7
 10
-267.9684185518266
 20
405.9721267211698
 30
0.0
 40
0.4161773402836389
 50
90.0
 51
270.0
  0
ARC
  5
1FA
  8
ë±08-ïLÄû
  6
CONTINUOUS
 62
     7
 10
-267.9684185518266
 20
402.4721267211699
 30
0.0
 40
0.4161773402836389
 50
90.0
 51
270.0
  0
ARC
  5
1FB
  8
ë±08-ïLÄû
  6
CONTINUOUS
 62
     7
 10
-267.9684185518266
 20
398.9721267211699
 30
0.0
 40
0.4161773402836389
 50
90.0
 51
270.0
  0
ARC
  5
1FC
  8
ë±08-ïLÄû
  6
CONTINUOUS
 62
     7
 10
-267.9684185518266
 20
395.4721267211699
 30
0.0
 40
0.4161773402836389
 50
90.0
 51
270.0
  0
ARC
  5
1FD
  8
ë±08-ïLÄû
  6
CONTINUOUS
 62
     7
 10
-267.9684185518266
 20
391.9721267211699
 30
0.0
 40
0.4161773402836389
 50
90.0
 51
270.0
  0
ARC
  5
1FE
  8
ë±08-ïLÄû
  6
CONTINUOUS
 62
     7
 10
-267.9684185518266
 20
388.4721267211699
 30
0.0
 40
0.4161773402836389
 50
90.0
 51
270.0
  0
TEXT
  5
1FF
  8
ë±08-ïLÄû
  6
CONTINUOUS
 62
     7
 10
-359.0524708647249
 20
202.1679600545048
 30
0.0
 40
2.0
  1
R12
 72
     2
 11
-355.2323527544887
 21
203.1679600545048
 31
0.0
 73
     2
  0
TEXT
  5
200
  8
ë±08-ïLÄû
  6
CONTINUOUS
 62
     7
 10
-358.5323527544887
 20
224.7296267211713
 30
0.0
 40
2.0
  1
R11
 72
     2
 11
-355.2323527544887
 21
225.7296267211713
 31
0.0
 73
     2
  0
TEXT
  5
201
  8
ë±08-ïLÄû
  6
CONTINUOUS
 62
     7
 10
-358.9339275576383
 20
247.2912933878378
 30
0.0
 40
2.0
  1
R10
 72
     2
 11
-355.2323527544887
 21
248.2912933878378
 31
0.0
 73
     2
  0
TEXT
  5
202
  8
ë±08-ïLÄû
  6
CONTINUOUS
 62
     7
 10
-358.0755397124922
 20
269.8529600545043
 30
0.0
 40
2.0
  1
R9
 72
     2
 11
-355.2323527544887
 21
270.8529600545043
 31
0.0
 73
     2
  0
TEXT
  5
203
  8
ë±08-ïLÄû
  6
CONTINUOUS
 62
     7
 10
-357.9323527544887
 20
292.4146267211708
 30
0.0
 40
2.0
  1
R8
 72
     2
 11
-355.2323527544887
 21
293.4146267211708
 31
0.0
 73
     2
  0
TEXT
  5
204
  8
ë±08-ïLÄû
  6
CONTINUOUS
 62
     7
 10
-357.9323527544887
 20
314.9762933878373
 30
0.0
 40
2.0
  1
R7
 72
     2
 11
-355.2323527544887
 21
315.9762933878373
 31
0.0
 73
     2
  0
TEXT
  5
205
  8
ë±08-ïLÄû
  6
CONTINUOUS
 62
     7
 10
-358.0315653529139
 20
337.5379600545038
 30
0.0
 40
2.0
  1
R6
 72
     2
 11
-355.2323527544887
 21
338.5379600545038
 31
0.0
 73
     2
  0
TEXT
  5
206
  8
ë±08-ïLÄû
  6
CONTINUOUS
 62
     7
 10
-358.0151954669633
 20
360.0996267211703
 30
0.0
 40
2.0
  1
R5
 72
     2
 11
-355.2323527544887
 21
361.0996267211703
 31
0.0
 73
     2
  0
TEXT
  5
207
  8
ë±08-ïLÄû
  6
CONTINUOUS
 62
     7
 10
-358.1323527544887
 20
382.6612933878368
 30
0.0
 40
2.0
  1
R4
 72
     2
 11
-355.2323527544887
 21
383.6612933878368
 31
0.0
 73
     2
  0
TEXT
  5
208
  8
ë±08-ïLÄû
  6
CONTINUOUS
 62
     7
 10
-358.0151954669633
 20
405.2229600545032
 30
0.0
 40
2.0
  1
R3
 72
     2
 11
-355.2323527544887
 21
406.2229600545032
 31
0.0
 73
     2
  0
TEXT
  5
209
  8
ë±08-ïLÄû
  6
CONTINUOUS
 62
     7
 10
-358.0524708647249
 20
427.7846267211698
 30
0.0
 40
2.0
  1
R2
 72
     2
 11
-355.2323527544887
 21
428.7846267211698
 31
0.0
 73
     2
  0
TEXT
  5
20A
  8
ë±08-ïLÄû
  6
CONTINUOUS
 62
     7
 10
-357.5323527544887
 20
450.3462933878362
 30
0.0
 40
2.0
  1
R1
 72
     2
 11
-355.2323527544887
 21
451.3462933878362
 31
0.0
 73
     2
  0
TEXT
  5
20B
  8
ë±08-ïLÄû
  6
CONTINUOUS
 62
     7
 10
-691.1523527544886
 20
202.1679600545048
 30
0.0
 40
2.0
  1
L12
 11
-691.1523527544886
 21
203.1679600545048
 31
0.0
 73
     2
  0
TEXT
  5
20C
  8
ë±08-ïLÄû
  6
CONTINUOUS
 62
     7
 10
-691.1523527544886
 20
224.7296267211713
 30
0.0
 40
2.0
  1
L11
 11
-691.1523527544886
 21
225.7296267211713
 31
0.0
 73
     2
  0
TEXT
  5
20D
  8
ë±08-ïLÄû
  6
CONTINUOUS
 62
     7
 10
-691.1523527544886
 20
247.2912933878378
 30
0.0
 40
2.0
  1
L10
 11
-691.1523527544886
 21
248.2912933878378
 31
0.0
 73
     2
  0
TEXT
  5
20E
  8
ë±08-ïLÄû
  6
CONTINUOUS
 62
     7
 10
-691.1523527544886
 20
269.8529600545043
 30
0.0
 40
2.0
  1
L9
 11
-691.1523527544886
 21
270.8529600545043
 31
0.0
 73
     2
  0
TEXT
  5
20F
  8
ë±08-ïLÄû
  6
CONTINUOUS
 62
     7
 10
-691.1523527544886
 20
292.4146267211708
 30
0.0
 40
2.0
  1
L8
 11
-691.1523527544886
 21
293.4146267211708
 31
0.0
 73
     2
  0
TEXT
  5
210
  8
ë±08-ïLÄû
  6
CONTINUOUS
 62
     7
 10
-691.1523527544886
 20
314.9762933878373
 30
0.0
 40
2.0
  1
L7
 11
-691.1523527544886
 21
315.9762933878373
 31
0.0
 73
     2
  0
TEXT
  5
211
  8
ë±08-ïLÄû
  6
CONTINUOUS
 62
     7
 10
-691.1523527544886
 20
337.5379600545038
 30
0.0
 40
2.0
  1
L6
 11
-691.1523527544886
 21
338.5379600545038
 31
0.0
 73
     2
  0
TEXT
  5
212
  8
ë±08-ïLÄû
  6
CONTINUOUS
 62
     7
 10
-691.1523527544886
 20
360.0996267211703
 30
0.0
 40
2.0
  1
L5
 11
-691.1523527544886
 21
361.0996267211703
 31
0.0
 73
     2
  0
TEXT
  5
213
  8
ë±08-ïLÄû
  6
CONTINUOUS
 62
     7
 10
-691.1523527544886
 20
382.6612933878368
 30
0.0
 40
2.0
  1
L4
 11
-691.1523527544886
 21
383.6612933878368
 31
0.0
 73
     2
  0
TEXT
  5
214
  8
ë±08-ïLÄû
  6
CONTINUOUS
 62
     7
 10
-691.1523527544886
 20
405.2229600545032
 30
0.0
 40
2.0
  1
L3
 11
-691.1523527544886
 21
406.2229600545032
 31
0.0
 73
     2
  0
TEXT
  5
215
  8
ë±08-ïLÄû
  6
CONTINUOUS
 62
     7
 10
-691.1523527544886
 20
427.7846267211698
 30
0.0
 40
2.0
  1
L2
 11
-691.1523527544886
 21
428.7846267211698
 31
0.0
 73
     2
  0
TEXT
  5
216
  8
ë±08-ïLÄû
  6
CONTINUOUS
 62
     7
 10
-691.1523527544886
 20
450.3462933878362
 30
0.0
 40
2.0
  1
L1
 11
-691.1523527544886
 21
451.3462933878362
 31
0.0
 73
     2
  0
TEXT
  5
217
  8
ë±08-ïLÄû
  6
CONTINUOUS
 62
     7
 10
-365.4010553790556
 20
459.4271267211699
 30
0.0
 40
2.0
  1
U15
 72
     1
 11
-363.3596340228182
 21
460.4271267211699
 31
0.0
 73
     2
  0
TEXT
  5
218
  8
ë±08-ïLÄû
  6
CONTINUOUS
 62
     7
 10
-388.1643046944852
 20
459.4271267211699
 30
0.0
 40
2.0
  1
U14
 72
     1
 11
-386.0643046944852
 21
460.4271267211699
 31
0.0
 73
     2
  0
TEXT
  5
219
  8
ë±08-ïLÄû
  6
CONTINUOUS
 62
     7
 10
-410.8103967223893
 20
459.4271267211699
 30
0.0
 40
2.0
  1
U13
 72
     1
 11
-408.768975366152
 21
460.4271267211699
 31
0.0
 73
     2
  0
TEXT
  5
21A
  8
ë±08-ïLÄû
  6
CONTINUOUS
 62
     7
 10
-433.533705092937
 20
459.4271267211699
 30
0.0
 40
2.0
  1
U12
 72
     1
 11
-431.4736460378189
 21
460.4271267211699
 31
0.0
 73
     2
  0
TEXT
  5
21B
  8
ë±08-ïLÄû
  6
CONTINUOUS
 62
     7
 10
-455.9783167094859
 20
459.4271267211699
 30
0.0
 40
2.0
  1
U11
 72
     1
 11
-454.1783167094859
 21
460.4271267211699
 31
0.0
 73
     2
  0
TEXT
  5
21C
  8
ë±08-ïLÄû
  6
CONTINUOUS
 62
     7
 10
-478.8837747827276
 20
459.4271267211699
 30
0.0
 40
2.0
  1
U10
 72
     1
 11
-476.8829873811528
 21
460.4271267211699
 31
0.0
 73
     2
  0
TEXT
  5
21D
  8
ë±08-ïLÄû
  6
CONTINUOUS
 62
     7
 10
-501.1592515318215
 20
459.4271267211699
 30
0.0
 40
2.0
  1
U9
 72
     1
 11
-499.5876580528198
 21
460.4271267211699
 31
0.0
 73
     2
  0
TEXT
  5
21E
  8
ë±08-ïLÄû
  6
CONTINUOUS
 62
     7
 10
-523.7923287244869
 20
459.4271267211699
 30
0.0
 40
2.0
  1
U8
 72
     1
 11
-522.2923287244868
 21
460.4271267211699
 31
0.0
 73
     2
  0
TEXT
  5
21F
  8
ë±08-ïLÄû
  6
CONTINUOUS
 62
     7
 10
-546.4969993961537
 20
459.4271267211699
 30
0.0
 40
2.0
  1
U7
 72
     1
 11
-544.9969993961538
 21
460.4271267211699
 31
0.0
 73
     2
  0
TEXT
  5
220
  8
ë±08-ïLÄû
  6
CONTINUOUS
 62
     7
 10
-569.2512763670333
 20
459.4271267211699
 30
0.0
 40
2.0
  1
U6
 72
     1
 11
-567.7016700678207
 21
460.4271267211699
 31
0.0
 73
     2
  0
TEXT
  5
221
  8
ë±08-ïLÄû
  6
CONTINUOUS
 62
     7
 10
-591.947762095725
 20
459.4271267211699
 30
0.0
 40
2.0
  1
U5
 72
     1
 11
-590.4063407394877
 21
460.4271267211699
 31
0.0
 73
     2
  0
TEXT
  5
222
  8
ë±08-ïLÄû
  6
CONTINUOUS
 62
     7
 10
-614.7110114111548
 20
459.4271267211699
 30
0.0
 40
2.0
  1
U4
 72
     1
 11
-613.1110114111548
 21
460.4271267211699
 31
0.0
 73
     2
  0
TEXT
  5
223
  8
ë±08-ïLÄû
  6
CONTINUOUS
 62
     7
 10
-637.357103439059
 20
459.4271267211699
 30
0.0
 40
2.0
  1
U3
 72
     1
 11
-635.8156820828217
 21
460.4271267211699
 31
0.0
 73
     2
  0
TEXT
  5
224
  8
ë±08-ïLÄû
  6
CONTINUOUS
 62
     7
 10
-660.0804118096067
 20
459.4271267211699
 30
0.0
 40
2.0
  1
U2
 72
     1
 11
-658.5203527544885
 21
460.4271267211699
 31
0.0
 73
     2
  0
TEXT
  5
225
  8
ë±08-ïLÄû
  6
CONTINUOUS
 62
     7
 10
-682.5250234261556
 20
459.4271267211699
 30
0.0
 40
2.0
  1
U1
 72
     1
 11
-681.2250234261556
 21
460.4271267211699
 31
0.0
 73
     2
  0
TEXT
  5
226
  8
ë±08-ïLÄû
  6
CONTINUOUS
 62
     7
 10
-365.4010553790556
 20
193.0871267211693
 30
0.0
 40
2.0
  1
D15
 72
     1
 11
-363.3596340228182
 21
194.0871267211693
 31
0.0
 73
     2
  0
TEXT
  5
227
  8
ë±08-ïLÄû
  6
CONTINUOUS
 62
     7
 10
-388.1643046944852
 20
193.0871267211693
 30
0.0
 40
2.0
  1
D14
 72
     1
 11
-386.0643046944852
 21
194.0871267211693
 31
0.0
 73
     2
  0
TEXT
  5
228
  8
ë±08-ïLÄû
  6
CONTINUOUS
 62
     7
 10
-410.8103967223893
 20
193.0871267211693
 30
0.0
 40
2.0
  1
D13
 72
     1
 11
-408.768975366152
 21
194.0871267211693
 31
0.0
 73
     2
  0
TEXT
  5
229
  8
ë±08-ïLÄû
  6
CONTINUOUS
 62
     7
 10
-433.533705092937
 20
193.0871267211693
 30
0.0
 40
2.0
  1
D12
 72
     1
 11
-431.4736460378189
 21
194.0871267211693
 31
0.0
 73
     2
  0
TEXT
  5
22A
  8
ë±08-ïLÄû
  6
CONTINUOUS
 62
     7
 10
-455.9783167094859
 20
193.0871267211693
 30
0.0
 40
2.0
  1
D11
 72
     1
 11
-454.1783167094859
 21
194.0871267211693
 31
0.0
 73
     2
  0
TEXT
  5
22B
  8
ë±08-ïLÄû
  6
CONTINUOUS
 62
     7
 10
-478.8837747827276
 20
193.0871267211693
 30
0.0
 40
2.0
  1
D10
 72
     1
 11
-476.8829873811528
 21
194.0871267211693
 31
0.0
 73
     2
  0
TEXT
  5
22C
  8
ë±08-ïLÄû
  6
CONTINUOUS
 62
     7
 10
-501.1592515318215
 20
193.0871267211693
 30
0.0
 40
2.0
  1
D9
 72
     1
 11
-499.5876580528198
 21
194.0871267211693
 31
0.0
 73
     2
  0
TEXT
  5
22D
  8
ë±08-ïLÄû
  6
CONTINUOUS
 62
     7
 10
-523.7923287244869
 20
193.0871267211693
 30
0.0
 40
2.0
  1
D8
 72
     1
 11
-522.2923287244868
 21
194.0871267211693
 31
0.0
 73
     2
  0
TEXT
  5
22E
  8
ë±08-ïLÄû
  6
CONTINUOUS
 62
     7
 10
-546.4969993961537
 20
193.0871267211693
 30
0.0
 40
2.0
  1
D7
 72
     1
 11
-544.9969993961538
 21
194.0871267211693
 31
0.0
 73
     2
  0
TEXT
  5
22F
  8
ë±08-ïLÄû
  6
CONTINUOUS
 62
     7
 10
-569.2512763670333
 20
193.0871267211693
 30
0.0
 40
2.0
  1
D6
 72
     1
 11
-567.7016700678207
 21
194.0871267211693
 31
0.0
 73
     2
  0
TEXT
  5
230
  8
ë±08-ïLÄû
  6
CONTINUOUS
 62
     7
 10
-591.947762095725
 20
193.0871267211693
 30
0.0
 40
2.0
  1
D5
 72
     1
 11
-590.4063407394877
 21
194.0871267211693
 31
0.0
 73
     2
  0
TEXT
  5
231
  8
ë±08-ïLÄû
  6
CONTINUOUS
 62
     7
 10
-614.7110114111548
 20
193.0871267211693
 30
0.0
 40
2.0
  1
D4
 72
     1
 11
-613.1110114111548
 21
194.0871267211693
 31
0.0
 73
     2
  0
TEXT
  5
232
  8
ë±08-ïLÄû
  6
CONTINUOUS
 62
     7
 10
-637.357103439059
 20
193.0871267211693
 30
0.0
 40
2.0
  1
D3
 72
     1
 11
-635.8156820828217
 21
194.0871267211693
 31
0.0
 73
     2
  0
TEXT
  5
233
  8
ë±08-ïLÄû
  6
CONTINUOUS
 62
     7
 10
-660.0804118096067
 20
193.0871267211693
 30
0.0
 40
2.0
  1
D2
 72
     1
 11
-658.5203527544885
 21
194.0871267211693
 31
0.0
 73
     2
  0
TEXT
  5
234
  8
ë±08-ïLÄû
  6
CONTINUOUS
 62
     7
 10
-682.5250234261556
 20
193.0871267211693
 30
0.0
 40
2.0
  1
D1
 72
     1
 11
-681.2250234261556
 21
194.0871267211693
 31
0.0
 73
     2
  0
TEXT
  5
235
  8
ë±08-ïLÄû
  6
CONTINUOUS
 62
     7
 10
-692.0999023570195
 20
460.2018630450912
 30
0.0
 40
1.6
  1
SUL
  0
TEXT
  5
236
  8
ë±08-ïLÄû
  6
CONTINUOUS
 62
     7
 10
-359.1702536966859
 20
459.7438002556315
 30
0.0
 40
1.6
  1
SUR
  0
TEXT
  5
237
  8
ë±08-ïLÄû
  6
CONTINUOUS
 62
     7
 10
-358.181801206362
 20
194.5105349168017
 30
0.0
 40
1.6
  1
SDR
  0
TEXT
  5
238
  8
ë±08-ïLÄû
  6
CONTINUOUS
 62
     7
 10
-691.7974332657197
 20
193.4714604118648
 30
0.0
 40
1.6
  1
SDL
  0
DIMENSION
  5
239
  8
ë±07-Éíû@
  6
CONTINUOUS
 62
     7
  2
*D43
 10
-702.0923527544887
 20
520.7771267211706
 30
0.0
 11
-729.9706916767328
 21
524.0271267211705
 31
0.0
 70
    32
  1
(<>){\H0.6667x;(Insulation area)}
  3
DMC
 13
-694.6523527544886
 23
464.9271267211695
 33
0.0
 14
-702.0923527544887
 24
474.7571267211697
 34
0.0
1001
ACAD
1000
DSTYLE
1002
{
1070
    41
1040
1.5
1070
    47
1040
0.2
1070
    48
1040
0.2
1070
   141
1040
1.5
1070
   371
1070
    13
1070
   372
1070
    13
1002
}
1001
ACADSTRINGINFO
1000
MIFCodePage
1070
     1
  0
DIMENSION
  5
24A
  8
ë±07-Éíû@
  6
CONTINUOUS
 62
     7
  2
*D44
 10
-694.6523527544886
 20
520.7771267211706
 30
0.0
 11
-523.1923527544886
 21
523.7771267211705
 31
0.0
 70
    32
  3
DMC
 13
-351.7323527544886
 23
464.9271267211695
 33
0.0
 14
-694.6523527544886
 24
464.9271267211695
 34
0.0
 50
180.0
1001
ACAD
1000
DSTYLE
1002
{
1070
    41
1040
1.5
1070
    47
1040
0.2
1070
    48
1040
0.2
1070
   141
1040
1.5
1070
   371
1070
    13
1070
   372
1070
    13
1002
}
  0
DIMENSION
  5
259
  8
ë±07-Éíû@
  6
CONTINUOUS
 62
     7
  2
*D45
 10
-343.5923527544887
 20
520.7771267211706
 30
0.0
 11
-318.4630295802762
 21
523.8604642211705
 31
0.0
 70
    32
  1
<>{\H0.6667x;(Insulation area)}
  3
DMC
 13
-351.7323527544886
 23
464.9271267211695
 33
0.0
 14
-343.5923527544887
 24
474.7571267211706
 34
0.0
1001
ACAD
1000
DSTYLE
1002
{
1070
    41
1040
1.5
1070
    47
1040
0.2
1070
    48
1040
0.2
1070
   141
1040
1.5
1070
   371
1070
    13
1070
   372
1070
    13
1002
}
1001
ACADSTRINGINFO
1000
MIFCodePage
1070
     1
  0
DIMENSION
  5
26A
  8
ë±07-Éíû@
  6
CONTINUOUS
 62
     7
  2
*D46
 10
-763.0928448804743
 20
474.7571267211697
 30
0.0
 11
-766.3428448804743
 21
502.1444915647312
 31
0.0
 70
    32
  1
(<>){\H0.6667x;(Insulation area)}
  3
DMC
 13
-694.6523527544886
 23
464.9271267211695
 33
0.0
 14
-702.0923527544887
 24
474.7571267211697
 34
0.0
 50
270.0
1001
ACADSTRINGINFO
1000
MIFCodePage
1070
     1
1001
ACAD
1000
DSTYLE
1002
{
1070
    41
1040
1.5
1070
    47
1040
0.2
1070
    48
1040
0.2
1070
   141
1040
1.5
1070
   371
1070
    13
1070
   372
1070
    13
1002
}
  0
DIMENSION
  5
27B
  8
ë±07-Éíû@
  6
CONTINUOUS
 62
     7
  2
*D47
 10
-763.0928448804734
 20
178.2571267211697
 30
0.0
 11
-763.0928448804734
 21
151.6278035469572
 31
0.0
 70
   160
  1
<>{\H0.6667x;(Insulation area)}
  3
DMC
 13
-694.6523527544886
 23
189.5871267211695
 33
0.0
 14
-702.0923527544887
 24
178.2571267211697
 34
0.0
 50
270.0
1001
ACADSTRINGINFO
1000
MIFCodePage
1070
     1
1001
ACAD
1000
DSTYLE
1002
{
1070
    41
1040
1.5
1070
    47
1040
0.2
1070
    48
1040
0.2
1070
   141
1040
1.5
1070
   371
1070
    13
1070
   372
1070
    13
1002
}
  0
DIMENSION
  5
28C
  8
ë±07-Éíû@
  6
CONTINUOUS
 62
     7
  2
*D48
 10
-763.0928448804732
 20
464.9271267211695
 30
0.0
 11
-763.0928448804732
 21
326.5571267211696
 31
0.0
 70
   160
  3
DMC
 13
-694.6523527544886
 23
189.5871267211695
 33
0.0
 14
-694.6523527544886
 24
464.9271267211695
 34
0.0
 50
270.0
1001
ACAD
1000
DSTYLE
1002
{
1070
    41
1040
1.5
1070
    47
1040
0.2
1070
    48
1040
0.2
1070
   141
1040
1.5
1070
   371
1070
    13
1070
   372
1070
    13
1002
}
  0
DIMENSION
  5
29B
  8
ë±07-Éíû@
  6
CONTINUOUS
 62
     5
  2
*D49
 10
-343.5923527544887
 20
508.7771267211706
 30
0.0
 11
-334.5923527544887
 21
511.7771267211706
 31
0.0
 70
    32
  3
DMC
 13
-352.2323527544886
 23
464.4271267211695
 33
0.0
 14
-343.5923527544887
 24
474.7571267211697
 34
0.0
1001
ACAD
1000
DSTYLE
1002
{
1070
    41
1040
1.5
1070
    47
1040
0.2
1070
    48
1040
0.2
1070
   141
1040
1.5
1070
   371
1070
    13
1070
   372
1070
    13
1002
}
  0
DIMENSION
  5
2AC
  8
ë±07-Éíû@
  6
CONTINUOUS
 62
     5
  2
*D50
 10
-343.5923527544887
 20
496.7771267211706
 30
0.0
 11
-333.3423527544888
 21
499.7771267211706
 31
0.0
 70
    32
  3
DMC
 13
-354.2323527544886
 23
462.4271267211694
 33
0.0
 14
-343.5923527544887
 24
474.7571267211697
 34
0.0
1001
ACAD
1000
DSTYLE
1002
{
1070
    41
1040
1.5
1070
    47
1040
0.2
1070
    48
1040
0.2
1070
   141
1040
1.5
1070
   371
1070
    13
1070
   372
1070
    13
1002
}
  0
DIMENSION
  5
2BD
  8
ë±07-Éíû@
  6
CONTINUOUS
 62
     5
  2
*D51
 10
-702.0923527544887
 20
496.7771267211706
 30
0.0
 11
-713.1084360931866
 21
500.0284349622237
 31
0.0
 70
    32
  1
(<>)
  3
DMC
 13
-692.1523527544886
 23
462.4271267211694
 33
0.0
 14
-702.0923527544887
 24
474.7571267211697
 34
0.0
1001
ACAD
1000
DSTYLE
1002
{
1070
    41
1040
1.5
1070
    47
1040
0.2
1070
    48
1040
0.2
1070
   141
1040
1.5
1070
   371
1070
    13
1070
   372
1070
    13
1002
}
  0
DIMENSION
  5
2CE
  8
ë±07-Éíû@
  6
CONTINUOUS
 62
     5
  2
*D52
 10
-702.0923527544887
 20
508.7771267211706
 30
0.0
 11
-713.0994101718691
 21
512.0284349622237
 31
0.0
 70
    32
  1
(<>)
  3
DMC
 13
-694.1523527544886
 23
464.4271267211695
 33
0.0
 14
-702.0923527544887
 24
474.7571267211697
 34
0.0
1001
ACAD
1000
DSTYLE
1002
{
1070
    41
1040
1.5
1070
    47
1040
0.2
1070
    48
1040
0.2
1070
   141
1040
1.5
1070
   371
1070
    13
1070
   372
1070
    13
1002
}
  0
DIMENSION
  5
2DF
  8
ë±07-Éíû@
  6
CONTINUOUS
 62
     5
  2
*D53
 10
-752.0923527544888
 20
474.7571267211706
 30
0.0
 11
-752.0923527544888
 21
486.7551582172338
 31
0.0
 70
   160
  1
(<>)
  3
DMC
 13
-694.1523527544886
 23
464.4271267211704
 33
0.0
 14
-702.0923527544887
 24
474.7571267211706
 34
0.0
 50
270.0
1001
ACAD
1000
DSTYLE
1002
{
1070
    41
1040
1.5
1070
    47
1040
0.2
1070
    48
1040
0.2
1070
   141
1040
1.5
1070
   371
1070
    13
1070
   372
1070
    13
1002
}
  0
DIMENSION
  5
2F0
  8
ë±07-Éíû@
  6
CONTINUOUS
 62
     5
  2
*D54
 10
-742.0923527544888
 20
474.7571267211697
 30
0.0
 11
-742.0923527544888
 21
486.755158217233
 31
0.0
 70
   160
  1
(<>)
  3
DMC
 13
-692.1523527444882
 23
462.4271267211694
 33
0.0
 14
-702.0923527544887
 24
474.7571267211697
 34
0.0
 50
270.0
1001
ACAD
1000
DSTYLE
1002
{
1070
    41
1040
1.5
1070
    47
1040
0.2
1070
    48
1040
0.2
1070
   141
1040
1.5
1070
   371
1070
    13
1070
   372
1070
    13
1002
}
  0
DIMENSION
  5
301
  8
ë±07-Éíû@
  6
CONTINUOUS
 62
     5
  2
*D55
 10
-742.0923527544887
 20
178.2571267211697
 30
0.0
 11
-742.0923527544887
 21
168.1535733305767
 31
0.0
 70
   160
  3
DMC
 13
-692.1523527544886
 23
192.0871267211693
 33
0.0
 14
-702.0923527544887
 24
178.2571267211697
 34
0.0
 50
270.0
1001
ACAD
1000
DSTYLE
1002
{
1070
    41
1040
1.5
1070
    47
1040
0.2
1070
    48
1040
0.2
1070
   141
1040
1.5
1070
   371
1070
    13
1070
   372
1070
    13
1002
}
  0
DIMENSION
  5
312
  8
ë±07-Éíû@
  6
CONTINUOUS
 62
     5
  2
*D56
 10
-752.0923527544887
 20
178.2571267211697
 30
0.0
 11
-752.0923527544887
 21
168.6535733305767
 31
0.0
 70
   160
  3
DMC
 13
-694.1523527544886
 23
190.0871267211695
 33
0.0
 14
-702.0923527544887
 24
178.2571267211697
 34
0.0
 50
270.0
1001
ACAD
1000
DSTYLE
1002
{
1070
    41
1040
1.5
1070
    47
1040
0.2
1070
    48
1040
0.2
1070
   141
1040
1.5
1070
   371
1070
    13
1070
   372
1070
    13
1002
}
  0
DIMENSION
  5
323
  8
ë±07-Éíû@
  6
CONTINUOUS
 62
     5
  2
*D57
 10
-702.0923527544887
 20
532.7771267211706
 30
0.0
 11
-521.3923527544887
 21
532.7771267211706
 31
0.0
 70
   160
  3
DMC
 13
-343.5923527544887
 23
474.7571267211697
 33
0.0
 14
-702.0923527544887
 24
474.7571267211697
 34
0.0
 50
180.0
1001
ACAD
1000
DSTYLE
1002
{
1070
   147
1040
0.5
1070
    72
1070
     0
1070
    71
1070
     1
1070
    41
1040
1.5
1070
    47
1040
0.3
1070
    48
1040
0.3
1070
   141
1040
1.5
1070
   371
1070
    13
1070
   372
1070
    13
1002
}
  0
DIMENSION
  5
332
  8
ë±07-Éíû@
  6
CONTINUOUS
 62
     5
  2
*D58
 10
-352.2323527544886
 20
508.7771267211706
 30
0.0
 11
-521.5004307597812
 21
508.7771267211706
 31
0.0
 70
   160
  1
<>(Viewing area)
  3
DMC
 13
-694.1523527544886
 23
464.4271267211704
 33
0.0
 14
-352.2323527544886
 24
464.4271267211695
 34
0.0
 50
180.0
1001
ACAD
1000
DSTYLE
1002
{
1070
    41
1040
1.5
1070
    47
1040
0.2
1070
    48
1040
0.2
1070
   141
1040
1.5
1070
   371
1070
    13
1070
   372
1070
    13
1002
}
  0
DIMENSION
  5
341
  8
ë±07-Éíû@
  6
CONTINUOUS
 62
     5
  2
*D59
 10
-692.1523527444882
 20
496.7771267211706
 30
0.0
 11
-523.1923527494884
 21
500.0271267211705
 31
0.0
 70
    32
  1
<>(Active area)
  3
DMC
 13
-354.2323527544886
 23
462.4271267211694
 33
0.0
 14
-692.1523527444882
 24
462.4271267211694
 34
0.0
 50
180.0
1001
ACAD
1000
DSTYLE
1002
{
1070
    41
1040
1.5
1070
    47
1040
0.2
1070
    48
1040
0.2
1070
   141
1040
1.5
1070
   371
1070
    13
1070
   372
1070
    13
1002
}
  0
DIMENSION
  5
350
  8
ë±07-Éíû@
  6
CONTINUOUS
 62
     5
  2
*D60
 10
-772.0923527544885
 20
178.2571267211697
 30
0.0
 11
-772.0923527544885
 21
326.5071267211697
 31
0.0
 70
   160
  3
DMC
 13
-702.0923527544887
 23
474.7571267211697
 33
0.0
 14
-702.0923527544887
 24
178.2571267211697
 34
0.0
 50
270.0
1001
ACAD
1000
DSTYLE
1002
{
1070
    41
1040
1.5
1070
    47
1040
0.3
1070
    48
1040
0.3
1070
    71
1070
     1
1070
   141
1040
1.5
1070
   371
1070
    13
1070
   372
1070
    13
1002
}
  0
DIMENSION
  5
35F
  8
ë±07-Éíû@
  6
CONTINUOUS
 62
     5
  2
*D61
 10
-752.0923527544886
 20
190.0871267211695
 30
0.0
 11
-752.0923527544886
 21
326.5571267211697
 31
0.0
 70
   160
  1
<>(Viewing area)
  3
DMC
 13
-694.1523527544886
 23
464.4271267211704
 33
0.0
 14
-694.1523527544886
 24
190.0871267211695
 34
0.0
 50
270.0
1001
ACAD
1000
DSTYLE
1002
{
1070
    41
1040
1.5
1070
    47
1040
0.2
1070
    48
1040
0.2
1070
   141
1040
1.5
1070
   371
1070
    13
1070
   372
1070
    13
1002
}
  0
DIMENSION
  5
36E
  8
ë±07-Éíû@
  6
CONTINUOUS
 62
     5
  2
*D62
 10
-742.0923527544886
 20
462.4271267211694
 30
0.0
 11
-742.0923527544886
 21
326.5571267211697
 31
0.0
 70
   160
  1
<>(Active area)
  3
DMC
 13
-692.1523527544886
 23
192.0871267211695
 33
0.0
 14
-692.1523527444882
 24
462.4271267211694
 34
0.0
 50
270.0
1001
ACAD
1000
DSTYLE
1002
{
1070
    41
1040
1.5
1070
    47
1040
0.2
1070
    48
1040
0.2
1070
   141
1040
1.5
1070
   371
1070
    13
1070
   372
1070
    13
1002
}
  0
DIMENSION
  5
37D
  8
ë±07-Éíû@
  6
CONTINUOUS
 62
    18
  2
*D63
 10
-516.0884740649367
 20
51.59465245439122
 30
0.0
 11
-609.0904134097127
 21
54.84465245439122
 31
0.0
 70
    32
  1
(<>)
  3
DMC
 13
-702.0923527544887
 23
178.2571267211702
 33
0.0
 14
-516.0884740649367
 24
78.76117509198076
 34
0.0
1001
ACAD
1000
DSTYLE
1002
{
1070
    41
1040
1.5
1070
    47
1040
0.2
1070
    48
1040
0.2
1070
   141
1040
1.5
1070
   371
1070
    13
1070
   372
1070
    13
1002
}
  0
DIMENSION
  5
38C
  8
ë±07-Éíû@
  6
CONTINUOUS
 62
     6
  2
*D64
 10
-702.0923527544887
 20
62.11838557140765
 30
0.0
 11
-623.5904134097128
 21
65.36838557140765
 31
0.0
 70
    32
  1
(<>)
  3
DMC
 13
-545.0884740649369
 23
78.75712672116998
 33
0.0
 14
-702.0923527544887
 24
178.2571267211699
 34
0.0
 50
180.0
1001
ACAD
1000
DSTYLE
1002
{
1070
    41
1040
1.5
1070
    47
1040
0.2
1070
    48
1040
0.2
1070
   141
1040
1.5
1070
   371
1070
    13
1070
   372
1070
    13
1002
}
  0
POLYLINE
  5
39B
  8
ë±08-ïLÄû
  6
CONTINUOUS
 62
     7
 66
     1
 10
0.0
 20
0.0
 30
0.0
 70
     1
1001
ACAD
1000
ASC_BOUNDS
1002
{
1070
    19
1005
39D
1002
}
  0
VERTEX
  5
723
  8
ë±08-ïLÄû
  6
CONTINUOUS
 62
     7
 10
-522.3373487494878
 20
174.6254130207772
 30
0.0
  0
VERTEX
  5
725
  8
ë±08-ïLÄû
  6
CONTINUOUS
 62
     7
 10
-496.3373487494878
 20
174.6254130207772
 30
0.0
  0
VERTEX
  5
726
  8
ë±08-ïLÄû
  6
CONTINUOUS
 62
     7
 10
-496.3373487494878
 20
181.8254130207772
 30
0.0
  0
VERTEX
  5
727
  8
ë±08-ïLÄû
  6
CONTINUOUS
 62
     7
 10
-522.3373487494878
 20
181.8254130207772
 30
0.0
  0
SEQEND
  5
724
  8
ë±90-ÿg2
  6
CONTINUOUS
 62
     7
  0
POLYLINE
  5
39C
  8
ë±08-ïLÄû
  6
CONTINUOUS
 62
     7
 66
     1
 10
0.0
 20
0.0
 30
0.0
 70
     1
1001
ACAD
1000
ASC_BOUNDS
1002
{
1070
    19
1005
3A1
1002
}
  0
VERTEX
  5
728
  8
ë±08-ïLÄû
  6
CONTINUOUS
 62
     7
 10
-558.3373487494879
 20
174.6254130207772
 30
0.0
  0
VERTEX
  5
72A
  8
ë±08-ïLÄû
  6
CONTINUOUS
 62
     7
 10
-524.3373487494879
 20
174.6254130207772
 30
0.0
  0
VERTEX
  5
72B
  8
ë±08-ïLÄû
  6
CONTINUOUS
 62
     7
 10
-524.3373487494879
 20
181.8254130207772
 30
0.0
  0
VERTEX
  5
72C
  8
ë±08-ïLÄû
  6
CONTINUOUS
 62
     7
 10
-558.3373487494879
 20
181.8254130207772
 30
0.0
  0
SEQEND
  5
729
  8
ë±90-ÿg2
  6
CONTINUOUS
 62
     7
  0
INSERT
  5
39D
  8
ë±08-ïLÄû
  6
PHANTOM2
 62
     7
 66
     1
  2
*X79
 10
0.0
 20
0.0
 30
0.0
1001
GRADIENTCOLOR1ACI
1070
     5
1001
GRADIENTCOLOR2ACI
1070
     2
1001
ACAD
1010
0.0
1020
0.0
1030
0.0
  0
SEQEND
  5
748
  8
ë±90-ÿg2
  6
CONTINUOUS
 62
     7
  0
INSERT
  5
3A1
  8
ë±08-ïLÄû
  6
PHANTOM2
 62
     7
 66
     1
  2
*X80
 10
0.0
 20
0.0
 30
0.0
1001
GRADIENTCOLOR1ACI
1070
     5
1001
GRADIENTCOLOR2ACI
1070
     2
1001
ACAD
1010
0.0
1020
0.0
1030
0.0
  0
SEQEND
  5
76A
  8
ë±90-ÿg2
  6
CONTINUOUS
 62
     7
  0
DIMENSION
  5
3A2
  8
ë±07-Éíû@
  6
CONTINUOUS
 62
    18
  2
*D65
 10
-469.9430852501701
 20
178.2571267211693
 30
0.0
 11
-472.9430852501701
 21
128.2591509065744
 31
0.0
 70
    32
  3
DMC
 13
-503.0884740649367
 23
78.26117509197962
 33
0.0
 14
-495.8373487494883
 24
178.2571267211693
 34
0.0
 50
90.0
1001
ACAD
1000
DSTYLE
1002
{
1070
   147
1040
0.5
1070
    72
1070
     0
1070
    71
1070
     1
1070
    41
1040
1.5
1070
    47
1040
1.0
1070
    48
1040
1.0
1070
   141
1040
1.5
1070
   271
1070
     0
1070
   272
1070
     3
1070
   371
1070
     0
1070
   372
1070
     0
1002
}
  0
DIMENSION
  5
3B1
  8
ë±07-Éíû@
  6
CONTINUOUS
 62
     1
  2
*D66
 10
-482.2450475618085
 20
167.95036648711
 30
0.0
 11
-482.2450475618085
 21
159.5968130965164
 31
0.0
 70
   160
  3
DMC
 13
-495.8373487494883
 23
178.257126721169
 33
0.0
 14
-502.5884740649368
 24
167.95036648711
 34
0.0
 50
90.0
1001
ACAD
1000
DSTYLE
1002
{
1070
    41
1040
1.5
1070
    47
1040
0.2
1070
    48
1040
0.2
1070
   141
1040
1.5
1070
   271
1070
     1
1070
   272
1070
     3
1070
   371
1070
     0
1070
   372
1070
     0
1002
}
  0
DIMENSION
  5
3C2
  8
ë±07-Éíû@
  6
CONTINUOUS
 62
     1
  2
*D67
 10
-489.5811527524048
 20
174.7014918025582
 30
0.0
 11
-489.5811527524048
 21
163.1107302421549
 31
0.0
 70
   160
  3
DMC
 13
-495.8373487494883
 23
178.257126721169
 33
0.0
 14
-495.8373487494883
 24
174.7014918025582
 34
0.0
 50
90.0
1001
ACAD
1000
DSTYLE
1002
{
1070
    41
1040
1.5
1070
    47
1040
0.2
1070
    48
1040
0.2
1070
   141
1040
1.5
1070
   271
1070
     1
1070
   272
1070
     3
1070
   371
1070
     0
1070
   372
1070
     0
1002
}
  0
DIMENSION
  5
3D3
  8
ë±07-Éíû@
  6
CONTINUOUS
 62
     1
  2
*D68
 10
-572.6390474188298
 20
160.8806110734618
 30
0.0
 11
-572.6390474188298
 21
170.3577137453188
 31
0.0
 70
   160
  3
DMC
 13
-558.8373487494883
 23
178.2571267211697
 33
0.0
 14
-545.0884740649367
 24
160.8806110734618
 34
0.0
 50
90.0
1001
ACAD
1000
DSTYLE
1002
{
1070
    41
1040
1.5
1070
    47
1040
0.2
1070
    48
1040
0.2
1070
   141
1040
1.5
1070
   271
1070
     1
1070
   272
1070
     3
1070
   371
1070
     0
1070
   372
1070
     0
1002
}
  0
DIMENSION
  5
3E2
  8
ë±07-Éíû@
  6
CONTINUOUS
 62
     1
  2
*D69
 10
-564.942371202857
 20
174.6294857580133
 30
0.0
 11
-564.942371202857
 21
167.5054700099816
 31
0.0
 70
   160
  3
DMC
 13
-558.8373487494883
 23
178.2571267211697
 33
0.0
 14
-558.8373487494883
 24
174.6294857580133
 34
0.0
 50
90.0
1001
ACAD
1000
DSTYLE
1002
{
1070
    41
1040
1.5
1070
    47
1040
0.2
1070
    48
1040
0.2
1070
   141
1040
1.5
1070
   271
1070
     1
1070
   272
1070
     3
1070
   371
1070
     0
1070
   372
1070
     0
1002
}
  0
DIMENSION
  5
3F3
  8
ë±07-Éíû@
  6
CONTINUOUS
 62
     5
  2
*D70
 10
-585.6051055771096
 20
78.26117509198053
 30
0.0
 11
-585.6051055771096
 21
129.2551025357641
 31
0.0
 70
   160
  3
DMC
 13
-558.8373487494883
 23
178.2571267211697
 33
0.0
 14
-544.5884740649368
 24
78.26117509198053
 34
0.0
 50
270.0
1001
ACAD
1000
DSTYLE
1002
{
1070
   147
1040
0.5
1070
    72
1070
     0
1070
    71
1070
     1
1070
    41
1040
1.5
1070
    47
1040
1.0
1070
    48
1040
1.0
1070
   141
1040
1.5
1070
   271
1070
     0
1070
   272
1070
     3
1070
   371
1070
     0
1070
   372
1070
     0
1002
}
  0
POLYLINE
  5
402
  8
ë±08-ïLÄû
  6
CONTINUOUS
 62
     7
 66
     1
 10
0.0
 20
0.0
 30
0.0
 70
     1
  0
VERTEX
  5
76B
  8
ë±08-ïLÄû
  6
CONTINUOUS
 62
     7
 10
-537.6525589846174
 20
158.2764460765664
 30
0.0
  0
VERTEX
  5
76D
  8
ë±08-ïLÄû
  6
CONTINUOUS
 62
     7
 10
-534.6525589846175
 20
158.2764460765664
 30
0.0
 42
-0.4142135623730951
  0
VERTEX
  5
76E
  8
ë±08-ïLÄû
  6
CONTINUOUS
 62
     7
 10
-534.1525589846175
 20
157.7764460765664
 30
0.0
  0
VERTEX
  5
76F
  8
ë±08-ïLÄû
  6
CONTINUOUS
 62
     7
 10
-534.1525589846175
 20
132.7764460765664
 30
0.0
 42
-0.4142135623730951
  0
VERTEX
  5
770
  8
ë±08-ïLÄû
  6
CONTINUOUS
 62
     7
 10
-534.6525589846175
 20
132.2764460765664
 30
0.0
  0
VERTEX
  5
771
  8
ë±08-ïLÄû
  6
CONTINUOUS
 62
     7
 10
-537.6525589846174
 20
132.2764460765664
 30
0.0
 42
-0.4142135623730951
  0
VERTEX
  5
772
  8
ë±08-ïLÄû
  6
CONTINUOUS
 62
     7
 10
-538.1525589846175
 20
132.7764460765664
 30
0.0
  0
VERTEX
  5
773
  8
ë±08-ïLÄû
  6
CONTINUOUS
 62
     7
 10
-538.1525589846175
 20
157.7764460765664
 30
0.0
 42
-0.4142135623730951
  0
SEQEND
  5
76C
  8
ë±90-ÿg2
  6
CONTINUOUS
 62
     7
  0
INSERT
  5
403
  8
ë±08-ïLÄû
  6
CONTINUOUS
 62
     7
 66
     1
  2
*X81
 10
0.0
 20
0.0
 30
0.0
1001
GRADIENTCOLOR1ACI
1070
     5
1001
GRADIENTCOLOR2ACI
1070
     2
1001
ACAD
1010
0.0
1020
0.0
1030
0.0
  0
SEQEND
  5
78D
  8
ë±90-ÿg2
  6
CONTINUOUS
 62
     7
  0
TEXT
  5
404
  8
ë±08-ïLÄû
  6
CONTINUOUS
 62
     7
 10
-502.0886307083852
 20
79.62199926592922
 30
0.0
 40
3.0
  1
1
  0
TEXT
  5
405
  8
ë±08-ïLÄû
  6
CONTINUOUS
 62
     7
 10
-520.6798011634388
 20
79.43254962349175
 30
0.0
 40
3.0
  1
26
  0
TEXT
  5
406
  8
ë±08-ïLÄû
  6
CONTINUOUS
 62
     7
 10
-550.0072907114887
 20
79.64881576243652
 30
0.0
 40
3.0
  1
60
  0
TEXT
  5
407
  8
ë±08-ïLÄû
  6
CONTINUOUS
 62
     7
 10
-527.134094388292
 20
79.51956445769457
 30
0.0
 40
3.0
  1
27
  0
POLYLINE
  5
408
  8
ë±05-├░┘
  6
CONTINUOUS
 62
     7
 66
     1
 10
0.0
 20
0.0
 30
0.0
 70
     1
  0
VERTEX
  5
78E
  8
ë±05-├░┘
  6
CONTINUOUS
 62
     7
 10
-523.8373487494883
 20
181.4071267211696
 30
0.0
  0
VERTEX
  5
790
  8
ë±05-├░┘
  6
CONTINUOUS
 62
     7
 10
-558.8373487494883
 20
181.4071267211696
 30
0.0
  0
VERTEX
  5
791
  8
ë±05-├░┘
  6
CONTINUOUS
 62
     7
 10
-558.8373487494883
 20
175.0436993203869
 30
0.0
 42
0.1989123673796998
  0
VERTEX
  5
792
  8
ë±05-├░┘
  6
CONTINUOUS
 62
     7
 10
-558.5444555306749
 20
174.3365925392002
 30
0.0
  0
VERTEX
  5
793
  8
ë±05-├░┘
  6
CONTINUOUS
 62
     7
 10
-545.3813672837504
 20
161.1735042922758
 30
0.0
 42
-0.1989123673796998
  0
VERTEX
  5
794
  8
ë±05-├░┘
  6
CONTINUOUS
 62
     7
 10
-545.0884740649367
 20
160.4663975110891
 30
0.0
  0
VERTEX
  5
795
  8
ë±05-├░┘
  6
CONTINUOUS
 62
     7
 10
-545.0884740649367
 20
78.76117509198076
 30
0.0
 42
0.4142135623730951
  0
VERTEX
  5
796
  8
ë±05-├░┘
  6
CONTINUOUS
 62
     7
 10
-544.5884740649368
 20
78.26117509198076
 30
0.0
  0
VERTEX
  5
797
  8
ë±05-├░┘
  6
CONTINUOUS
 62
     7
 10
-528.0884740649367
 20
78.26117509198076
 30
0.0
 42
0.4142135623730951
  0
VERTEX
  5
798
  8
ë±05-├░┘
  6
CONTINUOUS
 62
     7
 10
-527.5884740649368
 20
78.76117509198076
 30
0.0
  0
VERTEX
  5
799
  8
ë±05-├░┘
  6
CONTINUOUS
 62
     7
 10
-527.5884740649368
 20
170.4641468801922
 30
0.0
 42
-0.1989123673796998
  0
VERTEX
  5
79A
  8
ë±05-├░┘
  6
CONTINUOUS
 62
     7
 10
-527.2955808461232
 20
171.1712536613789
 30
0.0
  0
VERTEX
  5
79B
  8
ë±05-├░┘
  6
CONTINUOUS
 62
     7
 10
-524.1302419683016
 20
174.3365925392002
 30
0.0
 42
0.1989123673796998
  0
VERTEX
  5
79C
  8
ë±05-├░┘
  6
CONTINUOUS
 62
     7
 10
-523.8373487494883
 20
175.0436993203869
 30
0.0
  0
SEQEND
  5
78F
  8
ë±90-ÿg2
  6
CONTINUOUS
 62
     7
  0
POLYLINE
  5
40A
  8
ë±05-├░┘
  6
CONTINUOUS
 62
     7
 66
     1
 10
0.0
 20
0.0
 30
0.0
  0
VERTEX
  5
79D
  8
ë±05-├░┘
  6
CONTINUOUS
 62
     7
 10
-516.0884740649367
 20
167.5384035556347
 30
0.0
 42
0.1989123673796998
  0
VERTEX
  5
79F
  8
ë±05-├░┘
  6
CONTINUOUS
 62
     7
 10
-516.3813672837504
 20
168.2455103368214
 30
0.0
 42
-0.1989123673796998
  0
VERTEX
  5
7A0
  8
ë±05-├░┘
  6
CONTINUOUS
 62
     7
 10
-516.0884740649367
 20
167.5384035556347
 30
0.0
  0
VERTEX
  5
7A1
  8
ë±05-├░┘
  6
CONTINUOUS
 62
     7
 10
-516.0884740649367
 20
78.76117509198076
 30
0.0
 42
0.4142135623730951
  0
VERTEX
  5
7A2
  8
ë±05-├░┘
  6
CONTINUOUS
 62
     7
 10
-515.5884740649367
 20
78.26117509198076
 30
0.0
  0
VERTEX
  5
7A3
  8
ë±05-├░┘
  6
CONTINUOUS
 62
     7
 10
-503.0884740649367
 20
78.26117509198076
 30
0.0
 42
0.4142135623730951
  0
VERTEX
  5
7A4
  8
ë±05-├░┘
  6
CONTINUOUS
 62
     7
 10
-502.5884740649368
 20
78.76117509197985
 30
0.0
  0
VERTEX
  5
7A5
  8
ë±05-├░┘
  6
CONTINUOUS
 62
     7
 10
-502.5884740649368
 20
167.5361529247369
 30
0.0
 42
-0.1989123673796998
  0
VERTEX
  5
7A6
  8
ë±05-├░┘
  6
CONTINUOUS
 62
     7
 10
-502.2955808461232
 20
168.2432597059235
 30
0.0
  0
VERTEX
  5
7A7
  8
ë±05-├░┘
  6
CONTINUOUS
 62
     7
 10
-496.1302419683017
 20
174.4085985837449
 30
0.0
 42
0.1989123673796998
  0
VERTEX
  5
7A8
  8
ë±05-├░┘
  6
CONTINUOUS
 62
     7
 10
-495.8373487494883
 20
175.1157053649315
 30
0.0
  0
VERTEX
  5
7A9
  8
ë±05-├░┘
  6
CONTINUOUS
 62
     7
 10
-495.8373487494883
 20
181.4071267211687
 30
0.0
  0
VERTEX
  5
7AA
  8
ë±05-├░┘
  6
CONTINUOUS
 62
     7
 10
-522.8373487494883
 20
181.4071267211687
 30
0.0
  0
VERTEX
  5
7AB
  8
ë±05-├░┘
  6
CONTINUOUS
 62
     7
 10
-522.8373487494883
 20
175.1157053649315
 30
0.0
 42
0.1989123673796998
  0
VERTEX
  5
7AC
  8
ë±05-├░┘
  6
CONTINUOUS
 62
     7
 10
-522.5444555306747
 20
174.4085985837449
 30
0.0
  0
VERTEX
  5
7AD
  8
ë±05-├░┘
  6
CONTINUOUS
 62
     7
 10
-516.3813672837505
 20
168.2455103368204
 30
0.0
  0
SEQEND
  5
79E
  8
ë±90-ÿg2
  6
CONTINUOUS
 62
     7
  0
POLYLINE
  5
40B
  8
ë±04-ë║É┌
  6
CONTINUOUS
 62
     7
 66
     1
 10
0.0
 20
0.0
 30
0.0
 70
     1
  0
VERTEX
  5
7AE
  8
ë±04-ë║É┌
  6
CONTINUOUS
 62
     7
 10
-343.5923527544887
 20
178.2571267211697
 30
0.0
  0
VERTEX
  5
7B0
  8
ë±04-ë║É┌
  6
CONTINUOUS
 62
     7
 10
-702.0923527544887
 20
178.2571267211697
 30
0.0
  0
VERTEX
  5
7B1
  8
ë±04-ë║É┌
  6
CONTINUOUS
 62
     7
 10
-702.0923527544887
 20
474.7571267211697
 30
0.0
  0
VERTEX
  5
7B2
  8
ë±04-ë║É┌
  6
CONTINUOUS
 62
     7
 10
-343.5923527544887
 20
474.7571267211697
 30
0.0
  0
SEQEND
  5
7AF
  8
ë±90-ÿg2
  6
CONTINUOUS
 62
     7
  0
LINE
  5
40F
  8
ë±07-Éíû@
  6
CENTER2
 62
     5
 10
-350.7323527544886
 20
327.2571267211696
 30
0.0
 11
-695.6523527544886
 21
327.2571267211696
 31
0.0
  0
LINE
  5
411
  8
ë±07-Éíû@
  6
CENTER2
 62
     5
 10
-523.1923527544886
 20
188.5871267211696
 30
0.0
 11
-523.1923527544886
 21
465.9271267211694
 31
0.0
  0
POLYLINE
  5
412
  8
ë±01-ÅÒER
  6
CONTINUOUS
 62
     7
 66
     1
 10
0.0
 20
0.0
 30
0.0
  0
VERTEX
  5
7B3
  8
ë±01-ÅÒER
  6
CONTINUOUS
 62
     7
 10
-692.1523527544886
 20
192.0871267211693
 30
0.0
  0
VERTEX
  5
7B5
  8
ë±01-ÅÒER
  6
CONTINUOUS
 62
     7
 10
-354.2323527544886
 20
192.0871267211693
 30
0.0
  0
SEQEND
  5
7B4
  8
ë±90-ÿg2
  6
CONTINUOUS
 62
     7
  0
POLYLINE
  5
416
  8
ë±01-ÅÒER
  6
CONTINUOUS
 62
     7
 66
     1
 10
0.0
 20
0.0
 30
0.0
  0
VERTEX
  5
7B6
  8
ë±01-ÅÒER
  6
CONTINUOUS
 62
     7
 10
-354.2323527544886
 20
214.2487933878346
 30
0.0
  0
VERTEX
  5
7B8
  8
ë±01-ÅÒER
  6
CONTINUOUS
 62
     7
 10
-692.1523527544886
 20
214.2487933878346
 30
0.0
  0
SEQEND
  5
7B7
  8
ë±90-ÿg2
  6
CONTINUOUS
 62
     7
  0
POLYLINE
  5
417
  8
ë±01-ÅÒER
  6
CONTINUOUS
 62
     7
 66
     1
 10
0.0
 20
0.0
 30
0.0
  0
VERTEX
  5
7B9
  8
ë±01-ÅÒER
  6
CONTINUOUS
 62
     7
 10
-692.1523527544886
 20
214.6487933878361
 30
0.0
  0
VERTEX
  5
7BB
  8
ë±01-ÅÒER
  6
CONTINUOUS
 62
     7
 10
-354.2323527544886
 20
214.6487933878361
 30
0.0
  0
SEQEND
  5
7BA
  8
ë±90-ÿg2
  6
CONTINUOUS
 62
     7
  0
POLYLINE
  5
418
  8
ë±01-ÅÒER
  6
CONTINUOUS
 62
     7
 66
     1
 10
0.0
 20
0.0
 30
0.0
  0
VERTEX
  5
7BC
  8
ë±01-ÅÒER
  6
CONTINUOUS
 62
     7
 10
-354.2323527544886
 20
236.8104600545013
 30
0.0
  0
VERTEX
  5
7BE
  8
ë±01-ÅÒER
  6
CONTINUOUS
 62
     7
 10
-692.1523527544886
 20
236.8104600545013
 30
0.0
  0
SEQEND
  5
7BD
  8
ë±90-ÿg2
  6
CONTINUOUS
 62
     7
  0
POLYLINE
  5
419
  8
ë±01-ÅÒER
  6
CONTINUOUS
 62
     7
 66
     1
 10
0.0
 20
0.0
 30
0.0
  0
VERTEX
  5
7BF
  8
ë±01-ÅÒER
  6
CONTINUOUS
 62
     7
 10
-692.1523527544886
 20
237.2104600545028
 30
0.0
  0
VERTEX
  5
7C1
  8
ë±01-ÅÒER
  6
CONTINUOUS
 62
     7
 10
-354.2323527544886
 20
237.2104600545028
 30
0.0
  0
SEQEND
  5
7C0
  8
ë±90-ÿg2
  6
CONTINUOUS
 62
     7
  0
POLYLINE
  5
41A
  8
ë±01-ÅÒER
  6
CONTINUOUS
 62
     7
 66
     1
 10
0.0
 20
0.0
 30
0.0
  0
VERTEX
  5
7C2
  8
ë±01-ÅÒER
  6
CONTINUOUS
 62
     7
 10
-354.2323527544886
 20
259.3721267211681
 30
0.0
  0
VERTEX
  5
7C4
  8
ë±01-ÅÒER
  6
CONTINUOUS
 62
     7
 10
-692.1523527544886
 20
259.3721267211681
 30
0.0
  0
SEQEND
  5
7C3
  8
ë±90-ÿg2
  6
CONTINUOUS
 62
     7
  0
POLYLINE
  5
41B
  8
ë±01-ÅÒER
  6
CONTINUOUS
 62
     7
 66
     1
 10
0.0
 20
0.0
 30
0.0
  0
VERTEX
  5
7C5
  8
ë±01-ÅÒER
  6
CONTINUOUS
 62
     7
 10
-692.1523527544886
 20
259.7721267211695
 30
0.0
  0
VERTEX
  5
7C7
  8
ë±01-ÅÒER
  6
CONTINUOUS
 62
     7
 10
-354.2323527544886
 20
259.7721267211695
 30
0.0
  0
SEQEND
  5
7C6
  8
ë±90-ÿg2
  6
CONTINUOUS
 62
     7
  0
POLYLINE
  5
41C
  8
ë±01-ÅÒER
  6
CONTINUOUS
 62
     7
 66
     1
 10
0.0
 20
0.0
 30
0.0
  0
VERTEX
  5
7C8
  8
ë±01-ÅÒER
  6
CONTINUOUS
 62
     7
 10
-354.2323527544886
 20
281.9337933878348
 30
0.0
  0
VERTEX
  5
7CA
  8
ë±01-ÅÒER
  6
CONTINUOUS
 62
     7
 10
-692.1523527544886
 20
281.9337933878348
 30
0.0
  0
SEQEND
  5
7C9
  8
ë±90-ÿg2
  6
CONTINUOUS
 62
     7
  0
POLYLINE
  5
41D
  8
ë±01-ÅÒER
  6
CONTINUOUS
 62
     7
 66
     1
 10
0.0
 20
0.0
 30
0.0
  0
VERTEX
  5
7CB
  8
ë±01-ÅÒER
  6
CONTINUOUS
 62
     7
 10
-692.1523527544886
 20
282.3337933878363
 30
0.0
  0
VERTEX
  5
7CD
  8
ë±01-ÅÒER
  6
CONTINUOUS
 62
     7
 10
-354.2323527544886
 20
282.3337933878363
 30
0.0
  0
SEQEND
  5
7CC
  8
ë±90-ÿg2
  6
CONTINUOUS
 62
     7
  0
POLYLINE
  5
41E
  8
ë±01-ÅÒER
  6
CONTINUOUS
 62
     7
 66
     1
 10
0.0
 20
0.0
 30
0.0
  0
VERTEX
  5
7CE
  8
ë±01-ÅÒER
  6
CONTINUOUS
 62
     7
 10
-354.2323527544886
 20
304.4954600545015
 30
0.0
  0
VERTEX
  5
7D0
  8
ë±01-ÅÒER
  6
CONTINUOUS
 62
     7
 10
-692.1523527544886
 20
304.4954600545015
 30
0.0
  0
SEQEND
  5
7CF
  8
ë±90-ÿg2
  6
CONTINUOUS
 62
     7
  0
POLYLINE
  5
41F
  8
ë±01-ÅÒER
  6
CONTINUOUS
 62
     7
 66
     1
 10
0.0
 20
0.0
 30
0.0
  0
VERTEX
  5
7D1
  8
ë±01-ÅÒER
  6
CONTINUOUS
 62
     7
 10
-692.1523527544886
 20
304.895460054503
 30
0.0
  0
VERTEX
  5
7D3
  8
ë±01-ÅÒER
  6
CONTINUOUS
 62
     7
 10
-354.2323527544886
 20
304.895460054503
 30
0.0
  0
SEQEND
  5
7D2
  8
ë±90-ÿg2
  6
CONTINUOUS
 62
     7
  0
POLYLINE
  5
420
  8
ë±01-ÅÒER
  6
CONTINUOUS
 62
     7
 66
     1
 10
0.0
 20
0.0
 30
0.0
  0
VERTEX
  5
7D4
  8
ë±01-ÅÒER
  6
CONTINUOUS
 62
     7
 10
-354.2323527544886
 20
327.0571267211682
 30
0.0
  0
VERTEX
  5
7D6
  8
ë±01-ÅÒER
  6
CONTINUOUS
 62
     7
 10
-692.1523527544886
 20
327.0571267211682
 30
0.0
  0
SEQEND
  5
7D5
  8
ë±90-ÿg2
  6
CONTINUOUS
 62
     7
  0
POLYLINE
  5
421
  8
ë±01-ÅÒER
  6
CONTINUOUS
 62
     7
 66
     1
 10
0.0
 20
0.0
 30
0.0
  0
VERTEX
  5
7D7
  8
ë±01-ÅÒER
  6
CONTINUOUS
 62
     7
 10
-692.1523527544886
 20
327.4571267211697
 30
0.0
  0
VERTEX
  5
7D9
  8
ë±01-ÅÒER
  6
CONTINUOUS
 62
     7
 10
-354.2323527544886
 20
327.4571267211697
 30
0.0
  0
SEQEND
  5
7D8
  8
ë±90-ÿg2
  6
CONTINUOUS
 62
     7
  0
POLYLINE
  5
422
  8
ë±01-ÅÒER
  6
CONTINUOUS
 62
     7
 66
     1
 10
0.0
 20
0.0
 30
0.0
  0
VERTEX
  5
7DA
  8
ë±01-ÅÒER
  6
CONTINUOUS
 62
     7
 10
-354.2323527544886
 20
349.618793387835
 30
0.0
  0
VERTEX
  5
7DC
  8
ë±01-ÅÒER
  6
CONTINUOUS
 62
     7
 10
-692.1523527544886
 20
349.618793387835
 30
0.0
  0
SEQEND
  5
7DB
  8
ë±90-ÿg2
  6
CONTINUOUS
 62
     7
  0
POLYLINE
  5
423
  8
ë±01-ÅÒER
  6
CONTINUOUS
 62
     7
 66
     1
 10
0.0
 20
0.0
 30
0.0
  0
VERTEX
  5
7DD
  8
ë±01-ÅÒER
  6
CONTINUOUS
 62
     7
 10
-692.1523527544886
 20
350.0187933878364
 30
0.0
  0
VERTEX
  5
7DF
  8
ë±01-ÅÒER
  6
CONTINUOUS
 62
     7
 10
-354.2323527544886
 20
350.0187933878364
 30
0.0
  0
SEQEND
  5
7DE
  8
ë±90-ÿg2
  6
CONTINUOUS
 62
     7
  0
POLYLINE
  5
424
  8
ë±01-ÅÒER
  6
CONTINUOUS
 62
     7
 66
     1
 10
0.0
 20
0.0
 30
0.0
  0
VERTEX
  5
7E0
  8
ë±01-ÅÒER
  6
CONTINUOUS
 62
     7
 10
-354.2323527544886
 20
372.1804600545017
 30
0.0
  0
VERTEX
  5
7E2
  8
ë±01-ÅÒER
  6
CONTINUOUS
 62
     7
 10
-692.1523527544886
 20
372.1804600545017
 30
0.0
  0
SEQEND
  5
7E1
  8
ë±90-ÿg2
  6
CONTINUOUS
 62
     7
  0
POLYLINE
  5
425
  8
ë±01-ÅÒER
  6
CONTINUOUS
 62
     7
 66
     1
 10
0.0
 20
0.0
 30
0.0
  0
VERTEX
  5
7E3
  8
ë±01-ÅÒER
  6
CONTINUOUS
 62
     7
 10
-692.1523527544886
 20
372.5804600545032
 30
0.0
  0
VERTEX
  5
7E5
  8
ë±01-ÅÒER
  6
CONTINUOUS
 62
     7
 10
-354.2323527544886
 20
372.5804600545032
 30
0.0
  0
SEQEND
  5
7E4
  8
ë±90-ÿg2
  6
CONTINUOUS
 62
     7
  0
POLYLINE
  5
426
  8
ë±01-ÅÒER
  6
CONTINUOUS
 62
     7
 66
     1
 10
0.0
 20
0.0
 30
0.0
  0
VERTEX
  5
7E6
  8
ë±01-ÅÒER
  6
CONTINUOUS
 62
     7
 10
-354.2323527544886
 20
394.7421267211684
 30
0.0
  0
VERTEX
  5
7E8
  8
ë±01-ÅÒER
  6
CONTINUOUS
 62
     7
 10
-692.1523527544886
 20
394.7421267211684
 30
0.0
  0
SEQEND
  5
7E7
  8
ë±90-ÿg2
  6
CONTINUOUS
 62
     7
  0
POLYLINE
  5
427
  8
ë±01-ÅÒER
  6
CONTINUOUS
 62
     7
 66
     1
 10
0.0
 20
0.0
 30
0.0
  0
VERTEX
  5
7E9
  8
ë±01-ÅÒER
  6
CONTINUOUS
 62
     7
 10
-692.1523527544886
 20
395.1421267211699
 30
0.0
  0
VERTEX
  5
7EB
  8
ë±01-ÅÒER
  6
CONTINUOUS
 62
     7
 10
-354.2323527544886
 20
395.1421267211699
 30
0.0
  0
SEQEND
  5
7EA
  8
ë±90-ÿg2
  6
CONTINUOUS
 62
     7
  0
POLYLINE
  5
428
  8
ë±01-ÅÒER
  6
CONTINUOUS
 62
     7
 66
     1
 10
0.0
 20
0.0
 30
0.0
  0
VERTEX
  5
7EC
  8
ë±01-ÅÒER
  6
CONTINUOUS
 62
     7
 10
-354.2323527544886
 20
417.3037933878351
 30
0.0
  0
VERTEX
  5
7EE
  8
ë±01-ÅÒER
  6
CONTINUOUS
 62
     7
 10
-692.1523527544886
 20
417.3037933878351
 30
0.0
  0
SEQEND
  5
7ED
  8
ë±90-ÿg2
  6
CONTINUOUS
 62
     7
  0
POLYLINE
  5
429
  8
ë±01-ÅÒER
  6
CONTINUOUS
 62
     7
 66
     1
 10
0.0
 20
0.0
 30
0.0
  0
VERTEX
  5
7EF
  8
ë±01-ÅÒER
  6
CONTINUOUS
 62
     7
 10
-692.1523527544886
 20
417.7037933878366
 30
0.0
  0
VERTEX
  5
7F1
  8
ë±01-ÅÒER
  6
CONTINUOUS
 62
     7
 10
-354.2323527544886
 20
417.7037933878366
 30
0.0
  0
SEQEND
  5
7F0
  8
ë±90-ÿg2
  6
CONTINUOUS
 62
     7
  0
POLYLINE
  5
42A
  8
ë±01-ÅÒER
  6
CONTINUOUS
 62
     7
 66
     1
 10
0.0
 20
0.0
 30
0.0
  0
VERTEX
  5
7F2
  8
ë±01-ÅÒER
  6
CONTINUOUS
 62
     7
 10
-354.2323527544886
 20
439.8654600545018
 30
0.0
  0
VERTEX
  5
7F4
  8
ë±01-ÅÒER
  6
CONTINUOUS
 62
     7
 10
-692.1523527544886
 20
439.8654600545018
 30
0.0
  0
SEQEND
  5
7F3
  8
ë±90-ÿg2
  6
CONTINUOUS
 62
     7
  0
POLYLINE
  5
42B
  8
ë±01-ÅÒER
  6
CONTINUOUS
 62
     7
 66
     1
 10
0.0
 20
0.0
 30
0.0
  0
VERTEX
  5
7F5
  8
ë±01-ÅÒER
  6
CONTINUOUS
 62
     7
 10
-692.1523527544886
 20
440.2654600545033
 30
0.0
  0
VERTEX
  5
7F7
  8
ë±01-ÅÒER
  6
CONTINUOUS
 62
     7
 10
-354.2323527544886
 20
440.2654600545033
 30
0.0
  0
SEQEND
  5
7F6
  8
ë±90-ÿg2
  6
CONTINUOUS
 62
     7
  0
POLYLINE
  5
42C
  8
ë±01-ÅÒER
  6
CONTINUOUS
 62
     7
 66
     1
 10
0.0
 20
0.0
 30
0.0
  0
VERTEX
  5
7F8
  8
ë±01-ÅÒER
  6
CONTINUOUS
 62
     7
 10
-354.2323527544886
 20
462.4271267211685
 30
0.0
  0
VERTEX
  5
7FA
  8
ë±01-ÅÒER
  6
CONTINUOUS
 62
     7
 10
-692.1523527544886
 20
462.4271267211685
 30
0.0
  0
SEQEND
  5
7F9
  8
ë±90-ÿg2
  6
CONTINUOUS
 62
     7
  0
POLYLINE
  5
42D
  8
ë±03-ë║ER
  6
CONTINUOUS
 62
     7
 66
     1
 10
0.0
 20
0.0
 30
0.0
  0
VERTEX
  5
7FB
  8
ë±03-ë║ER
  6
CONTINUOUS
 62
     7
 10
-376.3870194211554
 20
462.4271267211694
 30
0.0
  0
VERTEX
  5
7FD
  8
ë±03-ë║ER
  6
CONTINUOUS
 62
     7
 10
-376.3870194211554
 20
192.0871267211695
 30
0.0
  0
SEQEND
  5
7FC
  8
ë±90-ÿg2
  6
CONTINUOUS
 62
     7
  0
POLYLINE
  5
431
  8
ë±03-ë║ER
  6
CONTINUOUS
 62
     7
 66
     1
 10
0.0
 20
0.0
 30
0.0
  0
VERTEX
  5
7FE
  8
ë±03-ë║ER
  6
CONTINUOUS
 62
     7
 10
-354.2323527544887
 20
192.0871267211695
 30
0.0
  0
VERTEX
  5
800
  8
ë±03-ë║ER
  6
CONTINUOUS
 62
     7
 10
-354.2323527544887
 20
462.4271267211694
 30
0.0
  0
SEQEND
  5
7FF
  8
ë±90-ÿg2
  6
CONTINUOUS
 62
     7
  0
POLYLINE
  5
432
  8
ë±03-ë║ER
  6
CONTINUOUS
 62
     7
 66
     1
 10
0.0
 20
0.0
 30
0.0
  0
VERTEX
  5
801
  8
ë±03-ë║ER
  6
CONTINUOUS
 62
     7
 10
-398.941686087822
 20
462.4271267211694
 30
0.0
  0
VERTEX
  5
803
  8
ë±03-ë║ER
  6
CONTINUOUS
 62
     7
 10
-398.941686087822
 20
192.0871267211695
 30
0.0
  0
SEQEND
  5
802
  8
ë±90-ÿg2
  6
CONTINUOUS
 62
     7
  0
POLYLINE
  5
433
  8
ë±03-ë║ER
  6
CONTINUOUS
 62
     7
 66
     1
 10
0.0
 20
0.0
 30
0.0
  0
VERTEX
  5
804
  8
ë±03-ë║ER
  6
CONTINUOUS
 62
     7
 10
-376.7870194211554
 20
192.0871267211695
 30
0.0
  0
VERTEX
  5
806
  8
ë±03-ë║ER
  6
CONTINUOUS
 62
     7
 10
-376.7870194211554
 20
462.4271267211694
 30
0.0
  0
SEQEND
  5
805
  8
ë±90-ÿg2
  6
CONTINUOUS
 62
     7
  0
POLYLINE
  5
434
  8
ë±03-ë║ER
  6
CONTINUOUS
 62
     7
 66
     1
 10
0.0
 20
0.0
 30
0.0
  0
VERTEX
  5
807
  8
ë±03-ë║ER
  6
CONTINUOUS
 62
     7
 10
-421.4963527544886
 20
462.4271267211694
 30
0.0
  0
VERTEX
  5
809
  8
ë±03-ë║ER
  6
CONTINUOUS
 62
     7
 10
-421.4963527544886
 20
192.0871267211695
 30
0.0
  0
SEQEND
  5
808
  8
ë±90-ÿg2
  6
CONTINUOUS
 62
     7
  0
POLYLINE
  5
435
  8
ë±03-ë║ER
  6
CONTINUOUS
 62
     7
 66
     1
 10
0.0
 20
0.0
 30
0.0
  0
VERTEX
  5
80A
  8
ë±03-ë║ER
  6
CONTINUOUS
 62
     7
 10
-399.3416860878221
 20
192.0871267211695
 30
0.0
  0
VERTEX
  5
80C
  8
ë±03-ë║ER
  6
CONTINUOUS
 62
     7
 10
-399.3416860878221
 20
462.4271267211694
 30
0.0
  0
SEQEND
  5
80B
  8
ë±90-ÿg2
  6
CONTINUOUS
 62
     7
  0
POLYLINE
  5
436
  8
ë±03-ë║ER
  6
CONTINUOUS
 62
     7
 66
     1
 10
0.0
 20
0.0
 30
0.0
  0
VERTEX
  5
80D
  8
ë±03-ë║ER
  6
CONTINUOUS
 62
     7
 10
-444.0510194211554
 20
462.4271267211694
 30
0.0
  0
VERTEX
  5
80F
  8
ë±03-ë║ER
  6
CONTINUOUS
 62
     7
 10
-444.0510194211554
 20
192.0871267211695
 30
0.0
  0
SEQEND
  5
80E
  8
ë±90-ÿg2
  6
CONTINUOUS
 62
     7
  0
POLYLINE
  5
437
  8
ë±03-ë║ER
  6
CONTINUOUS
 62
     7
 66
     1
 10
0.0
 20
0.0
 30
0.0
  0
VERTEX
  5
810
  8
ë±03-ë║ER
  6
CONTINUOUS
 62
     7
 10
-421.8963527544887
 20
192.0871267211695
 30
0.0
  0
VERTEX
  5
812
  8
ë±03-ë║ER
  6
CONTINUOUS
 62
     7
 10
-421.8963527544887
 20
462.4271267211694
 30
0.0
  0
SEQEND
  5
811
  8
ë±90-ÿg2
  6
CONTINUOUS
 62
     7
  0
POLYLINE
  5
438
  8
ë±03-ë║ER
  6
CONTINUOUS
 62
     7
 66
     1
 10
0.0
 20
0.0
 30
0.0
  0
VERTEX
  5
813
  8
ë±03-ë║ER
  6
CONTINUOUS
 62
     7
 10
-466.605686087822
 20
462.4271267211694
 30
0.0
  0
VERTEX
  5
815
  8
ë±03-ë║ER
  6
CONTINUOUS
 62
     7
 10
-466.605686087822
 20
192.0871267211695
 30
0.0
  0
SEQEND
  5
814
  8
ë±90-ÿg2
  6
CONTINUOUS
 62
     7
  0
POLYLINE
  5
439
  8
ë±03-ë║ER
  6
CONTINUOUS
 62
     7
 66
     1
 10
0.0
 20
0.0
 30
0.0
  0
VERTEX
  5
816
  8
ë±03-ë║ER
  6
CONTINUOUS
 62
     7
 10
-444.4510194211553
 20
192.0871267211695
 30
0.0
  0
VERTEX
  5
818
  8
ë±03-ë║ER
  6
CONTINUOUS
 62
     7
 10
-444.4510194211553
 20
462.4271267211694
 30
0.0
  0
SEQEND
  5
817
  8
ë±90-ÿg2
  6
CONTINUOUS
 62
     7
  0
POLYLINE
  5
43A
  8
ë±03-ë║ER
  6
CONTINUOUS
 62
     7
 66
     1
 10
0.0
 20
0.0
 30
0.0
  0
VERTEX
  5
819
  8
ë±03-ë║ER
  6
CONTINUOUS
 62
     7
 10
-489.1603527544886
 20
462.4271267211694
 30
0.0
  0
VERTEX
  5
81B
  8
ë±03-ë║ER
  6
CONTINUOUS
 62
     7
 10
-489.1603527544886
 20
192.0871267211695
 30
0.0
  0
SEQEND
  5
81A
  8
ë±90-ÿg2
  6
CONTINUOUS
 62
     7
  0
POLYLINE
  5
43B
  8
ë±03-ë║ER
  6
CONTINUOUS
 62
     7
 66
     1
 10
0.0
 20
0.0
 30
0.0
  0
VERTEX
  5
81C
  8
ë±03-ë║ER
  6
CONTINUOUS
 62
     7
 10
-467.005686087822
 20
192.0871267211695
 30
0.0
  0
VERTEX
  5
81E
  8
ë±03-ë║ER
  6
CONTINUOUS
 62
     7
 10
-467.005686087822
 20
462.4271267211694
 30
0.0
  0
SEQEND
  5
81D
  8
ë±90-ÿg2
  6
CONTINUOUS
 62
     7
  0
POLYLINE
  5
43C
  8
ë±03-ë║ER
  6
CONTINUOUS
 62
     7
 66
     1
 10
0.0
 20
0.0
 30
0.0
  0
VERTEX
  5
81F
  8
ë±03-ë║ER
  6
CONTINUOUS
 62
     7
 10
-511.7150194211554
 20
462.4271267211694
 30
0.0
  0
VERTEX
  5
821
  8
ë±03-ë║ER
  6
CONTINUOUS
 62
     7
 10
-511.7150194211554
 20
192.0871267211695
 30
0.0
  0
SEQEND
  5
820
  8
ë±90-ÿg2
  6
CONTINUOUS
 62
     7
  0
POLYLINE
  5
43D
  8
ë±03-ë║ER
  6
CONTINUOUS
 62
     7
 66
     1
 10
0.0
 20
0.0
 30
0.0
  0
VERTEX
  5
822
  8
ë±03-ë║ER
  6
CONTINUOUS
 62
     7
 10
-489.5603527544887
 20
192.0871267211695
 30
0.0
  0
VERTEX
  5
824
  8
ë±03-ë║ER
  6
CONTINUOUS
 62
     7
 10
-489.5603527544887
 20
462.4271267211694
 30
0.0
  0
SEQEND
  5
823
  8
ë±90-ÿg2
  6
CONTINUOUS
 62
     7
  0
POLYLINE
  5
43E
  8
ë±03-ë║ER
  6
CONTINUOUS
 62
     7
 66
     1
 10
0.0
 20
0.0
 30
0.0
  0
VERTEX
  5
825
  8
ë±03-ë║ER
  6
CONTINUOUS
 62
     7
 10
-534.269686087822
 20
462.4271267211694
 30
0.0
  0
VERTEX
  5
827
  8
ë±03-ë║ER
  6
CONTINUOUS
 62
     7
 10
-534.269686087822
 20
192.0871267211695
 30
0.0
  0
SEQEND
  5
826
  8
ë±90-ÿg2
  6
CONTINUOUS
 62
     7
  0
POLYLINE
  5
43F
  8
ë±03-ë║ER
  6
CONTINUOUS
 62
     7
 66
     1
 10
0.0
 20
0.0
 30
0.0
  0
VERTEX
  5
828
  8
ë±03-ë║ER
  6
CONTINUOUS
 62
     7
 10
-512.1150194211553
 20
192.0871267211695
 30
0.0
  0
VERTEX
  5
82A
  8
ë±03-ë║ER
  6
CONTINUOUS
 62
     7
 10
-512.1150194211553
 20
462.4271267211694
 30
0.0
  0
SEQEND
  5
829
  8
ë±90-ÿg2
  6
CONTINUOUS
 62
     7
  0
POLYLINE
  5
440
  8
ë±03-ë║ER
  6
CONTINUOUS
 62
     7
 66
     1
 10
0.0
 20
0.0
 30
0.0
  0
VERTEX
  5
82B
  8
ë±03-ë║ER
  6
CONTINUOUS
 62
     7
 10
-556.8243527544886
 20
462.4271267211694
 30
0.0
  0
VERTEX
  5
82D
  8
ë±03-ë║ER
  6
CONTINUOUS
 62
     7
 10
-556.8243527544886
 20
192.0871267211695
 30
0.0
  0
SEQEND
  5
82C
  8
ë±90-ÿg2
  6
CONTINUOUS
 62
     7
  0
POLYLINE
  5
441
  8
ë±03-ë║ER
  6
CONTINUOUS
 62
     7
 66
     1
 10
0.0
 20
0.0
 30
0.0
  0
VERTEX
  5
82E
  8
ë±03-ë║ER
  6
CONTINUOUS
 62
     7
 10
-534.6696860878219
 20
192.0871267211695
 30
0.0
  0
VERTEX
  5
830
  8
ë±03-ë║ER
  6
CONTINUOUS
 62
     7
 10
-534.6696860878219
 20
462.4271267211694
 30
0.0
  0
SEQEND
  5
82F
  8
ë±90-ÿg2
  6
CONTINUOUS
 62
     7
  0
POLYLINE
  5
442
  8
ë±03-ë║ER
  6
CONTINUOUS
 62
     7
 66
     1
 10
0.0
 20
0.0
 30
0.0
  0
VERTEX
  5
831
  8
ë±03-ë║ER
  6
CONTINUOUS
 62
     7
 10
-579.3790194211553
 20
462.4271267211694
 30
0.0
  0
VERTEX
  5
833
  8
ë±03-ë║ER
  6
CONTINUOUS
 62
     7
 10
-579.3790194211553
 20
192.0871267211695
 30
0.0
  0
SEQEND
  5
832
  8
ë±90-ÿg2
  6
CONTINUOUS
 62
     7
  0
POLYLINE
  5
443
  8
ë±03-ë║ER
  6
CONTINUOUS
 62
     7
 66
     1
 10
0.0
 20
0.0
 30
0.0
  0
VERTEX
  5
834
  8
ë±03-ë║ER
  6
CONTINUOUS
 62
     7
 10
-557.2243527544887
 20
192.0871267211695
 30
0.0
  0
VERTEX
  5
836
  8
ë±03-ë║ER
  6
CONTINUOUS
 62
     7
 10
-557.2243527544887
 20
462.4271267211694
 30
0.0
  0
SEQEND
  5
835
  8
ë±90-ÿg2
  6
CONTINUOUS
 62
     7
  0
POLYLINE
  5
444
  8
ë±03-ë║ER
  6
CONTINUOUS
 62
     7
 66
     1
 10
0.0
 20
0.0
 30
0.0
  0
VERTEX
  5
837
  8
ë±03-ë║ER
  6
CONTINUOUS
 62
     7
 10
-601.933686087822
 20
462.4271267211694
 30
0.0
  0
VERTEX
  5
839
  8
ë±03-ë║ER
  6
CONTINUOUS
 62
     7
 10
-601.933686087822
 20
192.0871267211695
 30
0.0
  0
SEQEND
  5
838
  8
ë±90-ÿg2
  6
CONTINUOUS
 62
     7
  0
POLYLINE
  5
445
  8
ë±03-ë║ER
  6
CONTINUOUS
 62
     7
 66
     1
 10
0.0
 20
0.0
 30
0.0
  0
VERTEX
  5
83A
  8
ë±03-ë║ER
  6
CONTINUOUS
 62
     7
 10
-579.7790194211553
 20
192.0871267211695
 30
0.0
  0
VERTEX
  5
83C
  8
ë±03-ë║ER
  6
CONTINUOUS
 62
     7
 10
-579.7790194211553
 20
462.4271267211694
 30
0.0
  0
SEQEND
  5
83B
  8
ë±90-ÿg2
  6
CONTINUOUS
 62
     7
  0
POLYLINE
  5
446
  8
ë±03-ë║ER
  6
CONTINUOUS
 62
     7
 66
     1
 10
0.0
 20
0.0
 30
0.0
  0
VERTEX
  5
83D
  8
ë±03-ë║ER
  6
CONTINUOUS
 62
     7
 10
-624.4883527544886
 20
462.4271267211694
 30
0.0
  0
VERTEX
  5
83F
  8
ë±03-ë║ER
  6
CONTINUOUS
 62
     7
 10
-624.4883527544886
 20
192.0871267211695
 30
0.0
  0
SEQEND
  5
83E
  8
ë±90-ÿg2
  6
CONTINUOUS
 62
     7
  0
POLYLINE
  5
447
  8
ë±03-ë║ER
  6
CONTINUOUS
 62
     7
 66
     1
 10
0.0
 20
0.0
 30
0.0
  0
VERTEX
  5
840
  8
ë±03-ë║ER
  6
CONTINUOUS
 62
     7
 10
-602.3336860878219
 20
192.0871267211695
 30
0.0
  0
VERTEX
  5
842
  8
ë±03-ë║ER
  6
CONTINUOUS
 62
     7
 10
-602.3336860878219
 20
462.4271267211694
 30
0.0
  0
SEQEND
  5
841
  8
ë±90-ÿg2
  6
CONTINUOUS
 62
     7
  0
POLYLINE
  5
448
  8
ë±03-ë║ER
  6
CONTINUOUS
 62
     7
 66
     1
 10
0.0
 20
0.0
 30
0.0
  0
VERTEX
  5
843
  8
ë±03-ë║ER
  6
CONTINUOUS
 62
     7
 10
-647.0430194211553
 20
462.4271267211694
 30
0.0
  0
VERTEX
  5
845
  8
ë±03-ë║ER
  6
CONTINUOUS
 62
     7
 10
-647.0430194211553
 20
192.0871267211695
 30
0.0
  0
SEQEND
  5
844
  8
ë±90-ÿg2
  6
CONTINUOUS
 62
     7
  0
POLYLINE
  5
449
  8
ë±03-ë║ER
  6
CONTINUOUS
 62
     7
 66
     1
 10
0.0
 20
0.0
 30
0.0
  0
VERTEX
  5
846
  8
ë±03-ë║ER
  6
CONTINUOUS
 62
     7
 10
-624.8883527544887
 20
192.0871267211695
 30
0.0
  0
VERTEX
  5
848
  8
ë±03-ë║ER
  6
CONTINUOUS
 62
     7
 10
-624.8883527544887
 20
462.4271267211694
 30
0.0
  0
SEQEND
  5
847
  8
ë±90-ÿg2
  6
CONTINUOUS
 62
     7
  0
POLYLINE
  5
44A
  8
ë±03-ë║ER
  6
CONTINUOUS
 62
     7
 66
     1
 10
0.0
 20
0.0
 30
0.0
  0
VERTEX
  5
849
  8
ë±03-ë║ER
  6
CONTINUOUS
 62
     7
 10
-669.597686087822
 20
462.4271267211694
 30
0.0
  0
VERTEX
  5
84B
  8
ë±03-ë║ER
  6
CONTINUOUS
 62
     7
 10
-669.597686087822
 20
192.0871267211695
 30
0.0
  0
SEQEND
  5
84A
  8
ë±90-ÿg2
  6
CONTINUOUS
 62
     7
  0
POLYLINE
  5
44B
  8
ë±03-ë║ER
  6
CONTINUOUS
 62
     7
 66
     1
 10
0.0
 20
0.0
 30
0.0
  0
VERTEX
  5
84C
  8
ë±03-ë║ER
  6
CONTINUOUS
 62
     7
 10
-647.4430194211553
 20
192.0871267211695
 30
0.0
  0
VERTEX
  5
84E
  8
ë±03-ë║ER
  6
CONTINUOUS
 62
     7
 10
-647.4430194211553
 20
462.4271267211694
 30
0.0
  0
SEQEND
  5
84D
  8
ë±90-ÿg2
  6
CONTINUOUS
 62
     7
  0
POLYLINE
  5
44C
  8
ë±03-ë║ER
  6
CONTINUOUS
 62
     7
 66
     1
 10
0.0
 20
0.0
 30
0.0
  0
VERTEX
  5
84F
  8
ë±03-ë║ER
  6
CONTINUOUS
 62
     7
 10
-692.1523527544886
 20
462.4271267211694
 30
0.0
  0
VERTEX
  5
851
  8
ë±03-ë║ER
  6
CONTINUOUS
 62
     7
 10
-692.1523527544886
 20
192.0871267211695
 30
0.0
  0
SEQEND
  5
850
  8
ë±90-ÿg2
  6
CONTINUOUS
 62
     7
  0
POLYLINE
  5
44D
  8
ë±03-ë║ER
  6
CONTINUOUS
 62
     7
 66
     1
 10
0.0
 20
0.0
 30
0.0
  0
VERTEX
  5
852
  8
ë±03-ë║ER
  6
CONTINUOUS
 62
     7
 10
-669.9976860878219
 20
192.0871267211695
 30
0.0
  0
VERTEX
  5
854
  8
ë±03-ë║ER
  6
CONTINUOUS
 62
     7
 10
-669.9976860878219
 20
462.4271267211694
 30
0.0
  0
SEQEND
  5
853
  8
ë±90-ÿg2
  6
CONTINUOUS
 62
     7
  0
POLYLINE
  5
44E
  8
ë±08-ïLÄû
  6
PHANTOM2
 62
     7
 66
     1
 10
0.0
 20
0.0
 30
0.0
 70
     1
  0
VERTEX
  5
855
  8
ë±08-ïLÄû
  6
PHANTOM2
 62
     7
 10
-694.6523527544886
 20
189.5871267211695
 30
0.0
  0
VERTEX
  5
857
  8
ë±08-ïLÄû
  6
PHANTOM2
 62
     7
 10
-351.7323527544886
 20
189.5871267211695
 30
0.0
  0
VERTEX
  5
858
  8
ë±08-ïLÄû
  6
PHANTOM2
 62
     7
 10
-351.7323527544886
 20
464.9271267211695
 30
0.0
  0
VERTEX
  5
859
  8
ë±08-ïLÄû
  6
PHANTOM2
 62
     7
 10
-694.6523527544886
 20
464.9271267211695
 30
0.0
  0
SEQEND
  5
856
  8
ë±90-ÿg2
  6
CONTINUOUS
 62
     7
  0
POLYLINE
  5
44F
  8
ë±08-ïLÄû
  6
CONTINUOUS
 62
     7
 66
     1
 10
0.0
 20
0.0
 30
0.0
 70
     1
  0
VERTEX
  5
85A
  8
ë±08-ïLÄû
  6
CONTINUOUS
 62
     7
 10
-694.1523527544886
 20
190.0871267211695
 30
0.0
  0
VERTEX
  5
85C
  8
ë±08-ïLÄû
  6
CONTINUOUS
 62
     7
 10
-352.2323527544886
 20
190.0871267211695
 30
0.0
  0
VERTEX
  5
85D
  8
ë±08-ïLÄû
  6
CONTINUOUS
 62
     7
 10
-352.2323527544886
 20
464.4271267211695
 30
0.0
  0
VERTEX
  5
85E
  8
ë±08-ïLÄû
  6
CONTINUOUS
 62
     7
 10
-694.1523527544886
 20
464.4271267211695
 30
0.0
  0
SEQEND
  5
85B
  8
ë±90-ÿg2
  6
CONTINUOUS
 62
     7
  0
TEXT
  5
450
  8
ë±08-ïLÄû
  6
CONTINUOUS
 62
     5
 10
-317.3716906815518
 20
140.203139876985
 30
0.0
 40
3.0
  1
MTR-G170B100B/SX
  0
TEXT
  5
451
  8
ë±08-ïLÄû
  6
CONTINUOUS
 62
     5
 10
-316.093025469634
 20
146.3052445845606
 30
0.0
 40
4.0
  1
Part No. label
1001
ACAD
1000
MTEXTBEGIN
1070
    73
1070
     1
1070
    44
1040
1.0
1070
    74
1070
     0
1000
MTEXTEND
  0
INSERT
  5
452
  8
ë±08-ïLÄû
  6
CONTINUOUS
 62
     7
 66
     1
  2
*X82
 10
0.0
 20
0.0
 30
0.0
  0
SEQEND
  5
865
  8
ë±90-ÿg2
  6
CONTINUOUS
 62
     7
  0
TEXT
  5
453
  8
ë±08-ïLÄû
  6
CONTINUOUS
 62
     5
 10
-260.8470794230028
 20
144.2416399571489
 30
0.0
 40
5.0
  1
Lot label
1001
ACAD
1000
MTEXTBEGIN
1070
    73
1070
     1
1070
    44
1040
1.0
1070
    74
1070
     0
1000
MTEXTEND
  0
INSERT
  5
454
  8
ë±08-ïLÄû
  6
CONTINUOUS
 62
     7
 66
     1
  2
*X83
 10
0.0
 20
0.0
 30
0.0
  0
SEQEND
  5
86C
  8
ë±90-ÿg2
  6
CONTINUOUS
 62
     7
  0
POLYLINE
  5
455
  8
ë±08-ïLÄû
  6
CONTINUOUS
 62
     7
 66
     1
 10
0.0
 20
0.0
 30
0.0
 70
     1
  0
VERTEX
  5
86D
  8
ë±08-ïLÄû
  6
CONTINUOUS
 62
     7
 10
-269.6684185518265
 20
157.2804944473774
 30
0.0
  0
VERTEX
  5
86F
  8
ë±08-ïLÄû
  6
CONTINUOUS
 62
     7
 10
-268.9684185518266
 20
157.2804944473774
 30
0.0
  0
VERTEX
  5
870
  8
ë±08-ïLÄû
  6
CONTINUOUS
 62
     7
 10
-268.9684185518266
 20
131.2804944473774
 30
0.0
  0
VERTEX
  5
871
  8
ë±08-ïLÄû
  6
CONTINUOUS
 62
     7
 10
-269.6684185518265
 20
131.2804944473774
 30
0.0
  0
SEQEND
  5
86E
  8
ë±90-ÿg2
  6
CONTINUOUS
 62
     7
  0
INSERT
  5
456
  8
ë±08-ïLÄû
  6
CONTINUOUS
 62
     7
 66
     1
  2
*X84
 10
0.0
 20
0.0
 30
0.0
1001
GRADIENTCOLOR1ACI
1070
     5
1001
GRADIENTCOLOR2ACI
1070
     2
1001
ACAD
1010
0.0
1020
0.0
1030
0.0
  0
SEQEND
  5
889
  8
ë±90-ÿg2
  6
CONTINUOUS
 62
     7
  0
TEXT
  5
457
  8
ë±08-ïLÄû
  6
CONTINUOUS
 62
     7
 10
-291.5821647419842
 20
327.1509154259395
 30
0.0
 40
4.0
  1
1
  0
TEXT
  5
458
  8
ë±08-ïLÄû
  6
CONTINUOUS
 62
     7
 10
-252.4506374635302
 20
317.1522841530942
 30
0.0
 40
4.0
  1
2
  0
TEXT
  5
459
  8
ë±08-ïLÄû
  6
CONTINUOUS
 62
     7
 10
-254.4794637612243
 20
169.9112413237204
 30
0.0
 40
4.0
  1
6
  0
LINE
  5
45A
  8
ë±08-ïLÄû
  6
CONTINUOUS
 62
     7
 10
-254.0827252654684
 20
319.4349401743646
 30
0.0
 11
-262.8821778146825
 21
322.2126319784348
 31
0.0
  0
LINE
  5
45B
  8
ë±08-ïLÄû
  6
CONTINUOUS
 62
     7
 10
-287.6712601378675
 20
329.4446910321247
 30
0.0
 11
-279.7068746734793
 21
326.5102986311629
 31
0.0
  0
LINE
  5
45C
  8
ë±08-ïLÄû
  6
CONTINUOUS
 62
     7
 10
-272.5252749069549
 20
94.52596540647716
 30
0.0
 11
-276.111602770797
 21
87.80437022838356
 31
0.0
  0
LINE
  5
45D
  8
ë±08-ïLÄû
  6
CONTINUOUS
 62
     7
 10
-269.4271028361044
 20
87.70447036578213
 30
0.0
 11
-272.5252749069549
 21
94.52596540647716
 31
0.0
  0
TEXT
  5
45E
  8
ë±08-ïLÄû
  6
CONTINUOUS
 62
     7
 10
-273.7126108876477
 20
94.6212779668636
 30
0.0
 40
3.0
  1
5
  0
LINE
  5
45F
  8
ë±08-ïLÄû
  6
CONTINUOUS
 62
     7
 10
-285.3524831035082
 20
160.3041463998889
 30
0.0
 11
-268.4958089161681
 21
168.6899997628221
 31
0.0
  0
LINE
  5
460
  8
ë±08-ïLÄû
  6
CONTINUOUS
 62
     7
 10
-277.3094990325425
 20
158.2373717786882
 30
0.0
 11
-285.3524831035082
 21
160.3041463998889
 31
0.0
  0
TEXT
  5
461
  8
ë±08-ïLÄû
  6
CONTINUOUS
 62
     7
 10
-289.9701128765713
 20
158.3365016913199
 30
0.0
 40
4.0
  1
3
  0
LINE
  5
462
  8
ë±08-ïLÄû
  6
CONTINUOUS
 62
     7
 10
-256.7448301122821
 20
117.5499853260349
 30
0.0
 11
-267.7013102221462
 21
123.9008071317935
 31
0.0
  0
LINE
  5
463
  8
ë±08-ïLÄû
  6
CONTINUOUS
 62
     7
 10
-278.2422117088517
 20
116.971428139002
 30
0.0
 11
-256.7448301122821
 21
117.5499853260349
 31
0.0
  0
TEXT
  5
464
  8
ë±08-ïLÄû
  6
CONTINUOUS
 62
     7
 10
-256.6971000435527
 20
115.6830631933458
 30
0.0
 40
4.0
  1
4
  0
LINE
  5
465
  8
ë±08-ïLÄû
  6
CONTINUOUS
 62
     7
 10
-254.2627311183213
 20
172.1614276405935
 30
0.0
 11
-273.1356990368003
 21
177.9370079120841
 31
0.0
  0
LINE
  5
466
  8
ë±08-ïLÄû
  6
CONTINUOUS
 62
     7
 10
-260.5606817264432
 20
178.6533610729726
 30
0.0
 11
-254.2627311183213
 21
172.1614276405935
 31
0.0
  0
ARC
  5
467
  8
ë±08-ïLÄû
  6
CONTINUOUS
 62
     7
 10
-267.9684185518266
 20
206.4721267211701
 30
0.0
 40
0.4161773402836389
 50
90.0
 51
270.0
  0
ARC
  5
468
  8
ë±08-ïLÄû
  6
CONTINUOUS
 62
     7
 10
-267.9684185518266
 20
202.9721267211701
 30
0.0
 40
0.4161773402836389
 50
90.0
 51
270.0
  0
ARC
  5
469
  8
ë±08-ïLÄû
  6
CONTINUOUS
 62
     7
 10
-267.9684185518266
 20
199.4721267211701
 30
0.0
 40
0.4161773402836389
 50
90.0
 51
270.0
  0
ARC
  5
46A
  8
ë±08-ïLÄû
  6
CONTINUOUS
 62
     7
 10
-267.9684185518266
 20
195.9721267211701
 30
0.0
 40
0.4161773402836389
 50
90.0
 51
270.0
  0
ARC
  5
46B
  8
ë±08-ïLÄû
  6
CONTINUOUS
 62
     7
 10
-267.9684185518266
 20
192.4721267211701
 30
0.0
 40
0.4161773402836389
 50
90.0
 51
270.0
  0
ARC
  5
46C
  8
ë±08-ïLÄû
  6
CONTINUOUS
 62
     7
 10
-267.9684185518266
 20
216.9721267211701
 30
0.0
 40
0.4161773402836389
 50
90.0
 51
270.0
  0
ARC
  5
46D
  8
ë±08-ïLÄû
  6
CONTINUOUS
 62
     7
 10
-267.9684185518266
 20
213.4721267211701
 30
0.0
 40
0.4161773402836389
 50
90.0
 51
270.0
  0
ARC
  5
46E
  8
ë±08-ïLÄû
  6
CONTINUOUS
 62
     7
 10
-267.9684185518266
 20
209.9721267211701
 30
0.0
 40
0.4161773402836389
 50
90.0
 51
270.0
  0
ARC
  5
46F
  8
ë±08-ïLÄû
  6
CONTINUOUS
 62
     7
 10
-267.9684185518266
 20
384.9721267211699
 30
0.0
 40
0.4161773402836389
 50
90.0
 51
270.0
  0
ARC
  5
470
  8
ë±08-ïLÄû
  6
CONTINUOUS
 62
     7
 10
-267.9684185518266
 20
381.4721267211699
 30
0.0
 40
0.4161773402836389
 50
90.0
 51
270.0
  0
ARC
  5
471
  8
ë±08-ïLÄû
  6
CONTINUOUS
 62
     7
 10
-267.9684185518266
 20
377.9721267211699
 30
0.0
 40
0.4161773402836389
 50
90.0
 51
270.0
  0
ARC
  5
472
  8
ë±08-ïLÄû
  6
CONTINUOUS
 62
     7
 10
-267.9684185518266
 20
374.4721267211699
 30
0.0
 40
0.4161773402836389
 50
90.0
 51
270.0
  0
ARC
  5
473
  8
ë±08-ïLÄû
  6
CONTINUOUS
 62
     7
 10
-267.9684185518266
 20
370.9721267211699
 30
0.0
 40
0.4161773402836389
 50
90.0
 51
270.0
  0
ARC
  5
474
  8
ë±08-ïLÄû
  6
CONTINUOUS
 62
     7
 10
-267.9684185518266
 20
367.4721267211699
 30
0.0
 40
0.4161773402836389
 50
90.0
 51
270.0
  0
ARC
  5
475
  8
ë±08-ïLÄû
  6
CONTINUOUS
 62
     7
 10
-267.9684185518266
 20
363.9721267211699
 30
0.0
 40
0.4161773402836389
 50
90.0
 51
270.0
  0
ARC
  5
476
  8
ë±08-ïLÄû
  6
CONTINUOUS
 62
     7
 10
-267.9684185518266
 20
237.9721267211701
 30
0.0
 40
0.4161773402836389
 50
90.0
 51
270.0
  0
ARC
  5
477
  8
ë±08-ïLÄû
  6
CONTINUOUS
 62
     7
 10
-267.9684185518266
 20
234.4721267211701
 30
0.0
 40
0.4161773402836389
 50
90.0
 51
270.0
  0
ARC
  5
478
  8
ë±08-ïLÄû
  6
CONTINUOUS
 62
     7
 10
-267.9684185518266
 20
230.9721267211701
 30
0.0
 40
0.4161773402836389
 50
90.0
 51
270.0
  0
ARC
  5
479
  8
ë±08-ïLÄû
  6
CONTINUOUS
 62
     7
 10
-267.9684185518266
 20
227.4721267211701
 30
0.0
 40
0.4161773402836389
 50
90.0
 51
270.0
  0
ARC
  5
47A
  8
ë±08-ïLÄû
  6
CONTINUOUS
 62
     7
 10
-267.9684185518266
 20
223.9721267211701
 30
0.0
 40
0.4161773402836389
 50
90.0
 51
270.0
  0
ARC
  5
47B
  8
ë±08-ïLÄû
  6
CONTINUOUS
 62
     7
 10
-267.9684185518266
 20
220.4721267211701
 30
0.0
 40
0.4161773402836389
 50
90.0
 51
270.0
  0
ARC
  5
47C
  8
ë±08-ïLÄû
  6
CONTINUOUS
 62
     7
 10
-267.9684185518266
 20
216.9721267211701
 30
0.0
 40
0.4161773402836389
 50
90.0
 51
270.0
  0
ARC
  5
47D
  8
ë±08-ïLÄû
  6
CONTINUOUS
 62
     7
 10
-267.9684185518266
 20
283.4721267211701
 30
0.0
 40
0.4161773402836389
 50
90.0
 51
270.0
  0
ARC
  5
47E
  8
ë±08-ïLÄû
  6
CONTINUOUS
 62
     7
 10
-267.9684185518266
 20
279.9721267211701
 30
0.0
 40
0.4161773402836389
 50
90.0
 51
270.0
  0
ARC
  5
47F
  8
ë±08-ïLÄû
  6
CONTINUOUS
 62
     7
 10
-267.9684185518266
 20
276.4721267211701
 30
0.0
 40
0.4161773402836389
 50
90.0
 51
270.0
  0
ARC
  5
480
  8
ë±08-ïLÄû
  6
CONTINUOUS
 62
     7
 10
-267.9684185518266
 20
272.9721267211701
 30
0.0
 40
0.4161773402836389
 50
90.0
 51
270.0
  0
ARC
  5
481
  8
ë±08-ïLÄû
  6
CONTINUOUS
 62
     7
 10
-267.9684185518266
 20
269.4721267211701
 30
0.0
 40
0.4161773402836389
 50
90.0
 51
270.0
  0
ARC
  5
482
  8
ë±08-ïLÄû
  6
CONTINUOUS
 62
     7
 10
-267.9684185518266
 20
265.9721267211701
 30
0.0
 40
0.4161773402836389
 50
90.0
 51
270.0
  0
ARC
  5
483
  8
ë±08-ïLÄû
  6
CONTINUOUS
 62
     7
 10
-267.9684185518266
 20
262.4721267211701
 30
0.0
 40
0.4161773402836389
 50
90.0
 51
270.0
  0
ARC
  5
484
  8
ë±08-ïLÄû
  6
CONTINUOUS
 62
     7
 10
-267.9684185518266
 20
258.9721267211701
 30
0.0
 40
0.4161773402836389
 50
90.0
 51
270.0
  0
ARC
  5
485
  8
ë±08-ïLÄû
  6
CONTINUOUS
 62
     7
 10
-267.9684185518266
 20
255.4721267211701
 30
0.0
 40
0.4161773402836389
 50
90.0
 51
270.0
  0
ARC
  5
486
  8
ë±08-ïLÄû
  6
CONTINUOUS
 62
     7
 10
-267.9684185518266
 20
251.9721267211701
 30
0.0
 40
0.4161773402836389
 50
90.0
 51
270.0
  0
ARC
  5
487
  8
ë±08-ïLÄû
  6
CONTINUOUS
 62
     7
 10
-267.9684185518266
 20
248.4721267211701
 30
0.0
 40
0.4161773402836389
 50
90.0
 51
270.0
  0
ARC
  5
488
  8
ë±08-ïLÄû
  6
CONTINUOUS
 62
     7
 10
-267.9684185518266
 20
244.9721267211701
 30
0.0
 40
0.4161773402836389
 50
90.0
 51
270.0
  0
ARC
  5
489
  8
ë±08-ïLÄû
  6
CONTINUOUS
 62
     7
 10
-267.9684185518266
 20
241.4721267211701
 30
0.0
 40
0.4161773402836389
 50
90.0
 51
270.0
  0
ARC
  5
48A
  8
ë±08-ïLÄû
  6
CONTINUOUS
 62
     7
 10
-267.9684185518266
 20
360.4721267211699
 30
0.0
 40
0.4161773402836389
 50
90.0
 51
270.0
  0
ARC
  5
48B
  8
ë±08-ïLÄû
  6
CONTINUOUS
 62
     7
 10
-267.9684185518266
 20
356.9721267211699
 30
0.0
 40
0.4161773402836389
 50
90.0
 51
270.0
  0
ARC
  5
48C
  8
ë±08-ïLÄû
  6
CONTINUOUS
 62
     7
 10
-267.9684185518266
 20
353.4721267211699
 30
0.0
 40
0.4161773402836389
 50
90.0
 51
270.0
  0
ARC
  5
48D
  8
ë±08-ïLÄû
  6
CONTINUOUS
 62
     7
 10
-267.9684185518266
 20
349.9721267211699
 30
0.0
 40
0.4161773402836389
 50
90.0
 51
270.0
  0
ARC
  5
48E
  8
ë±08-ïLÄû
  6
CONTINUOUS
 62
     7
 10
-267.9684185518266
 20
346.4721267211699
 30
0.0
 40
0.4161773402836389
 50
90.0
 51
270.0
  0
ARC
  5
48F
  8
ë±08-ïLÄû
  6
CONTINUOUS
 62
     7
 10
-267.9684185518266
 20
342.9721267211699
 30
0.0
 40
0.4161773402836389
 50
90.0
 51
270.0
  0
ARC
  5
490
  8
ë±08-ïLÄû
  6
CONTINUOUS
 62
     7
 10
-267.9684185518266
 20
339.4721267211699
 30
0.0
 40
0.4161773402836389
 50
90.0
 51
270.0
  0
ARC
  5
491
  8
ë±08-ïLÄû
  6
CONTINUOUS
 62
     7
 10
-267.9684185518266
 20
335.9721267211699
 30
0.0
 40
0.4161773402836389
 50
90.0
 51
270.0
  0
ARC
  5
492
  8
ë±08-ïLÄû
  6
CONTINUOUS
 62
     7
 10
-267.9684185518266
 20
332.4721267211699
 30
0.0
 40
0.4161773402836389
 50
90.0
 51
270.0
  0
ARC
  5
493
  8
ë±08-ïLÄû
  6
CONTINUOUS
 62
     7
 10
-267.9684185518266
 20
328.9721267211699
 30
0.0
 40
0.4161773402836389
 50
90.0
 51
270.0
  0
ARC
  5
494
  8
ë±08-ïLÄû
  6
CONTINUOUS
 62
     7
 10
-267.9684185518266
 20
325.4721267211699
 30
0.0
 40
0.4161773402836389
 50
90.0
 51
270.0
  0
ARC
  5
495
  8
ë±08-ïLÄû
  6
CONTINUOUS
 62
     7
 10
-267.9684185518266
 20
321.9721267211699
 30
0.0
 40
0.4161773402836389
 50
90.0
 51
270.0
  0
ARC
  5
496
  8
ë±08-ïLÄû
  6
CONTINUOUS
 62
     7
 10
-267.9684185518266
 20
318.4721267211699
 30
0.0
 40
0.4161773402836389
 50
90.0
 51
270.0
  0
ARC
  5
497
  8
ë±08-ïLÄû
  6
CONTINUOUS
 62
     7
 10
-267.9684185518266
 20
314.9721267211699
 30
0.0
 40
0.4161773402836389
 50
90.0
 51
270.0
  0
ARC
  5
498
  8
ë±08-ïLÄû
  6
CONTINUOUS
 62
     7
 10
-267.9684185518266
 20
311.4721267211699
 30
0.0
 40
0.4161773402836389
 50
90.0
 51
270.0
  0
ARC
  5
499
  8
ë±08-ïLÄû
  6
CONTINUOUS
 62
     7
 10
-267.9684185518266
 20
307.9721267211699
 30
0.0
 40
0.4161773402836389
 50
90.0
 51
270.0
  0
ARC
  5
49A
  8
ë±08-ïLÄû
  6
CONTINUOUS
 62
     7
 10
-267.9684185518266
 20
304.4721267211699
 30
0.0
 40
0.4161773402836389
 50
90.0
 51
270.0
  0
ARC
  5
49B
  8
ë±08-ïLÄû
  6
CONTINUOUS
 62
     7
 10
-267.9684185518266
 20
300.9721267211699
 30
0.0
 40
0.4161773402836389
 50
90.0
 51
270.0
  0
ARC
  5
49C
  8
ë±08-ïLÄû
  6
CONTINUOUS
 62
     7
 10
-267.9684185518266
 20
297.4721267211699
 30
0.0
 40
0.4161773402836389
 50
90.0
 51
270.0
  0
ARC
  5
49D
  8
ë±08-ïLÄû
  6
CONTINUOUS
 62
     7
 10
-267.9684185518266
 20
293.9721267211699
 30
0.0
 40
0.4161773402836389
 50
90.0
 51
270.0
  0
ARC
  5
49E
  8
ë±08-ïLÄû
  6
CONTINUOUS
 62
     7
 10
-267.9684185518266
 20
290.4721267211701
 30
0.0
 40
0.4161773402836389
 50
90.0
 51
270.0
  0
ARC
  5
49F
  8
ë±08-ïLÄû
  6
CONTINUOUS
 62
     7
 10
-267.9684185518266
 20
286.9721267211701
 30
0.0
 40
0.4161773402836389
 50
90.0
 51
270.0
  0
POLYLINE
  5
4A0
  8
ë±08-ïLÄû
  6
CONTINUOUS
 62
     7
 66
     1
 10
0.0
 20
0.0
 30
0.0
 70
     1
  0
VERTEX
  5
88A
  8
ë±08-ïLÄû
  6
CONTINUOUS
 62
     7
 10
-267.2684185518264
 20
157.2804944473774
 30
0.0
  0
VERTEX
  5
88C
  8
ë±08-ïLÄû
  6
CONTINUOUS
 62
     7
 10
-266.5684185518265
 20
157.2804944473774
 30
0.0
  0
VERTEX
  5
88D
  8
ë±08-ïLÄû
  6
CONTINUOUS
 62
     7
 10
-266.5684185518265
 20
131.2804944473774
 30
0.0
  0
VERTEX
  5
88E
  8
ë±08-ïLÄû
  6
CONTINUOUS
 62
     7
 10
-267.2684185518264
 20
131.2804944473774
 30
0.0
  0
SEQEND
  5
88B
  8
ë±90-ÿg2
  6
CONTINUOUS
 62
     7
  0
INSERT
  5
4A1
  8
ë±08-ïLÄû
  6
CONTINUOUS
 62
     7
 66
     1
  2
*X85
 10
0.0
 20
0.0
 30
0.0
1001
GRADIENTCOLOR1ACI
1070
     5
1001
GRADIENTCOLOR2ACI
1070
     2
1001
ACAD
1010
0.0
1020
0.0
1030
0.0
  0
SEQEND
  5
8A6
  8
ë±90-ÿg2
  6
CONTINUOUS
 62
     7
  0
LINE
  5
4A2
  8
ë±08-ïLÄû
  6
CONTINUOUS
 62
     7
 10
-267.2684185518264
 20
178.2571267211697
 30
0.0
 11
-267.2684185518264
 21
175.2571267211697
 31
0.0
1001
ACAD
1000
ASC_BOUNDS
1002
{
1070
    19
1005
4B0
1002
}
  0
LINE
  5
4A3
  8
ë±08-ïLÄû
  6
CONTINUOUS
 62
     7
 10
-260.9684185518266
 20
178.2571267211697
 30
0.0
 11
-267.2684185518264
 21
178.2571267211697
 31
0.0
1001
ACAD
1000
ASC_BOUNDS
1002
{
1070
    19
1005
4B0
1002
}
  0
LINE
  5
4A4
  8
ë±08-ïLÄû
  6
CONTINUOUS
 62
     7
 10
-260.9684185518266
 20
181.4071267211694
 30
0.0
 11
-260.9684185518266
 21
178.2571267211697
 31
0.0
1001
ACAD
1000
ASC_BOUNDS
1002
{
1070
    19
1005
4B0
1002
}
  0
LINE
  5
4A5
  8
ë±08-ïLÄû
  6
CONTINUOUS
 62
     7
 10
-260.2684185518263
 20
181.4071267211694
 30
0.0
 11
-260.9684185518266
 21
181.4071267211694
 31
0.0
1001
ACAD
1000
ASC_BOUNDS
1002
{
1070
    19
1005
4B0
1002
}
  0
LINE
  5
4A6
  8
ë±08-ïLÄû
  6
CONTINUOUS
 62
     7
 10
-260.2684185518263
 20
177.5571267211699
 30
0.0
 11
-260.2684185518263
 21
181.4071267211694
 31
0.0
1001
ACAD
1000
ASC_BOUNDS
1002
{
1070
    19
1005
4B0
1002
}
  0
LINE
  5
4A7
  8
ë±08-ïLÄû
  6
CONTINUOUS
 62
     7
 10
-266.5684185518265
 20
177.5571267211699
 30
0.0
 11
-260.2684185518263
 21
177.5571267211699
 31
0.0
1001
ACAD
1000
ASC_BOUNDS
1002
{
1070
    19
1005
4B0
1002
}
  0
LINE
  5
4A8
  8
ë±08-ïLÄû
  6
CONTINUOUS
 62
     7
 10
-266.5684185518265
 20
175.2571267211697
 30
0.0
 11
-266.5684185518265
 21
177.5571267211699
 31
0.0
1001
ACAD
1000
ASC_BOUNDS
1002
{
1070
    19
1005
4B0
1002
}
  0
LINE
  5
4A9
  8
ë±08-ïLÄû
  6
CONTINUOUS
 62
     7
 10
-267.2684185518264
 20
175.2571267211697
 30
0.0
 11
-266.5684185518265
 21
175.2571267211697
 31
0.0
1001
ACAD
1000
ASC_BOUNDS
1002
{
1070
    19
1005
4B0
1002
}
  0
LINE
  5
4AA
  8
ë±08-ïLÄû
  6
CONTINUOUS
 62
     7
 10
-276.1616027707968
 20
175.2571267211697
 30
0.0
 11
-276.861602770797
 21
175.2571267211697
 31
0.0
1001
ACAD
1000
ASC_BOUNDS
1002
{
1070
    19
1005
4B0
1002
}
  0
LINE
  5
4AB
  8
ë±08-ïLÄû
  6
CONTINUOUS
 62
     7
 10
-276.1616027707968
 20
177.5571267211699
 30
0.0
 11
-276.1616027707968
 21
175.2571267211697
 31
0.0
1001
ACAD
1000
ASC_BOUNDS
1002
{
1070
    19
1005
4B0
1002
}
  0
LINE
  5
4AC
  8
ë±08-ïLÄû
  6
CONTINUOUS
 62
     7
 10
-268.9684185518266
 20
177.5571267211699
 30
0.0
 11
-276.1616027707968
 21
177.5571267211699
 31
0.0
1001
ACAD
1000
ASC_BOUNDS
1002
{
1070
    19
1005
4B0
1002
}
  0
LINE
  5
4AD
  8
ë±08-ïLÄû
  6
CONTINUOUS
 62
     7
 10
-268.9684185518266
 20
178.5571267211699
 30
0.0
 11
-268.9684185518266
 21
177.5571267211699
 31
0.0
1001
ACAD
1000
ASC_BOUNDS
1002
{
1070
    19
1005
4B0
1002
}
  0
LINE
  5
4AE
  8
ë±08-ïLÄû
  6
CONTINUOUS
 62
     7
 10
-276.861602770797
 20
178.5571267211699
 30
0.0
 11
-268.9684185518266
 21
178.5571267211699
 31
0.0
1001
ACAD
1000
ASC_BOUNDS
1002
{
1070
    19
1005
4B0
1002
}
  0
LINE
  5
4AF
  8
ë±08-ïLÄû
  6
CONTINUOUS
 62
     7
 10
-276.861602770797
 20
175.2571267211697
 30
0.0
 11
-276.861602770797
 21
178.5571267211699
 31
0.0
1001
ACAD
1000
ASC_BOUNDS
1002
{
1070
    19
1005
4B0
1002
}
  0
INSERT
  5
4B0
  8
ë±08-ïLÄû
  6
CONTINUOUS
 62
     7
 66
     1
  2
*X86
 10
0.0
 20
0.0
 30
0.0
1001
GRADIENTCOLOR1ACI
1070
     5
1001
GRADIENTCOLOR2ACI
1070
     2
1001
ACAD
1010
0.0
1020
0.0
1030
0.0
  0
SEQEND
  5
8BD
  8
ë±90-ÿg2
  6
CONTINUOUS
 62
     7
  0
DIMENSION
  5
4B1
  8
ë±08-ïLÄû
  6
CONTINUOUS
 62
     7
  2
*D71
 10
-267.9684185518266
 20
62.47308065391933
 30
0.0
 11
-255.6745375478896
 21
65.47308065391934
 31
0.0
 70
    32
  1
0.3{\H0.6667x;ü}0.05}
  3
DMC
 13
-270.4684185518266
 23
78.26117509198098
 33
0.0
 14
-267.9684185518266
 24
78.26117509198098
 34
0.0
1001
ACAD
1000
DSTYLE
1002
{
1070
    41
1040
1.5
1070
    47
1040
0.2
1070
    48
1040
0.2
1070
   141
1040
1.5
1070
   371
1070
    13
1070
   372
1070
    13
1002
}
1001
ACADSTRINGINFO
1000
MIFCodePage
1070
     1
  0
DIMENSION
  5
4C2
  8
ë±08-ïLÄû
  6
CONTINUOUS
 62
     7
  2
*D72
 10
-277.8616027707971
 20
68.76019282667511
 30
0.0
 11
-290.1554837747341
 21
71.7601928266751
 31
0.0
 70
    32
  1
0.3{\H0.6667x;ü}0.05}
  3
DMC
 13
-275.3616027707971
 23
78.26117509198098
 33
0.0
 14
-277.8616027707971
 24
78.26117509198098
 34
0.0
1001
ACAD
1000
DSTYLE
1002
{
1070
    41
1040
1.5
1070
    47
1040
0.2
1070
    48
1040
0.2
1070
   141
1040
1.5
1070
   371
1070
    13
1070
   372
1070
    13
1002
}
1001
ACADSTRINGINFO
1000
MIFCodePage
1070
     1
  0
DIMENSION
  5
4D3
  8
ë±08-ïLÄû
  6
CONTINUOUS
 62
     7
  2
*D73
 10
-271.087069906435
 20
78.26117509198098
 30
0.0
 11
-271.087069906435
 21
83.26117509198098
 31
0.0
 70
   160
  1
{\H0.66667x;(<>)}
  3
DMC
 13
-275.3616027707971
 23
88.26117509198098
 33
0.0
 14
-275.3616027707971
 24
78.26117509198098
 34
0.0
 50
90.0
1001
ACAD
1000
DSTYLE
1002
{
1070
    41
1040
1.5
1070
    47
1040
0.2
1070
    48
1040
0.2
1070
   141
1040
1.5
1070
   371
1070
    13
1070
   372
1070
    13
1002
}
  0
DIMENSION
  5
4E2
  8
ë±08-ïLÄû
  6
CONTINUOUS
 62
     7
  2
*D74
 10
-255.6938329859093
 20
83.26117509198098
 30
0.0
 11
-258.6938329859092
 21
80.76117509198098
 31
0.0
 70
    32
  3
DMC
 13
-267.9684185518266
 23
78.26117509198098
 33
0.0
 14
-267.2684185518264
 24
83.26117509198098
 34
0.0
 50
90.0
1001
ACAD
1000
DSTYLE
1002
{
1070
    41
1040
1.5
1070
    47
1040
0.2
1070
    48
1040
0.2
1070
   141
1040
1.5
1070
   371
1070
    13
1070
   372
1070
    13
1002
}
  0
DIMENSION
  5
4F1
  8
ë±08-ïLÄû
  6
CONTINUOUS
 62
     7
  2
*D75
 10
-285.8230129397684
 20
83.26117509198098
 30
0.0
 11
-285.8230129397684
 21
80.76117509198098
 31
0.0
 70
   160
  3
DMC
 13
-277.8616027707971
 23
78.26117509198098
 33
0.0
 14
-278.5616027707969
 24
83.26117509198098
 34
0.0
 50
90.0
1001
ACAD
1000
DSTYLE
1002
{
1070
    41
1040
1.5
1070
    47
1040
0.2
1070
    48
1040
0.2
1070
   141
1040
1.5
1070
   371
1070
    13
1070
   372
1070
    13
1002
}
  0
DIMENSION
  5
500
  8
ë±07-Éíû@
  6
CONTINUOUS
 62
     7
  2
*D76
 10
-260.9684185518266
 20
483.7764501846428
 30
0.0
 11
-271.4150106613118
 21
483.7764501846428
 31
0.0
 70
   160
  1
2.1{\H0.6667x;ü}0.2}
  3
DMC
 13
-281.8616027707971
 23
473.2771267211706
 33
0.0
 14
-260.9684185518266
 24
473.7771267211706
 34
0.0
1001
ACAD
1000
DSTYLE
1002
{
1070
    41
1040
1.5
1070
    47
1040
0.2
1070
    48
1040
0.2
1070
   141
1040
1.5
1070
   371
1070
    13
1070
   372
1070
    13
1002
}
1001
ACADSTRINGINFO
1000
MIFCodePage
1070
     1
  0
LINE
  5
50F
  8
ë±08-ïLÄû
  6
CONTINUOUS
 62
     7
 10
-277.8616027707971
 20
465.7271267211694
 30
0.0
 11
-267.9684185518266
 21
465.7271267211694
 31
0.0
  0
LINE
  5
510
  8
ë±08-ïLÄû
  6
CONTINUOUS
 62
     7
 10
-277.8616027707971
 20
188.7871267211695
 30
0.0
 11
-267.9684185518266
 21
188.7871267211695
 31
0.0
  0
LINE
  5
511
  8
ë±08-ïLÄû
  6
CONTINUOUS
 62
     7
 10
-276.861602770797
 20
178.5571267211699
 30
0.0
 11
-268.9684185518266
 21
178.5571267211699
 31
0.0
  0
LINE
  5
512
  8
ë±08-ïLÄû
  6
CONTINUOUS
 62
     7
 10
-277.8616027707966
 20
474.2571267211706
 30
0.0
 11
-267.9684185518262
 21
474.2571267211706
 31
0.0
  0
POLYLINE
  5
513
  8
ë±08-ïLÄû
  6
CONTINUOUS
 62
     7
 66
     1
 10
0.0
 20
0.0
 30
0.0
 70
     1
  0
VERTEX
  5
8BE
  8
ë±08-ïLÄû
  6
CONTINUOUS
 62
     7
 10
-267.2684185518264
 20
83.26117509198098
 30
0.0
  0
VERTEX
  5
8C0
  8
ë±08-ïLÄû
  6
CONTINUOUS
 62
     7
 10
-267.9684185518266
 20
83.26117509198098
 30
0.0
  0
VERTEX
  5
8C1
  8
ë±08-ïLÄû
  6
CONTINUOUS
 62
     7
 10
-267.9684185518266
 20
178.2571267211697
 30
0.0
  0
VERTEX
  5
8C2
  8
ë±08-ïLÄû
  6
CONTINUOUS
 62
     7
 10
-267.2684185518264
 20
178.2571267211697
 30
0.0
  0
SEQEND
  5
8BF
  8
ë±90-ÿg2
  6
CONTINUOUS
 62
     7
  0
POLYLINE
  5
514
  8
ë±08-ïLÄû
  6
CONTINUOUS
 62
     7
 66
     1
 10
0.0
 20
0.0
 30
0.0
 70
     1
  0
VERTEX
  5
8C3
  8
ë±08-ïLÄû
  6
CONTINUOUS
 62
     7
 10
-278.5616027707969
 20
178.7571267211697
 30
0.0
  0
VERTEX
  5
8C5
  8
ë±08-ïLÄû
  6
CONTINUOUS
 62
     7
 10
-277.8616027707971
 20
178.7571267211697
 30
0.0
  0
VERTEX
  5
8C6
  8
ë±08-ïLÄû
  6
CONTINUOUS
 62
     7
 10
-277.8616027707971
 20
83.26117509198098
 30
0.0
  0
VERTEX
  5
8C7
  8
ë±08-ïLÄû
  6
CONTINUOUS
 62
     7
 10
-278.5616027707969
 20
83.26117509198098
 30
0.0
  0
SEQEND
  5
8C4
  8
ë±90-ÿg2
  6
CONTINUOUS
 62
     7
  0
POLYLINE
  5
515
  8
ë±08-ïLÄû
  6
CONTINUOUS
 62
     7
 66
     1
 10
0.0
 20
0.0
 30
0.0
 70
     1
  0
VERTEX
  5
8C8
  8
ë±08-ïLÄû
  6
CONTINUOUS
 62
     7
 10
-270.4684185518266
 20
88.26117509198098
 30
0.0
  0
VERTEX
  5
8CA
  8
ë±08-ïLÄû
  6
CONTINUOUS
 62
     7
 10
-268.9684185518266
 20
88.26117509198098
 30
0.0
  0
VERTEX
  5
8CB
  8
ë±08-ïLÄû
  6
CONTINUOUS
 62
     7
 10
-268.9684185518266
 20
78.26117509198098
 30
0.0
  0
VERTEX
  5
8CC
  8
ë±08-ïLÄû
  6
CONTINUOUS
 62
     7
 10
-270.4684185518266
 20
78.26117509198098
 30
0.0
  0
SEQEND
  5
8C9
  8
ë±90-ÿg2
  6
CONTINUOUS
 62
     7
  0
POLYLINE
  5
516
  8
ë±08-ïLÄû
  6
CONTINUOUS
 62
     7
 66
     1
 10
0.0
 20
0.0
 30
0.0
 70
     1
  0
VERTEX
  5
8CD
  8
ë±08-ïLÄû
  6
CONTINUOUS
 62
     7
 10
-276.861602770797
 20
88.26117509198098
 30
0.0
  0
VERTEX
  5
8CF
  8
ë±08-ïLÄû
  6
CONTINUOUS
 62
     7
 10
-275.3616027707971
 20
88.26117509198098
 30
0.0
  0
VERTEX
  5
8D0
  8
ë±08-ïLÄû
  6
CONTINUOUS
 62
     7
 10
-275.3616027707971
 20
78.26117509198098
 30
0.0
  0
VERTEX
  5
8D1
  8
ë±08-ïLÄû
  6
CONTINUOUS
 62
     7
 10
-276.861602770797
 20
78.26117509198098
 30
0.0
  0
SEQEND
  5
8CE
  8
ë±90-ÿg2
  6
CONTINUOUS
 62
     7
  0
POLYLINE
  5
517
  8
ë±08-ïLÄû
  6
CONTINUOUS
 62
     7
 66
     1
 10
0.0
 20
0.0
 30
0.0
 70
     1
  0
VERTEX
  5
8D2
  8
ë±08-ïLÄû
  6
CONTINUOUS
 62
     7
 10
-268.9684185518266
 20
181.4071267211698
 30
0.0
  0
VERTEX
  5
8D4
  8
ë±08-ïLÄû
  6
CONTINUOUS
 62
     7
 10
-267.9684185518266
 20
181.4071267211698
 30
0.0
  0
VERTEX
  5
8D5
  8
ë±08-ïLÄû
  6
CONTINUOUS
 62
     7
 10
-267.9684185518266
 20
78.26117509198098
 30
0.0
  0
VERTEX
  5
8D6
  8
ë±08-ïLÄû
  6
CONTINUOUS
 62
     7
 10
-268.9684185518266
 20
78.26117509198098
 30
0.0
  0
SEQEND
  5
8D3
  8
ë±90-ÿg2
  6
CONTINUOUS
 62
     7
  0
POLYLINE
  5
518
  8
ë±08-ïLÄû
  6
CONTINUOUS
 62
     7
 66
     1
 10
0.0
 20
0.0
 30
0.0
 70
     1
  0
VERTEX
  5
8D7
  8
ë±08-ïLÄû
  6
CONTINUOUS
 62
     7
 10
-277.8616027707971
 20
181.4071267211698
 30
0.0
  0
VERTEX
  5
8D9
  8
ë±08-ïLÄû
  6
CONTINUOUS
 62
     7
 10
-276.861602770797
 20
181.4071267211698
 30
0.0
  0
VERTEX
  5
8DA
  8
ë±08-ïLÄû
  6
CONTINUOUS
 62
     7
 10
-276.861602770797
 20
78.26117509198098
 30
0.0
  0
VERTEX
  5
8DB
  8
ë±08-ïLÄû
  6
CONTINUOUS
 62
     7
 10
-277.8616027707971
 20
78.26117509198098
 30
0.0
  0
SEQEND
  5
8D8
  8
ë±90-ÿg2
  6
CONTINUOUS
 62
     7
  0
POLYLINE
  5
519
  8
ë±08-ïLÄû
  6
CONTINUOUS
 62
     7
 66
     1
 10
0.0
 20
0.0
 30
0.0
 70
     1
  0
VERTEX
  5
8DC
  8
ë±08-ïLÄû
  6
CONTINUOUS
 62
     7
 10
-281.8616027707971
 20
474.2571267211706
 30
0.0
  0
VERTEX
  5
8DE
  8
ë±08-ïLÄû
  6
CONTINUOUS
 62
     7
 10
-277.8616027707966
 20
474.2571267211706
 30
0.0
  0
VERTEX
  5
8DF
  8
ë±08-ïLÄû
  6
CONTINUOUS
 62
     7
 10
-277.8616027707966
 20
178.75712672117
 30
0.0
  0
VERTEX
  5
8E0
  8
ë±08-ïLÄû
  6
CONTINUOUS
 62
     7
 10
-281.8616027707971
 20
178.75712672117
 30
0.0
  0
SEQEND
  5
8DD
  8
ë±90-ÿg2
  6
CONTINUOUS
 62
     7
  0
POLYLINE
  5
51A
  8
ë±08-ïLÄû
  6
CONTINUOUS
 62
     7
 66
     1
 10
0.0
 20
0.0
 30
0.0
 70
     1
  0
VERTEX
  5
8E1
  8
ë±08-ïLÄû
  6
CONTINUOUS
 62
     7
 10
-267.9684185518266
 20
474.7571267211706
 30
0.0
  0
VERTEX
  5
8E3
  8
ë±08-ïLÄû
  6
CONTINUOUS
 62
     7
 10
-260.9684185518266
 20
474.7571267211706
 30
0.0
  0
VERTEX
  5
8E4
  8
ë±08-ïLÄû
  6
CONTINUOUS
 62
     7
 10
-260.9684185518266
 20
178.2571267211697
 30
0.0
  0
VERTEX
  5
8E5
  8
ë±08-ïLÄû
  6
CONTINUOUS
 62
     7
 10
-267.9684185518266
 20
178.2571267211697
 30
0.0
  0
SEQEND
  5
8E2
  8
ë±90-ÿg2
  6
CONTINUOUS
 62
     7
  0
POLYLINE
  5
51B
  8
ë±08-ïLÄû
  6
CONTINUOUS
 62
     7
 66
     1
 10
0.0
 20
0.0
 30
0.0
 70
     1
  0
VERTEX
  5
8E6
  8
ë±08-ïLÄû
  6
CONTINUOUS
 62
     7
 10
-354.2323527544886
 20
192.0871267211695
 30
0.0
  0
VERTEX
  5
8E8
  8
ë±08-ïLÄû
  6
CONTINUOUS
 62
     7
 10
-354.2323527544886
 20
462.4271267211694
 30
0.0
  0
VERTEX
  5
8E9
  8
ë±08-ïLÄû
  6
CONTINUOUS
 62
     7
 10
-692.1523527544886
 20
462.4271267211694
 30
0.0
  0
VERTEX
  5
8EA
  8
ë±08-ïLÄû
  6
CONTINUOUS
 62
     7
 10
-692.1523527544886
 20
192.0871267211695
 30
0.0
  0
SEQEND
  5
8E7
  8
ë±90-ÿg2
  6
CONTINUOUS
 62
     7
  0
ENDSEC
  0
EOF
