  0
SECTION
  2
HEADER
  9
$ACADVER
  1
AC1009
  9
$INSBASE
 10
0.0
 20
0.0
 30
0.0
  9
$EXTMIN
 10
10.71777006351817
 20
10.67975434054796
 30
0.0
  9
$EXTMAX
 10
820.7177700635181
 20
560.6797543405479
 30
0.0
  9
$LIMMIN
 10
0.0
 20
0.0
  9
$LIMMAX
 10
3000.0
 20
2500.0
  9
$ORTHOMODE
 70
     0
  9
$REGENMODE
 70
     1
  9
$FILLMODE
 70
     1
  9
$QTEXTMODE
 70
     0
  9
$MIRRTEXT
 70
     1
  9
$DRAGMODE
 70
     2
  9
$LTSCALE
 40
10.0
  9
$OSMODE
 70
    37
  9
$ATTMODE
 70
     1
  9
$TEXTSIZE
 40
5.0
  9
$TRACEWID
 40
1.0
  9
$TEXTSTYLE
  7
STANDARD
  9
$CLAYER
  8
0
  9
$CELTYPE
  6
CONTINUOUS
  9
$CECOLOR
 62
     7
  9
$DIMSCALE
 40
1.0
  9
$DIMASZ
 40
2.0
  9
$DIMEXO
 40
0.0
  9
$DIMDLI
 40
0.0
  9
$DIMRND
 40
0.0
  9
$DIMDLE
 40
0.0
  9
$DIMEXE
 40
1.0
  9
$DIMTP
 40
0.2
  9
$DIMTM
 40
0.2
  9
$DIMTXT
 40
5.0
  9
$DIMCEN
 40
1.5
  9
$DIMTSZ
 40
0.0
  9
$DIMTOL
 70
     0
  9
$DIMLIM
 70
     0
  9
$DIMTIH
 70
     0
  9
$DIMTOH
 70
     0
  9
$DIMSE1
 70
     0
  9
$DIMSE2
 70
     0
  9
$DIMTAD
 70
     3
  9
$DIMZIN
 70
     8
  9
$DIMBLK
  1
OPEN
  9
$DIMASO
 70
     1
  9
$DIMSHO
 70
     1
  9
$DIMPOST
  1

  9
$DIMAPOST
  1

  9
$DIMALT
 70
     0
  9
$DIMALTD
 70
     3
  9
$DIMALTF
 40
0.03937007874016
  9
$DIMLFAC
 40
1.0
  9
$DIMTOFL
 70
     1
  9
$DIMTVP
 40
0.0
  9
$DIMTIX
 70
     0
  9
$DIMSOXD
 70
     0
  9
$DIMSAH
 70
     0
  9
$DIMBLK1
  1

  9
$DIMBLK2
  1

  9
$DIMSTYLE
  2
DMC
  9
$DIMCLRD
 70
     5
  9
$DIMCLRE
 70
     5
  9
$DIMCLRT
 70
     5
  9
$DIMTFAC
 40
0.7
  9
$DIMGAP
 40
0.5
  9
$LUNITS
 70
     2
  9
$LUPREC
 70
     4
  9
$SKETCHINC
 40
1.0
  9
$FILLETRAD
 40
0.5
  9
$AUNITS
 70
     0
  9
$AUPREC
 70
     0
  9
$MENU
  1
.
  9
$ELEVATION
 40
0.0
  9
$PELEVATION
 40
0.0
  9
$THICKNESS
 40
0.0
  9
$LIMCHECK
 70
     0
  9
$BLIPMODE
 70
     0
  9
$CHAMFERA
 40
10.0
  9
$CHAMFERB
 40
10.0
  9
$SKPOLY
 70
     0
  9
$TDCREATE
 40
2451810.404221065
  9
$TDUPDATE
 40
2460230.383962268
  9
$TDINDWG
 40
4.652844097
  9
$TDUSRTIMER
 40
4.652842685
  9
$USRTIMER
 70
     1
  9
$ANGBASE
 50
0.0
  9
$ANGDIR
 70
     0
  9
$PDMODE
 70
     0
  9
$PDSIZE
 40
0.0
  9
$PLINEWID
 40
0.5
  9
$COORDS
 70
     0
  9
$SPLFRAME
 70
     0
  9
$SPLINETYPE
 70
     6
  9
$SPLINESEGS
 70
     8
  9
$ATTDIA
 70
     1
  9
$ATTREQ
 70
     1
  9
$HANDLING
 70
     1
  9
$HANDSEED
  5
C48
  9
$SURFTAB1
 70
     6
  9
$SURFTAB2
 70
     6
  9
$SURFTYPE
 70
     6
  9
$SURFU
 70
     6
  9
$SURFV
 70
     6
  9
$UCSNAME
  2

  9
$UCSORG
 10
0.0
 20
0.0
 30
0.0
  9
$UCSXDIR
 10
1.0
 20
0.0
 30
0.0
  9
$UCSYDIR
 10
0.0
 20
1.0
 30
0.0
  9
$PUCSNAME
  2

  9
$PUCSORG
 10
0.0
 20
0.0
 30
0.0
  9
$PUCSXDIR
 10
1.0
 20
0.0
 30
0.0
  9
$PUCSYDIR
 10
0.0
 20
1.0
 30
0.0
  9
$USERI1
 70
     0
  9
$USERI2
 70
     0
  9
$USERI3
 70
     0
  9
$USERI4
 70
     0
  9
$USERI5
 70
     0
  9
$USERR1
 40
0.0
  9
$USERR2
 40
0.0
  9
$USERR3
 40
0.0
  9
$USERR4
 40
0.0
  9
$USERR5
 40
0.0
  9
$WORLDVIEW
 70
     1
  9
$SHADEDGE
 70
     3
  9
$SHADEDIF
 70
    70
  9
$TILEMODE
 70
     1
  9
$MAXACTVP
 70
    64
  9
$PLIMCHECK
 70
     0
  9
$PEXTMIN
 10
1.000000000000000E+20
 20
1.000000000000000E+20
 30
1.000000000000000E+20
  9
$PEXTMAX
 10
-1.000000000000000E+20
 20
-1.000000000000000E+20
 30
-1.000000000000000E+20
  9
$PLIMMIN
 10
0.0
 20
0.0
  9
$PLIMMAX
 10
420.0
 20
297.0
  9
$UNITMODE
 70
     0
  9
$VISRETAIN
 70
     1
  9
$PLINEGEN
 70
     0
  9
$PSLTSCALE
 70
     1
  0
ENDSEC
  0
SECTION
  2
TABLES
  0
TABLE
  2
VPORT
 70
     1
  0
VPORT
  2
*ACTIVE
 70
     0
 10
0.0
 20
0.0
 11
1.0
 21
1.0
 12
484.4048411041891
 22
302.2426782051057
 13
0.0
 23
0.0
 14
10.0
 24
10.0
 15
10.0
 25
10.0
 16
0.0
 26
0.0
 36
1.0
 17
0.0
 27
0.0
 37
0.0
 40
644.390882557233
 41
1.853689567430025
 42
50.0
 43
0.0
 44
0.0
 50
0.0
 51
0.0
 71
     0
 72
   500
 73
     1
 74
     3
 75
     0
 76
     0
 77
     0
 78
     0
  0
ENDTAB
  0
TABLE
  2
LTYPE
 70
     4
  0
LTYPE
  2
CONTINUOUS
 70
     0
  3
Solid line
 72
    65
 73
     0
 40
0.0
  0
LTYPE
  2
CENTER2
 70
     0
  3
Center (.5x) ___ _ ___ _ ___ _ ___ _ ___ _ ___
 72
    65
 73
     4
 40
28.575
 49
19.05
 49
-3.174999999999998
 49
3.174999999999998
 49
-3.174999999999998
  0
LTYPE
  2
PHANTOM2
 70
     0
  3
___ _ _ ___ _ _ ___ _ _ ___ _ _ ___ _ _ ___ _ _
 72
    65
 73
     6
 40
1.25
 49
0.625
 49
-0.125
 49
0.125
 49
-0.125
 49
0.125
 49
-0.125
  0
LTYPE
  2
DASHED2
 70
     0
  3
Dashed (.5x) _ _ _ _ _ _ _ _ _ _ _ _ _ _ _ _ _
 72
    65
 73
     2
 40
9.524999999999996
 49
6.349999999999998
 49
-3.174999999999998
  0
ENDTAB
  0
TABLE
  2
LAYER
 70
    11
  0
LAYER
  2
0
 70
     0
 62
     7
  6
CONTINUOUS
  0
LAYER
  2
DEFPOINTS
 70
     0
 62
     7
  6
CONTINUOUS
  0
LAYER
  2
回07-寸法
 70
     0
 62
     7
  6
CONTINUOUS
  0
LAYER
  2
回03-下ER
 70
     0
 62
     7
  6
CONTINUOUS
  0
LAYER
  2
回04-下接
 70
     0
 62
     7
  6
CONTINUOUS
  0
LAYER
  2
回01-上ER
 70
     0
 62
     7
  6
CONTINUOUS
  0
LAYER
  2
回90-枠1
 70
     0
 62
     7
  6
CONTINUOUS
  0
LAYER
  2
回08-記事
 70
     0
 62
     7
  6
CONTINUOUS
  0
LAYER
  2
回05-ﾃｰﾙ
 70
     0
 62
     7
  6
CONTINUOUS
  0
LAYER
  2
回90-枠2
 70
     0
 62
     7
  6
CONTINUOUS
  0
LAYER
  2
回03-記事
 70
     0
 62
     7
  6
CONTINUOUS
  0
ENDTAB
  0
TABLE
  2
STYLE
 70
     2
  0
STYLE
  2
STANDARD
 70
     0
 40
5.0
 41
1.0
 50
0.0
 71
     0
 42
5.0
  3
isocp.shx
  4
bigfont.shx
  0
STYLE
  2
ANNOTATIVE
 70
     0
 40
0.0
 41
1.0
 50
0.0
 71
     0
 42
0.2
  3
txt.shx
  4

  0
ENDTAB
  0
TABLE
  2
VIEW
 70
     0
  0
ENDTAB
  0
TABLE
  2
UCS
 70
     0
  0
ENDTAB
  0
TABLE
  2
APPID
 70
     7
  0
APPID
  2
ACAD
 70
     0
  0
APPID
  2
ACADANNOTATIVE
 70
     0
  0
APPID
  2
ACAD_PSEXT
 70
     0
  0
APPID
  2
GRADIENTCOLOR1ACI
 70
     0
  0
APPID
  2
GRADIENTCOLOR2ACI
 70
     0
  0
APPID
  2
ACAD_NAV_VCDISPLAY
 70
     0
  0
APPID
  2
ACADSTRINGINFO
 70
     0
  0
ENDTAB
  0
TABLE
  2
DIMSTYLE
 70
     1
  0
DIMSTYLE
  2
DMC
 70
     0
  3

  4

  5
OPEN
  6

  7

 40
1.0
 41
2.0
 42
0.0
 43
0.0
 44
1.0
 45
0.0
 46
0.0
 47
0.0
 48
0.0
140
3.0
141
2.0
142
0.0
143
0.03937007874016
144
1.0
145
0.0
146
0.7
147
0.5
 71
     0
 72
     0
 73
     0
 74
     0
 75
     0
 76
     0
 77
     3
 78
     8
170
     0
171
     3
172
     1
173
     0
174
     0
175
     0
176
     5
177
     5
178
     5
  0
ENDTAB
  0
ENDSEC
  0
SECTION
  2
BLOCKS
  0
BLOCK
  8
0
  2
$MODEL_SPACE
 70
     0
 10
0.0
 20
0.0
 30
0.0
  3
$MODEL_SPACE
  1

  0
ENDBLK
  8
0
  5
1D
  0
BLOCK
 67
     1
  8
0
  2
$PAPER_SPACE
 70
     0
 10
0.0
 20
0.0
 30
0.0
  3
$PAPER_SPACE
  1

  0
ENDBLK
  5
23
 67
     1
  8
0
  0
BLOCK
  8
0
  2
_OPEN
 70
     0
 10
0.0
 20
0.0
 30
0.0
  3
_OPEN
  1

  0
LINE
  5
97E
  8
0
  6
BYBLOCK
 62
     0
 10
-1.0
 20
0.166667
 30
0.0
 11
0.0
 21
0.0
 31
0.0
  0
LINE
  5
97F
  8
0
  6
BYBLOCK
 62
     0
 10
-1.0
 20
-0.166667
 30
0.0
 11
0.0
 21
0.0
 31
0.0
  0
LINE
  5
980
  8
0
  6
BYBLOCK
 62
     0
 10
0.0
 20
0.0
 30
0.0
 11
-1.0
 21
0.0
 31
0.0
  0
LINE
  5
11
  8
0
  6
CONTINUOUS
 62
     0
 10
-1.0
 20
0.1666666666666666
 30
0.0
 11
0.0
 21
0.0
 31
0.0
  0
LINE
  5
12
  8
0
  6
CONTINUOUS
 62
     0
 10
-1.0
 20
-0.1666666666666666
 30
0.0
 11
0.0
 21
0.0
 31
0.0
  0
LINE
  5
13
  8
0
  6
CONTINUOUS
 62
     0
 10
0.0
 20
0.0
 30
0.0
 11
-1.0
 21
0.0
 31
0.0
  0
ENDBLK
  5
14
  8
0
  0
BLOCK
  8
0
  2
*D11
 70
     1
 10
0.0
 20
0.0
 30
0.0
  3
*D11
  1

  0
LINE
  5
48E
  8
回07-寸法
  6
CONTINUOUS
 62
     5
 10
597.1595742171394
 20
514.7075355111589
 30
0.0
 11
597.1595742171394
 21
525.2268589746307
 31
0.0
  0
LINE
  5
48F
  8
回07-寸法
  6
CONTINUOUS
 62
     5
 10
618.0527584361097
 20
515.2075355111588
 30
0.0
 11
618.0527584361097
 21
525.2268589746307
 31
0.0
  0
LINE
  5
490
  8
回07-寸法
  6
CONTINUOUS
 62
     5
 10
600.1595742171392
 20
524.2268589746307
 30
0.0
 11
615.0527584361098
 21
524.2268589746307
 31
0.0
  0
INSERT
  5
491
  8
回07-寸法
  6
CONTINUOUS
 62
     5
 66
     1
  2
_OPEN
 10
597.1595742171394
 20
524.2268589746307
 30
0.0
 41
3.0
 42
3.0
 43
3.0
 50
180.0
  0
SEQEND
  5
492
  8
0
  6
CONTINUOUS
 62
     7
  0
INSERT
  5
493
  8
回07-寸法
  6
CONTINUOUS
 62
     5
 66
     1
  2
_OPEN
 10
618.0527584361097
 20
524.2268589746307
 30
0.0
 41
3.0
 42
3.0
 43
3.0
  0
SEQEND
  5
494
  8
0
  6
CONTINUOUS
 62
     7
  0
INSERT
  5
495
  8
回07-寸法
  6
CONTINUOUS
 62
     5
 66
     1
  2
*X8787
 10
0.0
 20
0.0
 30
0.0
  0
SEQEND
  5
880
  8
0
  6
CONTINUOUS
 62
     7
  0
POINT
  5
496
  8
DEFPOINTS
  6
CONTINUOUS
 62
     0
 10
597.1595742171394
 20
514.7075355111589
 30
0.0
  0
POINT
  5
497
  8
DEFPOINTS
  6
CONTINUOUS
 62
     0
 10
618.0527584361097
 20
515.2075355111588
 30
0.0
  0
POINT
  5
498
  8
DEFPOINTS
  6
CONTINUOUS
 62
     0
 10
618.0527584361097
 20
524.2268589746307
 30
0.0
  0
ENDBLK
  5
499
  8
0
 62
     7
  0
BLOCK
  8
0
  2
*D22
 70
     1
 10
0.0
 20
0.0
 30
0.0
  3
*D22
  1

  0
LINE
  5
47D
  8
回08-記事
  6
CONTINUOUS
 62
     5
 10
601.1595742171396
 20
161.3115838819697
 30
0.0
 11
592.1981640481678
 21
161.3115838819697
 31
0.0
  0
LINE
  5
47E
  8
回08-記事
  6
CONTINUOUS
 62
     5
 10
600.4595742171398
 20
166.3115838819697
 30
0.0
 11
592.1981640481678
 21
166.3115838819697
 31
0.0
  0
LINE
  5
47F
  8
回08-記事
  6
CONTINUOUS
 62
     5
 10
593.1981640481677
 20
158.3115838819697
 30
0.0
 11
593.1981640481677
 21
155.3115838819697
 31
0.0
  0
LINE
  5
480
  8
回08-記事
  6
CONTINUOUS
 62
     5
 10
593.1981640481677
 20
169.3115838819697
 30
0.0
 11
593.1981640481677
 21
172.3115838819697
 31
0.0
  0
LINE
  5
481
  8
回08-記事
  6
CONTINUOUS
 62
     5
 10
593.1981640481677
 20
161.3115838819697
 30
0.0
 11
593.1981640481677
 21
166.3115838819697
 31
0.0
  0
INSERT
  5
482
  8
回08-記事
  6
CONTINUOUS
 62
     5
 66
     1
  2
_OPEN
 10
593.1981640481677
 20
161.3115838819697
 30
0.0
 41
3.0
 42
3.0
 43
3.0
 50
90.0
  0
SEQEND
  5
483
  8
0
  6
CONTINUOUS
 62
     7
  0
INSERT
  5
484
  8
回08-記事
  6
CONTINUOUS
 62
     5
 66
     1
  2
_OPEN
 10
593.1981640481677
 20
166.3115838819697
 30
0.0
 41
3.0
 42
3.0
 43
3.0
 50
270.0
  0
SEQEND
  5
485
  8
0
  6
CONTINUOUS
 62
     7
  0
TEXT
  5
486
  8
回08-記事
  6
CONTINUOUS
 62
     5
 10
592.6981640481677
 20
162.0615838819695
 30
0.0
 40
5.0
  1
5
 50
90.0
1001
ACAD
1000
MTEXTBEGIN
1070
    73
1070
     1
1070
    44
1040
1.0
1070
    74
1070
     0
1000
MTEXTEND
  0
POINT
  5
487
  8
DEFPOINTS
  6
CONTINUOUS
 62
     0
 10
601.1595742171396
 20
161.3115838819697
 30
0.0
  0
POINT
  5
488
  8
DEFPOINTS
  6
CONTINUOUS
 62
     0
 10
600.4595742171398
 20
166.3115838819697
 30
0.0
  0
POINT
  5
489
  8
DEFPOINTS
  6
CONTINUOUS
 62
     0
 10
593.1981640481677
 20
166.3115838819697
 30
0.0
  0
ENDBLK
  5
48A
  8
0
 62
     7
  0
BLOCK
  8
0
  2
*D33
 70
     1
 10
0.0
 20
0.0
 30
0.0
  3
*D33
  1

  0
LINE
  5
46C
  8
回08-記事
  6
CONTINUOUS
 62
     5
 10
611.0527584361099
 20
161.3115838819697
 30
0.0
 11
624.327344002028
 21
161.3115838819697
 31
0.0
  0
LINE
  5
46D
  8
回08-記事
  6
CONTINUOUS
 62
     5
 10
611.7527584361101
 20
166.3115838819697
 30
0.0
 11
624.327344002028
 21
166.3115838819697
 31
0.0
  0
LINE
  5
46E
  8
回08-記事
  6
CONTINUOUS
 62
     5
 10
623.3273440020283
 20
158.3115838819697
 30
0.0
 11
623.3273440020283
 21
155.3115838819697
 31
0.0
  0
LINE
  5
46F
  8
回08-記事
  6
CONTINUOUS
 62
     5
 10
623.3273440020283
 20
169.3115838819697
 30
0.0
 11
623.3273440020283
 21
175.5186906631563
 31
0.0
  0
LINE
  5
470
  8
回08-記事
  6
CONTINUOUS
 62
     5
 10
623.3273440020283
 20
161.3115838819697
 30
0.0
 11
623.3273440020283
 21
166.3115838819697
 31
0.0
  0
INSERT
  5
471
  8
回08-記事
  6
CONTINUOUS
 62
     5
 66
     1
  2
_OPEN
 10
623.3273440020283
 20
161.3115838819697
 30
0.0
 41
3.0
 42
3.0
 43
3.0
 50
90.0
  0
SEQEND
  5
472
  8
0
  6
CONTINUOUS
 62
     7
  0
INSERT
  5
473
  8
回08-記事
  6
CONTINUOUS
 62
     5
 66
     1
  2
_OPEN
 10
623.3273440020283
 20
166.3115838819697
 30
0.0
 41
3.0
 42
3.0
 43
3.0
 50
270.0
  0
SEQEND
  5
474
  8
0
  6
CONTINUOUS
 62
     7
  0
TEXT
  5
475
  8
回08-記事
  6
CONTINUOUS
 62
     5
 10
622.8273440020281
 20
172.1651372725628
 30
0.0
 40
5.0
  1
5
 50
90.0
1001
ACAD
1000
MTEXTBEGIN
1070
    73
1070
     1
1070
    44
1040
1.0
1070
    74
1070
     0
1000
MTEXTEND
  0
POINT
  5
476
  8
DEFPOINTS
  6
CONTINUOUS
 62
     0
 10
611.0527584361099
 20
161.3115838819697
 30
0.0
  0
POINT
  5
477
  8
DEFPOINTS
  6
CONTINUOUS
 62
     0
 10
611.7527584361101
 20
166.3115838819697
 30
0.0
  0
POINT
  5
478
  8
DEFPOINTS
  6
CONTINUOUS
 62
     0
 10
623.3273440020283
 20
166.3115838819697
 30
0.0
  0
ENDBLK
  5
479
  8
0
 62
     7
  0
BLOCK
  8
0
  2
*D44
 70
     1
 10
0.0
 20
0.0
 30
0.0
  3
*D44
  1

  0
LINE
  5
45D
  8
回08-記事
  6
CONTINUOUS
 62
     5
 10
603.6595742171396
 20
171.3115838819696
 30
0.0
 11
608.9341070815012
 21
171.3115838819696
 31
0.0
  0
LINE
  5
45E
  8
回08-記事
  6
CONTINUOUS
 62
     5
 10
603.6595742171396
 20
161.3115838819697
 30
0.0
 11
608.9341070815012
 21
161.3115838819697
 31
0.0
  0
LINE
  5
45F
  8
回08-記事
  6
CONTINUOUS
 62
     5
 10
607.9341070815011
 20
168.3115838819697
 30
0.0
 11
607.9341070815011
 21
164.3115838819697
 31
0.0
  0
INSERT
  5
460
  8
回08-記事
  6
CONTINUOUS
 62
     5
 66
     1
  2
_OPEN
 10
607.9341070815011
 20
171.3115838819696
 30
0.0
 41
3.0
 42
3.0
 43
3.0
 50
90.0
  0
SEQEND
  5
461
  8
0
  6
CONTINUOUS
 62
     7
  0
INSERT
  5
462
  8
回08-記事
  6
CONTINUOUS
 62
     5
 66
     1
  2
_OPEN
 10
607.9341070815011
 20
161.3115838819697
 30
0.0
 41
3.0
 42
3.0
 43
3.0
 50
270.0
  0
SEQEND
  5
463
  8
0
  6
CONTINUOUS
 62
     7
  0
TEXT
  5
464
  8
回08-記事
  6
CONTINUOUS
 62
     5
 10
607.2674395815012
 20
162.9782338819697
 30
0.0
 40
3.333349999999998
  1
(10)
 50
90.0
1001
ACAD
1000
MTEXTBEGIN
1070
    73
1070
     1
1070
    44
1040
1.0
1070
    74
1070
     0
1000
MTEXTEND
  0
POINT
  5
465
  8
DEFPOINTS
  6
CONTINUOUS
 62
     0
 10
603.6595742171396
 20
171.3115838819696
 30
0.0
  0
POINT
  5
466
  8
DEFPOINTS
  6
CONTINUOUS
 62
     0
 10
603.6595742171396
 20
161.3115838819697
 30
0.0
  0
POINT
  5
467
  8
DEFPOINTS
  6
CONTINUOUS
 62
     0
 10
607.9341070815011
 20
161.3115838819697
 30
0.0
  0
ENDBLK
  5
468
  8
0
 62
     7
  0
BLOCK
  8
0
  2
*D55
 70
     1
 10
0.0
 20
0.0
 30
0.0
  3
*D55
  1

  0
LINE
  5
44C
  8
回08-記事
  6
CONTINUOUS
 62
     5
 10
603.6595742171392
 20
161.3115838819697
 30
0.0
 11
603.6595742171392
 21
149.1126889211673
 31
0.0
  0
LINE
  5
44D
  8
回08-記事
  6
CONTINUOUS
 62
     5
 10
601.1595742171394
 20
161.3115838819697
 30
0.0
 11
601.1595742171394
 21
149.1126889211673
 31
0.0
  0
LINE
  5
44E
  8
回08-記事
  6
CONTINUOUS
 62
     5
 10
606.6595742171394
 20
150.1126889211673
 30
0.0
 11
609.6595742171394
 21
150.1126889211673
 31
0.0
  0
LINE
  5
44F
  8
回08-記事
  6
CONTINUOUS
 62
     5
 10
598.1595742171394
 20
150.1126889211673
 30
0.0
 11
576.4337341182482
 21
150.1126889211673
 31
0.0
  0
LINE
  5
450
  8
回08-記事
  6
CONTINUOUS
 62
     5
 10
603.6595742171392
 20
150.1126889211673
 30
0.0
 11
601.1595742171394
 21
150.1126889211673
 31
0.0
  0
INSERT
  5
451
  8
回08-記事
  6
CONTINUOUS
 62
     5
 66
     1
  2
_OPEN
 10
603.6595742171392
 20
150.1126889211673
 30
0.0
 41
3.0
 42
3.0
 43
3.0
 50
180.0
  0
SEQEND
  5
452
  8
0
  6
CONTINUOUS
 62
     7
  0
INSERT
  5
453
  8
回08-記事
  6
CONTINUOUS
 62
     5
 66
     1
  2
_OPEN
 10
601.1595742171394
 20
150.1126889211673
 30
0.0
 41
3.0
 42
3.0
 43
3.0
  0
SEQEND
  5
454
  8
0
  6
CONTINUOUS
 62
     7
  0
INSERT
  5
455
  8
回08-記事
  6
CONTINUOUS
 62
     5
 66
     1
  2
*X8888
 10
0.0
 20
0.0
 30
0.0
  0
SEQEND
  5
886
  8
0
  6
CONTINUOUS
 62
     7
  0
POINT
  5
456
  8
DEFPOINTS
  6
CONTINUOUS
 62
     0
 10
603.6595742171392
 20
161.3115838819697
 30
0.0
  0
POINT
  5
457
  8
DEFPOINTS
  6
CONTINUOUS
 62
     0
 10
601.1595742171394
 20
161.3115838819697
 30
0.0
  0
POINT
  5
458
  8
DEFPOINTS
  6
CONTINUOUS
 62
     0
 10
601.1595742171394
 20
150.1126889211673
 30
0.0
  0
ENDBLK
  5
459
  8
0
 62
     7
  0
BLOCK
  8
0
  2
*D66
 70
     1
 10
0.0
 20
0.0
 30
0.0
  3
*D66
  1

  0
LINE
  5
43B
  8
回08-記事
  6
CONTINUOUS
 62
     5
 10
608.5527584361098
 20
161.3115838819697
 30
0.0
 11
608.5527584361098
 21
144.523489443908
 31
0.0
  0
LINE
  5
43C
  8
回08-記事
  6
CONTINUOUS
 62
     5
 10
611.0527584361098
 20
161.3115838819697
 30
0.0
 11
611.0527584361098
 21
144.523489443908
 31
0.0
  0
LINE
  5
43D
  8
回08-記事
  6
CONTINUOUS
 62
     5
 10
605.5527584361097
 20
145.523489443908
 30
0.0
 11
602.5527584361098
 21
145.523489443908
 31
0.0
  0
LINE
  5
43E
  8
回08-記事
  6
CONTINUOUS
 62
     5
 10
614.0527584361097
 20
145.523489443908
 30
0.0
 11
635.7785985350008
 21
145.523489443908
 31
0.0
  0
LINE
  5
43F
  8
回08-記事
  6
CONTINUOUS
 62
     5
 10
608.5527584361098
 20
145.523489443908
 30
0.0
 11
611.0527584361098
 21
145.523489443908
 31
0.0
  0
INSERT
  5
440
  8
回08-記事
  6
CONTINUOUS
 62
     5
 66
     1
  2
_OPEN
 10
608.5527584361098
 20
145.523489443908
 30
0.0
 41
3.0
 42
3.0
 43
3.0
  0
SEQEND
  5
441
  8
0
  6
CONTINUOUS
 62
     7
  0
INSERT
  5
442
  8
回08-記事
  6
CONTINUOUS
 62
     5
 66
     1
  2
_OPEN
 10
611.0527584361098
 20
145.523489443908
 30
0.0
 41
3.0
 42
3.0
 43
3.0
 50
180.0
  0
SEQEND
  5
443
  8
0
  6
CONTINUOUS
 62
     7
  0
INSERT
  5
444
  8
回08-記事
  6
CONTINUOUS
 62
     5
 66
     1
  2
*X8989
 10
0.0
 20
0.0
 30
0.0
  0
SEQEND
  5
88C
  8
0
  6
CONTINUOUS
 62
     7
  0
POINT
  5
445
  8
DEFPOINTS
  6
CONTINUOUS
 62
     0
 10
608.5527584361098
 20
161.3115838819697
 30
0.0
  0
POINT
  5
446
  8
DEFPOINTS
  6
CONTINUOUS
 62
     0
 10
611.0527584361098
 20
161.3115838819697
 30
0.0
  0
POINT
  5
447
  8
DEFPOINTS
  6
CONTINUOUS
 62
     0
 10
611.0527584361098
 20
145.523489443908
 30
0.0
  0
ENDBLK
  5
448
  8
0
 62
     7
  0
BLOCK
  8
0
  2
*D77
 70
     1
 10
0.0
 20
0.0
 30
0.0
  3
*D77
  1

  0
LINE
  5
3C0
  8
回07-寸法
  6
CONTINUOUS
 62
     5
 10
137.1132575457532
 20
274.0075355111585
 30
0.0
 11
104.3832575457529
 21
274.0075355111585
 31
0.0
  0
LINE
  5
3C1
  8
回07-寸法
  6
CONTINUOUS
 62
     5
 10
137.1132575457532
 20
506.2075355111586
 30
0.0
 11
104.3832575457528
 21
506.2075355111586
 31
0.0
  0
LINE
  5
3C2
  8
回07-寸法
  6
CONTINUOUS
 62
     5
 10
105.3832575457529
 20
277.0075355111585
 30
0.0
 11
105.3832575457529
 21
503.2075355111586
 31
0.0
  0
INSERT
  5
3C3
  8
回07-寸法
  6
CONTINUOUS
 62
     5
 66
     1
  2
_OPEN
 10
105.3832575457529
 20
274.0075355111585
 30
0.0
 41
3.0
 42
3.0
 43
3.0
 50
270.0
  0
SEQEND
  5
3C4
  8
0
  6
CONTINUOUS
 62
     7
  0
INSERT
  5
3C5
  8
回07-寸法
  6
CONTINUOUS
 62
     5
 66
     1
  2
_OPEN
 10
105.3832575457528
 20
506.2075355111586
 30
0.0
 41
3.0
 42
3.0
 43
3.0
 50
90.0
  0
SEQEND
  5
3C6
  8
0
  6
CONTINUOUS
 62
     7
  0
TEXT
  5
3C7
  8
回07-寸法
  6
CONTINUOUS
 62
     5
 10
104.6332575457529
 20
362.108519763127
 30
0.0
 40
5.0
  1
232.2(Active Area)
 50
90.0
1001
ACAD
1000
MTEXTBEGIN
1070
    73
1070
     1
1070
    44
1040
1.0
1070
    74
1070
     0
1000
MTEXTEND
  0
POINT
  5
3C8
  8
DEFPOINTS
  6
CONTINUOUS
 62
     0
 10
137.1132575457532
 20
274.0075355111585
 30
0.0
  0
POINT
  5
3C9
  8
DEFPOINTS
  6
CONTINUOUS
 62
     0
 10
137.1132575457532
 20
506.2075355111586
 30
0.0
  0
POINT
  5
3CA
  8
DEFPOINTS
  6
CONTINUOUS
 62
     0
 10
105.3832575457528
 20
506.2075355111586
 30
0.0
  0
ENDBLK
  5
3CB
  8
0
 62
     7
  0
BLOCK
  8
0
  2
*D88
 70
     1
 10
0.0
 20
0.0
 30
0.0
  3
*D88
  1

  0
LINE
  5
3B1
  8
回07-寸法
  6
CONTINUOUS
 62
     5
 10
135.1132575457532
 20
508.2075355111586
 30
0.0
 11
92.3832575457528
 21
508.2075355111586
 31
0.0
  0
LINE
  5
3B2
  8
回07-寸法
  6
CONTINUOUS
 62
     5
 10
135.1132575457532
 20
272.0075355111585
 30
0.0
 11
92.38325754575287
 21
272.0075355111585
 31
0.0
  0
LINE
  5
3B3
  8
回07-寸法
  6
CONTINUOUS
 62
     5
 10
93.38325754575279
 20
505.2075355111586
 30
0.0
 11
93.38325754575279
 21
275.0075355111585
 31
0.0
  0
INSERT
  5
3B4
  8
回07-寸法
  6
CONTINUOUS
 62
     5
 66
     1
  2
_OPEN
 10
93.38325754575279
 20
508.2075355111586
 30
0.0
 41
3.0
 42
3.0
 43
3.0
 50
90.0
  0
SEQEND
  5
3B5
  8
0
  6
CONTINUOUS
 62
     7
  0
INSERT
  5
3B6
  8
回07-寸法
  6
CONTINUOUS
 62
     5
 66
     1
  2
_OPEN
 10
93.38325754575286
 20
272.0075355111585
 30
0.0
 41
3.0
 42
3.0
 43
3.0
 50
270.0
  0
SEQEND
  5
3B7
  8
0
  6
CONTINUOUS
 62
     7
  0
TEXT
  5
3B8
  8
回07-寸法
  6
CONTINUOUS
 62
     5
 10
91.54264832898382
 20
360.358519763127
 30
0.0
 40
5.0
  1
236.2(Viewing Area)
 50
90.0
1001
ACAD
1000
MTEXTBEGIN
1070
    73
1070
     1
1070
    44
1040
1.0
1070
    74
1070
     0
1000
MTEXTEND
  0
POINT
  5
3B9
  8
DEFPOINTS
  6
CONTINUOUS
 62
     0
 10
135.1132575457532
 20
508.2075355111586
 30
0.0
  0
POINT
  5
3BA
  8
DEFPOINTS
  6
CONTINUOUS
 62
     0
 10
135.1132575457532
 20
272.0075355111585
 30
0.0
  0
POINT
  5
3BB
  8
DEFPOINTS
  6
CONTINUOUS
 62
     0
 10
93.38325754575286
 20
272.0075355111585
 30
0.0
  0
ENDBLK
  5
3BC
  8
0
 62
     7
  0
BLOCK
  8
0
  2
*D99
 70
     1
 10
0.0
 20
0.0
 30
0.0
  3
*D99
  1

  0
LINE
  5
3A2
  8
回07-寸法
  6
CONTINUOUS
 62
     5
 10
129.1132575357529
 20
515.207535511158
 30
0.0
 11
68.38325754575281
 21
515.207535511158
 31
0.0
  0
LINE
  5
3A3
  8
回07-寸法
  6
CONTINUOUS
 62
     5
 10
129.1132575357529
 20
261.3075355111586
 30
0.0
 11
68.38325754575286
 21
261.3075355111586
 31
0.0
  0
LINE
  5
3A4
  8
回07-寸法
  6
CONTINUOUS
 62
     5
 10
69.38325754575281
 20
512.2075355111579
 30
0.0
 11
69.38325754575281
 21
264.3075355111585
 31
0.0
  0
INSERT
  5
3A5
  8
回07-寸法
  6
CONTINUOUS
 62
     5
 66
     1
  2
_OPEN
 10
69.38325754575281
 20
515.207535511158
 30
0.0
 41
3.0
 42
3.0
 43
3.0
 50
90.0
  0
SEQEND
  5
3A6
  8
0
  6
CONTINUOUS
 62
     7
  0
INSERT
  5
3A7
  8
回07-寸法
  6
CONTINUOUS
 62
     5
 66
     1
  2
_OPEN
 10
69.38325754575287
 20
261.3075355111585
 30
0.0
 41
3.0
 42
3.0
 43
3.0
 50
270.0
  0
SEQEND
  5
3A8
  8
0
  6
CONTINUOUS
 62
     7
  0
INSERT
  5
3A9
  8
回07-寸法
  6
CONTINUOUS
 62
     5
 66
     1
  2
*X9090
 10
0.0
 20
0.0
 30
0.0
  0
SEQEND
  5
892
  8
0
  6
CONTINUOUS
 62
     7
  0
POINT
  5
3AA
  8
DEFPOINTS
  6
CONTINUOUS
 62
     0
 10
129.1132575357529
 20
515.207535511158
 30
0.0
  0
POINT
  5
3AB
  8
DEFPOINTS
  6
CONTINUOUS
 62
     0
 10
129.1132575357529
 20
261.3075355111586
 30
0.0
  0
POINT
  5
3AC
  8
DEFPOINTS
  6
CONTINUOUS
 62
     0
 10
69.38325754575287
 20
261.3075355111585
 30
0.0
  0
ENDBLK
  5
3AD
  8
0
 62
     7
  0
BLOCK
  8
0
  2
*D1010
 70
     1
 10
0.0
 20
0.0
 30
0.0
  3
*D1010
  1

  0
LINE
  5
393
  8
回07-寸法
  6
CONTINUOUS
 62
     5
 10
548.7132575357527
 20
506.2075355111585
 30
0.0
 11
548.7132575357527
 21
537.2925355111585
 31
0.0
  0
LINE
  5
394
  8
回07-寸法
  6
CONTINUOUS
 62
     5
 10
137.1132655457531
 20
506.2075355111585
 30
0.0
 11
137.1132655457531
 21
537.2925355111585
 31
0.0
  0
LINE
  5
395
  8
回07-寸法
  6
CONTINUOUS
 62
     5
 10
545.7132575357527
 20
536.2925355111586
 30
0.0
 11
140.1132655457531
 21
536.2925355111586
 31
0.0
  0
INSERT
  5
396
  8
回07-寸法
  6
CONTINUOUS
 62
     5
 66
     1
  2
_OPEN
 10
548.7132575357527
 20
536.2925355111586
 30
0.0
 41
3.0
 42
3.0
 43
3.0
  0
SEQEND
  5
397
  8
0
  6
CONTINUOUS
 62
     7
  0
INSERT
  5
398
  8
回07-寸法
  6
CONTINUOUS
 62
     5
 66
     1
  2
_OPEN
 10
137.1132655457531
 20
536.2925355111586
 30
0.0
 41
3.0
 42
3.0
 43
3.0
 50
180.0
  0
SEQEND
  5
399
  8
0
  6
CONTINUOUS
 62
     7
  0
TEXT
  5
39A
  8
回07-寸法
  6
CONTINUOUS
 62
     5
 10
315.6642457927214
 20
537.0425355111585
 30
0.0
 40
5.0
  1
411.6(Active Area)
1001
ACAD
1000
MTEXTBEGIN
1070
    73
1070
     1
1070
    44
1040
1.0
1070
    74
1070
     0
1000
MTEXTEND
  0
POINT
  5
39B
  8
DEFPOINTS
  6
CONTINUOUS
 62
     0
 10
548.7132575357527
 20
506.2075355111585
 30
0.0
  0
POINT
  5
39C
  8
DEFPOINTS
  6
CONTINUOUS
 62
     0
 10
137.1132655457531
 20
506.2075355111585
 30
0.0
  0
POINT
  5
39D
  8
DEFPOINTS
  6
CONTINUOUS
 62
     0
 10
137.1132655457531
 20
536.2925355111586
 30
0.0
  0
ENDBLK
  5
39E
  8
0
 62
     7
  0
BLOCK
  8
0
  2
*D1111
 70
     1
 10
0.0
 20
0.0
 30
0.0
  3
*D1111
  1

  0
LINE
  5
384
  8
回07-寸法
  6
CONTINUOUS
 62
     5
 10
135.1132575457532
 20
508.2075355111585
 30
0.0
 11
135.1132575457532
 21
549.2925355111585
 31
0.0
  0
LINE
  5
385
  8
回07-寸法
  6
CONTINUOUS
 62
     5
 10
550.7132575357527
 20
508.2075355111576
 30
0.0
 11
550.7132575357527
 21
549.2925355111585
 31
0.0
  0
LINE
  5
386
  8
回07-寸法
  6
CONTINUOUS
 62
     5
 10
138.1132575457532
 20
548.2925355111586
 30
0.0
 11
547.7132575357527
 21
548.2925355111586
 31
0.0
  0
INSERT
  5
387
  8
回07-寸法
  6
CONTINUOUS
 62
     5
 66
     1
  2
_OPEN
 10
135.1132575457532
 20
548.2925355111586
 30
0.0
 41
3.0
 42
3.0
 43
3.0
 50
180.0
  0
SEQEND
  5
388
  8
0
  6
CONTINUOUS
 62
     7
  0
INSERT
  5
389
  8
回07-寸法
  6
CONTINUOUS
 62
     5
 66
     1
  2
_OPEN
 10
550.7132575357527
 20
548.2925355111586
 30
0.0
 41
3.0
 42
3.0
 43
3.0
  0
SEQEND
  5
38A
  8
0
  6
CONTINUOUS
 62
     7
  0
TEXT
  5
38B
  8
回07-寸法
  6
CONTINUOUS
 62
     5
 10
313.4142417927214
 20
550.1331447279277
 30
0.0
 40
5.0
  1
415.6(Viewing Area)
1001
ACAD
1000
MTEXTBEGIN
1070
    73
1070
     1
1070
    44
1040
1.0
1070
    74
1070
     0
1000
MTEXTEND
  0
POINT
  5
38C
  8
DEFPOINTS
  6
CONTINUOUS
 62
     0
 10
135.1132575457532
 20
508.2075355111585
 30
0.0
  0
POINT
  5
38D
  8
DEFPOINTS
  6
CONTINUOUS
 62
     0
 10
550.7132575357527
 20
508.2075355111576
 30
0.0
  0
POINT
  5
38E
  8
DEFPOINTS
  6
CONTINUOUS
 62
     0
 10
550.7132575357527
 20
548.2925355111586
 30
0.0
  0
ENDBLK
  5
38F
  8
0
 62
     7
  0
BLOCK
  8
0
  2
*D1212
 70
     1
 10
0.0
 20
0.0
 30
0.0
  3
*D1212
  1

  0
LINE
  5
375
  8
回07-寸法
  6
CONTINUOUS
 62
     5
 10
556.7132575357527
 20
515.2075355111588
 30
0.0
 11
556.7132575357527
 21
573.2925355111586
 31
0.0
  0
LINE
  5
376
  8
回07-寸法
  6
CONTINUOUS
 62
     5
 10
129.1132575357528
 20
515.2075355111578
 30
0.0
 11
129.1132575357528
 21
573.2925355111586
 31
0.0
  0
LINE
  5
377
  8
回07-寸法
  6
CONTINUOUS
 62
     5
 10
553.7132575357527
 20
572.2925355111585
 30
0.0
 11
132.1132575357528
 21
572.2925355111585
 31
0.0
  0
INSERT
  5
378
  8
回07-寸法
  6
CONTINUOUS
 62
     5
 66
     1
  2
_OPEN
 10
556.7132575357527
 20
572.2925355111585
 30
0.0
 41
3.0
 42
3.0
 43
3.0
  0
SEQEND
  5
379
  8
0
  6
CONTINUOUS
 62
     7
  0
INSERT
  5
37A
  8
回07-寸法
  6
CONTINUOUS
 62
     5
 66
     1
  2
_OPEN
 10
129.1132575357528
 20
572.2925355111585
 30
0.0
 41
3.0
 42
3.0
 43
3.0
 50
180.0
  0
SEQEND
  5
37B
  8
0
  6
CONTINUOUS
 62
     7
  0
INSERT
  5
37C
  8
回07-寸法
  6
CONTINUOUS
 62
     5
 66
     1
  2
*X9191
 10
0.0
 20
0.0
 30
0.0
  0
SEQEND
  5
898
  8
0
  6
CONTINUOUS
 62
     7
  0
POINT
  5
37D
  8
DEFPOINTS
  6
CONTINUOUS
 62
     0
 10
556.7132575357527
 20
515.2075355111588
 30
0.0
  0
POINT
  5
37E
  8
DEFPOINTS
  6
CONTINUOUS
 62
     0
 10
129.1132575357528
 20
515.2075355111578
 30
0.0
  0
POINT
  5
37F
  8
DEFPOINTS
  6
CONTINUOUS
 62
     0
 10
129.1132575357528
 20
572.2925355111585
 30
0.0
  0
ENDBLK
  5
380
  8
0
 62
     7
  0
BLOCK
  8
0
  2
*D1313
 70
     1
 10
0.0
 20
0.0
 30
0.0
  3
*D1313
  1

  0
LINE
  5
364
  8
回07-寸法
  6
CONTINUOUS
 62
     5
 10
137.1132575457532
 20
506.2075355111586
 30
0.0
 11
104.3832575457528
 21
506.2075355111586
 31
0.0
  0
LINE
  5
365
  8
回07-寸法
  6
CONTINUOUS
 62
     5
 10
129.1132575357529
 20
515.207535511158
 30
0.0
 11
104.3832575457528
 21
515.207535511158
 31
0.0
  0
LINE
  5
366
  8
回07-寸法
  6
CONTINUOUS
 62
     5
 10
105.3832575457528
 20
503.2075355111586
 30
0.0
 11
105.3832575457528
 21
500.2075355111585
 31
0.0
  0
LINE
  5
367
  8
回07-寸法
  6
CONTINUOUS
 62
     5
 10
105.3832575457528
 20
518.2075355111582
 30
0.0
 11
105.3832575457528
 21
528.5273343295195
 31
0.0
  0
LINE
  5
368
  8
回07-寸法
  6
CONTINUOUS
 62
     5
 10
105.3832575457528
 20
506.2075355111586
 30
0.0
 11
105.3832575457528
 21
515.207535511158
 31
0.0
  0
INSERT
  5
369
  8
回07-寸法
  6
CONTINUOUS
 62
     5
 66
     1
  2
_OPEN
 10
105.3832575457528
 20
506.2075355111586
 30
0.0
 41
3.0
 42
3.0
 43
3.0
 50
90.0
  0
SEQEND
  5
36A
  8
0
  6
CONTINUOUS
 62
     7
  0
INSERT
  5
36B
  8
回07-寸法
  6
CONTINUOUS
 62
     5
 66
     1
  2
_OPEN
 10
105.3832575457528
 20
515.207535511158
 30
0.0
 41
3.0
 42
3.0
 43
3.0
 50
270.0
  0
SEQEND
  5
36C
  8
0
  6
CONTINUOUS
 62
     7
  0
TEXT
  5
36D
  8
回07-寸法
  6
CONTINUOUS
 62
     5
 10
104.6333573892568
 20
521.2615410859032
 30
0.0
 40
5.0
  1
(9)
 50
90.0
1001
ACAD
1000
MTEXTBEGIN
1070
    73
1070
     1
1070
    44
1040
1.0
1070
    74
1070
     0
1000
MTEXTEND
  0
POINT
  5
36E
  8
DEFPOINTS
  6
CONTINUOUS
 62
     0
 10
137.1132575457532
 20
506.2075355111586
 30
0.0
  0
POINT
  5
36F
  8
DEFPOINTS
  6
CONTINUOUS
 62
     0
 10
129.1132575357529
 20
515.207535511158
 30
0.0
  0
POINT
  5
370
  8
DEFPOINTS
  6
CONTINUOUS
 62
     0
 10
105.3832575457528
 20
515.207535511158
 30
0.0
  0
ENDBLK
  5
371
  8
0
 62
     7
  0
BLOCK
  8
0
  2
*D1414
 70
     1
 10
0.0
 20
0.0
 30
0.0
  3
*D1414
  1

  0
LINE
  5
353
  8
回07-寸法
  6
CONTINUOUS
 62
     5
 10
135.1132575457532
 20
508.2075355111586
 30
0.0
 11
92.3832575457528
 21
508.2075355111586
 31
0.0
  0
LINE
  5
354
  8
回07-寸法
  6
CONTINUOUS
 62
     5
 10
129.1132575357529
 20
515.2075355111588
 30
0.0
 11
92.3832575457528
 21
515.2075355111588
 31
0.0
  0
LINE
  5
355
  8
回07-寸法
  6
CONTINUOUS
 62
     5
 10
93.38325754575279
 20
505.2075355111586
 30
0.0
 11
93.38325754575279
 21
502.2075355111586
 31
0.0
  0
LINE
  5
356
  8
回07-寸法
  6
CONTINUOUS
 62
     5
 10
93.38325754575279
 20
518.207535511159
 30
0.0
 11
93.38325754575279
 21
528.5185985032845
 31
0.0
  0
LINE
  5
357
  8
回07-寸法
  6
CONTINUOUS
 62
     5
 10
93.38325754575279
 20
508.2075355111586
 30
0.0
 11
93.38325754575279
 21
515.2075355111588
 31
0.0
  0
INSERT
  5
358
  8
回07-寸法
  6
CONTINUOUS
 62
     5
 66
     1
  2
_OPEN
 10
93.38325754575279
 20
508.2075355111586
 30
0.0
 41
3.0
 42
3.0
 43
3.0
 50
90.0
  0
SEQEND
  5
359
  8
0
  6
CONTINUOUS
 62
     7
  0
INSERT
  5
35A
  8
回07-寸法
  6
CONTINUOUS
 62
     5
 66
     1
  2
_OPEN
 10
93.38325754575279
 20
515.2075355111588
 30
0.0
 41
3.0
 42
3.0
 43
3.0
 50
270.0
  0
SEQEND
  5
35B
  8
0
  6
CONTINUOUS
 62
     7
  0
TEXT
  5
35C
  8
回07-寸法
  6
CONTINUOUS
 62
     5
 10
92.63325754575294
 20
521.2705670072216
 30
0.0
 40
5.0
  1
(7)
 50
90.0
1001
ACAD
1000
MTEXTBEGIN
1070
    73
1070
     1
1070
    44
1040
1.0
1070
    74
1070
     0
1000
MTEXTEND
  0
POINT
  5
35D
  8
DEFPOINTS
  6
CONTINUOUS
 62
     0
 10
135.1132575457532
 20
508.2075355111586
 30
0.0
  0
POINT
  5
35E
  8
DEFPOINTS
  6
CONTINUOUS
 62
     0
 10
129.1132575357529
 20
515.2075355111588
 30
0.0
  0
POINT
  5
35F
  8
DEFPOINTS
  6
CONTINUOUS
 62
     0
 10
93.38325754575279
 20
515.2075355111588
 30
0.0
  0
ENDBLK
  5
360
  8
0
 62
     7
  0
BLOCK
  8
0
  2
*D1515
 70
     1
 10
0.0
 20
0.0
 30
0.0
  3
*D1515
  1

  0
LINE
  5
342
  8
回07-寸法
  6
CONTINUOUS
 62
     5
 10
137.1132575457532
 20
506.2075355111585
 30
0.0
 11
137.1132575457532
 21
537.2925355111585
 31
0.0
  0
LINE
  5
343
  8
回07-寸法
  6
CONTINUOUS
 62
     5
 10
129.1132575357528
 20
515.2075355111578
 30
0.0
 11
129.1132575357528
 21
537.2925355111585
 31
0.0
  0
LINE
  5
344
  8
回07-寸法
  6
CONTINUOUS
 62
     5
 10
140.1132575457532
 20
536.2925355111586
 30
0.0
 11
143.1132575457532
 21
536.2925355111586
 31
0.0
  0
LINE
  5
345
  8
回07-寸法
  6
CONTINUOUS
 62
     5
 10
126.1132575357528
 20
536.2925355111586
 30
0.0
 11
120.1132575357528
 21
536.2925355111586
 31
0.0
  0
LINE
  5
346
  8
回07-寸法
  6
CONTINUOUS
 62
     5
 10
137.1132575457532
 20
536.2925355111586
 30
0.0
 11
129.1132575357528
 21
536.2925355111586
 31
0.0
  0
INSERT
  5
347
  8
回07-寸法
  6
CONTINUOUS
 62
     5
 66
     1
  2
_OPEN
 10
137.1132575457532
 20
536.2925355111586
 30
0.0
 41
3.0
 42
3.0
 43
3.0
 50
180.0
  0
SEQEND
  5
348
  8
0
  6
CONTINUOUS
 62
     7
  0
INSERT
  5
349
  8
回07-寸法
  6
CONTINUOUS
 62
     5
 66
     1
  2
_OPEN
 10
129.1132575357528
 20
536.2925355111586
 30
0.0
 41
3.0
 42
3.0
 43
3.0
  0
SEQEND
  5
34A
  8
0
  6
CONTINUOUS
 62
     7
  0
TEXT
  5
34B
  8
回07-寸法
  6
CONTINUOUS
 62
     5
 10
119.8632575357528
 20
536.7925355111585
 30
0.0
 40
5.0
  1
8
1001
ACAD
1000
MTEXTBEGIN
1070
    73
1070
     1
1070
    44
1040
1.0
1070
    74
1070
     0
1000
MTEXTEND
  0
POINT
  5
34C
  8
DEFPOINTS
  6
CONTINUOUS
 62
     0
 10
137.1132575457532
 20
506.2075355111585
 30
0.0
  0
POINT
  5
34D
  8
DEFPOINTS
  6
CONTINUOUS
 62
     0
 10
129.1132575357528
 20
515.2075355111578
 30
0.0
  0
POINT
  5
34E
  8
DEFPOINTS
  6
CONTINUOUS
 62
     0
 10
129.1132575357528
 20
536.2925355111586
 30
0.0
  0
ENDBLK
  5
34F
  8
0
 62
     7
  0
BLOCK
  8
0
  2
*D1616
 70
     1
 10
0.0
 20
0.0
 30
0.0
  3
*D1616
  1

  0
LINE
  5
331
  8
回07-寸法
  6
CONTINUOUS
 62
     5
 10
135.1132575457532
 20
508.2075355111585
 30
0.0
 11
135.1132575457532
 21
549.2925355111585
 31
0.0
  0
LINE
  5
332
  8
回07-寸法
  6
CONTINUOUS
 62
     5
 10
129.1132575357528
 20
515.2075355111578
 30
0.0
 11
129.1132575357528
 21
549.2925355111585
 31
0.0
  0
LINE
  5
333
  8
回07-寸法
  6
CONTINUOUS
 62
     5
 10
138.1132575457532
 20
548.2925355111586
 30
0.0
 11
141.1132575457532
 21
548.2925355111586
 31
0.0
  0
LINE
  5
334
  8
回07-寸法
  6
CONTINUOUS
 62
     5
 10
126.1132575357528
 20
548.2925355111586
 30
0.0
 11
119.5660134412646
 21
548.2925355111586
 31
0.0
  0
LINE
  5
335
  8
回07-寸法
  6
CONTINUOUS
 62
     5
 10
135.1132575457532
 20
548.2925355111586
 30
0.0
 11
129.1132575357528
 21
548.2925355111586
 31
0.0
  0
INSERT
  5
336
  8
回07-寸法
  6
CONTINUOUS
 62
     5
 66
     1
  2
_OPEN
 10
135.1132575457532
 20
548.2925355111586
 30
0.0
 41
3.0
 42
3.0
 43
3.0
 50
180.0
  0
SEQEND
  5
337
  8
0
  6
CONTINUOUS
 62
     7
  0
INSERT
  5
338
  8
回07-寸法
  6
CONTINUOUS
 62
     5
 66
     1
  2
_OPEN
 10
129.1132575357528
 20
548.2925355111586
 30
0.0
 41
3.0
 42
3.0
 43
3.0
  0
SEQEND
  5
339
  8
0
  6
CONTINUOUS
 62
     7
  0
TEXT
  5
33A
  8
回07-寸法
  6
CONTINUOUS
 62
     5
 10
119.587547917424
 20
548.7925355111586
 30
0.0
 40
5.0
  1
6
1001
ACAD
1000
MTEXTBEGIN
1070
    73
1070
     1
1070
    44
1040
1.0
1070
    74
1070
     0
1000
MTEXTEND
  0
POINT
  5
33B
  8
DEFPOINTS
  6
CONTINUOUS
 62
     0
 10
135.1132575457532
 20
508.2075355111585
 30
0.0
  0
POINT
  5
33C
  8
DEFPOINTS
  6
CONTINUOUS
 62
     0
 10
129.1132575357528
 20
515.2075355111578
 30
0.0
  0
POINT
  5
33D
  8
DEFPOINTS
  6
CONTINUOUS
 62
     0
 10
129.1132575357528
 20
548.2925355111586
 30
0.0
  0
ENDBLK
  5
33E
  8
0
 62
     7
  0
BLOCK
  8
0
  2
*D1717
 70
     1
 10
0.0
 20
0.0
 30
0.0
  3
*D1717
  1

  0
LINE
  5
322
  8
回07-寸法
  6
CONTINUOUS
 62
     5
 10
134.6132575357529
 20
271.5075355111586
 30
0.0
 11
80.38325754575325
 21
271.5075355111586
 31
0.0
  0
LINE
  5
323
  8
回07-寸法
  6
CONTINUOUS
 62
     5
 10
134.6132575357529
 20
508.707535511159
 30
0.0
 11
80.38325754575318
 21
508.707535511159
 31
0.0
  0
LINE
  5
324
  8
回07-寸法
  6
CONTINUOUS
 62
     5
 10
81.38325754575323
 20
274.5075355111585
 30
0.0
 11
81.38325754575323
 21
505.7075355111589
 31
0.0
  0
INSERT
  5
325
  8
回07-寸法
  6
CONTINUOUS
 62
     5
 66
     1
  2
_OPEN
 10
81.38325754575323
 20
271.5075355111585
 30
0.0
 41
3.0
 42
3.0
 43
3.0
 50
270.0
  0
SEQEND
  5
326
  8
0
  6
CONTINUOUS
 62
     7
  0
INSERT
  5
327
  8
回07-寸法
  6
CONTINUOUS
 62
     5
 66
     1
  2
_OPEN
 10
81.38325754575317
 20
508.7075355111588
 30
0.0
 41
3.0
 42
3.0
 43
3.0
 50
90.0
  0
SEQEND
  5
328
  8
0
  6
CONTINUOUS
 62
     7
  0
TEXT
  5
329
  8
回07-寸法
  6
CONTINUOUS
 62
     5
 10
80.88276541976904
 20
382.3569827022581
 30
0.0
 40
5.0
  1
237.2
 50
90.0
1001
ACAD
1000
MTEXTBEGIN
1070
    73
1070
     1
1070
    44
1040
1.0
1070
    74
1070
     0
1000
MTEXTEND
  0
POINT
  5
32A
  8
DEFPOINTS
  6
CONTINUOUS
 62
     0
 10
134.6132575357529
 20
271.5075355111586
 30
0.0
  0
POINT
  5
32B
  8
DEFPOINTS
  6
CONTINUOUS
 62
     0
 10
134.6132575357529
 20
508.707535511159
 30
0.0
  0
POINT
  5
32C
  8
DEFPOINTS
  6
CONTINUOUS
 62
     0
 10
81.38325754575317
 20
508.7075355111588
 30
0.0
  0
ENDBLK
  5
32D
  8
0
 62
     7
  0
BLOCK
  8
0
  2
*D1818
 70
     1
 10
0.0
 20
0.0
 30
0.0
  3
*D1818
  1

  0
LINE
  5
311
  8
回07-寸法
  6
CONTINUOUS
 62
     5
 10
134.6132575357529
 20
508.707535511159
 30
0.0
 11
80.38325754575318
 21
508.707535511159
 31
0.0
  0
LINE
  5
312
  8
回07-寸法
  6
CONTINUOUS
 62
     5
 10
129.1132575357529
 20
515.207535511158
 30
0.0
 11
80.38325754575318
 21
515.207535511158
 31
0.0
  0
LINE
  5
313
  8
回07-寸法
  6
CONTINUOUS
 62
     5
 10
81.38325754575317
 20
505.7075355111589
 30
0.0
 11
81.38325754575317
 21
502.7075355111588
 31
0.0
  0
LINE
  5
314
  8
回07-寸法
  6
CONTINUOUS
 62
     5
 10
81.38325754575317
 20
518.2075355111582
 30
0.0
 11
81.38325754575317
 21
566.4642133556462
 31
0.0
  0
LINE
  5
315
  8
回07-寸法
  6
CONTINUOUS
 62
     5
 10
81.38325754575317
 20
508.7075355111588
 30
0.0
 11
81.38325754575317
 21
515.207535511158
 31
0.0
  0
INSERT
  5
316
  8
回07-寸法
  6
CONTINUOUS
 62
     5
 66
     1
  2
_OPEN
 10
81.38325754575317
 20
508.7075355111588
 30
0.0
 41
3.0
 42
3.0
 43
3.0
 50
90.0
  0
SEQEND
  5
317
  8
0
  6
CONTINUOUS
 62
     7
  0
INSERT
  5
318
  8
回07-寸法
  6
CONTINUOUS
 62
     5
 66
     1
  2
_OPEN
 10
81.38325754575317
 20
515.207535511158
 30
0.0
 41
3.0
 42
3.0
 43
3.0
 50
270.0
  0
SEQEND
  5
319
  8
0
  6
CONTINUOUS
 62
     7
  0
INSERT
  5
31A
  8
回07-寸法
  6
CONTINUOUS
 62
     5
 66
     1
  2
*X9292
 10
0.0
 20
0.0
 30
0.0
  0
SEQEND
  5
89E
  8
0
  6
CONTINUOUS
 62
     7
  0
POINT
  5
31B
  8
DEFPOINTS
  6
CONTINUOUS
 62
     0
 10
134.6132575357529
 20
508.707535511159
 30
0.0
  0
POINT
  5
31C
  8
DEFPOINTS
  6
CONTINUOUS
 62
     0
 10
129.1132575357529
 20
515.207535511158
 30
0.0
  0
POINT
  5
31D
  8
DEFPOINTS
  6
CONTINUOUS
 62
     0
 10
81.38325754575317
 20
515.207535511158
 30
0.0
  0
ENDBLK
  5
31E
  8
0
 62
     7
  0
BLOCK
  8
0
  2
*D1919
 70
     1
 10
0.0
 20
0.0
 30
0.0
  3
*D1919
  1

  0
LINE
  5
300
  8
回07-寸法
  6
CONTINUOUS
 62
     5
 10
134.6132575357527
 20
508.7075355111586
 30
0.0
 11
134.6132575357527
 21
561.2925355111586
 31
0.0
  0
LINE
  5
301
  8
回07-寸法
  6
CONTINUOUS
 62
     5
 10
129.1132575357528
 20
515.2075355111588
 30
0.0
 11
129.1132575357528
 21
561.2925355111586
 31
0.0
  0
LINE
  5
302
  8
回07-寸法
  6
CONTINUOUS
 62
     5
 10
137.6132575357527
 20
560.2925355111586
 30
0.0
 11
140.6132575357528
 21
560.2925355111586
 31
0.0
  0
LINE
  5
303
  8
回07-寸法
  6
CONTINUOUS
 62
     5
 10
126.1132575357528
 20
560.2925355111586
 30
0.0
 11
81.85461118732765
 21
560.2925355111586
 31
0.0
  0
LINE
  5
304
  8
回07-寸法
  6
CONTINUOUS
 62
     5
 10
134.6132575357527
 20
560.2925355111586
 30
0.0
 11
129.1132575357528
 21
560.2925355111586
 31
0.0
  0
INSERT
  5
305
  8
回07-寸法
  6
CONTINUOUS
 62
     5
 66
     1
  2
_OPEN
 10
134.6132575357527
 20
560.2925355111586
 30
0.0
 41
3.0
 42
3.0
 43
3.0
 50
180.0
  0
SEQEND
  5
306
  8
0
  6
CONTINUOUS
 62
     7
  0
INSERT
  5
307
  8
回07-寸法
  6
CONTINUOUS
 62
     5
 66
     1
  2
_OPEN
 10
129.1132575357528
 20
560.2925355111586
 30
0.0
 41
3.0
 42
3.0
 43
3.0
  0
SEQEND
  5
308
  8
0
  6
CONTINUOUS
 62
     7
  0
INSERT
  5
309
  8
回07-寸法
  6
CONTINUOUS
 62
     5
 66
     1
  2
*X9393
 10
0.0
 20
0.0
 30
0.0
  0
SEQEND
  5
8A4
  8
0
  6
CONTINUOUS
 62
     7
  0
POINT
  5
30A
  8
DEFPOINTS
  6
CONTINUOUS
 62
     0
 10
134.6132575357527
 20
508.7075355111586
 30
0.0
  0
POINT
  5
30B
  8
DEFPOINTS
  6
CONTINUOUS
 62
     0
 10
129.1132575357528
 20
515.2075355111588
 30
0.0
  0
POINT
  5
30C
  8
DEFPOINTS
  6
CONTINUOUS
 62
     0
 10
129.1132575357528
 20
560.2925355111586
 30
0.0
  0
ENDBLK
  5
30D
  8
0
 62
     7
  0
BLOCK
  8
0
  2
*D2020
 70
     1
 10
0.0
 20
0.0
 30
0.0
  3
*D2020
  1

  0
LINE
  5
2F1
  8
回07-寸法
  6
CONTINUOUS
 62
     5
 10
551.2132575357521
 20
508.7075355111586
 30
0.0
 11
551.2132575357521
 21
561.2925355111586
 31
0.0
  0
LINE
  5
2F2
  8
回07-寸法
  6
CONTINUOUS
 62
     5
 10
134.6132575357527
 20
508.7075355111586
 30
0.0
 11
134.6132575357527
 21
561.2925355111586
 31
0.0
  0
LINE
  5
2F3
  8
回07-寸法
  6
CONTINUOUS
 62
     5
 10
548.2132575357523
 20
560.2925355111586
 30
0.0
 11
137.6132575357527
 21
560.2925355111586
 31
0.0
  0
INSERT
  5
2F4
  8
回07-寸法
  6
CONTINUOUS
 62
     5
 66
     1
  2
_OPEN
 10
551.2132575357521
 20
560.2925355111586
 30
0.0
 41
3.0
 42
3.0
 43
3.0
  0
SEQEND
  5
2F5
  8
0
  6
CONTINUOUS
 62
     7
  0
INSERT
  5
2F6
  8
回07-寸法
  6
CONTINUOUS
 62
     5
 66
     1
  2
_OPEN
 10
134.6132575357527
 20
560.2925355111586
 30
0.0
 41
3.0
 42
3.0
 43
3.0
 50
180.0
  0
SEQEND
  5
2F7
  8
0
  6
CONTINUOUS
 62
     7
  0
TEXT
  5
2F8
  8
回07-寸法
  6
CONTINUOUS
 62
     5
 10
335.4111699646678
 20
560.7925355111586
 30
0.0
 40
5.0
  1
416.6
1001
ACAD
1000
MTEXTBEGIN
1070
    73
1070
     1
1070
    44
1040
1.0
1070
    74
1070
     0
1000
MTEXTEND
  0
POINT
  5
2F9
  8
DEFPOINTS
  6
CONTINUOUS
 62
     0
 10
551.2132575357521
 20
508.7075355111586
 30
0.0
  0
POINT
  5
2FA
  8
DEFPOINTS
  6
CONTINUOUS
 62
     0
 10
134.6132575357527
 20
508.7075355111586
 30
0.0
  0
POINT
  5
2FB
  8
DEFPOINTS
  6
CONTINUOUS
 62
     0
 10
134.6132575357527
 20
560.2925355111586
 30
0.0
  0
ENDBLK
  5
2FC
  8
0
 62
     7
  0
BLOCK
  8
0
  2
*D2121
 70
     1
 10
0.0
 20
0.0
 30
0.0
  3
*D2121
  1

  0
LINE
  5
2E0
  8
回07-寸法
  6
CONTINUOUS
 62
     5
 10
550.7132575357527
 20
508.2075355111586
 30
0.0
 11
550.7132575357527
 21
549.2925355111585
 31
0.0
  0
LINE
  5
2E1
  8
回07-寸法
  6
CONTINUOUS
 62
     5
 10
556.7132575357527
 20
515.2075355111588
 30
0.0
 11
556.7132575357527
 21
549.2925355111585
 31
0.0
  0
LINE
  5
2E2
  8
回07-寸法
  6
CONTINUOUS
 62
     5
 10
547.7132575357527
 20
548.2925355111586
 30
0.0
 11
544.7132575357527
 21
548.2925355111586
 31
0.0
  0
LINE
  5
2E3
  8
回07-寸法
  6
CONTINUOUS
 62
     5
 10
559.7132575357527
 20
548.2925355111586
 30
0.0
 11
569.7093205278787
 21
548.2925355111586
 31
0.0
  0
LINE
  5
2E4
  8
回07-寸法
  6
CONTINUOUS
 62
     5
 10
550.7132575357527
 20
548.2925355111586
 30
0.0
 11
556.7132575357527
 21
548.2925355111586
 31
0.0
  0
INSERT
  5
2E5
  8
回07-寸法
  6
CONTINUOUS
 62
     5
 66
     1
  2
_OPEN
 10
550.7132575357527
 20
548.2925355111586
 30
0.0
 41
3.0
 42
3.0
 43
3.0
  0
SEQEND
  5
2E6
  8
0
  6
CONTINUOUS
 62
     7
  0
INSERT
  5
2E7
  8
回07-寸法
  6
CONTINUOUS
 62
     5
 66
     1
  2
_OPEN
 10
556.7132575357527
 20
548.2925355111586
 30
0.0
 41
3.0
 42
3.0
 43
3.0
 50
180.0
  0
SEQEND
  5
2E8
  8
0
  6
CONTINUOUS
 62
     7
  0
TEXT
  5
2E9
  8
回07-寸法
  6
CONTINUOUS
 62
     5
 10
562.4612890318156
 20
549.0425355111585
 30
0.0
 40
5.0
  1
(6)
1001
ACAD
1000
MTEXTBEGIN
1070
    73
1070
     1
1070
    44
1040
1.0
1070
    74
1070
     0
1000
MTEXTEND
  0
POINT
  5
2EA
  8
DEFPOINTS
  6
CONTINUOUS
 62
     0
 10
550.7132575357527
 20
508.2075355111586
 30
0.0
  0
POINT
  5
2EB
  8
DEFPOINTS
  6
CONTINUOUS
 62
     0
 10
556.7132575357527
 20
515.2075355111588
 30
0.0
  0
POINT
  5
2EC
  8
DEFPOINTS
  6
CONTINUOUS
 62
     0
 10
556.7132575357527
 20
548.2925355111586
 30
0.0
  0
ENDBLK
  5
2ED
  8
0
 62
     7
  0
BLOCK
  8
0
  2
*D2222
 70
     1
 10
0.0
 20
0.0
 30
0.0
  3
*D2222
  1

  0
LINE
  5
2CF
  8
回07-寸法
  6
CONTINUOUS
 62
     5
 10
548.7132575357527
 20
506.2075355111586
 30
0.0
 11
548.7132575357527
 21
537.2925355111585
 31
0.0
  0
LINE
  5
2D0
  8
回07-寸法
  6
CONTINUOUS
 62
     5
 10
556.7132575357527
 20
515.2075355111588
 30
0.0
 11
556.7132575357527
 21
537.2925355111585
 31
0.0
  0
LINE
  5
2D1
  8
回07-寸法
  6
CONTINUOUS
 62
     5
 10
545.7132575357527
 20
536.2925355111586
 30
0.0
 11
542.7132575357527
 21
536.2925355111586
 31
0.0
  0
LINE
  5
2D2
  8
回07-寸法
  6
CONTINUOUS
 62
     5
 10
559.7132575357527
 20
536.2925355111586
 30
0.0
 11
569.7093205278787
 21
536.2925355111586
 31
0.0
  0
LINE
  5
2D3
  8
回07-寸法
  6
CONTINUOUS
 62
     5
 10
548.7132575357527
 20
536.2925355111586
 30
0.0
 11
556.7132575357527
 21
536.2925355111586
 31
0.0
  0
INSERT
  5
2D4
  8
回07-寸法
  6
CONTINUOUS
 62
     5
 66
     1
  2
_OPEN
 10
548.7132575357527
 20
536.2925355111586
 30
0.0
 41
3.0
 42
3.0
 43
3.0
  0
SEQEND
  5
2D5
  8
0
  6
CONTINUOUS
 62
     7
  0
INSERT
  5
2D6
  8
回07-寸法
  6
CONTINUOUS
 62
     5
 66
     1
  2
_OPEN
 10
556.7132575357527
 20
536.2925355111586
 30
0.0
 41
3.0
 42
3.0
 43
3.0
 50
180.0
  0
SEQEND
  5
2D7
  8
0
  6
CONTINUOUS
 62
     7
  0
TEXT
  5
2D8
  8
回07-寸法
  6
CONTINUOUS
 62
     5
 10
562.4612890318156
 20
537.0425355111585
 30
0.0
 40
5.0
  1
(8)
1001
ACAD
1000
MTEXTBEGIN
1070
    73
1070
     1
1070
    44
1040
1.0
1070
    74
1070
     0
1000
MTEXTEND
  0
POINT
  5
2D9
  8
DEFPOINTS
  6
CONTINUOUS
 62
     0
 10
548.7132575357527
 20
506.2075355111586
 30
0.0
  0
POINT
  5
2DA
  8
DEFPOINTS
  6
CONTINUOUS
 62
     0
 10
556.7132575357527
 20
515.2075355111588
 30
0.0
  0
POINT
  5
2DB
  8
DEFPOINTS
  6
CONTINUOUS
 62
     0
 10
556.7132575357527
 20
536.2925355111586
 30
0.0
  0
ENDBLK
  5
2DC
  8
0
 62
     7
  0
BLOCK
  8
0
  2
*D2323
 70
     1
 10
0.0
 20
0.0
 30
0.0
  3
*D2323
  1

  0
LINE
  5
2BE
  8
回07-寸法
  6
CONTINUOUS
 62
     5
 10
551.2132575357521
 20
508.7075355111586
 30
0.0
 11
551.2132575357521
 21
561.2925355111586
 31
0.0
  0
LINE
  5
2BF
  8
回07-寸法
  6
CONTINUOUS
 62
     5
 10
556.7132575357527
 20
515.2075355111588
 30
0.0
 11
556.7132575357527
 21
561.2925355111586
 31
0.0
  0
LINE
  5
2C0
  8
回07-寸法
  6
CONTINUOUS
 62
     5
 10
548.2132575357523
 20
560.2925355111586
 30
0.0
 11
545.2132575357523
 21
560.2925355111586
 31
0.0
  0
LINE
  5
2C1
  8
回07-寸法
  6
CONTINUOUS
 62
     5
 10
559.7132575357527
 20
560.2925355111586
 30
0.0
 11
607.9699353802408
 21
560.2925355111586
 31
0.0
  0
LINE
  5
2C2
  8
回07-寸法
  6
CONTINUOUS
 62
     5
 10
551.2132575357521
 20
560.2925355111586
 30
0.0
 11
556.7132575357527
 21
560.2925355111586
 31
0.0
  0
INSERT
  5
2C3
  8
回07-寸法
  6
CONTINUOUS
 62
     5
 66
     1
  2
_OPEN
 10
551.2132575357521
 20
560.2925355111586
 30
0.0
 41
3.0
 42
3.0
 43
3.0
  0
SEQEND
  5
2C4
  8
0
  6
CONTINUOUS
 62
     7
  0
INSERT
  5
2C5
  8
回07-寸法
  6
CONTINUOUS
 62
     5
 66
     1
  2
_OPEN
 10
556.7132575357527
 20
560.2925355111586
 30
0.0
 41
3.0
 42
3.0
 43
3.0
 50
180.0
  0
SEQEND
  5
2C6
  8
0
  6
CONTINUOUS
 62
     7
  0
INSERT
  5
2C7
  8
回07-寸法
  6
CONTINUOUS
 62
     5
 66
     1
  2
*X9494
 10
0.0
 20
0.0
 30
0.0
  0
SEQEND
  5
8AA
  8
0
  6
CONTINUOUS
 62
     7
  0
POINT
  5
2C8
  8
DEFPOINTS
  6
CONTINUOUS
 62
     0
 10
551.2132575357521
 20
508.7075355111586
 30
0.0
  0
POINT
  5
2C9
  8
DEFPOINTS
  6
CONTINUOUS
 62
     0
 10
556.7132575357527
 20
515.2075355111588
 30
0.0
  0
POINT
  5
2CA
  8
DEFPOINTS
  6
CONTINUOUS
 62
     0
 10
556.7132575357527
 20
560.2925355111586
 30
0.0
  0
ENDBLK
  5
2CB
  8
0
 62
     7
  0
BLOCK
  8
0
  2
*D2424
 70
     1
 10
0.0
 20
0.0
 30
0.0
  3
*D2424
  1

  0
LINE
  5
2AD
  8
回07-寸法
  6
CONTINUOUS
 62
     5
 10
135.1132575457528
 20
272.0075355111585
 30
0.0
 11
92.38325754575264
 21
272.0075355111585
 31
0.0
  0
LINE
  5
2AE
  8
回07-寸法
  6
CONTINUOUS
 62
     5
 10
129.1132575357529
 20
261.3075355111586
 30
0.0
 11
92.38325754575264
 21
261.3075355111586
 31
0.0
  0
LINE
  5
2AF
  8
回07-寸法
  6
CONTINUOUS
 62
     5
 10
93.38325754575263
 20
275.0075355111585
 30
0.0
 11
93.38325754575263
 21
278.0075355111585
 31
0.0
  0
LINE
  5
2B0
  8
回07-寸法
  6
CONTINUOUS
 62
     5
 10
93.38325754575263
 20
258.3075355111585
 30
0.0
 11
93.38325754575263
 21
244.8075355111583
 31
0.0
  0
LINE
  5
2B1
  8
回07-寸法
  6
CONTINUOUS
 62
     5
 10
93.38325754575263
 20
272.0075355111585
 30
0.0
 11
93.38325754575263
 21
261.3075355111585
 31
0.0
  0
INSERT
  5
2B2
  8
回07-寸法
  6
CONTINUOUS
 62
     5
 66
     1
  2
_OPEN
 10
93.38325754575263
 20
272.0075355111585
 30
0.0
 41
3.0
 42
3.0
 43
3.0
 50
270.0
  0
SEQEND
  5
2B3
  8
0
  6
CONTINUOUS
 62
     7
  0
INSERT
  5
2B4
  8
回07-寸法
  6
CONTINUOUS
 62
     5
 66
     1
  2
_OPEN
 10
93.38325754575263
 20
261.3075355111585
 30
0.0
 41
3.0
 42
3.0
 43
3.0
 50
90.0
  0
SEQEND
  5
2B5
  8
0
  6
CONTINUOUS
 62
     7
  0
TEXT
  5
2B6
  8
回07-寸法
  6
CONTINUOUS
 62
     5
 10
92.88325754575271
 20
244.5575355111582
 30
0.0
 40
5.0
  1
10.7
 50
90.0
1001
ACAD
1000
MTEXTBEGIN
1070
    73
1070
     1
1070
    44
1040
1.0
1070
    74
1070
     0
1000
MTEXTEND
  0
POINT
  5
2B7
  8
DEFPOINTS
  6
CONTINUOUS
 62
     0
 10
135.1132575457528
 20
272.0075355111585
 30
0.0
  0
POINT
  5
2B8
  8
DEFPOINTS
  6
CONTINUOUS
 62
     0
 10
129.1132575357529
 20
261.3075355111586
 30
0.0
  0
POINT
  5
2B9
  8
DEFPOINTS
  6
CONTINUOUS
 62
     0
 10
93.38325754575263
 20
261.3075355111585
 30
0.0
  0
ENDBLK
  5
2BA
  8
0
 62
     7
  0
BLOCK
  8
0
  2
*D2525
 70
     1
 10
0.0
 20
0.0
 30
0.0
  3
*D2525
  1

  0
LINE
  5
29C
  8
回07-寸法
  6
CONTINUOUS
 62
     5
 10
137.1132655457532
 20
274.0075355111589
 30
0.0
 11
104.3832575457526
 21
274.0075355111589
 31
0.0
  0
LINE
  5
29D
  8
回07-寸法
  6
CONTINUOUS
 62
     5
 10
129.1132575357529
 20
261.3075355111586
 30
0.0
 11
104.3832575457526
 21
261.3075355111586
 31
0.0
  0
LINE
  5
29E
  8
回07-寸法
  6
CONTINUOUS
 62
     5
 10
105.3832575457526
 20
277.0075355111587
 30
0.0
 11
105.3832575457526
 21
280.0075355111587
 31
0.0
  0
LINE
  5
29F
  8
回07-寸法
  6
CONTINUOUS
 62
     5
 10
105.3832575457526
 20
258.3075355111585
 30
0.0
 11
105.3832575457526
 21
244.8075355111583
 31
0.0
  0
LINE
  5
2A0
  8
回07-寸法
  6
CONTINUOUS
 62
     5
 10
105.3832575457526
 20
274.0075355111587
 30
0.0
 11
105.3832575457526
 21
261.3075355111585
 31
0.0
  0
INSERT
  5
2A1
  8
回07-寸法
  6
CONTINUOUS
 62
     5
 66
     1
  2
_OPEN
 10
105.3832575457526
 20
274.0075355111587
 30
0.0
 41
3.0
 42
3.0
 43
3.0
 50
270.0
  0
SEQEND
  5
2A2
  8
0
  6
CONTINUOUS
 62
     7
  0
INSERT
  5
2A3
  8
回07-寸法
  6
CONTINUOUS
 62
     5
 66
     1
  2
_OPEN
 10
105.3832575457526
 20
261.3075355111585
 30
0.0
 41
3.0
 42
3.0
 43
3.0
 50
90.0
  0
SEQEND
  5
2A4
  8
0
  6
CONTINUOUS
 62
     7
  0
TEXT
  5
2A5
  8
回07-寸法
  6
CONTINUOUS
 62
     5
 10
104.8827654197685
 20
244.5575355111582
 30
0.0
 40
5.0
  1
12.7
 50
90.0
1001
ACAD
1000
MTEXTBEGIN
1070
    73
1070
     1
1070
    44
1040
1.0
1070
    74
1070
     0
1000
MTEXTEND
  0
POINT
  5
2A6
  8
DEFPOINTS
  6
CONTINUOUS
 62
     0
 10
137.1132655457532
 20
274.0075355111589
 30
0.0
  0
POINT
  5
2A7
  8
DEFPOINTS
  6
CONTINUOUS
 62
     0
 10
129.1132575357529
 20
261.3075355111586
 30
0.0
  0
POINT
  5
2A8
  8
DEFPOINTS
  6
CONTINUOUS
 62
     0
 10
105.3832575457526
 20
261.3075355111585
 30
0.0
  0
ENDBLK
  5
2A9
  8
0
 62
     7
  0
BLOCK
  8
0
  2
*D2626
 70
     1
 10
0.0
 20
0.0
 30
0.0
  3
*D2626
  1

  0
LINE
  5
28B
  8
回07-寸法
  6
CONTINUOUS
 62
     5
 10
134.6132575357529
 20
271.5075355111586
 30
0.0
 11
80.38325754575245
 21
271.5075355111586
 31
0.0
  0
LINE
  5
28C
  8
回07-寸法
  6
CONTINUOUS
 62
     5
 10
129.1132575357529
 20
261.3075355111586
 30
0.0
 11
80.38325754575245
 21
261.3075355111586
 31
0.0
  0
LINE
  5
28D
  8
回07-寸法
  6
CONTINUOUS
 62
     5
 10
81.38325754575244
 20
274.5075355111585
 30
0.0
 11
81.38325754575244
 21
277.5075355111585
 31
0.0
  0
LINE
  5
28E
  8
回07-寸法
  6
CONTINUOUS
 62
     5
 10
81.38325754575244
 20
258.3075355111585
 30
0.0
 11
81.38325754575244
 21
211.5488891627332
 31
0.0
  0
LINE
  5
28F
  8
回07-寸法
  6
CONTINUOUS
 62
     5
 10
81.38325754575244
 20
271.5075355111585
 30
0.0
 11
81.38325754575244
 21
261.3075355111585
 31
0.0
  0
INSERT
  5
290
  8
回07-寸法
  6
CONTINUOUS
 62
     5
 66
     1
  2
_OPEN
 10
81.38325754575244
 20
271.5075355111585
 30
0.0
 41
3.0
 42
3.0
 43
3.0
 50
270.0
  0
SEQEND
  5
291
  8
0
  6
CONTINUOUS
 62
     7
  0
INSERT
  5
292
  8
回07-寸法
  6
CONTINUOUS
 62
     5
 66
     1
  2
_OPEN
 10
81.38325754575244
 20
261.3075355111585
 30
0.0
 41
3.0
 42
3.0
 43
3.0
 50
90.0
  0
SEQEND
  5
293
  8
0
  6
CONTINUOUS
 62
     7
  0
INSERT
  5
294
  8
回07-寸法
  6
CONTINUOUS
 62
     5
 66
     1
  2
*X9595
 10
0.0
 20
0.0
 30
0.0
  0
SEQEND
  5
8B0
  8
0
  6
CONTINUOUS
 62
     7
  0
POINT
  5
295
  8
DEFPOINTS
  6
CONTINUOUS
 62
     0
 10
134.6132575357529
 20
271.5075355111586
 30
0.0
  0
POINT
  5
296
  8
DEFPOINTS
  6
CONTINUOUS
 62
     0
 10
129.1132575357529
 20
261.3075355111586
 30
0.0
  0
POINT
  5
297
  8
DEFPOINTS
  6
CONTINUOUS
 62
     0
 10
81.38325754575244
 20
261.3075355111585
 30
0.0
  0
ENDBLK
  5
298
  8
0
 62
     7
  0
BLOCK
  8
0
  2
*D2727
 70
     1
 10
0.0
 20
0.0
 30
0.0
  3
*D2727
  1

  0
LINE
  5
27C
  8
回07-寸法
  6
CONTINUOUS
 62
     5
 10
305.9143828512012
 20
261.3075355111586
 30
0.0
 11
276.1537183322598
 21
261.3075355111586
 31
0.0
  0
LINE
  5
27D
  8
回07-寸法
  6
CONTINUOUS
 62
     5
 10
320.1632575357527
 20
161.3115838819694
 30
0.0
 11
276.1537183322598
 21
161.3115838819694
 31
0.0
  0
LINE
  5
27E
  8
回07-寸法
  6
CONTINUOUS
 62
     5
 10
277.1537183322598
 20
258.3075355111585
 30
0.0
 11
277.1537183322598
 21
164.3115838819694
 31
0.0
  0
INSERT
  5
27F
  8
回07-寸法
  6
CONTINUOUS
 62
     5
 66
     1
  2
_OPEN
 10
277.1537183322598
 20
261.3075355111586
 30
0.0
 41
3.0
 42
3.0
 43
3.0
 50
90.0
  0
SEQEND
  5
280
  8
0
  6
CONTINUOUS
 62
     7
  0
INSERT
  5
281
  8
回07-寸法
  6
CONTINUOUS
 62
     5
 66
     1
  2
_OPEN
 10
277.1537183322598
 20
161.3115838819694
 30
0.0
 41
3.0
 42
3.0
 43
3.0
 50
270.0
  0
SEQEND
  5
282
  8
0
  6
CONTINUOUS
 62
     7
  0
INSERT
  5
283
  8
回07-寸法
  6
CONTINUOUS
 62
     5
 66
     1
  2
*X9696
 10
0.0
 20
0.0
 30
0.0
  0
SEQEND
  5
8B6
  8
0
  6
CONTINUOUS
 62
     7
  0
POINT
  5
284
  8
DEFPOINTS
  6
CONTINUOUS
 62
     0
 10
305.9143828512012
 20
261.3075355111586
 30
0.0
  0
POINT
  5
285
  8
DEFPOINTS
  6
CONTINUOUS
 62
     0
 10
320.1632575357527
 20
161.3115838819694
 30
0.0
  0
POINT
  5
286
  8
DEFPOINTS
  6
CONTINUOUS
 62
     0
 10
277.1537183322598
 20
161.3115838819694
 30
0.0
  0
ENDBLK
  5
287
  8
0
 62
     7
  0
BLOCK
  8
0
  2
*D2828
 70
     1
 10
0.0
 20
0.0
 30
0.0
  3
*D2828
  1

  0
LINE
  5
26B
  8
回07-寸法
  6
CONTINUOUS
 62
     5
 10
362.1632575357526
 20
161.8075355111576
 30
0.0
 11
362.1632575357526
 21
135.3168636538315
 31
0.0
  0
LINE
  5
26C
  8
回07-寸法
  6
CONTINUOUS
 62
     5
 10
348.6632575357526
 20
161.8075355111586
 30
0.0
 11
348.6632575357526
 21
135.3168636538315
 31
0.0
  0
LINE
  5
26D
  8
回07-寸法
  6
CONTINUOUS
 62
     5
 10
345.6632575357525
 20
136.3168636538315
 30
0.0
 11
342.6632575357526
 21
136.3168636538315
 31
0.0
  0
LINE
  5
26E
  8
回07-寸法
  6
CONTINUOUS
 62
     5
 10
365.1632575357526
 20
136.3168636538315
 30
0.0
 11
386.5882575357527
 21
136.3168636538315
 31
0.0
  0
LINE
  5
26F
  8
回07-寸法
  6
CONTINUOUS
 62
     5
 10
348.6632575357526
 20
136.3168636538315
 30
0.0
 11
362.1632575357526
 21
136.3168636538315
 31
0.0
  0
INSERT
  5
270
  8
回07-寸法
  6
CONTINUOUS
 62
     5
 66
     1
  2
_OPEN
 10
348.6632575357526
 20
136.3168636538315
 30
0.0
 41
3.0
 42
3.0
 43
3.0
  0
SEQEND
  5
271
  8
0
  6
CONTINUOUS
 62
     7
  0
INSERT
  5
272
  8
回07-寸法
  6
CONTINUOUS
 62
     5
 66
     1
  2
_OPEN
 10
362.1632575357526
 20
136.3168636538315
 30
0.0
 41
3.0
 42
3.0
 43
3.0
 50
180.0
  0
SEQEND
  5
273
  8
0
  6
CONTINUOUS
 62
     7
  0
INSERT
  5
274
  8
回07-寸法
  6
CONTINUOUS
 62
     5
 66
     1
  2
*X9797
 10
0.0
 20
0.0
 30
0.0
  0
SEQEND
  5
8BC
  8
0
  6
CONTINUOUS
 62
     7
  0
POINT
  5
275
  8
DEFPOINTS
  6
CONTINUOUS
 62
     0
 10
362.1632575357526
 20
161.8075355111576
 30
0.0
  0
POINT
  5
276
  8
DEFPOINTS
  6
CONTINUOUS
 62
     0
 10
348.6632575357526
 20
161.8075355111586
 30
0.0
  0
POINT
  5
277
  8
DEFPOINTS
  6
CONTINUOUS
 62
     0
 10
348.6632575357526
 20
136.3168636538315
 30
0.0
  0
ENDBLK
  5
278
  8
0
 62
     7
  0
BLOCK
  8
0
  2
*D2929
 70
     1
 10
0.0
 20
0.0
 30
0.0
  3
*D2929
  1

  0
LINE
  5
25A
  8
回07-寸法
  6
CONTINUOUS
 62
     5
 10
337.1632575357526
 20
161.8075355111586
 30
0.0
 11
337.1632575357526
 21
145.3115838819695
 31
0.0
  0
LINE
  5
25B
  8
回07-寸法
  6
CONTINUOUS
 62
     5
 10
319.6632575357523
 20
161.8075355111586
 30
0.0
 11
319.6632575357523
 21
145.3115838819695
 31
0.0
  0
LINE
  5
25C
  8
回07-寸法
  6
CONTINUOUS
 62
     5
 10
316.6632575357523
 20
146.3115838819695
 30
0.0
 11
313.6632575357523
 21
146.3115838819695
 31
0.0
  0
LINE
  5
25D
  8
回07-寸法
  6
CONTINUOUS
 62
     5
 10
340.1632575357526
 20
146.3115838819695
 30
0.0
 11
383.3253605148644
 21
146.3115838819695
 31
0.0
  0
LINE
  5
25E
  8
回07-寸法
  6
CONTINUOUS
 62
     5
 10
319.6632575357523
 20
146.3115838819695
 30
0.0
 11
337.1632575357526
 21
146.3115838819695
 31
0.0
  0
INSERT
  5
25F
  8
回07-寸法
  6
CONTINUOUS
 62
     5
 66
     1
  2
_OPEN
 10
319.6632575357523
 20
146.3115838819695
 30
0.0
 41
3.0
 42
3.0
 43
3.0
  0
SEQEND
  5
260
  8
0
  6
CONTINUOUS
 62
     7
  0
INSERT
  5
261
  8
回07-寸法
  6
CONTINUOUS
 62
     5
 66
     1
  2
_OPEN
 10
337.1632575357526
 20
146.3115838819695
 30
0.0
 41
3.0
 42
3.0
 43
3.0
 50
180.0
  0
SEQEND
  5
262
  8
0
  6
CONTINUOUS
 62
     7
  0
INSERT
  5
263
  8
回07-寸法
  6
CONTINUOUS
 62
     5
 66
     1
  2
*X9898
 10
0.0
 20
0.0
 30
0.0
  0
SEQEND
  5
8C2
  8
0
  6
CONTINUOUS
 62
     7
  0
POINT
  5
264
  8
DEFPOINTS
  6
CONTINUOUS
 62
     0
 10
337.1632575357526
 20
161.8075355111586
 30
0.0
  0
POINT
  5
265
  8
DEFPOINTS
  6
CONTINUOUS
 62
     0
 10
319.6632575357523
 20
161.8075355111586
 30
0.0
  0
POINT
  5
266
  8
DEFPOINTS
  6
CONTINUOUS
 62
     0
 10
319.6632575357523
 20
146.3115838819695
 30
0.0
  0
ENDBLK
  5
267
  8
0
 62
     7
  0
BLOCK
  8
0
  2
*D3030
 70
     1
 10
0.0
 20
0.0
 30
0.0
  3
*D3030
  1

  0
LINE
  5
24B
  8
回07-寸法
  6
CONTINUOUS
 62
     5
 10
319.6632575357523
 20
161.8075355111586
 30
0.0
 11
319.6632575357523
 21
145.3115838819695
 31
0.0
  0
LINE
  5
24C
  8
回07-寸法
  6
CONTINUOUS
 62
     5
 10
129.1132575357528
 20
261.3075355111582
 30
0.0
 11
129.1132575357528
 21
145.3115838819695
 31
0.0
  0
LINE
  5
24D
  8
回07-寸法
  6
CONTINUOUS
 62
     5
 10
316.6632575357523
 20
146.3115838819695
 30
0.0
 11
132.1132575357528
 21
146.3115838819695
 31
0.0
  0
INSERT
  5
24E
  8
回07-寸法
  6
CONTINUOUS
 62
     5
 66
     1
  2
_OPEN
 10
319.6632575357523
 20
146.3115838819695
 30
0.0
 41
3.0
 42
3.0
 43
3.0
  0
SEQEND
  5
24F
  8
0
  6
CONTINUOUS
 62
     7
  0
INSERT
  5
250
  8
回07-寸法
  6
CONTINUOUS
 62
     5
 66
     1
  2
_OPEN
 10
129.1132575357528
 20
146.3115838819695
 30
0.0
 41
3.0
 42
3.0
 43
3.0
 50
180.0
  0
SEQEND
  5
251
  8
0
  6
CONTINUOUS
 62
     7
  0
TEXT
  5
252
  8
回07-寸法
  6
CONTINUOUS
 62
     5
 10
213.3792316144351
 20
147.0627922795187
 30
0.0
 40
5.0
  1
(190.55)
1001
ACAD
1000
MTEXTBEGIN
1070
    73
1070
     1
1070
    44
1040
1.0
1070
    74
1070
     0
1000
MTEXTEND
  0
POINT
  5
253
  8
DEFPOINTS
  6
CONTINUOUS
 62
     0
 10
319.6632575357523
 20
161.8075355111586
 30
0.0
  0
POINT
  5
254
  8
DEFPOINTS
  6
CONTINUOUS
 62
     0
 10
129.1132575357528
 20
261.3075355111582
 30
0.0
  0
POINT
  5
255
  8
DEFPOINTS
  6
CONTINUOUS
 62
     0
 10
129.1132575357528
 20
146.3115838819695
 30
0.0
  0
ENDBLK
  5
256
  8
0
 62
     7
  0
BLOCK
  8
0
  2
*D3131
 70
     1
 10
0.0
 20
0.0
 30
0.0
  3
*D3131
  1

  0
LINE
  5
23A
  8
回07-寸法
  6
CONTINUOUS
 62
     5
 10
305.9143828512012
 20
261.3075355111586
 30
0.0
 11
297.6704633874369
 21
261.3075355111586
 31
0.0
  0
LINE
  5
23B
  8
回07-寸法
  6
CONTINUOUS
 62
     5
 10
305.9143828512012
 20
257.6798945480023
 30
0.0
 11
297.6704633874369
 21
257.6798945480023
 31
0.0
  0
LINE
  5
23C
  8
回07-寸法
  6
CONTINUOUS
 62
     5
 10
298.6704633874369
 20
264.3075355111585
 30
0.0
 11
298.6704633874369
 21
267.3075355111586
 31
0.0
  0
LINE
  5
23D
  8
回07-寸法
  6
CONTINUOUS
 62
     5
 10
298.6704633874369
 20
254.6798945480023
 30
0.0
 11
298.6704633874369
 21
233.592752217389
 31
0.0
  0
LINE
  5
23E
  8
回07-寸法
  6
CONTINUOUS
 62
     5
 10
298.6704633874369
 20
261.3075355111586
 30
0.0
 11
298.6704633874369
 21
257.6798945480023
 31
0.0
  0
INSERT
  5
23F
  8
回07-寸法
  6
CONTINUOUS
 62
     5
 66
     1
  2
_OPEN
 10
298.6704633874369
 20
261.3075355111586
 30
0.0
 41
3.0
 42
3.0
 43
3.0
 50
270.0
  0
SEQEND
  5
240
  8
0
  6
CONTINUOUS
 62
     7
  0
INSERT
  5
241
  8
回07-寸法
  6
CONTINUOUS
 62
     5
 66
     1
  2
_OPEN
 10
298.6704633874369
 20
257.6798945480023
 30
0.0
 41
3.0
 42
3.0
 43
3.0
 50
90.0
  0
SEQEND
  5
242
  8
0
  6
CONTINUOUS
 62
     7
  0
TEXT
  5
243
  8
回07-寸法
  6
CONTINUOUS
 62
     5
 10
298.170463387437
 20
233.4646803943356
 30
0.0
 40
5.0
  1
3.6
 50
90.0
1001
ACAD
1000
MTEXTBEGIN
1070
    73
1070
     1
1070
    44
1040
1.0
1070
    74
1070
     0
1000
MTEXTEND
  0
POINT
  5
244
  8
DEFPOINTS
  6
CONTINUOUS
 62
     0
 10
305.9143828512012
 20
261.3075355111586
 30
0.0
  0
POINT
  5
245
  8
DEFPOINTS
  6
CONTINUOUS
 62
     0
 10
305.9143828512012
 20
257.6798945480023
 30
0.0
  0
POINT
  5
246
  8
DEFPOINTS
  6
CONTINUOUS
 62
     0
 10
298.6704633874369
 20
257.6798945480023
 30
0.0
  0
ENDBLK
  5
247
  8
0
 62
     7
  0
BLOCK
  8
0
  2
*D3232
 70
     1
 10
0.0
 20
0.0
 30
0.0
  3
*D3232
  1

  0
LINE
  5
229
  8
回07-寸法
  6
CONTINUOUS
 62
     5
 10
305.9143828512012
 20
261.3075355111586
 30
0.0
 11
291.1126841818596
 21
261.3075355111586
 31
0.0
  0
LINE
  5
22A
  8
回07-寸法
  6
CONTINUOUS
 62
     5
 10
319.6632575357527
 20
243.9310198634508
 30
0.0
 11
291.1126841818596
 21
243.9310198634508
 31
0.0
  0
LINE
  5
22B
  8
回07-寸法
  6
CONTINUOUS
 62
     5
 10
292.1126841818595
 20
264.3075355111585
 30
0.0
 11
292.1126841818595
 21
267.3075355111586
 31
0.0
  0
LINE
  5
22C
  8
回07-寸法
  6
CONTINUOUS
 62
     5
 10
292.1126841818595
 20
240.9310198634508
 30
0.0
 11
292.1126841818595
 21
226.9310198634505
 31
0.0
  0
LINE
  5
22D
  8
回07-寸法
  6
CONTINUOUS
 62
     5
 10
292.1126841818595
 20
261.3075355111586
 30
0.0
 11
292.1126841818595
 21
243.9310198634508
 31
0.0
  0
INSERT
  5
22E
  8
回07-寸法
  6
CONTINUOUS
 62
     5
 66
     1
  2
_OPEN
 10
292.1126841818595
 20
261.3075355111586
 30
0.0
 41
3.0
 42
3.0
 43
3.0
 50
270.0
  0
SEQEND
  5
22F
  8
0
  6
CONTINUOUS
 62
     7
  0
INSERT
  5
230
  8
回07-寸法
  6
CONTINUOUS
 62
     5
 66
     1
  2
_OPEN
 10
292.1126841818595
 20
243.9310198634508
 30
0.0
 41
3.0
 42
3.0
 43
3.0
 50
90.0
  0
SEQEND
  5
231
  8
0
  6
CONTINUOUS
 62
     7
  0
TEXT
  5
232
  8
回07-寸法
  6
CONTINUOUS
 62
     5
 10
291.6126841818595
 20
226.6810198634504
 30
0.0
 40
5.0
  1
17.4
 50
90.0
1001
ACAD
1000
MTEXTBEGIN
1070
    73
1070
     1
1070
    44
1040
1.0
1070
    74
1070
     0
1000
MTEXTEND
  0
POINT
  5
233
  8
DEFPOINTS
  6
CONTINUOUS
 62
     0
 10
305.9143828512012
 20
261.3075355111586
 30
0.0
  0
POINT
  5
234
  8
DEFPOINTS
  6
CONTINUOUS
 62
     0
 10
319.6632575357527
 20
243.9310198634508
 30
0.0
  0
POINT
  5
235
  8
DEFPOINTS
  6
CONTINUOUS
 62
     0
 10
292.1126841818595
 20
243.9310198634508
 30
0.0
  0
ENDBLK
  5
236
  8
0
 62
     7
  0
BLOCK
  8
0
  2
*D3333
 70
     1
 10
0.0
 20
0.0
 30
0.0
  3
*D3333
  1

  0
LINE
  5
218
  8
回07-寸法
  6
CONTINUOUS
 62
     5
 10
368.9143828512011
 20
261.307535511158
 30
0.0
 11
376.1705788482846
 21
261.307535511158
 31
0.0
  0
LINE
  5
219
  8
回07-寸法
  6
CONTINUOUS
 62
     5
 10
368.9143828512011
 20
257.751900592547
 30
0.0
 11
376.1705788482846
 21
257.751900592547
 31
0.0
  0
LINE
  5
21A
  8
回07-寸法
  6
CONTINUOUS
 62
     5
 10
375.1705788482845
 20
264.307535511158
 30
0.0
 11
375.1705788482845
 21
267.307535511158
 31
0.0
  0
LINE
  5
21B
  8
回07-寸法
  6
CONTINUOUS
 62
     5
 10
375.1705788482845
 20
254.751900592547
 30
0.0
 11
375.1705788482845
 21
242.0371232841125
 31
0.0
  0
LINE
  5
21C
  8
回07-寸法
  6
CONTINUOUS
 62
     5
 10
375.1705788482845
 20
261.307535511158
 30
0.0
 11
375.1705788482845
 21
257.751900592547
 31
0.0
  0
INSERT
  5
21D
  8
回07-寸法
  6
CONTINUOUS
 62
     5
 66
     1
  2
_OPEN
 10
375.1705788482845
 20
261.307535511158
 30
0.0
 41
3.0
 42
3.0
 43
3.0
 50
270.0
  0
SEQEND
  5
21E
  8
0
  6
CONTINUOUS
 62
     7
  0
INSERT
  5
21F
  8
回07-寸法
  6
CONTINUOUS
 62
     5
 66
     1
  2
_OPEN
 10
375.1705788482845
 20
257.751900592547
 30
0.0
 41
3.0
 42
3.0
 43
3.0
 50
90.0
  0
SEQEND
  5
220
  8
0
  6
CONTINUOUS
 62
     7
  0
TEXT
  5
221
  8
回07-寸法
  6
CONTINUOUS
 62
     5
 10
374.6705788482846
 20
241.9090514610591
 30
0.0
 40
5.0
  1
3.6
 50
90.0
1001
ACAD
1000
MTEXTBEGIN
1070
    73
1070
     1
1070
    44
1040
1.0
1070
    74
1070
     0
1000
MTEXTEND
  0
POINT
  5
222
  8
DEFPOINTS
  6
CONTINUOUS
 62
     0
 10
368.9143828512011
 20
261.307535511158
 30
0.0
  0
POINT
  5
223
  8
DEFPOINTS
  6
CONTINUOUS
 62
     0
 10
368.9143828512011
 20
257.751900592547
 30
0.0
  0
POINT
  5
224
  8
DEFPOINTS
  6
CONTINUOUS
 62
     0
 10
375.1705788482845
 20
257.751900592547
 30
0.0
  0
ENDBLK
  5
225
  8
0
 62
     7
  0
BLOCK
  8
0
  2
*D3434
 70
     1
 10
0.0
 20
0.0
 30
0.0
  3
*D3434
  1

  0
LINE
  5
207
  8
回07-寸法
  6
CONTINUOUS
 62
     5
 10
368.9143828512011
 20
261.307535511158
 30
0.0
 11
383.5066840388811
 21
261.307535511158
 31
0.0
  0
LINE
  5
208
  8
回07-寸法
  6
CONTINUOUS
 62
     5
 10
362.1632575357527
 20
251.000775277099
 30
0.0
 11
383.5066840388811
 21
251.000775277099
 31
0.0
  0
LINE
  5
209
  8
回07-寸法
  6
CONTINUOUS
 62
     5
 10
382.506684038881
 20
264.307535511158
 30
0.0
 11
382.506684038881
 21
267.307535511158
 31
0.0
  0
LINE
  5
20A
  8
回07-寸法
  6
CONTINUOUS
 62
     5
 10
382.506684038881
 20
248.000775277099
 30
0.0
 11
382.506684038881
 21
234.2936684959122
 31
0.0
  0
LINE
  5
20B
  8
回07-寸法
  6
CONTINUOUS
 62
     5
 10
382.506684038881
 20
261.307535511158
 30
0.0
 11
382.506684038881
 21
251.000775277099
 31
0.0
  0
INSERT
  5
20C
  8
回07-寸法
  6
CONTINUOUS
 62
     5
 66
     1
  2
_OPEN
 10
382.506684038881
 20
261.307535511158
 30
0.0
 41
3.0
 42
3.0
 43
3.0
 50
270.0
  0
SEQEND
  5
20D
  8
0
  6
CONTINUOUS
 62
     7
  0
INSERT
  5
20E
  8
回07-寸法
  6
CONTINUOUS
 62
     5
 66
     1
  2
_OPEN
 10
382.506684038881
 20
251.000775277099
 30
0.0
 41
3.0
 42
3.0
 43
3.0
 50
90.0
  0
SEQEND
  5
20F
  8
0
  6
CONTINUOUS
 62
     7
  0
TEXT
  5
210
  8
回07-寸法
  6
CONTINUOUS
 62
     5
 10
382.0066840388811
 20
234.1472218865053
 30
0.0
 40
5.0
  1
10.3
 50
90.0
1001
ACAD
1000
MTEXTBEGIN
1070
    73
1070
     1
1070
    44
1040
1.0
1070
    74
1070
     0
1000
MTEXTEND
  0
POINT
  5
211
  8
DEFPOINTS
  6
CONTINUOUS
 62
     0
 10
368.9143828512011
 20
261.307535511158
 30
0.0
  0
POINT
  5
212
  8
DEFPOINTS
  6
CONTINUOUS
 62
     0
 10
362.1632575357527
 20
251.000775277099
 30
0.0
  0
POINT
  5
213
  8
DEFPOINTS
  6
CONTINUOUS
 62
     0
 10
382.506684038881
 20
251.000775277099
 30
0.0
  0
ENDBLK
  5
214
  8
0
 62
     7
  0
BLOCK
  8
0
  2
*D3535
 70
     1
 10
0.0
 20
0.0
 30
0.0
  3
*D3535
  1

  0
LINE
  5
1F6
  8
回07-寸法
  6
CONTINUOUS
 62
     5
 10
340.914382851201
 20
258.0900597395648
 30
0.0
 11
340.914382851201
 21
220.2049331420694
 31
0.0
  0
LINE
  5
1F7
  8
回07-寸法
  6
CONTINUOUS
 62
     5
 10
305.914382851201
 20
258.0941081103755
 30
0.0
 11
305.914382851201
 21
220.2049331420694
 31
0.0
  0
LINE
  5
1F8
  8
回07-寸法
  6
CONTINUOUS
 62
     5
 10
343.914382851201
 20
221.2049331420694
 30
0.0
 11
346.914382851201
 21
221.2049331420694
 31
0.0
  0
LINE
  5
1F9
  8
回07-寸法
  6
CONTINUOUS
 62
     5
 10
302.914382851201
 20
221.2049331420694
 30
0.0
 11
293.2072760700144
 21
221.2049331420694
 31
0.0
  0
LINE
  5
1FA
  8
回07-寸法
  6
CONTINUOUS
 62
     5
 10
340.914382851201
 20
221.2049331420694
 30
0.0
 11
305.914382851201
 21
221.2049331420694
 31
0.0
  0
INSERT
  5
1FB
  8
回07-寸法
  6
CONTINUOUS
 62
     5
 66
     1
  2
_OPEN
 10
340.914382851201
 20
221.2049331420694
 30
0.0
 41
3.0
 42
3.0
 43
3.0
 50
180.0
  0
SEQEND
  5
1FC
  8
0
  6
CONTINUOUS
 62
     7
  0
INSERT
  5
1FD
  8
回07-寸法
  6
CONTINUOUS
 62
     5
 66
     1
  2
_OPEN
 10
305.914382851201
 20
221.2049331420694
 30
0.0
 41
3.0
 42
3.0
 43
3.0
  0
SEQEND
  5
1FE
  8
0
  6
CONTINUOUS
 62
     7
  0
TEXT
  5
1FF
  8
回07-寸法
  6
CONTINUOUS
 62
     5
 10
293.0608294606077
 20
221.7049331420694
 30
0.0
 40
5.0
  1
35
1001
ACAD
1000
MTEXTBEGIN
1070
    73
1070
     1
1070
    44
1040
1.0
1070
    74
1070
     0
1000
MTEXTEND
  0
POINT
  5
200
  8
DEFPOINTS
  6
CONTINUOUS
 62
     0
 10
340.914382851201
 20
258.0900597395648
 30
0.0
  0
POINT
  5
201
  8
DEFPOINTS
  6
CONTINUOUS
 62
     0
 10
305.914382851201
 20
258.0941081103755
 30
0.0
  0
POINT
  5
202
  8
DEFPOINTS
  6
CONTINUOUS
 62
     0
 10
305.914382851201
 20
221.2049331420694
 30
0.0
  0
ENDBLK
  5
203
  8
0
 62
     7
  0
BLOCK
  8
0
  2
*D3636
 70
     1
 10
0.0
 20
0.0
 30
0.0
  3
*D3636
  1

  0
LINE
  5
1E5
  8
回07-寸法
  6
CONTINUOUS
 62
     5
 10
341.914382851201
 20
258.1620657841094
 30
0.0
 11
341.914382851201
 21
223.9868516749484
 31
0.0
  0
LINE
  5
1E6
  8
回07-寸法
  6
CONTINUOUS
 62
     5
 10
368.914382851201
 20
258.1661141549202
 30
0.0
 11
368.914382851201
 21
223.9868516749484
 31
0.0
  0
LINE
  5
1E7
  8
回07-寸法
  6
CONTINUOUS
 62
     5
 10
338.914382851201
 20
224.9868516749484
 30
0.0
 11
335.914382851201
 21
224.9868516749484
 31
0.0
  0
LINE
  5
1E8
  8
回07-寸法
  6
CONTINUOUS
 62
     5
 10
371.914382851201
 20
224.9868516749484
 30
0.0
 11
381.541351355138
 21
224.9868516749484
 31
0.0
  0
LINE
  5
1E9
  8
回07-寸法
  6
CONTINUOUS
 62
     5
 10
341.914382851201
 20
224.9868516749484
 30
0.0
 11
368.914382851201
 21
224.9868516749484
 31
0.0
  0
INSERT
  5
1EA
  8
回07-寸法
  6
CONTINUOUS
 62
     5
 66
     1
  2
_OPEN
 10
341.914382851201
 20
224.9868516749484
 30
0.0
 41
3.0
 42
3.0
 43
3.0
  0
SEQEND
  5
1EB
  8
0
  6
CONTINUOUS
 62
     7
  0
INSERT
  5
1EC
  8
回07-寸法
  6
CONTINUOUS
 62
     5
 66
     1
  2
_OPEN
 10
368.914382851201
 20
224.9868516749484
 30
0.0
 41
3.0
 42
3.0
 43
3.0
 50
180.0
  0
SEQEND
  5
1ED
  8
0
  6
CONTINUOUS
 62
     7
  0
TEXT
  5
1EE
  8
回07-寸法
  6
CONTINUOUS
 62
     5
 10
374.7278671031695
 20
225.4873438009327
 30
0.0
 40
5.0
  1
27
1001
ACAD
1000
MTEXTBEGIN
1070
    73
1070
     1
1070
    44
1040
1.0
1070
    74
1070
     0
1000
MTEXTEND
  0
POINT
  5
1EF
  8
DEFPOINTS
  6
CONTINUOUS
 62
     0
 10
341.914382851201
 20
258.1620657841094
 30
0.0
  0
POINT
  5
1F0
  8
DEFPOINTS
  6
CONTINUOUS
 62
     0
 10
368.914382851201
 20
258.1661141549202
 30
0.0
  0
POINT
  5
1F1
  8
DEFPOINTS
  6
CONTINUOUS
 62
     0
 10
368.914382851201
 20
224.9868516749484
 30
0.0
  0
ENDBLK
  5
1F2
  8
0
 62
     7
  0
BLOCK
  8
0
  2
*D3737
 70
     1
 10
0.0
 20
0.0
 30
0.0
  3
*D3737
  1

  0
LINE
  5
1D6
  8
回07-寸法
  6
CONTINUOUS
 62
     5
 10
361.6632575357527
 20
161.3115838819685
 30
0.0
 11
406.4243828946916
 21
161.3115838819685
 31
0.0
  0
LINE
  5
1D7
  8
回07-寸法
  6
CONTINUOUS
 62
     5
 10
368.9143828512011
 20
261.3075355111582
 30
0.0
 11
406.4243828946916
 21
261.3075355111582
 31
0.0
  0
LINE
  5
1D8
  8
回07-寸法
  6
CONTINUOUS
 62
     5
 10
405.4243828946916
 20
164.3115838819685
 30
0.0
 11
405.4243828946916
 21
258.3075355111583
 31
0.0
  0
INSERT
  5
1D9
  8
回07-寸法
  6
CONTINUOUS
 62
     5
 66
     1
  2
_OPEN
 10
405.4243828946916
 20
161.3115838819685
 30
0.0
 41
3.0
 42
3.0
 43
3.0
 50
270.0
  0
SEQEND
  5
1DA
  8
0
  6
CONTINUOUS
 62
     7
  0
INSERT
  5
1DB
  8
回07-寸法
  6
CONTINUOUS
 62
     5
 66
     1
  2
_OPEN
 10
405.4243828946916
 20
261.3075355111583
 30
0.0
 41
3.0
 42
3.0
 43
3.0
 50
90.0
  0
SEQEND
  5
1DC
  8
0
  6
CONTINUOUS
 62
     7
  0
INSERT
  5
1DD
  8
回07-寸法
  6
CONTINUOUS
 62
     5
 66
     1
  2
*X9999
 10
0.0
 20
0.0
 30
0.0
  0
SEQEND
  5
8C8
  8
0
  6
CONTINUOUS
 62
     7
  0
POINT
  5
1DE
  8
DEFPOINTS
  6
CONTINUOUS
 62
     0
 10
361.6632575357527
 20
161.3115838819685
 30
0.0
  0
POINT
  5
1DF
  8
DEFPOINTS
  6
CONTINUOUS
 62
     0
 10
368.9143828512011
 20
261.3075355111582
 30
0.0
  0
POINT
  5
1E0
  8
DEFPOINTS
  6
CONTINUOUS
 62
     0
 10
405.4243828946916
 20
261.3075355111583
 30
0.0
  0
ENDBLK
  5
1E1
  8
0
 62
     7
  0
BLOCK
  8
0
  2
*D3838
 70
     1
 10
0.0
 20
0.0
 30
0.0
  3
*D3838
  1

  0
LINE
  5
1C6
  8
回07-寸法
  6
CONTINUOUS
 62
     5
 10
129.1132575357528
 20
261.3075355111584
 30
0.0
 11
129.1132575357528
 21
135.3168636538315
 31
0.0
  0
LINE
  5
1C7
  8
回07-寸法
  6
CONTINUOUS
 62
     5
 10
348.6632575357526
 20
161.8115838819694
 30
0.0
 11
348.6632575357526
 21
135.3168636538315
 31
0.0
  0
LINE
  5
1C8
  8
回07-寸法
  6
CONTINUOUS
 62
     5
 10
132.1132575357528
 20
136.3168636538315
 30
0.0
 11
345.6632575357525
 21
136.3168636538315
 31
0.0
  0
INSERT
  5
1C9
  8
回07-寸法
  6
CONTINUOUS
 62
     5
 66
     1
  2
_OPEN
 10
129.1132575357528
 20
136.3168636538315
 30
0.0
 41
3.0
 42
3.0
 43
3.0
 50
180.0
  0
SEQEND
  5
1CA
  8
0
  6
CONTINUOUS
 62
     7
  0
INSERT
  5
1CB
  8
回07-寸法
  6
CONTINUOUS
 62
     5
 66
     1
  2
_OPEN
 10
348.6632575357526
 20
136.3168636538315
 30
0.0
 41
3.0
 42
3.0
 43
3.0
  0
SEQEND
  5
1CC
  8
0
  6
CONTINUOUS
 62
     7
  0
TEXT
  5
1CD
  8
回07-寸法
  6
CONTINUOUS
 62
     5
 10
227.8792316144353
 20
137.0680720513807
 30
0.0
 40
5.0
  1
(219.55)
1001
ACAD
1000
MTEXTBEGIN
1070
    73
1070
     1
1070
    44
1040
1.0
1070
    74
1070
     0
1000
MTEXTEND
  0
POINT
  5
1CE
  8
DEFPOINTS
  6
CONTINUOUS
 62
     0
 10
129.1132575357528
 20
261.3075355111584
 30
0.0
  0
POINT
  5
1D0
  8
DEFPOINTS
  6
CONTINUOUS
 62
     0
 10
348.6632575357526
 20
161.8115838819694
 30
0.0
  0
POINT
  5
1D1
  8
DEFPOINTS
  6
CONTINUOUS
 62
     0
 10
348.6632575357526
 20
136.3168636538315
 30
0.0
  0
ENDBLK
  5
1D2
  8
0
 62
     7
  0
BLOCK
  8
0
  2
*D3939
 70
     1
 10
0.0
 20
0.0
 30
0.0
  3
*D3939
  1

  0
LINE
  5
4FB
  8
回07-寸法
  6
CONTINUOUS
 62
     5
 10
119.3863966094916
 20
192.1562261422654
 30
0.0
 11
119.3863966094916
 21
66.16555428493853
 31
0.0
  0
LINE
  5
4FD
  8
回07-寸法
  6
CONTINUOUS
 62
     5
 10
338.9363966094913
 20
92.66027451307641
 30
0.0
 11
338.9363966094913
 21
66.16555428493853
 31
0.0
  0
LINE
  5
4FE
  8
回07-寸法
  6
CONTINUOUS
 62
     5
 10
122.3863966094916
 20
67.16555428493854
 30
0.0
 11
335.9363966094913
 21
67.16555428493854
 31
0.0
  0
INSERT
  5
4FF
  8
回07-寸法
  6
CONTINUOUS
 62
     5
  2
_OPEN
 10
119.3863966094916
 20
67.16555428493854
 30
0.0
 41
3.0
 42
3.0
 43
3.0
 50
180.0
  0
INSERT
  5
500
  8
回07-寸法
  6
CONTINUOUS
 62
     5
  2
_OPEN
 10
338.9363966094913
 20
67.16555428493854
 30
0.0
 41
3.0
 42
3.0
 43
3.0
  0
TEXT
  5
501
  8
回07-寸法
  6
CONTINUOUS
 62
     5
 10
218.152370688174
 20
67.91555428493854
 30
0.0
 40
5.0
  1
(219.55)
  0
POINT
  5
502
  8
DEFPOINTS
  6
CONTINUOUS
 62
     0
 10
119.3863966094916
 20
192.1562261422654
 30
0.0
  0
POINT
  5
503
  8
DEFPOINTS
  6
CONTINUOUS
 62
     0
 10
338.9363966094913
 20
92.66027451307641
 30
0.0
  0
POINT
  5
504
  8
DEFPOINTS
  6
CONTINUOUS
 62
     0
 10
338.9363966094913
 20
67.16555428493854
 30
0.0
  0
ENDBLK
  5
506
  8
0
  6
CONTINUOUS
 62
     7
  0
BLOCK
  8
0
  2
*D4040
 70
     1
 10
0.0
 20
0.0
 30
0.0
  3
*D4040
  1

  0
LINE
  5
508
  8
回07-寸法
  6
CONTINUOUS
 62
     5
 10
351.9363966094914
 20
92.16027451307548
 30
0.0
 11
396.6975219684305
 21
92.16027451307548
 31
0.0
  0
LINE
  5
509
  8
回07-寸法
  6
CONTINUOUS
 62
     5
 10
359.1875219249398
 20
192.1562261422651
 30
0.0
 11
396.6975219684305
 21
192.1562261422651
 31
0.0
  0
LINE
  5
50A
  8
回07-寸法
  6
CONTINUOUS
 62
     5
 10
395.6975219684305
 20
95.16027451307548
 30
0.0
 11
395.6975219684305
 21
189.1562261422651
 31
0.0
  0
INSERT
  5
50B
  8
回07-寸法
  6
CONTINUOUS
 62
     5
  2
_OPEN
 10
395.6975219684305
 20
92.16027451307548
 30
0.0
 41
3.0
 42
3.0
 43
3.0
 50
270.0
  0
INSERT
  5
50C
  8
回07-寸法
  6
CONTINUOUS
 62
     5
  2
_OPEN
 10
395.6975219684305
 20
192.1562261422651
 30
0.0
 41
3.0
 42
3.0
 43
3.0
 50
90.0
  0
INSERT
  5
50D
  8
回07-寸法
  6
CONTINUOUS
 62
     5
 66
     1
  2
*X100100
 10
0.0
 20
0.0
 30
0.0
  0
SEQEND
  5
8CE
  8
0
  6
CONTINUOUS
 62
     7
  0
POINT
  5
50E
  8
DEFPOINTS
  6
CONTINUOUS
 62
     0
 10
351.9363966094914
 20
92.16027451307548
 30
0.0
  0
POINT
  5
50F
  8
DEFPOINTS
  6
CONTINUOUS
 62
     0
 10
359.1875219249398
 20
192.1562261422651
 30
0.0
  0
POINT
  5
510
  8
DEFPOINTS
  6
CONTINUOUS
 62
     0
 10
395.6975219684305
 20
192.1562261422651
 30
0.0
  0
ENDBLK
  5
512
  8
0
  6
CONTINUOUS
 62
     7
  0
BLOCK
  8
0
  2
*D4141
 70
     1
 10
0.0
 20
0.0
 30
0.0
  3
*D4141
  1

  0
LINE
  5
514
  8
回07-寸法
  6
CONTINUOUS
 62
     5
 10
332.1875219249398
 20
189.0107564152164
 30
0.0
 11
332.1875219249398
 21
154.8355423060554
 31
0.0
  0
LINE
  5
516
  8
回07-寸法
  6
CONTINUOUS
 62
     5
 10
359.1875219249398
 20
189.0148047860272
 30
0.0
 11
359.1875219249398
 21
154.8355423060554
 31
0.0
  0
LINE
  5
517
  8
回07-寸法
  6
CONTINUOUS
 62
     5
 10
362.1875219249398
 20
155.8355423060554
 30
0.0
 11
371.7510061769083
 21
155.8355423060554
 31
0.0
  0
LINE
  5
518
  8
回07-寸法
  6
CONTINUOUS
 62
     5
 10
332.1875219249398
 20
155.8355423060554
 30
0.0
 11
359.1875219249398
 21
155.8355423060554
 31
0.0
  0
LINE
  5
519
  8
回07-寸法
  6
CONTINUOUS
 62
     5
 10
329.1875219249398
 20
155.8355423060554
 30
0.0
 11
326.1875219249398
 21
155.8355423060554
 31
0.0
  0
INSERT
  5
51A
  8
回07-寸法
  6
CONTINUOUS
 62
     5
  2
_OPEN
 10
332.1875219249398
 20
155.8355423060554
 30
0.0
 41
3.0
 42
3.0
 43
3.0
  0
INSERT
  5
51B
  8
回07-寸法
  6
CONTINUOUS
 62
     5
  2
_OPEN
 10
359.1875219249398
 20
155.8355423060554
 30
0.0
 41
3.0
 42
3.0
 43
3.0
 50
180.0
  0
TEXT
  5
51C
  8
回07-寸法
  6
CONTINUOUS
 62
     5
 10
365.0010061769084
 20
156.3355423060554
 30
0.0
 40
5.0
  1
27
  0
POINT
  5
51D
  8
DEFPOINTS
  6
CONTINUOUS
 62
     0
 10
332.1875219249398
 20
189.0107564152164
 30
0.0
  0
POINT
  5
51E
  8
DEFPOINTS
  6
CONTINUOUS
 62
     0
 10
359.1875219249398
 20
189.0148047860272
 30
0.0
  0
POINT
  5
51F
  8
DEFPOINTS
  6
CONTINUOUS
 62
     0
 10
359.1875219249398
 20
155.8355423060554
 30
0.0
  0
ENDBLK
  5
521
  8
0
  6
CONTINUOUS
 62
     7
  0
BLOCK
  8
0
  2
*D4242
 70
     1
 10
0.0
 20
0.0
 30
0.0
  3
*D4242
  1

  0
LINE
  5
523
  8
回07-寸法
  6
CONTINUOUS
 62
     5
 10
331.1875219249398
 20
188.9387503706717
 30
0.0
 11
331.1875219249398
 21
151.0536237731764
 31
0.0
  0
LINE
  5
524
  8
回07-寸法
  6
CONTINUOUS
 62
     5
 10
296.1875219249398
 20
188.9427987414825
 30
0.0
 11
296.1875219249398
 21
151.0536237731764
 31
0.0
  0
LINE
  5
525
  8
回07-寸法
  6
CONTINUOUS
 62
     5
 10
293.1875219249398
 20
152.0536237731764
 30
0.0
 11
283.5839685343465
 21
152.0536237731764
 31
0.0
  0
LINE
  5
526
  8
回07-寸法
  6
CONTINUOUS
 62
     5
 10
331.1875219249398
 20
152.0536237731764
 30
0.0
 11
296.1875219249398
 21
152.0536237731764
 31
0.0
  0
LINE
  5
527
  8
回07-寸法
  6
CONTINUOUS
 62
     5
 10
334.1875219249398
 20
152.0536237731764
 30
0.0
 11
337.1875219249398
 21
152.0536237731764
 31
0.0
  0
INSERT
  5
528
  8
回07-寸法
  6
CONTINUOUS
 62
     5
  2
_OPEN
 10
331.1875219249398
 20
152.0536237731764
 30
0.0
 41
3.0
 42
3.0
 43
3.0
 50
180.0
  0
INSERT
  5
529
  8
回07-寸法
  6
CONTINUOUS
 62
     5
  2
_OPEN
 10
296.1875219249398
 20
152.0536237731764
 30
0.0
 41
3.0
 42
3.0
 43
3.0
  0
TEXT
  5
52A
  8
回07-寸法
  6
CONTINUOUS
 62
     5
 10
283.3339685343465
 20
152.5536237731764
 30
0.0
 40
5.0
  1
35
  0
POINT
  5
52B
  8
DEFPOINTS
  6
CONTINUOUS
 62
     0
 10
331.1875219249398
 20
188.9387503706717
 30
0.0
  0
POINT
  5
52C
  8
DEFPOINTS
  6
CONTINUOUS
 62
     0
 10
296.1875219249398
 20
188.9427987414825
 30
0.0
  0
POINT
  5
52D
  8
DEFPOINTS
  6
CONTINUOUS
 62
     0
 10
296.1875219249398
 20
152.0536237731764
 30
0.0
  0
ENDBLK
  5
52F
  8
0
  6
CONTINUOUS
 62
     7
  0
BLOCK
  8
0
  2
*D4343
 70
     1
 10
0.0
 20
0.0
 30
0.0
  3
*D4343
  1

  0
LINE
  5
531
  8
回07-寸法
  6
CONTINUOUS
 62
     5
 10
359.1875219249398
 20
192.1562261422648
 30
0.0
 11
373.7798231126199
 21
192.1562261422648
 31
0.0
  0
LINE
  5
532
  8
回07-寸法
  6
CONTINUOUS
 62
     5
 10
352.4363966094913
 20
181.8494659082058
 30
0.0
 11
373.7798231126199
 21
181.8494659082058
 31
0.0
  0
LINE
  5
533
  8
回07-寸法
  6
CONTINUOUS
 62
     5
 10
372.7798231126199
 20
178.8494659082058
 30
0.0
 11
372.7798231126199
 21
165.2459125176123
 31
0.0
  0
LINE
  5
534
  8
回07-寸法
  6
CONTINUOUS
 62
     5
 10
372.7798231126199
 20
192.1562261422648
 30
0.0
 11
372.7798231126199
 21
181.8494659082058
 31
0.0
  0
LINE
  5
535
  8
回07-寸法
  6
CONTINUOUS
 62
     5
 10
372.7798231126199
 20
195.1562261422648
 30
0.0
 11
372.7798231126199
 21
198.1562261422648
 31
0.0
  0
INSERT
  5
536
  8
回07-寸法
  6
CONTINUOUS
 62
     5
  2
_OPEN
 10
372.7798231126199
 20
192.1562261422648
 30
0.0
 41
3.0
 42
3.0
 43
3.0
 50
270.0
  0
INSERT
  5
537
  8
回07-寸法
  6
CONTINUOUS
 62
     5
  2
_OPEN
 10
372.7798231126199
 20
181.8494659082058
 30
0.0
 41
3.0
 42
3.0
 43
3.0
 50
90.0
  0
TEXT
  5
538
  8
回07-寸法
  6
CONTINUOUS
 62
     5
 10
372.2798231126199
 20
164.9959125176122
 30
0.0
 40
5.0
  1
10.3
 50
90.0
  0
POINT
  5
539
  8
DEFPOINTS
  6
CONTINUOUS
 62
     0
 10
359.1875219249398
 20
192.1562261422648
 30
0.0
  0
POINT
  5
53A
  8
DEFPOINTS
  6
CONTINUOUS
 62
     0
 10
352.4363966094913
 20
181.8494659082058
 30
0.0
  0
POINT
  5
53B
  8
DEFPOINTS
  6
CONTINUOUS
 62
     0
 10
372.7798231126199
 20
181.8494659082058
 30
0.0
  0
ENDBLK
  5
53D
  8
0
  6
CONTINUOUS
 62
     7
  0
BLOCK
  8
0
  2
*D4444
 70
     1
 10
0.0
 20
0.0
 30
0.0
  3
*D4444
  1

  0
LINE
  5
53F
  8
回07-寸法
  6
CONTINUOUS
 62
     5
 10
359.1875219249398
 20
192.1562261422648
 30
0.0
 11
366.4437179220233
 21
192.1562261422648
 31
0.0
  0
LINE
  5
540
  8
回07-寸法
  6
CONTINUOUS
 62
     5
 10
359.1875219249398
 20
188.6005912236538
 30
0.0
 11
366.4437179220233
 21
188.6005912236538
 31
0.0
  0
LINE
  5
541
  8
回07-寸法
  6
CONTINUOUS
 62
     5
 10
365.4437179220233
 20
185.6005912236538
 30
0.0
 11
365.4437179220233
 21
173.007742092166
 31
0.0
  0
LINE
  5
542
  8
回07-寸法
  6
CONTINUOUS
 62
     5
 10
365.4437179220233
 20
192.1562261422648
 30
0.0
 11
365.4437179220233
 21
188.6005912236538
 31
0.0
  0
LINE
  5
543
  8
回07-寸法
  6
CONTINUOUS
 62
     5
 10
365.4437179220233
 20
195.1562261422648
 30
0.0
 11
365.4437179220233
 21
198.1562261422648
 31
0.0
  0
INSERT
  5
544
  8
回07-寸法
  6
CONTINUOUS
 62
     5
  2
_OPEN
 10
365.4437179220233
 20
192.1562261422648
 30
0.0
 41
3.0
 42
3.0
 43
3.0
 50
270.0
  0
INSERT
  5
545
  8
回07-寸法
  6
CONTINUOUS
 62
     5
  2
_OPEN
 10
365.4437179220233
 20
188.6005912236538
 30
0.0
 41
3.0
 42
3.0
 43
3.0
 50
90.0
  0
TEXT
  5
546
  8
回07-寸法
  6
CONTINUOUS
 62
     5
 10
364.9437179220233
 20
172.757742092166
 30
0.0
 40
5.0
  1
3.6
 50
90.0
  0
POINT
  5
547
  8
DEFPOINTS
  6
CONTINUOUS
 62
     0
 10
359.1875219249398
 20
192.1562261422648
 30
0.0
  0
POINT
  5
548
  8
DEFPOINTS
  6
CONTINUOUS
 62
     0
 10
359.1875219249398
 20
188.6005912236538
 30
0.0
  0
POINT
  5
549
  8
DEFPOINTS
  6
CONTINUOUS
 62
     0
 10
365.4437179220233
 20
188.6005912236538
 30
0.0
  0
ENDBLK
  5
54B
  8
0
  6
CONTINUOUS
 62
     7
  0
BLOCK
  8
0
  2
*D4545
 70
     1
 10
0.0
 20
0.0
 30
0.0
  3
*D4545
  1

  0
LINE
  5
54D
  8
回07-寸法
  6
CONTINUOUS
 62
     5
 10
296.1875219249398
 20
192.1562261422654
 30
0.0
 11
281.3858232555983
 21
192.1562261422654
 31
0.0
  0
LINE
  5
54E
  8
回07-寸法
  6
CONTINUOUS
 62
     5
 10
309.9363966094913
 20
174.7797104945576
 30
0.0
 11
281.3858232555983
 21
174.7797104945576
 31
0.0
  0
LINE
  5
54F
  8
回07-寸法
  6
CONTINUOUS
 62
     5
 10
282.3858232555983
 20
171.7797104945575
 30
0.0
 11
282.3858232555983
 21
157.7797104945574
 31
0.0
  0
LINE
  5
550
  8
回07-寸法
  6
CONTINUOUS
 62
     5
 10
282.3858232555983
 20
192.1562261422654
 30
0.0
 11
282.3858232555983
 21
174.7797104945576
 31
0.0
  0
LINE
  5
551
  8
回07-寸法
  6
CONTINUOUS
 62
     5
 10
282.3858232555983
 20
195.1562261422654
 30
0.0
 11
282.3858232555983
 21
198.1562261422654
 31
0.0
  0
INSERT
  5
552
  8
回07-寸法
  6
CONTINUOUS
 62
     5
  2
_OPEN
 10
282.3858232555983
 20
192.1562261422654
 30
0.0
 41
3.0
 42
3.0
 43
3.0
 50
270.0
  0
INSERT
  5
553
  8
回07-寸法
  6
CONTINUOUS
 62
     5
  2
_OPEN
 10
282.3858232555983
 20
174.7797104945576
 30
0.0
 41
3.0
 42
3.0
 43
3.0
 50
90.0
  0
TEXT
  5
554
  8
回07-寸法
  6
CONTINUOUS
 62
     5
 10
281.8858232555983
 20
157.5297104945573
 30
0.0
 40
5.0
  1
17.4
 50
90.0
  0
POINT
  5
555
  8
DEFPOINTS
  6
CONTINUOUS
 62
     0
 10
296.1875219249398
 20
192.1562261422654
 30
0.0
  0
POINT
  5
556
  8
DEFPOINTS
  6
CONTINUOUS
 62
     0
 10
309.9363966094913
 20
174.7797104945576
 30
0.0
  0
POINT
  5
557
  8
DEFPOINTS
  6
CONTINUOUS
 62
     0
 10
282.3858232555983
 20
174.7797104945576
 30
0.0
  0
ENDBLK
  5
559
  8
0
  6
CONTINUOUS
 62
     7
  0
BLOCK
  8
0
  2
*D4646
 70
     1
 10
0.0
 20
0.0
 30
0.0
  3
*D4646
  1

  0
LINE
  5
55B
  8
回07-寸法
  6
CONTINUOUS
 62
     5
 10
296.1875219249398
 20
192.1562261422654
 30
0.0
 11
287.9436024611757
 21
192.1562261422654
 31
0.0
  0
LINE
  5
55C
  8
回07-寸法
  6
CONTINUOUS
 62
     5
 10
296.1875219249398
 20
188.5285851791092
 30
0.0
 11
287.9436024611757
 21
188.5285851791092
 31
0.0
  0
LINE
  5
55D
  8
回07-寸法
  6
CONTINUOUS
 62
     5
 10
288.9436024611757
 20
185.5285851791092
 30
0.0
 11
288.9436024611757
 21
164.5633710254425
 31
0.0
  0
LINE
  5
55E
  8
回07-寸法
  6
CONTINUOUS
 62
     5
 10
288.9436024611757
 20
192.1562261422654
 30
0.0
 11
288.9436024611757
 21
188.5285851791092
 31
0.0
  0
LINE
  5
55F
  8
回07-寸法
  6
CONTINUOUS
 62
     5
 10
288.9436024611757
 20
195.1562261422654
 30
0.0
 11
288.9436024611757
 21
198.1562261422654
 31
0.0
  0
INSERT
  5
560
  8
回07-寸法
  6
CONTINUOUS
 62
     5
  2
_OPEN
 10
288.9436024611757
 20
192.1562261422654
 30
0.0
 41
3.0
 42
3.0
 43
3.0
 50
270.0
  0
INSERT
  5
561
  8
回07-寸法
  6
CONTINUOUS
 62
     5
  2
_OPEN
 10
288.9436024611757
 20
188.5285851791092
 30
0.0
 41
3.0
 42
3.0
 43
3.0
 50
90.0
  0
TEXT
  5
562
  8
回07-寸法
  6
CONTINUOUS
 62
     5
 10
288.4436024611757
 20
164.3133710254425
 30
0.0
 40
5.0
  1
3.6
 50
90.0
  0
POINT
  5
563
  8
DEFPOINTS
  6
CONTINUOUS
 62
     0
 10
296.1875219249398
 20
192.1562261422654
 30
0.0
  0
POINT
  5
564
  8
DEFPOINTS
  6
CONTINUOUS
 62
     0
 10
296.1875219249398
 20
188.5285851791092
 30
0.0
  0
POINT
  5
565
  8
DEFPOINTS
  6
CONTINUOUS
 62
     0
 10
288.9436024611757
 20
188.5285851791092
 30
0.0
  0
ENDBLK
  5
567
  8
0
  6
CONTINUOUS
 62
     7
  0
BLOCK
  8
0
  2
*D4747
 70
     1
 10
0.0
 20
0.0
 30
0.0
  3
*D4747
  1

  0
LINE
  5
569
  8
回07-寸法
  6
CONTINUOUS
 62
     5
 10
309.9363966094911
 20
92.65622614226558
 30
0.0
 11
309.9363966094911
 21
76.16027451307648
 31
0.0
  0
LINE
  5
56B
  8
回07-寸法
  6
CONTINUOUS
 62
     5
 10
119.3863966094916
 20
192.1562261422652
 30
0.0
 11
119.3863966094916
 21
76.1602745130765
 31
0.0
  0
LINE
  5
56C
  8
回07-寸法
  6
CONTINUOUS
 62
     5
 10
306.9363966094911
 20
77.16027451307647
 30
0.0
 11
122.3863966094916
 21
77.1602745130765
 31
0.0
  0
INSERT
  5
56D
  8
回07-寸法
  6
CONTINUOUS
 62
     5
  2
_OPEN
 10
309.9363966094911
 20
77.16027451307647
 30
0.0
 41
3.0
 42
3.0
 43
3.0
 50
360.0
  0
INSERT
  5
56E
  8
回07-寸法
  6
CONTINUOUS
 62
     5
  2
_OPEN
 10
119.3863966094916
 20
77.1602745130765
 30
0.0
 41
3.0
 42
3.0
 43
3.0
 50
180.0
  0
TEXT
  5
56F
  8
回07-寸法
  6
CONTINUOUS
 62
     5
 10
203.6523706881739
 20
77.91027451307648
 30
0.0
 40
5.0
  1
(190.55)
  0
POINT
  5
570
  8
DEFPOINTS
  6
CONTINUOUS
 62
     0
 10
309.9363966094911
 20
92.65622614226558
 30
0.0
  0
POINT
  5
571
  8
DEFPOINTS
  6
CONTINUOUS
 62
     0
 10
119.3863966094916
 20
192.1562261422652
 30
0.0
  0
POINT
  5
572
  8
DEFPOINTS
  6
CONTINUOUS
 62
     0
 10
119.3863966094916
 20
77.1602745130765
 30
0.0
  0
ENDBLK
  5
574
  8
0
  6
CONTINUOUS
 62
     7
  0
BLOCK
  8
0
  2
*D4848
 70
     1
 10
0.0
 20
0.0
 30
0.0
  3
*D4848
  1

  0
LINE
  5
576
  8
回07-寸法
  6
CONTINUOUS
 62
     5
 10
327.4363966094913
 20
92.65622614226558
 30
0.0
 11
327.4363966094913
 21
76.16027451307656
 31
0.0
  0
LINE
  5
577
  8
回07-寸法
  6
CONTINUOUS
 62
     5
 10
309.9363966094911
 20
92.65622614226558
 30
0.0
 11
309.9363966094911
 21
76.16027451307656
 31
0.0
  0
LINE
  5
578
  8
回07-寸法
  6
CONTINUOUS
 62
     5
 10
330.4363966094913
 20
77.16027451307656
 30
0.0
 11
373.598499588603
 21
77.16027451307656
 31
0.0
  0
LINE
  5
579
  8
回07-寸法
  6
CONTINUOUS
 62
     5
 10
327.4363966094913
 20
77.16027451307656
 30
0.0
 11
309.9363966094911
 21
77.16027451307656
 31
0.0
  0
LINE
  5
57A
  8
回07-寸法
  6
CONTINUOUS
 62
     5
 10
306.9363966094911
 20
77.16027451307656
 30
0.0
 11
303.9363966094911
 21
77.16027451307656
 31
0.0
  0
INSERT
  5
57B
  8
回07-寸法
  6
CONTINUOUS
 62
     5
  2
_OPEN
 10
327.4363966094913
 20
77.16027451307656
 30
0.0
 41
3.0
 42
3.0
 43
3.0
 50
180.0
  0
INSERT
  5
57C
  8
回07-寸法
  6
CONTINUOUS
 62
     5
  2
_OPEN
 10
309.9363966094911
 20
77.16027451307656
 30
0.0
 41
3.0
 42
3.0
 43
3.0
  0
INSERT
  5
57D
  8
回07-寸法
  6
CONTINUOUS
 62
     5
 66
     1
  2
*X101101
 10
0.0
 20
0.0
 30
0.0
  0
SEQEND
  5
8D4
  8
0
  6
CONTINUOUS
 62
     7
  0
POINT
  5
57E
  8
DEFPOINTS
  6
CONTINUOUS
 62
     0
 10
327.4363966094913
 20
92.65622614226558
 30
0.0
  0
POINT
  5
57F
  8
DEFPOINTS
  6
CONTINUOUS
 62
     0
 10
309.9363966094911
 20
92.65622614226558
 30
0.0
  0
POINT
  5
580
  8
DEFPOINTS
  6
CONTINUOUS
 62
     0
 10
309.9363966094911
 20
77.16027451307656
 30
0.0
  0
ENDBLK
  5
582
  8
0
  6
CONTINUOUS
 62
     7
  0
BLOCK
  8
0
  2
*D4949
 70
     1
 10
0.0
 20
0.0
 30
0.0
  3
*D4949
  1

  0
LINE
  5
584
  8
回07-寸法
  6
CONTINUOUS
 62
     5
 10
352.4363966094913
 20
92.65622614226471
 30
0.0
 11
352.4363966094913
 21
66.16555428493853
 31
0.0
  0
LINE
  5
585
  8
回07-寸法
  6
CONTINUOUS
 62
     5
 10
338.9363966094913
 20
92.65622614226558
 30
0.0
 11
338.9363966094913
 21
66.16555428493853
 31
0.0
  0
LINE
  5
586
  8
回07-寸法
  6
CONTINUOUS
 62
     5
 10
355.4363966094913
 20
67.16555428493854
 30
0.0
 11
376.8613966094914
 21
67.16555428493854
 31
0.0
  0
LINE
  5
587
  8
回07-寸法
  6
CONTINUOUS
 62
     5
 10
352.4363966094913
 20
67.16555428493854
 30
0.0
 11
338.9363966094913
 21
67.16555428493854
 31
0.0
  0
LINE
  5
588
  8
回07-寸法
  6
CONTINUOUS
 62
     5
 10
335.9363966094913
 20
67.16555428493854
 30
0.0
 11
332.9363966094913
 21
67.16555428493854
 31
0.0
  0
INSERT
  5
589
  8
回07-寸法
  6
CONTINUOUS
 62
     5
  2
_OPEN
 10
352.4363966094913
 20
67.16555428493854
 30
0.0
 41
3.0
 42
3.0
 43
3.0
 50
180.0
  0
INSERT
  5
58A
  8
回07-寸法
  6
CONTINUOUS
 62
     5
  2
_OPEN
 10
338.9363966094913
 20
67.16555428493854
 30
0.0
 41
3.0
 42
3.0
 43
3.0
  0
INSERT
  5
58B
  8
回07-寸法
  6
CONTINUOUS
 62
     5
 66
     1
  2
*X102102
 10
0.0
 20
0.0
 30
0.0
  0
SEQEND
  5
8DA
  8
0
  6
CONTINUOUS
 62
     7
  0
POINT
  5
58C
  8
DEFPOINTS
  6
CONTINUOUS
 62
     0
 10
352.4363966094913
 20
92.65622614226471
 30
0.0
  0
POINT
  5
58D
  8
DEFPOINTS
  6
CONTINUOUS
 62
     0
 10
338.9363966094913
 20
92.65622614226558
 30
0.0
  0
POINT
  5
58E
  8
DEFPOINTS
  6
CONTINUOUS
 62
     0
 10
338.9363966094913
 20
67.16555428493854
 30
0.0
  0
ENDBLK
  5
590
  8
0
  6
CONTINUOUS
 62
     7
  0
BLOCK
  8
0
  2
*D5050
 70
     1
 10
0.0
 20
0.0
 30
0.0
  3
*D5050
  1

  0
LINE
  5
592
  8
回07-寸法
  6
CONTINUOUS
 62
     5
 10
296.1875219249398
 20
192.1562261422654
 30
0.0
 11
266.4268574059986
 21
192.1562261422654
 31
0.0
  0
LINE
  5
594
  8
回07-寸法
  6
CONTINUOUS
 62
     5
 10
310.4363966094914
 20
92.16027451307638
 30
0.0
 11
266.4268574059986
 21
92.16027451307638
 31
0.0
  0
LINE
  5
595
  8
回07-寸法
  6
CONTINUOUS
 62
     5
 10
267.4268574059986
 20
189.1562261422654
 30
0.0
 11
267.4268574059986
 21
95.16027451307641
 31
0.0
  0
INSERT
  5
596
  8
回07-寸法
  6
CONTINUOUS
 62
     5
  2
_OPEN
 10
267.4268574059986
 20
192.1562261422654
 30
0.0
 41
3.0
 42
3.0
 43
3.0
 50
90.0
  0
INSERT
  5
597
  8
回07-寸法
  6
CONTINUOUS
 62
     5
  2
_OPEN
 10
267.4268574059986
 20
92.16027451307638
 30
0.0
 41
3.0
 42
3.0
 43
3.0
 50
270.0
  0
INSERT
  5
598
  8
回07-寸法
  6
CONTINUOUS
 62
     5
 66
     1
  2
*X103103
 10
0.0
 20
0.0
 30
0.0
  0
SEQEND
  5
8E0
  8
0
  6
CONTINUOUS
 62
     7
  0
POINT
  5
599
  8
DEFPOINTS
  6
CONTINUOUS
 62
     0
 10
296.1875219249398
 20
192.1562261422654
 30
0.0
  0
POINT
  5
59A
  8
DEFPOINTS
  6
CONTINUOUS
 62
     0
 10
310.4363966094914
 20
92.16027451307638
 30
0.0
  0
POINT
  5
59B
  8
DEFPOINTS
  6
CONTINUOUS
 62
     0
 10
267.4268574059986
 20
92.16027451307638
 30
0.0
  0
ENDBLK
  5
59D
  8
0
  6
CONTINUOUS
 62
     7
  0
BLOCK
  8
0
  2
*D5151
 70
     1
 10
0.0
 20
0.0
 30
0.0
  3
*D5151
  1

  0
LINE
  5
59F
  8
回07-寸法
  6
CONTINUOUS
 62
     5
 10
124.8863966094916
 20
202.3562261422654
 30
0.0
 11
70.65639661949126
 21
202.3562261422654
 31
0.0
  0
LINE
  5
5A1
  8
回07-寸法
  6
CONTINUOUS
 62
     5
 10
119.3863966094916
 20
192.1562261422654
 30
0.0
 11
70.65639661949126
 21
192.1562261422654
 31
0.0
  0
LINE
  5
5A2
  8
回07-寸法
  6
CONTINUOUS
 62
     5
 10
71.65639661949126
 20
189.1562261422654
 30
0.0
 11
71.65639661949126
 21
142.39757979384
 31
0.0
  0
LINE
  5
5A3
  8
回07-寸法
  6
CONTINUOUS
 62
     5
 10
71.65639661949126
 20
202.3562261422654
 30
0.0
 11
71.65639661949126
 21
192.1562261422654
 31
0.0
  0
LINE
  5
5A4
  8
回07-寸法
  6
CONTINUOUS
 62
     5
 10
71.65639661949126
 20
205.3562261422654
 30
0.0
 11
71.65639661949126
 21
208.3562261422654
 31
0.0
  0
INSERT
  5
5A5
  8
回07-寸法
  6
CONTINUOUS
 62
     5
  2
_OPEN
 10
71.65639661949126
 20
202.3562261422654
 30
0.0
 41
3.0
 42
3.0
 43
3.0
 50
270.0
  0
INSERT
  5
5A6
  8
回07-寸法
  6
CONTINUOUS
 62
     5
  2
_OPEN
 10
71.65639661949126
 20
192.1562261422654
 30
0.0
 41
3.0
 42
3.0
 43
3.0
 50
90.0
  0
INSERT
  5
5A7
  8
回07-寸法
  6
CONTINUOUS
 62
     5
 66
     1
  2
*X104104
 10
0.0
 20
0.0
 30
0.0
  0
SEQEND
  5
8E6
  8
0
  6
CONTINUOUS
 62
     7
  0
POINT
  5
5A8
  8
DEFPOINTS
  6
CONTINUOUS
 62
     0
 10
124.8863966094916
 20
202.3562261422654
 30
0.0
  0
POINT
  5
5A9
  8
DEFPOINTS
  6
CONTINUOUS
 62
     0
 10
119.3863966094916
 20
192.1562261422654
 30
0.0
  0
POINT
  5
5AA
  8
DEFPOINTS
  6
CONTINUOUS
 62
     0
 10
71.65639661949126
 20
192.1562261422654
 30
0.0
  0
ENDBLK
  5
5AC
  8
0
  6
CONTINUOUS
 62
     7
  0
BLOCK
  8
0
  2
*D5252
 70
     1
 10
0.0
 20
0.0
 30
0.0
  3
*D5252
  1

  0
LINE
  5
5AE
  8
回07-寸法
  6
CONTINUOUS
 62
     5
 10
127.3864046194919
 20
204.8562261422656
 30
0.0
 11
94.65639661949149
 21
204.8562261422656
 31
0.0
  0
LINE
  5
5AF
  8
回07-寸法
  6
CONTINUOUS
 62
     5
 10
119.3863966094916
 20
192.1562261422654
 30
0.0
 11
94.65639661949149
 21
192.1562261422654
 31
0.0
  0
LINE
  5
5B0
  8
回07-寸法
  6
CONTINUOUS
 62
     5
 10
95.65639661949148
 20
189.1562261422654
 30
0.0
 11
95.65639661949148
 21
175.6562261422652
 31
0.0
  0
LINE
  5
5B1
  8
回07-寸法
  6
CONTINUOUS
 62
     5
 10
95.65639661949148
 20
204.8562261422656
 30
0.0
 11
95.65639661949148
 21
192.1562261422654
 31
0.0
  0
LINE
  5
5B2
  8
回07-寸法
  6
CONTINUOUS
 62
     5
 10
95.65639661949148
 20
207.8562261422657
 30
0.0
 11
95.65639661949148
 21
210.8562261422656
 31
0.0
  0
INSERT
  5
5B3
  8
回07-寸法
  6
CONTINUOUS
 62
     5
  2
_OPEN
 10
95.65639661949148
 20
204.8562261422656
 30
0.0
 41
3.0
 42
3.0
 43
3.0
 50
270.0
  0
INSERT
  5
5B4
  8
回07-寸法
  6
CONTINUOUS
 62
     5
  2
_OPEN
 10
95.65639661949148
 20
192.1562261422654
 30
0.0
 41
3.0
 42
3.0
 43
3.0
 50
90.0
  0
TEXT
  5
5B5
  8
回07-寸法
  6
CONTINUOUS
 62
     5
 10
95.15639661949149
 20
175.4062261422652
 30
0.0
 40
5.0
  1
12.7
 50
90.0
  0
POINT
  5
5B6
  8
DEFPOINTS
  6
CONTINUOUS
 62
     0
 10
127.3864046194919
 20
204.8562261422656
 30
0.0
  0
POINT
  5
5B7
  8
DEFPOINTS
  6
CONTINUOUS
 62
     0
 10
119.3863966094916
 20
192.1562261422654
 30
0.0
  0
POINT
  5
5B8
  8
DEFPOINTS
  6
CONTINUOUS
 62
     0
 10
95.65639661949148
 20
192.1562261422654
 30
0.0
  0
ENDBLK
  5
5BA
  8
0
  6
CONTINUOUS
 62
     7
  0
BLOCK
  8
0
  2
*D5353
 70
     1
 10
0.0
 20
0.0
 30
0.0
  3
*D5353
  1

  0
LINE
  5
5BC
  8
回07-寸法
  6
CONTINUOUS
 62
     5
 10
125.3863966194915
 20
202.8562261422654
 30
0.0
 11
82.65639661949149
 21
202.8562261422654
 31
0.0
  0
LINE
  5
5BD
  8
回07-寸法
  6
CONTINUOUS
 62
     5
 10
119.3863966094916
 20
192.1562261422654
 30
0.0
 11
82.65639661949149
 21
192.1562261422654
 31
0.0
  0
LINE
  5
5BE
  8
回07-寸法
  6
CONTINUOUS
 62
     5
 10
83.65639661949149
 20
189.1562261422654
 30
0.0
 11
83.65639661949149
 21
175.6562261422652
 31
0.0
  0
LINE
  5
5BF
  8
回07-寸法
  6
CONTINUOUS
 62
     5
 10
83.65639661949149
 20
202.8562261422654
 30
0.0
 11
83.65639661949149
 21
192.1562261422654
 31
0.0
  0
LINE
  5
5C0
  8
回07-寸法
  6
CONTINUOUS
 62
     5
 10
83.65639661949149
 20
205.8562261422654
 30
0.0
 11
83.65639661949149
 21
208.8562261422654
 31
0.0
  0
INSERT
  5
5C1
  8
回07-寸法
  6
CONTINUOUS
 62
     5
  2
_OPEN
 10
83.65639661949149
 20
202.8562261422654
 30
0.0
 41
3.0
 42
3.0
 43
3.0
 50
270.0
  0
INSERT
  5
5C2
  8
回07-寸法
  6
CONTINUOUS
 62
     5
  2
_OPEN
 10
83.65639661949149
 20
192.1562261422654
 30
0.0
 41
3.0
 42
3.0
 43
3.0
 50
90.0
  0
TEXT
  5
5C3
  8
回07-寸法
  6
CONTINUOUS
 62
     5
 10
83.15639661949148
 20
175.4062261422652
 30
0.0
 40
5.0
  1
10.7
 50
90.0
  0
POINT
  5
5C4
  8
DEFPOINTS
  6
CONTINUOUS
 62
     0
 10
125.3863966194915
 20
202.8562261422654
 30
0.0
  0
POINT
  5
5C5
  8
DEFPOINTS
  6
CONTINUOUS
 62
     0
 10
119.3863966094916
 20
192.1562261422654
 30
0.0
  0
POINT
  5
5C6
  8
DEFPOINTS
  6
CONTINUOUS
 62
     0
 10
83.65639661949149
 20
192.1562261422654
 30
0.0
  0
ENDBLK
  5
5C8
  8
0
  6
CONTINUOUS
 62
     7
  0
BLOCK
  8
0
  2
*D5454
 70
     1
 10
0.0
 20
0.0
 30
0.0
  3
*D5454
  1

  0
LINE
  5
5CA
  8
回07-寸法
  6
CONTINUOUS
 62
     5
 10
541.4863966094911
 20
439.5562261422656
 30
0.0
 11
541.4863966094911
 21
492.1412261422656
 31
0.0
  0
LINE
  5
5CB
  8
回07-寸法
  6
CONTINUOUS
 62
     5
 10
546.9863966094915
 20
446.0562261422658
 30
0.0
 11
546.9863966094915
 21
492.1412261422656
 31
0.0
  0
LINE
  5
5CC
  8
回07-寸法
  6
CONTINUOUS
 62
     5
 10
549.9863966094915
 20
491.1412261422654
 30
0.0
 11
598.2430744539797
 21
491.1412261422654
 31
0.0
  0
LINE
  5
5CD
  8
回07-寸法
  6
CONTINUOUS
 62
     5
 10
541.4863966094911
 20
491.1412261422654
 30
0.0
 11
546.9863966094915
 21
491.1412261422654
 31
0.0
  0
LINE
  5
5CE
  8
回07-寸法
  6
CONTINUOUS
 62
     5
 10
538.486396609491
 20
491.1412261422654
 30
0.0
 11
535.4863966094909
 21
491.1412261422654
 31
0.0
  0
INSERT
  5
5CF
  8
回07-寸法
  6
CONTINUOUS
 62
     5
  2
_OPEN
 10
541.4863966094911
 20
491.1412261422654
 30
0.0
 41
3.0
 42
3.0
 43
3.0
  0
INSERT
  5
5D0
  8
回07-寸法
  6
CONTINUOUS
 62
     5
  2
_OPEN
 10
546.9863966094915
 20
491.1412261422654
 30
0.0
 41
3.0
 42
3.0
 43
3.0
 50
180.0
  0
INSERT
  5
5D1
  8
回07-寸法
  6
CONTINUOUS
 62
     5
 66
     1
  2
*X105105
 10
0.0
 20
0.0
 30
0.0
  0
SEQEND
  5
8EC
  8
0
  6
CONTINUOUS
 62
     7
  0
POINT
  5
5D2
  8
DEFPOINTS
  6
CONTINUOUS
 62
     0
 10
541.4863966094911
 20
439.5562261422656
 30
0.0
  0
POINT
  5
5D3
  8
DEFPOINTS
  6
CONTINUOUS
 62
     0
 10
546.9863966094915
 20
446.0562261422658
 30
0.0
  0
POINT
  5
5D4
  8
DEFPOINTS
  6
CONTINUOUS
 62
     0
 10
546.9863966094915
 20
491.1412261422654
 30
0.0
  0
ENDBLK
  5
5D6
  8
0
  6
CONTINUOUS
 62
     7
  0
BLOCK
  8
0
  2
*D5555
 70
     1
 10
0.0
 20
0.0
 30
0.0
  3
*D5555
  1

  0
LINE
  5
5D8
  8
回07-寸法
  6
CONTINUOUS
 62
     5
 10
538.9863966094915
 20
437.0562261422657
 30
0.0
 11
538.9863966094915
 21
468.1412261422654
 31
0.0
  0
LINE
  5
5D9
  8
回07-寸法
  6
CONTINUOUS
 62
     5
 10
546.9863966094915
 20
446.0562261422658
 30
0.0
 11
546.9863966094915
 21
468.1412261422654
 31
0.0
  0
LINE
  5
5DA
  8
回07-寸法
  6
CONTINUOUS
 62
     5
 10
549.9863966094915
 20
467.1412261422656
 30
0.0
 11
559.9824596016174
 21
467.1412261422656
 31
0.0
  0
LINE
  5
5DB
  8
回07-寸法
  6
CONTINUOUS
 62
     5
 10
538.9863966094915
 20
467.1412261422656
 30
0.0
 11
546.9863966094915
 21
467.1412261422656
 31
0.0
  0
LINE
  5
5DC
  8
回07-寸法
  6
CONTINUOUS
 62
     5
 10
535.9863966094913
 20
467.1412261422656
 30
0.0
 11
532.9863966094915
 21
467.1412261422656
 31
0.0
  0
INSERT
  5
5DD
  8
回07-寸法
  6
CONTINUOUS
 62
     5
  2
_OPEN
 10
538.9863966094915
 20
467.1412261422656
 30
0.0
 41
3.0
 42
3.0
 43
3.0
  0
INSERT
  5
5DE
  8
回07-寸法
  6
CONTINUOUS
 62
     5
  2
_OPEN
 10
546.9863966094915
 20
467.1412261422656
 30
0.0
 41
3.0
 42
3.0
 43
3.0
 50
180.0
  0
TEXT
  5
5DF
  8
回07-寸法
  6
CONTINUOUS
 62
     5
 10
552.7344281055547
 20
467.8912261422654
 30
0.0
 40
5.0
  1
(8)
  0
POINT
  5
5E0
  8
DEFPOINTS
  6
CONTINUOUS
 62
     0
 10
538.9863966094915
 20
437.0562261422657
 30
0.0
  0
POINT
  5
5E1
  8
DEFPOINTS
  6
CONTINUOUS
 62
     0
 10
546.9863966094915
 20
446.0562261422658
 30
0.0
  0
POINT
  5
5E2
  8
DEFPOINTS
  6
CONTINUOUS
 62
     0
 10
546.9863966094915
 20
467.1412261422656
 30
0.0
  0
ENDBLK
  5
5E4
  8
0
  6
CONTINUOUS
 62
     7
  0
BLOCK
  8
0
  2
*D5656
 70
     1
 10
0.0
 20
0.0
 30
0.0
  3
*D5656
  1

  0
LINE
  5
5E6
  8
回07-寸法
  6
CONTINUOUS
 62
     5
 10
540.9863966094915
 20
439.0562261422656
 30
0.0
 11
540.9863966094915
 21
480.1412261422654
 31
0.0
  0
LINE
  5
5E7
  8
回07-寸法
  6
CONTINUOUS
 62
     5
 10
546.9863966094915
 20
446.0562261422658
 30
0.0
 11
546.9863966094915
 21
480.1412261422654
 31
0.0
  0
LINE
  5
5E8
  8
回07-寸法
  6
CONTINUOUS
 62
     5
 10
549.9863966094915
 20
479.1412261422656
 30
0.0
 11
559.9824596016174
 21
479.1412261422656
 31
0.0
  0
LINE
  5
5E9
  8
回07-寸法
  6
CONTINUOUS
 62
     5
 10
540.9863966094915
 20
479.1412261422656
 30
0.0
 11
546.9863966094915
 21
479.1412261422656
 31
0.0
  0
LINE
  5
5EA
  8
回07-寸法
  6
CONTINUOUS
 62
     5
 10
537.9863966094915
 20
479.1412261422656
 30
0.0
 11
534.9863966094915
 21
479.1412261422656
 31
0.0
  0
INSERT
  5
5EB
  8
回07-寸法
  6
CONTINUOUS
 62
     5
  2
_OPEN
 10
540.9863966094915
 20
479.1412261422656
 30
0.0
 41
3.0
 42
3.0
 43
3.0
  0
INSERT
  5
5EC
  8
回07-寸法
  6
CONTINUOUS
 62
     5
  2
_OPEN
 10
546.9863966094915
 20
479.1412261422656
 30
0.0
 41
3.0
 42
3.0
 43
3.0
 50
180.0
  0
TEXT
  5
5ED
  8
回07-寸法
  6
CONTINUOUS
 62
     5
 10
552.7344281055543
 20
479.8912261422654
 30
0.0
 40
5.0
  1
(6)
  0
POINT
  5
5EE
  8
DEFPOINTS
  6
CONTINUOUS
 62
     0
 10
540.9863966094915
 20
439.0562261422656
 30
0.0
  0
POINT
  5
5EF
  8
DEFPOINTS
  6
CONTINUOUS
 62
     0
 10
546.9863966094915
 20
446.0562261422658
 30
0.0
  0
POINT
  5
5F0
  8
DEFPOINTS
  6
CONTINUOUS
 62
     0
 10
546.9863966094915
 20
479.1412261422656
 30
0.0
  0
ENDBLK
  5
5F2
  8
0
  6
CONTINUOUS
 62
     7
  0
BLOCK
  8
0
  2
*D5757
 70
     1
 10
0.0
 20
0.0
 30
0.0
  3
*D5757
  1

  0
LINE
  5
5F4
  8
回07-寸法
  6
CONTINUOUS
 62
     5
 10
541.4863966094911
 20
439.5562261422656
 30
0.0
 11
541.4863966094911
 21
492.1412261422654
 31
0.0
  0
LINE
  5
5F5
  8
回07-寸法
  6
CONTINUOUS
 62
     5
 10
124.8863966094916
 20
439.5562261422656
 30
0.0
 11
124.8863966094916
 21
492.1412261422656
 31
0.0
  0
LINE
  5
5F6
  8
回07-寸法
  6
CONTINUOUS
 62
     5
 10
538.486396609491
 20
491.1412261422654
 30
0.0
 11
127.8863966094916
 21
491.1412261422654
 31
0.0
  0
INSERT
  5
5F7
  8
回07-寸法
  6
CONTINUOUS
 62
     5
  2
_OPEN
 10
541.4863966094911
 20
491.1412261422654
 30
0.0
 41
3.0
 42
3.0
 43
3.0
 50
360.0
  0
INSERT
  5
5F8
  8
回07-寸法
  6
CONTINUOUS
 62
     5
  2
_OPEN
 10
124.8863966094916
 20
491.1412261422654
 30
0.0
 41
3.0
 42
3.0
 43
3.0
 50
180.0
  0
TEXT
  5
5F9
  8
回07-寸法
  6
CONTINUOUS
 62
     5
 10
325.6843090384066
 20
491.6412261422654
 30
0.0
 40
5.0
  1
416.6
  0
POINT
  5
5FA
  8
DEFPOINTS
  6
CONTINUOUS
 62
     0
 10
541.4863966094911
 20
439.5562261422656
 30
0.0
  0
POINT
  5
5FB
  8
DEFPOINTS
  6
CONTINUOUS
 62
     0
 10
124.8863966094916
 20
439.5562261422656
 30
0.0
  0
POINT
  5
5FC
  8
DEFPOINTS
  6
CONTINUOUS
 62
     0
 10
124.8863966094916
 20
491.1412261422654
 30
0.0
  0
ENDBLK
  5
5FE
  8
0
  6
CONTINUOUS
 62
     7
  0
BLOCK
  8
0
  2
*D5858
 70
     1
 10
0.0
 20
0.0
 30
0.0
  3
*D5858
  1

  0
LINE
  5
600
  8
回07-寸法
  6
CONTINUOUS
 62
     5
 10
124.8863966094916
 20
439.5562261422656
 30
0.0
 11
124.8863966094916
 21
492.1412261422656
 31
0.0
  0
LINE
  5
601
  8
回07-寸法
  6
CONTINUOUS
 62
     5
 10
119.3863966094916
 20
446.0562261422658
 30
0.0
 11
119.3863966094916
 21
492.1412261422656
 31
0.0
  0
LINE
  5
602
  8
回07-寸法
  6
CONTINUOUS
 62
     5
 10
116.3863966094916
 20
491.1412261422654
 30
0.0
 11
72.12775026106641
 21
491.1412261422654
 31
0.0
  0
LINE
  5
603
  8
回07-寸法
  6
CONTINUOUS
 62
     5
 10
124.8863966094916
 20
491.1412261422654
 30
0.0
 11
119.3863966094916
 21
491.1412261422654
 31
0.0
  0
LINE
  5
604
  8
回07-寸法
  6
CONTINUOUS
 62
     5
 10
127.8863966094916
 20
491.1412261422654
 30
0.0
 11
130.8863966094916
 21
491.1412261422654
 31
0.0
  0
INSERT
  5
605
  8
回07-寸法
  6
CONTINUOUS
 62
     5
  2
_OPEN
 10
124.8863966094916
 20
491.1412261422654
 30
0.0
 41
3.0
 42
3.0
 43
3.0
 50
180.0
  0
INSERT
  5
606
  8
回07-寸法
  6
CONTINUOUS
 62
     5
  2
_OPEN
 10
119.3863966094916
 20
491.1412261422654
 30
0.0
 41
3.0
 42
3.0
 43
3.0
  0
INSERT
  5
607
  8
回07-寸法
  6
CONTINUOUS
 62
     5
 66
     1
  2
*X106106
 10
0.0
 20
0.0
 30
0.0
  0
SEQEND
  5
8F2
  8
0
  6
CONTINUOUS
 62
     7
  0
POINT
  5
608
  8
DEFPOINTS
  6
CONTINUOUS
 62
     0
 10
124.8863966094916
 20
439.5562261422656
 30
0.0
  0
POINT
  5
609
  8
DEFPOINTS
  6
CONTINUOUS
 62
     0
 10
119.3863966094916
 20
446.0562261422658
 30
0.0
  0
POINT
  5
60A
  8
DEFPOINTS
  6
CONTINUOUS
 62
     0
 10
119.3863966094916
 20
491.1412261422654
 30
0.0
  0
ENDBLK
  5
60C
  8
0
  6
CONTINUOUS
 62
     7
  0
BLOCK
  8
0
  2
*D5959
 70
     1
 10
0.0
 20
0.0
 30
0.0
  3
*D5959
  1

  0
LINE
  5
60E
  8
回07-寸法
  6
CONTINUOUS
 62
     5
 10
124.8863966094916
 20
439.5562261422656
 30
0.0
 11
70.65639661949197
 21
439.5562261422656
 31
0.0
  0
LINE
  5
60F
  8
回07-寸法
  6
CONTINUOUS
 62
     5
 10
119.3863966094916
 20
446.0562261422648
 30
0.0
 11
70.65639661949197
 21
446.0562261422648
 31
0.0
  0
LINE
  5
610
  8
回07-寸法
  6
CONTINUOUS
 62
     5
 10
71.65639661949197
 20
449.0562261422647
 30
0.0
 11
71.65639661949197
 21
497.3129039867529
 31
0.0
  0
LINE
  5
611
  8
回07-寸法
  6
CONTINUOUS
 62
     5
 10
71.65639661949197
 20
439.5562261422656
 30
0.0
 11
71.65639661949197
 21
446.0562261422648
 31
0.0
  0
LINE
  5
612
  8
回07-寸法
  6
CONTINUOUS
 62
     5
 10
71.65639661949197
 20
436.5562261422657
 30
0.0
 11
71.65639661949197
 21
433.5562261422658
 31
0.0
  0
INSERT
  5
613
  8
回07-寸法
  6
CONTINUOUS
 62
     5
  2
_OPEN
 10
71.65639661949197
 20
439.5562261422656
 30
0.0
 41
3.0
 42
3.0
 43
3.0
 50
90.0
  0
INSERT
  5
614
  8
回07-寸法
  6
CONTINUOUS
 62
     5
  2
_OPEN
 10
71.65639661949197
 20
446.0562261422648
 30
0.0
 41
3.0
 42
3.0
 43
3.0
 50
270.0
  0
INSERT
  5
615
  8
回07-寸法
  6
CONTINUOUS
 62
     5
 66
     1
  2
*X107107
 10
0.0
 20
0.0
 30
0.0
  0
SEQEND
  5
8F8
  8
0
  6
CONTINUOUS
 62
     7
  0
POINT
  5
616
  8
DEFPOINTS
  6
CONTINUOUS
 62
     0
 10
124.8863966094916
 20
439.5562261422656
 30
0.0
  0
POINT
  5
617
  8
DEFPOINTS
  6
CONTINUOUS
 62
     0
 10
119.3863966094916
 20
446.0562261422648
 30
0.0
  0
POINT
  5
618
  8
DEFPOINTS
  6
CONTINUOUS
 62
     0
 10
71.65639661949197
 20
446.0562261422648
 30
0.0
  0
ENDBLK
  5
61A
  8
0
  6
CONTINUOUS
 62
     7
  0
BLOCK
  8
0
  2
*D6060
 70
     1
 10
0.0
 20
0.0
 30
0.0
  3
*D6060
  1

  0
LINE
  5
61C
  8
回07-寸法
  6
CONTINUOUS
 62
     5
 10
124.8863966094916
 20
202.3562261422654
 30
0.0
 11
70.65639661949195
 21
202.3562261422654
 31
0.0
  0
LINE
  5
61D
  8
回07-寸法
  6
CONTINUOUS
 62
     5
 10
124.8863966094916
 20
439.5562261422656
 30
0.0
 11
70.65639661949197
 21
439.5562261422656
 31
0.0
  0
LINE
  5
61E
  8
回07-寸法
  6
CONTINUOUS
 62
     5
 10
71.65639661949191
 20
205.3562261422654
 30
0.0
 11
71.65639661949197
 21
436.5562261422657
 31
0.0
  0
INSERT
  5
61F
  8
回07-寸法
  6
CONTINUOUS
 62
     5
  2
_OPEN
 10
71.65639661949191
 20
202.3562261422654
 30
0.0
 41
3.0
 42
3.0
 43
3.0
 50
270.0
  0
INSERT
  5
620
  8
回07-寸法
  6
CONTINUOUS
 62
     5
  2
_OPEN
 10
71.65639661949197
 20
439.5562261422656
 30
0.0
 41
3.0
 42
3.0
 43
3.0
 50
89.99999999999998
  0
TEXT
  5
621
  8
回07-寸法
  6
CONTINUOUS
 62
     5
 10
71.15639661949194
 20
313.2056733333651
 30
0.0
 40
5.0
  1
237.2
 50
89.99999999999998
  0
POINT
  5
622
  8
DEFPOINTS
  6
CONTINUOUS
 62
     0
 10
124.8863966094916
 20
202.3562261422654
 30
0.0
  0
POINT
  5
623
  8
DEFPOINTS
  6
CONTINUOUS
 62
     0
 10
124.8863966094916
 20
439.5562261422656
 30
0.0
  0
POINT
  5
624
  8
DEFPOINTS
  6
CONTINUOUS
 62
     0
 10
71.65639661949197
 20
439.5562261422656
 30
0.0
  0
ENDBLK
  5
626
  8
0
  6
CONTINUOUS
 62
     7
  0
BLOCK
  8
0
  2
*D6161
 70
     1
 10
0.0
 20
0.0
 30
0.0
  3
*D6161
  1

  0
LINE
  5
628
  8
回07-寸法
  6
CONTINUOUS
 62
     5
 10
125.3863966194919
 20
439.0562261422655
 30
0.0
 11
125.3863966194919
 21
480.1412261422654
 31
0.0
  0
LINE
  5
629
  8
回07-寸法
  6
CONTINUOUS
 62
     5
 10
119.3863966094916
 20
446.0562261422648
 30
0.0
 11
119.3863966094916
 21
480.1412261422654
 31
0.0
  0
LINE
  5
62A
  8
回07-寸法
  6
CONTINUOUS
 62
     5
 10
116.3863966094916
 20
479.1412261422656
 30
0.0
 11
110.1106869911627
 21
479.1412261422656
 31
0.0
  0
LINE
  5
62B
  8
回07-寸法
  6
CONTINUOUS
 62
     5
 10
125.3863966194919
 20
479.1412261422656
 30
0.0
 11
119.3863966094916
 21
479.1412261422656
 31
0.0
  0
LINE
  5
62C
  8
回07-寸法
  6
CONTINUOUS
 62
     5
 10
128.3863966194919
 20
479.1412261422656
 30
0.0
 11
131.3863966194919
 21
479.1412261422656
 31
0.0
  0
INSERT
  5
62D
  8
回07-寸法
  6
CONTINUOUS
 62
     5
  2
_OPEN
 10
125.3863966194919
 20
479.1412261422656
 30
0.0
 41
3.0
 42
3.0
 43
3.0
 50
180.0
  0
INSERT
  5
62E
  8
回07-寸法
  6
CONTINUOUS
 62
     5
  2
_OPEN
 10
119.3863966094916
 20
479.1412261422656
 30
0.0
 41
3.0
 42
3.0
 43
3.0
  0
TEXT
  5
62F
  8
回07-寸法
  6
CONTINUOUS
 62
     5
 10
109.8606869911628
 20
479.6412261422656
 30
0.0
 40
5.0
  1
6
  0
POINT
  5
630
  8
DEFPOINTS
  6
CONTINUOUS
 62
     0
 10
125.3863966194919
 20
439.0562261422655
 30
0.0
  0
POINT
  5
631
  8
DEFPOINTS
  6
CONTINUOUS
 62
     0
 10
119.3863966094916
 20
446.0562261422648
 30
0.0
  0
POINT
  5
632
  8
DEFPOINTS
  6
CONTINUOUS
 62
     0
 10
119.3863966094916
 20
479.1412261422656
 30
0.0
  0
ENDBLK
  5
634
  8
0
  6
CONTINUOUS
 62
     7
  0
BLOCK
  8
0
  2
*D6262
 70
     1
 10
0.0
 20
0.0
 30
0.0
  3
*D6262
  1

  0
LINE
  5
636
  8
回07-寸法
  6
CONTINUOUS
 62
     5
 10
127.3863966194919
 20
437.0562261422654
 30
0.0
 11
127.3863966194919
 21
468.1412261422654
 31
0.0
  0
LINE
  5
637
  8
回07-寸法
  6
CONTINUOUS
 62
     5
 10
119.3863966094916
 20
446.0562261422648
 30
0.0
 11
119.3863966094916
 21
468.1412261422654
 31
0.0
  0
LINE
  5
638
  8
回07-寸法
  6
CONTINUOUS
 62
     5
 10
116.3863966094916
 20
467.1412261422656
 30
0.0
 11
110.3863966094916
 21
467.1412261422656
 31
0.0
  0
LINE
  5
639
  8
回07-寸法
  6
CONTINUOUS
 62
     5
 10
127.3863966194919
 20
467.1412261422656
 30
0.0
 11
119.3863966094916
 21
467.1412261422656
 31
0.0
  0
LINE
  5
63A
  8
回07-寸法
  6
CONTINUOUS
 62
     5
 10
130.3863966194919
 20
467.1412261422656
 30
0.0
 11
133.3863966194919
 21
467.1412261422656
 31
0.0
  0
INSERT
  5
63B
  8
回07-寸法
  6
CONTINUOUS
 62
     5
  2
_OPEN
 10
127.3863966194919
 20
467.1412261422656
 30
0.0
 41
3.0
 42
3.0
 43
3.0
 50
180.0
  0
INSERT
  5
63C
  8
回07-寸法
  6
CONTINUOUS
 62
     5
  2
_OPEN
 10
119.3863966094916
 20
467.1412261422656
 30
0.0
 41
3.0
 42
3.0
 43
3.0
  0
TEXT
  5
63D
  8
回07-寸法
  6
CONTINUOUS
 62
     5
 10
110.1363966094916
 20
467.6412261422654
 30
0.0
 40
5.0
  1
8
  0
POINT
  5
63E
  8
DEFPOINTS
  6
CONTINUOUS
 62
     0
 10
127.3863966194919
 20
437.0562261422654
 30
0.0
  0
POINT
  5
63F
  8
DEFPOINTS
  6
CONTINUOUS
 62
     0
 10
119.3863966094916
 20
446.0562261422648
 30
0.0
  0
POINT
  5
640
  8
DEFPOINTS
  6
CONTINUOUS
 62
     0
 10
119.3863966094916
 20
467.1412261422656
 30
0.0
  0
ENDBLK
  5
642
  8
0
  6
CONTINUOUS
 62
     7
  0
BLOCK
  8
0
  2
*D6363
 70
     1
 10
0.0
 20
0.0
 30
0.0
  3
*D6363
  1

  0
LINE
  5
644
  8
回07-寸法
  6
CONTINUOUS
 62
     5
 10
125.3863966194919
 20
439.0562261422655
 30
0.0
 11
82.65639661949171
 21
439.0562261422655
 31
0.0
  0
LINE
  5
645
  8
回07-寸法
  6
CONTINUOUS
 62
     5
 10
119.3863966094916
 20
446.0562261422658
 30
0.0
 11
82.65639661949171
 21
446.0562261422658
 31
0.0
  0
LINE
  5
646
  8
回07-寸法
  6
CONTINUOUS
 62
     5
 10
83.65639661949172
 20
449.0562261422657
 30
0.0
 11
83.65639661949172
 21
459.3672891343916
 31
0.0
  0
LINE
  5
647
  8
回07-寸法
  6
CONTINUOUS
 62
     5
 10
83.65639661949172
 20
439.0562261422655
 30
0.0
 11
83.65639661949172
 21
446.0562261422658
 31
0.0
  0
LINE
  5
648
  8
回07-寸法
  6
CONTINUOUS
 62
     5
 10
83.65639661949172
 20
436.0562261422654
 30
0.0
 11
83.65639661949172
 21
433.0562261422654
 31
0.0
  0
INSERT
  5
649
  8
回07-寸法
  6
CONTINUOUS
 62
     5
  2
_OPEN
 10
83.65639661949172
 20
439.0562261422655
 30
0.0
 41
3.0
 42
3.0
 43
3.0
 50
90.0
  0
INSERT
  5
64A
  8
回07-寸法
  6
CONTINUOUS
 62
     5
  2
_OPEN
 10
83.65639661949172
 20
446.0562261422658
 30
0.0
 41
3.0
 42
3.0
 43
3.0
 50
270.0
  0
TEXT
  5
64B
  8
回07-寸法
  6
CONTINUOUS
 62
     5
 10
82.90639661949176
 20
452.1192576383286
 30
0.0
 40
5.0
  1
(7)
 50
90.0
  0
POINT
  5
64C
  8
DEFPOINTS
  6
CONTINUOUS
 62
     0
 10
125.3863966194919
 20
439.0562261422655
 30
0.0
  0
POINT
  5
64D
  8
DEFPOINTS
  6
CONTINUOUS
 62
     0
 10
119.3863966094916
 20
446.0562261422658
 30
0.0
  0
POINT
  5
64E
  8
DEFPOINTS
  6
CONTINUOUS
 62
     0
 10
83.65639661949172
 20
446.0562261422658
 30
0.0
  0
ENDBLK
  5
650
  8
0
  6
CONTINUOUS
 62
     7
  0
BLOCK
  8
0
  2
*D6464
 70
     1
 10
0.0
 20
0.0
 30
0.0
  3
*D6464
  1

  0
LINE
  5
652
  8
回07-寸法
  6
CONTINUOUS
 62
     5
 10
127.3863966194919
 20
437.0562261422654
 30
0.0
 11
94.65639661949172
 21
437.0562261422654
 31
0.0
  0
LINE
  5
653
  8
回07-寸法
  6
CONTINUOUS
 62
     5
 10
119.3863966094916
 20
446.0562261422648
 30
0.0
 11
94.65639661949172
 21
446.0562261422648
 31
0.0
  0
LINE
  5
654
  8
回07-寸法
  6
CONTINUOUS
 62
     5
 10
95.65639661949171
 20
449.0562261422647
 30
0.0
 11
95.65639661949171
 21
459.3763150557081
 31
0.0
  0
LINE
  5
655
  8
回07-寸法
  6
CONTINUOUS
 62
     5
 10
95.65639661949171
 20
437.0562261422654
 30
0.0
 11
95.65639661949171
 21
446.0562261422648
 31
0.0
  0
LINE
  5
656
  8
回07-寸法
  6
CONTINUOUS
 62
     5
 10
95.65639661949171
 20
434.0562261422654
 30
0.0
 11
95.65639661949171
 21
431.0562261422655
 31
0.0
  0
INSERT
  5
657
  8
回07-寸法
  6
CONTINUOUS
 62
     5
  2
_OPEN
 10
95.65639661949171
 20
437.0562261422654
 30
0.0
 41
3.0
 42
3.0
 43
3.0
 50
90.0
  0
INSERT
  5
658
  8
回07-寸法
  6
CONTINUOUS
 62
     5
  2
_OPEN
 10
95.65639661949171
 20
446.0562261422648
 30
0.0
 41
3.0
 42
3.0
 43
3.0
 50
270.0
  0
TEXT
  5
659
  8
回07-寸法
  6
CONTINUOUS
 62
     5
 10
94.90639661949172
 20
452.1102317170102
 30
0.0
 40
5.0
  1
(9)
 50
90.0
  0
POINT
  5
65A
  8
DEFPOINTS
  6
CONTINUOUS
 62
     0
 10
127.3863966194919
 20
437.0562261422654
 30
0.0
  0
POINT
  5
65B
  8
DEFPOINTS
  6
CONTINUOUS
 62
     0
 10
119.3863966094916
 20
446.0562261422648
 30
0.0
  0
POINT
  5
65C
  8
DEFPOINTS
  6
CONTINUOUS
 62
     0
 10
95.65639661949171
 20
446.0562261422648
 30
0.0
  0
ENDBLK
  5
65E
  8
0
  6
CONTINUOUS
 62
     7
  0
BLOCK
  8
0
  2
*D6565
 70
     1
 10
0.0
 20
0.0
 30
0.0
  3
*D6565
  1

  0
LINE
  5
660
  8
回07-寸法
  6
CONTINUOUS
 62
     5
 10
546.9863966094915
 20
446.0562261422658
 30
0.0
 11
546.9863966094915
 21
504.1412261422654
 31
0.0
  0
LINE
  5
661
  8
回07-寸法
  6
CONTINUOUS
 62
     5
 10
119.3863966094916
 20
446.0562261422648
 30
0.0
 11
119.3863966094916
 21
504.1412261422656
 31
0.0
  0
LINE
  5
662
  8
回07-寸法
  6
CONTINUOUS
 62
     5
 10
543.9863966094915
 20
503.1412261422654
 30
0.0
 11
122.3863966094916
 21
503.1412261422656
 31
0.0
  0
INSERT
  5
663
  8
回07-寸法
  6
CONTINUOUS
 62
     5
  2
_OPEN
 10
546.9863966094915
 20
503.1412261422654
 30
0.0
 41
3.0
 42
3.0
 43
3.0
 50
360.0
  0
INSERT
  5
664
  8
回07-寸法
  6
CONTINUOUS
 62
     5
  2
_OPEN
 10
119.3863966094916
 20
503.1412261422656
 30
0.0
 41
3.0
 42
3.0
 43
3.0
 50
180.0
  0
INSERT
  5
665
  8
回07-寸法
  6
CONTINUOUS
 62
     5
 66
     1
  2
*X108108
 10
0.0
 20
0.0
 30
0.0
  0
SEQEND
  5
8FE
  8
0
  6
CONTINUOUS
 62
     7
  0
POINT
  5
666
  8
DEFPOINTS
  6
CONTINUOUS
 62
     0
 10
546.9863966094915
 20
446.0562261422658
 30
0.0
  0
POINT
  5
667
  8
DEFPOINTS
  6
CONTINUOUS
 62
     0
 10
119.3863966094916
 20
446.0562261422648
 30
0.0
  0
POINT
  5
668
  8
DEFPOINTS
  6
CONTINUOUS
 62
     0
 10
119.3863966094916
 20
503.1412261422656
 30
0.0
  0
ENDBLK
  5
66A
  8
0
  6
CONTINUOUS
 62
     7
  0
BLOCK
  8
0
  2
*D6666
 70
     1
 10
0.0
 20
0.0
 30
0.0
  3
*D6666
  1

  0
LINE
  5
66C
  8
回07-寸法
  6
CONTINUOUS
 62
     5
 10
125.3863966194919
 20
439.0562261422655
 30
0.0
 11
125.3863966194919
 21
480.1412261422654
 31
0.0
  0
LINE
  5
66D
  8
回07-寸法
  6
CONTINUOUS
 62
     5
 10
540.9863966094915
 20
439.0562261422646
 30
0.0
 11
540.9863966094915
 21
480.1412261422654
 31
0.0
  0
LINE
  5
66E
  8
回07-寸法
  6
CONTINUOUS
 62
     5
 10
128.3863966194919
 20
479.1412261422656
 30
0.0
 11
537.9863966094915
 21
479.1412261422654
 31
0.0
  0
INSERT
  5
66F
  8
回07-寸法
  6
CONTINUOUS
 62
     5
  2
_OPEN
 10
125.3863966194919
 20
479.1412261422656
 30
0.0
 41
3.0
 42
3.0
 43
3.0
 50
180.0
  0
INSERT
  5
670
  8
回07-寸法
  6
CONTINUOUS
 62
     5
  2
_OPEN
 10
540.9863966094915
 20
479.1412261422654
 30
0.0
 41
3.0
 42
3.0
 43
3.0
 50
360.0
  0
TEXT
  5
671
  8
回07-寸法
  6
CONTINUOUS
 62
     5
 10
303.6873808664602
 20
480.8912261422654
 30
0.0
 40
5.0
  1
415.6(Viewing Area)
  0
POINT
  5
672
  8
DEFPOINTS
  6
CONTINUOUS
 62
     0
 10
125.3863966194919
 20
439.0562261422655
 30
0.0
  0
POINT
  5
673
  8
DEFPOINTS
  6
CONTINUOUS
 62
     0
 10
540.9863966094915
 20
439.0562261422646
 30
0.0
  0
POINT
  5
674
  8
DEFPOINTS
  6
CONTINUOUS
 62
     0
 10
540.9863966094915
 20
479.1412261422654
 30
0.0
  0
ENDBLK
  5
676
  8
0
  6
CONTINUOUS
 62
     7
  0
BLOCK
  8
0
  2
*D6767
 70
     1
 10
0.0
 20
0.0
 30
0.0
  3
*D6767
  1

  0
LINE
  5
678
  8
回07-寸法
  6
CONTINUOUS
 62
     5
 10
538.9863966094915
 20
437.0562261422654
 30
0.0
 11
538.9863966094915
 21
468.1412261422654
 31
0.0
  0
LINE
  5
679
  8
回07-寸法
  6
CONTINUOUS
 62
     5
 10
127.3864046194919
 20
437.0562261422654
 30
0.0
 11
127.3864046194919
 21
468.1412261422654
 31
0.0
  0
LINE
  5
67A
  8
回07-寸法
  6
CONTINUOUS
 62
     5
 10
535.9863966094913
 20
467.1412261422654
 30
0.0
 11
130.3864046194919
 21
467.1412261422656
 31
0.0
  0
INSERT
  5
67B
  8
回07-寸法
  6
CONTINUOUS
 62
     5
  2
_OPEN
 10
538.9863966094915
 20
467.1412261422654
 30
0.0
 41
3.0
 42
3.0
 43
3.0
 50
360.0
  0
INSERT
  5
67C
  8
回07-寸法
  6
CONTINUOUS
 62
     5
  2
_OPEN
 10
127.3864046194919
 20
467.1412261422656
 30
0.0
 41
3.0
 42
3.0
 43
3.0
 50
180.0
  0
TEXT
  5
67D
  8
回07-寸法
  6
CONTINUOUS
 62
     5
 10
305.9373848664602
 20
467.8912261422654
 30
0.0
 40
5.0
  1
411.6(Active Area)
  0
POINT
  5
67E
  8
DEFPOINTS
  6
CONTINUOUS
 62
     0
 10
538.9863966094915
 20
437.0562261422654
 30
0.0
  0
POINT
  5
67F
  8
DEFPOINTS
  6
CONTINUOUS
 62
     0
 10
127.3864046194919
 20
437.0562261422654
 30
0.0
  0
POINT
  5
680
  8
DEFPOINTS
  6
CONTINUOUS
 62
     0
 10
127.3864046194919
 20
467.1412261422656
 30
0.0
  0
ENDBLK
  5
682
  8
0
  6
CONTINUOUS
 62
     7
  0
BLOCK
  8
0
  2
*D6868
 70
     1
 10
0.0
 20
0.0
 30
0.0
  3
*D6868
  1

  0
LINE
  5
684
  8
回07-寸法
  6
CONTINUOUS
 62
     5
 10
119.3863966094916
 20
446.0562261422648
 30
0.0
 11
58.65639661949174
 21
446.0562261422648
 31
0.0
  0
LINE
  5
685
  8
回07-寸法
  6
CONTINUOUS
 62
     5
 10
119.3863966094916
 20
192.1562261422654
 30
0.0
 11
58.65639661949169
 21
192.1562261422654
 31
0.0
  0
LINE
  5
686
  8
回07-寸法
  6
CONTINUOUS
 62
     5
 10
59.65639661949174
 20
443.0562261422648
 30
0.0
 11
59.65639661949169
 21
195.1562261422654
 31
0.0
  0
INSERT
  5
687
  8
回07-寸法
  6
CONTINUOUS
 62
     5
  2
_OPEN
 10
59.65639661949174
 20
446.0562261422648
 30
0.0
 41
3.0
 42
3.0
 43
3.0
 50
90.0
  0
INSERT
  5
688
  8
回07-寸法
  6
CONTINUOUS
 62
     5
  2
_OPEN
 10
59.65639661949169
 20
192.1562261422654
 30
0.0
 41
3.0
 42
3.0
 43
3.0
 50
270.0
  0
INSERT
  5
689
  8
回07-寸法
  6
CONTINUOUS
 62
     5
 66
     1
  2
*X109109
 10
0.0
 20
0.0
 30
0.0
  0
SEQEND
  5
904
  8
0
  6
CONTINUOUS
 62
     7
  0
POINT
  5
68A
  8
DEFPOINTS
  6
CONTINUOUS
 62
     0
 10
119.3863966094916
 20
446.0562261422648
 30
0.0
  0
POINT
  5
68B
  8
DEFPOINTS
  6
CONTINUOUS
 62
     0
 10
119.3863966094916
 20
192.1562261422654
 30
0.0
  0
POINT
  5
68C
  8
DEFPOINTS
  6
CONTINUOUS
 62
     0
 10
59.65639661949169
 20
192.1562261422654
 30
0.0
  0
ENDBLK
  5
68E
  8
0
  6
CONTINUOUS
 62
     7
  0
BLOCK
  8
0
  2
*D6969
 70
     1
 10
0.0
 20
0.0
 30
0.0
  3
*D6969
  1

  0
LINE
  5
690
  8
回07-寸法
  6
CONTINUOUS
 62
     5
 10
125.3863966194919
 20
439.0562261422655
 30
0.0
 11
82.65639661949172
 21
439.0562261422655
 31
0.0
  0
LINE
  5
691
  8
回07-寸法
  6
CONTINUOUS
 62
     5
 10
125.3863966194919
 20
202.8562261422654
 30
0.0
 11
82.65639661949169
 21
202.8562261422654
 31
0.0
  0
LINE
  5
692
  8
回07-寸法
  6
CONTINUOUS
 62
     5
 10
83.65639661949172
 20
436.0562261422654
 30
0.0
 11
83.65639661949169
 21
205.8562261422654
 31
0.0
  0
INSERT
  5
693
  8
回07-寸法
  6
CONTINUOUS
 62
     5
  2
_OPEN
 10
83.65639661949172
 20
439.0562261422655
 30
0.0
 41
3.0
 42
3.0
 43
3.0
 50
89.99999999999998
  0
INSERT
  5
694
  8
回07-寸法
  6
CONTINUOUS
 62
     5
  2
_OPEN
 10
83.65639661949169
 20
202.8562261422654
 30
0.0
 41
3.0
 42
3.0
 43
3.0
 50
270.0
  0
TEXT
  5
695
  8
回07-寸法
  6
CONTINUOUS
 62
     5
 10
81.9063966194917
 20
291.207210394234
 30
0.0
 40
5.0
  1
236.2(Viewing Area)
 50
89.99999999999998
  0
POINT
  5
696
  8
DEFPOINTS
  6
CONTINUOUS
 62
     0
 10
125.3863966194919
 20
439.0562261422655
 30
0.0
  0
POINT
  5
697
  8
DEFPOINTS
  6
CONTINUOUS
 62
     0
 10
125.3863966194919
 20
202.8562261422654
 30
0.0
  0
POINT
  5
698
  8
DEFPOINTS
  6
CONTINUOUS
 62
     0
 10
83.65639661949169
 20
202.8562261422654
 30
0.0
  0
ENDBLK
  5
69A
  8
0
  6
CONTINUOUS
 62
     7
  0
BLOCK
  8
0
  2
*D7070
 70
     1
 10
0.0
 20
0.0
 30
0.0
  3
*D7070
  1

  0
LINE
  5
69C
  8
回07-寸法
  6
CONTINUOUS
 62
     5
 10
127.3863966194919
 20
204.8562261422654
 30
0.0
 11
94.65639661949168
 21
204.8562261422654
 31
0.0
  0
LINE
  5
69D
  8
回07-寸法
  6
CONTINUOUS
 62
     5
 10
127.3863966194919
 20
437.0562261422654
 30
0.0
 11
94.65639661949174
 21
437.0562261422654
 31
0.0
  0
LINE
  5
69E
  8
回07-寸法
  6
CONTINUOUS
 62
     5
 10
95.65639661949168
 20
207.8562261422654
 30
0.0
 11
95.65639661949177
 21
434.0562261422654
 31
0.0
  0
INSERT
  5
69F
  8
回07-寸法
  6
CONTINUOUS
 62
     5
  2
_OPEN
 10
95.65639661949168
 20
204.8562261422654
 30
0.0
 41
3.0
 42
3.0
 43
3.0
 50
270.0
  0
INSERT
  5
6A0
  8
回07-寸法
  6
CONTINUOUS
 62
     5
  2
_OPEN
 10
95.65639661949177
 20
437.0562261422654
 30
0.0
 41
3.0
 42
3.0
 43
3.0
 50
89.99999999999998
  0
TEXT
  5
6A1
  8
回07-寸法
  6
CONTINUOUS
 62
     5
 10
94.90639661949172
 20
292.957210394234
 30
0.0
 40
5.0
  1
232.2(Active Area)
 50
89.99999999999998
  0
POINT
  5
6A2
  8
DEFPOINTS
  6
CONTINUOUS
 62
     0
 10
127.3863966194919
 20
204.8562261422654
 30
0.0
  0
POINT
  5
6A3
  8
DEFPOINTS
  6
CONTINUOUS
 62
     0
 10
127.3863966194919
 20
437.0562261422654
 30
0.0
  0
POINT
  5
6A4
  8
DEFPOINTS
  6
CONTINUOUS
 62
     0
 10
95.65639661949177
 20
437.0562261422654
 30
0.0
  0
ENDBLK
  5
6A6
  8
0
  6
CONTINUOUS
 62
     7
  0
BLOCK
  8
0
  2
*D7171
 70
     1
 10
0.0
 20
0.0
 30
0.0
  3
*D7171
  1

  0
LINE
  5
6A8
  8
回08-記事
  6
CONTINUOUS
 62
     5
 10
598.8258975098484
 20
92.16027451307668
 30
0.0
 11
598.8258975098484
 21
75.37218007501502
 31
0.0
  0
LINE
  5
6A9
  8
回08-記事
  6
CONTINUOUS
 62
     5
 10
601.3258975098485
 20
92.16027451307668
 30
0.0
 11
601.3258975098485
 21
75.37218007501502
 31
0.0
  0
LINE
  5
6AA
  8
回08-記事
  6
CONTINUOUS
 62
     5
 10
604.3258975098487
 20
76.37218007501502
 30
0.0
 11
625.9136595177226
 21
76.37218007501502
 31
0.0
  0
LINE
  5
6AB
  8
回08-記事
  6
CONTINUOUS
 62
     5
 10
598.8258975098484
 20
76.37218007501502
 30
0.0
 11
601.3258975098485
 21
76.37218007501502
 31
0.0
  0
LINE
  5
6AC
  8
回08-記事
  6
CONTINUOUS
 62
     5
 10
595.8258975098487
 20
76.37218007501502
 30
0.0
 11
592.8258975098485
 21
76.37218007501502
 31
0.0
  0
INSERT
  5
6AD
  8
回08-記事
  6
CONTINUOUS
 62
     5
  2
_OPEN
 10
598.8258975098484
 20
76.37218007501502
 30
0.0
 41
3.0
 42
3.0
 43
3.0
  0
INSERT
  5
6AE
  8
回08-記事
  6
CONTINUOUS
 62
     5
  2
_OPEN
 10
601.3258975098485
 20
76.37218007501502
 30
0.0
 41
3.0
 42
3.0
 43
3.0
 50
180.0
  0
INSERT
  5
6AF
  8
回08-記事
  6
CONTINUOUS
 62
     5
 66
     1
  2
*X110110
 10
0.0
 20
0.0
 30
0.0
  0
SEQEND
  5
90A
  8
0
  6
CONTINUOUS
 62
     7
  0
POINT
  5
6B0
  8
DEFPOINTS
  6
CONTINUOUS
 62
     0
 10
598.8258975098484
 20
92.16027451307668
 30
0.0
  0
POINT
  5
6B1
  8
DEFPOINTS
  6
CONTINUOUS
 62
     0
 10
601.3258975098485
 20
92.16027451307668
 30
0.0
  0
POINT
  5
6B2
  8
DEFPOINTS
  6
CONTINUOUS
 62
     0
 10
601.3258975098485
 20
76.37218007501502
 30
0.0
  0
ENDBLK
  5
6B4
  8
0
  6
CONTINUOUS
 62
     7
  0
BLOCK
  8
0
  2
*D7272
 70
     1
 10
0.0
 20
0.0
 30
0.0
  3
*D7272
  1

  0
LINE
  5
6B6
  8
回08-記事
  6
CONTINUOUS
 62
     5
 10
593.9327132908781
 20
92.16027451307668
 30
0.0
 11
593.9327132908781
 21
79.96137955227431
 31
0.0
  0
LINE
  5
6B7
  8
回08-記事
  6
CONTINUOUS
 62
     5
 10
591.4327132908781
 20
92.16027451307668
 30
0.0
 11
591.4327132908781
 21
79.96137955227431
 31
0.0
  0
LINE
  5
6B8
  8
回08-記事
  6
CONTINUOUS
 62
     5
 10
588.4327132908781
 20
80.96137955227431
 30
0.0
 11
566.8449512830042
 21
80.96137955227431
 31
0.0
  0
LINE
  5
6B9
  8
回08-記事
  6
CONTINUOUS
 62
     5
 10
593.9327132908781
 20
80.96137955227431
 30
0.0
 11
591.4327132908781
 21
80.96137955227431
 31
0.0
  0
LINE
  5
6BA
  8
回08-記事
  6
CONTINUOUS
 62
     5
 10
596.9327132908781
 20
80.96137955227431
 30
0.0
 11
599.9327132908781
 21
80.96137955227431
 31
0.0
  0
INSERT
  5
6BB
  8
回08-記事
  6
CONTINUOUS
 62
     5
  2
_OPEN
 10
593.9327132908781
 20
80.96137955227431
 30
0.0
 41
3.0
 42
3.0
 43
3.0
 50
180.0
  0
INSERT
  5
6BC
  8
回08-記事
  6
CONTINUOUS
 62
     5
  2
_OPEN
 10
591.4327132908781
 20
80.96137955227431
 30
0.0
 41
3.0
 42
3.0
 43
3.0
  0
INSERT
  5
6BD
  8
回08-記事
  6
CONTINUOUS
 62
     5
 66
     1
  2
*X111111
 10
0.0
 20
0.0
 30
0.0
  0
SEQEND
  5
910
  8
0
  6
CONTINUOUS
 62
     7
  0
POINT
  5
6BE
  8
DEFPOINTS
  6
CONTINUOUS
 62
     0
 10
593.9327132908781
 20
92.16027451307668
 30
0.0
  0
POINT
  5
6BF
  8
DEFPOINTS
  6
CONTINUOUS
 62
     0
 10
591.4327132908781
 20
92.16027451307668
 30
0.0
  0
POINT
  5
6C0
  8
DEFPOINTS
  6
CONTINUOUS
 62
     0
 10
591.4327132908781
 20
80.96137955227431
 30
0.0
  0
ENDBLK
  5
6C2
  8
0
  6
CONTINUOUS
 62
     7
  0
BLOCK
  8
0
  2
*D7373
 70
     1
 10
0.0
 20
0.0
 30
0.0
  3
*D7373
  1

  0
LINE
  5
6C4
  8
回08-記事
  6
CONTINUOUS
 62
     5
 10
593.9327132908781
 20
102.1602745130766
 30
0.0
 11
599.20724615524
 21
102.1602745130766
 31
0.0
  0
LINE
  5
6C5
  8
回08-記事
  6
CONTINUOUS
 62
     5
 10
593.9327132908781
 20
92.16027451307668
 30
0.0
 11
599.20724615524
 21
92.16027451307668
 31
0.0
  0
LINE
  5
6C6
  8
回08-記事
  6
CONTINUOUS
 62
     5
 10
598.20724615524
 20
99.1602745130767
 30
0.0
 11
598.20724615524
 21
95.16027451307669
 31
0.0
  0
INSERT
  5
6C7
  8
回08-記事
  6
CONTINUOUS
 62
     5
  2
_OPEN
 10
598.20724615524
 20
102.1602745130766
 30
0.0
 41
3.0
 42
3.0
 43
3.0
 50
90.0
  0
INSERT
  5
6C8
  8
回08-記事
  6
CONTINUOUS
 62
     5
  2
_OPEN
 10
598.20724615524
 20
92.16027451307668
 30
0.0
 41
3.0
 42
3.0
 43
3.0
 50
270.0
  0
TEXT
  5
6C9
  8
回08-記事
  6
CONTINUOUS
 62
     5
 10
597.54057865524
 20
93.82692451307669
 30
0.0
 40
3.333349999999998
  1
(10)
 50
90.0
  0
POINT
  5
6CA
  8
DEFPOINTS
  6
CONTINUOUS
 62
     0
 10
593.9327132908781
 20
102.1602745130766
 30
0.0
  0
POINT
  5
6CB
  8
DEFPOINTS
  6
CONTINUOUS
 62
     0
 10
593.9327132908781
 20
92.16027451307668
 30
0.0
  0
POINT
  5
6CC
  8
DEFPOINTS
  6
CONTINUOUS
 62
     0
 10
598.20724615524
 20
92.16027451307668
 30
0.0
  0
ENDBLK
  5
6CE
  8
0
  6
CONTINUOUS
 62
     7
  0
BLOCK
  8
0
  2
*D7474
 70
     1
 10
0.0
 20
0.0
 30
0.0
  3
*D7474
  1

  0
LINE
  5
6D0
  8
回08-記事
  6
CONTINUOUS
 62
     5
 10
601.3258975098485
 20
92.16027451307668
 30
0.0
 11
614.600483075767
 21
92.16027451307668
 31
0.0
  0
LINE
  5
6D1
  8
回08-記事
  6
CONTINUOUS
 62
     5
 10
602.0258975098487
 20
97.16027451307668
 30
0.0
 11
614.600483075767
 21
97.16027451307668
 31
0.0
  0
LINE
  5
6D2
  8
回08-記事
  6
CONTINUOUS
 62
     5
 10
613.600483075767
 20
100.1602745130766
 30
0.0
 11
613.600483075767
 21
106.1602745130767
 31
0.0
  0
LINE
  5
6D3
  8
回08-記事
  6
CONTINUOUS
 62
     5
 10
613.600483075767
 20
92.16027451307668
 30
0.0
 11
613.600483075767
 21
97.16027451307668
 31
0.0
  0
LINE
  5
6D4
  8
回08-記事
  6
CONTINUOUS
 62
     5
 10
613.600483075767
 20
89.16027451307668
 30
0.0
 11
613.600483075767
 21
86.16027451307667
 31
0.0
  0
INSERT
  5
6D5
  8
回08-記事
  6
CONTINUOUS
 62
     5
  2
_OPEN
 10
613.600483075767
 20
92.16027451307668
 30
0.0
 41
3.0
 42
3.0
 43
3.0
 50
90.0
  0
INSERT
  5
6D6
  8
回08-記事
  6
CONTINUOUS
 62
     5
  2
_OPEN
 10
613.600483075767
 20
97.16027451307668
 30
0.0
 41
3.0
 42
3.0
 43
3.0
 50
270.0
  0
TEXT
  5
6D7
  8
回08-記事
  6
CONTINUOUS
 62
     5
 10
613.1004830757668
 20
102.9102745130767
 30
0.0
 40
5.0
  1
5
 50
90.0
  0
POINT
  5
6D8
  8
DEFPOINTS
  6
CONTINUOUS
 62
     0
 10
601.3258975098485
 20
92.16027451307668
 30
0.0
  0
POINT
  5
6D9
  8
DEFPOINTS
  6
CONTINUOUS
 62
     0
 10
602.0258975098487
 20
97.16027451307668
 30
0.0
  0
POINT
  5
6DA
  8
DEFPOINTS
  6
CONTINUOUS
 62
     0
 10
613.600483075767
 20
97.16027451307668
 30
0.0
  0
ENDBLK
  5
6DC
  8
0
  6
CONTINUOUS
 62
     7
  0
BLOCK
  8
0
  2
*D7575
 70
     1
 10
0.0
 20
0.0
 30
0.0
  3
*D7575
  1

  0
LINE
  5
6DE
  8
回08-記事
  6
CONTINUOUS
 62
     5
 10
591.4327132908781
 20
92.16027451307668
 30
0.0
 11
582.4713031219062
 21
92.16027451307668
 31
0.0
  0
LINE
  5
6DF
  8
回08-記事
  6
CONTINUOUS
 62
     5
 10
590.7327132908782
 20
97.16027451307668
 30
0.0
 11
582.4713031219062
 21
97.16027451307668
 31
0.0
  0
LINE
  5
6E0
  8
回08-記事
  6
CONTINUOUS
 62
     5
 10
583.4713031219063
 20
92.16027451307668
 30
0.0
 11
583.4713031219063
 21
97.16027451307668
 31
0.0
  0
LINE
  5
6E1
  8
回08-記事
  6
CONTINUOUS
 62
     5
 10
583.4713031219063
 20
89.16027451307668
 30
0.0
 11
583.4713031219063
 21
86.16027451307667
 31
0.0
  0
LINE
  5
6E2
  8
回08-記事
  6
CONTINUOUS
 62
     5
 10
583.4713031219063
 20
100.1602745130766
 30
0.0
 11
583.4713031219063
 21
103.1602745130766
 31
0.0
  0
INSERT
  5
6E3
  8
回08-記事
  6
CONTINUOUS
 62
     5
  2
_OPEN
 10
583.4713031219063
 20
92.16027451307668
 30
0.0
 41
3.0
 42
3.0
 43
3.0
 50
90.0
  0
INSERT
  5
6E4
  8
回08-記事
  6
CONTINUOUS
 62
     5
  2
_OPEN
 10
583.4713031219063
 20
97.16027451307668
 30
0.0
 41
3.0
 42
3.0
 43
3.0
 50
270.0
  0
TEXT
  5
6E5
  8
回08-記事
  6
CONTINUOUS
 62
     5
 10
582.9713031219063
 20
92.9102745130765
 30
0.0
 40
5.0
  1
5
 50
90.0
  0
POINT
  5
6E6
  8
DEFPOINTS
  6
CONTINUOUS
 62
     0
 10
591.4327132908781
 20
92.16027451307668
 30
0.0
  0
POINT
  5
6E7
  8
DEFPOINTS
  6
CONTINUOUS
 62
     0
 10
590.7327132908782
 20
97.16027451307668
 30
0.0
  0
POINT
  5
6E8
  8
DEFPOINTS
  6
CONTINUOUS
 62
     0
 10
583.4713031219063
 20
97.16027451307668
 30
0.0
  0
ENDBLK
  5
6EA
  8
0
  6
CONTINUOUS
 62
     7
  0
BLOCK
  8
0
  2
*D7676
 70
     1
 10
0.0
 20
0.0
 30
0.0
  3
*D7676
  1

  0
LINE
  5
6EC
  8
回07-寸法
  6
CONTINUOUS
 62
     5
 10
587.4327132908781
 20
445.5562261422657
 30
0.0
 11
587.4327132908781
 21
456.0755496057378
 31
0.0
  0
LINE
  5
6ED
  8
回07-寸法
  6
CONTINUOUS
 62
     5
 10
608.3258975098487
 20
446.0562261422658
 30
0.0
 11
608.3258975098487
 21
456.0755496057378
 31
0.0
  0
LINE
  5
6EE
  8
回07-寸法
  6
CONTINUOUS
 62
     5
 10
590.4327132908782
 20
455.0755496057377
 30
0.0
 11
605.3258975098485
 21
455.0755496057377
 31
0.0
  0
INSERT
  5
6EF
  8
回07-寸法
  6
CONTINUOUS
 62
     5
  2
_OPEN
 10
587.4327132908781
 20
455.0755496057377
 30
0.0
 41
3.0
 42
3.0
 43
3.0
 50
180.0
  0
INSERT
  5
6F0
  8
回07-寸法
  6
CONTINUOUS
 62
     5
  2
_OPEN
 10
608.3258975098487
 20
455.0755496057377
 30
0.0
 41
3.0
 42
3.0
 43
3.0
  0
INSERT
  5
6F1
  8
回07-寸法
  6
CONTINUOUS
 62
     5
 66
     1
  2
*X112112
 10
0.0
 20
0.0
 30
0.0
  0
SEQEND
  5
916
  8
0
  6
CONTINUOUS
 62
     7
  0
POINT
  5
6F2
  8
DEFPOINTS
  6
CONTINUOUS
 62
     0
 10
587.4327132908781
 20
445.5562261422657
 30
0.0
  0
POINT
  5
6F3
  8
DEFPOINTS
  6
CONTINUOUS
 62
     0
 10
608.3258975098487
 20
446.0562261422658
 30
0.0
  0
POINT
  5
6F4
  8
DEFPOINTS
  6
CONTINUOUS
 62
     0
 10
608.3258975098487
 20
455.0755496057377
 30
0.0
  0
ENDBLK
  5
6F6
  8
0
  6
CONTINUOUS
 62
     7
  0
BLOCK
  8
0
  2
*X7777
 70
     1
 10
0.0
 20
0.0
 30
0.0
  3
*X7777
  1

  0
TEXT
  5
6FB
  8
回08-記事
  6
CONTINUOUS
 62
     5
 10
270.4677602734545
 20
143.790148812361
 30
0.0
 40
4.0
  1
･Part No. label
  0
TEXT
  5
6FC
  8
回08-記事
  6
CONTINUOUS
 62
     5
 10
270.4677602734545
 20
137.1234821456942
 30
0.0
 40
4.0
  1
･Lot label
  0
ENDBLK
  5
6FE
  8
0
  6
CONTINUOUS
 62
     7
  0
BLOCK
  8
0
  2
*X7878
 70
     1
 10
0.0
 20
0.0
 30
0.0
  3
*X7878
  1

  0
INSERT
  5
701
  8
回08-記事
  6
CONTINUOUS
 62
     5
  2
_OPEN
 10
318.9091394008062
 20
150.2896821623047
 30
0.0
 41
1.5
 42
1.5
 43
1.5
 50
52.4430407182993
  0
LINE
  5
702
  8
回08-記事
  6
CONTINUOUS
 62
     5
 10
317.9948146677415
 20
149.1005605190293
 30
0.0
 11
308.4010936067879
 21
136.6234821456943
 31
0.0
  0
LINE
  5
703
  8
回08-記事
  6
CONTINUOUS
 62
     5
 10
308.4010936067879
 20
136.6234821456943
 30
0.0
 11
271.2677602734546
 21
136.6234821456943
 31
0.0
  0
ENDBLK
  5
705
  8
0
  6
CONTINUOUS
 62
     7
  0
BLOCK
  8
0
  2
*X7979
 70
     1
 10
0.0
 20
0.0
 30
0.0
  3
*X7979
  1

  0
LINE
  5
780
  8
回08-記事
  6
PHANTOM2
 62
     7
 10
334.0167504587847
 20
188.5245124418729
 30
0.0
 11
332.6875219249401
 21
189.8537409757175
 31
0.0
1001
GRADIENTCOLOR1ACI
1070
     5
1001
GRADIENTCOLOR2ACI
1070
     2
1001
ACAD
1010
0.0
1020
0.0
1030
0.0
  0
LINE
  5
781
  8
回08-記事
  6
PHANTOM2
 62
     7
 10
335.3637888769451
 20
188.5245124418729
 30
0.0
 11
332.68752192494
 21
191.200779393878
 31
0.0
1001
GRADIENTCOLOR1ACI
1070
     5
1001
GRADIENTCOLOR2ACI
1070
     2
1001
ACAD
1010
0.0
1020
0.0
1030
0.0
  0
LINE
  5
782
  8
回08-記事
  6
PHANTOM2
 62
     7
 10
336.7108272951053
 20
188.5245124418731
 30
0.0
 11
332.6875219249401
 21
192.5478178120384
 31
0.0
1001
GRADIENTCOLOR1ACI
1070
     5
1001
GRADIENTCOLOR2ACI
1070
     2
1001
ACAD
1010
0.0
1020
0.0
1030
0.0
  0
LINE
  5
783
  8
回08-記事
  6
PHANTOM2
 62
     7
 10
338.057865713266
 20
188.5245124418729
 30
0.0
 11
332.6875219249402
 21
193.8948562301986
 31
0.0
1001
GRADIENTCOLOR1ACI
1070
     5
1001
GRADIENTCOLOR2ACI
1070
     2
1001
ACAD
1010
0.0
1020
0.0
1030
0.0
  0
LINE
  5
784
  8
回08-記事
  6
PHANTOM2
 62
     7
 10
339.4049041314264
 20
188.5245124418729
 30
0.0
 11
332.6875219249404
 21
195.2418946483592
 31
0.0
1001
GRADIENTCOLOR1ACI
1070
     5
1001
GRADIENTCOLOR2ACI
1070
     2
1001
ACAD
1010
0.0
1020
0.0
1030
0.0
  0
LINE
  5
785
  8
回08-記事
  6
PHANTOM2
 62
     7
 10
340.7519425495868
 20
188.5245124418731
 30
0.0
 11
333.5519425495868
 21
195.724512441873
 31
0.0
1001
GRADIENTCOLOR1ACI
1070
     5
1001
GRADIENTCOLOR2ACI
1070
     2
1001
ACAD
1010
0.0
1020
0.0
1030
0.0
  0
LINE
  5
786
  8
回08-記事
  6
PHANTOM2
 62
     7
 10
342.0989809677473
 20
188.5245124418731
 30
0.0
 11
334.8989809677472
 21
195.7245124418732
 31
0.0
1001
GRADIENTCOLOR1ACI
1070
     5
1001
GRADIENTCOLOR2ACI
1070
     2
1001
ACAD
1010
0.0
1020
0.0
1030
0.0
  0
LINE
  5
787
  8
回08-記事
  6
PHANTOM2
 62
     7
 10
343.4460193859077
 20
188.5245124418731
 30
0.0
 11
336.2460193859076
 21
195.7245124418732
 31
0.0
1001
GRADIENTCOLOR1ACI
1070
     5
1001
GRADIENTCOLOR2ACI
1070
     2
1001
ACAD
1010
0.0
1020
0.0
1030
0.0
  0
LINE
  5
788
  8
回08-記事
  6
PHANTOM2
 62
     7
 10
344.7930578040678
 20
188.5245124418731
 30
0.0
 11
337.5930578040678
 21
195.7245124418732
 31
0.0
1001
GRADIENTCOLOR1ACI
1070
     5
1001
GRADIENTCOLOR2ACI
1070
     2
1001
ACAD
1010
0.0
1020
0.0
1030
0.0
  0
LINE
  5
789
  8
回08-記事
  6
PHANTOM2
 62
     7
 10
346.1400962222285
 20
188.5245124418731
 30
0.0
 11
338.9400962222286
 21
195.7245124418732
 31
0.0
1001
GRADIENTCOLOR1ACI
1070
     5
1001
GRADIENTCOLOR2ACI
1070
     2
1001
ACAD
1010
0.0
1020
0.0
1030
0.0
  0
LINE
  5
78A
  8
回08-記事
  6
PHANTOM2
 62
     7
 10
347.4871346403887
 20
188.5245124418731
 30
0.0
 11
340.2871346403888
 21
195.7245124418732
 31
0.0
1001
GRADIENTCOLOR1ACI
1070
     5
1001
GRADIENTCOLOR2ACI
1070
     2
1001
ACAD
1010
0.0
1020
0.0
1030
0.0
  0
LINE
  5
78B
  8
回08-記事
  6
PHANTOM2
 62
     7
 10
348.8341730585491
 20
188.5245124418731
 30
0.0
 11
341.6341730585493
 21
195.7245124418732
 31
0.0
1001
GRADIENTCOLOR1ACI
1070
     5
1001
GRADIENTCOLOR2ACI
1070
     2
1001
ACAD
1010
0.0
1020
0.0
1030
0.0
  0
LINE
  5
78C
  8
回08-記事
  6
PHANTOM2
 62
     7
 10
350.1812114767095
 20
188.5245124418731
 30
0.0
 11
342.9812114767095
 21
195.7245124418732
 31
0.0
1001
GRADIENTCOLOR1ACI
1070
     5
1001
GRADIENTCOLOR2ACI
1070
     2
1001
ACAD
1010
0.0
1020
0.0
1030
0.0
  0
LINE
  5
78D
  8
回08-記事
  6
PHANTOM2
 62
     7
 10
351.5282498948702
 20
188.5245124418729
 30
0.0
 11
344.3282498948702
 21
195.724512441873
 31
0.0
1001
GRADIENTCOLOR1ACI
1070
     5
1001
GRADIENTCOLOR2ACI
1070
     2
1001
ACAD
1010
0.0
1020
0.0
1030
0.0
  0
LINE
  5
78E
  8
回08-記事
  6
PHANTOM2
 62
     7
 10
352.8752883130306
 20
188.5245124418729
 30
0.0
 11
345.6752883130306
 21
195.724512441873
 31
0.0
1001
GRADIENTCOLOR1ACI
1070
     5
1001
GRADIENTCOLOR2ACI
1070
     2
1001
ACAD
1010
0.0
1020
0.0
1030
0.0
  0
LINE
  5
78F
  8
回08-記事
  6
PHANTOM2
 62
     7
 10
354.2223267311908
 20
188.5245124418731
 30
0.0
 11
347.022326731191
 21
195.724512441873
 31
0.0
1001
GRADIENTCOLOR1ACI
1070
     5
1001
GRADIENTCOLOR2ACI
1070
     2
1001
ACAD
1010
0.0
1020
0.0
1030
0.0
  0
LINE
  5
790
  8
回08-記事
  6
PHANTOM2
 62
     7
 10
355.5693651493515
 20
188.5245124418729
 30
0.0
 11
348.3693651493513
 21
195.724512441873
 31
0.0
1001
GRADIENTCOLOR1ACI
1070
     5
1001
GRADIENTCOLOR2ACI
1070
     2
1001
ACAD
1010
0.0
1020
0.0
1030
0.0
  0
LINE
  5
791
  8
回08-記事
  6
PHANTOM2
 62
     7
 10
356.9164035675119
 20
188.5245124418729
 30
0.0
 11
349.7164035675119
 21
195.724512441873
 31
0.0
1001
GRADIENTCOLOR1ACI
1070
     5
1001
GRADIENTCOLOR2ACI
1070
     2
1001
ACAD
1010
0.0
1020
0.0
1030
0.0
  0
LINE
  5
792
  8
回08-記事
  6
PHANTOM2
 62
     7
 10
358.2634419856723
 20
188.5245124418729
 30
0.0
 11
351.0634419856723
 21
195.724512441873
 31
0.0
1001
GRADIENTCOLOR1ACI
1070
     5
1001
GRADIENTCOLOR2ACI
1070
     2
1001
ACAD
1010
0.0
1020
0.0
1030
0.0
  0
LINE
  5
793
  8
回08-記事
  6
PHANTOM2
 62
     7
 10
358.68752192494
 20
189.4474709207656
 30
0.0
 11
352.4104804038325
 21
195.7245124418732
 31
0.0
1001
GRADIENTCOLOR1ACI
1070
     5
1001
GRADIENTCOLOR2ACI
1070
     2
1001
ACAD
1010
0.0
1020
0.0
1030
0.0
  0
LINE
  5
794
  8
回08-記事
  6
PHANTOM2
 62
     7
 10
358.6875219249401
 20
190.794509338926
 30
0.0
 11
353.7575188219931
 21
195.724512441873
 31
0.0
1001
GRADIENTCOLOR1ACI
1070
     5
1001
GRADIENTCOLOR2ACI
1070
     2
1001
ACAD
1010
0.0
1020
0.0
1030
0.0
  0
LINE
  5
795
  8
回08-記事
  6
PHANTOM2
 62
     7
 10
358.6875219249403
 20
192.1415477570865
 30
0.0
 11
355.1045572401537
 21
195.7245124418732
 31
0.0
1001
GRADIENTCOLOR1ACI
1070
     5
1001
GRADIENTCOLOR2ACI
1070
     2
1001
ACAD
1010
0.0
1020
0.0
1030
0.0
  0
LINE
  5
796
  8
回08-記事
  6
PHANTOM2
 62
     7
 10
358.6875219249401
 20
193.4885861752468
 30
0.0
 11
356.451595658314
 21
195.7245124418732
 31
0.0
1001
GRADIENTCOLOR1ACI
1070
     5
1001
GRADIENTCOLOR2ACI
1070
     2
1001
ACAD
1010
0.0
1020
0.0
1030
0.0
  0
LINE
  5
797
  8
回08-記事
  6
PHANTOM2
 62
     7
 10
358.6875219249403
 20
194.8356245934073
 30
0.0
 11
357.7986340764744
 21
195.7245124418732
 31
0.0
1001
GRADIENTCOLOR1ACI
1070
     5
1001
GRADIENTCOLOR2ACI
1070
     2
1001
ACAD
1010
0.0
1020
0.0
1030
0.0
  0
ENDBLK
  5
799
  8
0
  6
CONTINUOUS
 62
     7
  0
BLOCK
  8
0
  2
*X8080
 70
     1
 10
0.0
 20
0.0
 30
0.0
  3
*X8080
  1

  0
LINE
  5
79C
  8
回08-記事
  6
PHANTOM2
 62
     7
 10
297.6467131684545
 20
188.5245124418731
 30
0.0
 11
296.6875219249402
 21
189.4837036853873
 31
0.0
1001
GRADIENTCOLOR1ACI
1070
     5
1001
GRADIENTCOLOR2ACI
1070
     2
1001
ACAD
1010
0.0
1020
0.0
1030
0.0
  0
LINE
  5
79D
  8
回08-記事
  6
PHANTOM2
 62
     7
 10
298.993751586615
 20
188.5245124418731
 30
0.0
 11
296.6875219249402
 21
190.8307421035475
 31
0.0
1001
GRADIENTCOLOR1ACI
1070
     5
1001
GRADIENTCOLOR2ACI
1070
     2
1001
ACAD
1010
0.0
1020
0.0
1030
0.0
  0
LINE
  5
79E
  8
回08-記事
  6
PHANTOM2
 62
     7
 10
300.3407900047754
 20
188.5245124418731
 30
0.0
 11
296.6875219249402
 21
192.1777805217081
 31
0.0
1001
GRADIENTCOLOR1ACI
1070
     5
1001
GRADIENTCOLOR2ACI
1070
     2
1001
ACAD
1010
0.0
1020
0.0
1030
0.0
  0
LINE
  5
79F
  8
回08-記事
  6
PHANTOM2
 62
     7
 10
301.6878284229357
 20
188.5245124418731
 30
0.0
 11
296.68752192494
 21
193.5248189398687
 31
0.0
1001
GRADIENTCOLOR1ACI
1070
     5
1001
GRADIENTCOLOR2ACI
1070
     2
1001
ACAD
1010
0.0
1020
0.0
1030
0.0
  0
LINE
  5
7A0
  8
回08-記事
  6
PHANTOM2
 62
     7
 10
303.0348668410962
 20
188.5245124418729
 30
0.0
 11
296.6875219249404
 21
194.8718573580288
 31
0.0
1001
GRADIENTCOLOR1ACI
1070
     5
1001
GRADIENTCOLOR2ACI
1070
     2
1001
ACAD
1010
0.0
1020
0.0
1030
0.0
  0
LINE
  5
7A1
  8
回08-記事
  6
PHANTOM2
 62
     7
 10
304.3819052592567
 20
188.5245124418729
 30
0.0
 11
297.1819052592566
 21
195.724512441873
 31
0.0
1001
GRADIENTCOLOR1ACI
1070
     5
1001
GRADIENTCOLOR2ACI
1070
     2
1001
ACAD
1010
0.0
1020
0.0
1030
0.0
  0
LINE
  5
7A2
  8
回08-記事
  6
PHANTOM2
 62
     7
 10
305.7289436774169
 20
188.5245124418731
 30
0.0
 11
298.5289436774168
 21
195.7245124418732
 31
0.0
1001
GRADIENTCOLOR1ACI
1070
     5
1001
GRADIENTCOLOR2ACI
1070
     2
1001
ACAD
1010
0.0
1020
0.0
1030
0.0
  0
LINE
  5
7A3
  8
回08-記事
  6
PHANTOM2
 62
     7
 10
307.0759820955773
 20
188.5245124418731
 30
0.0
 11
299.8759820955772
 21
195.7245124418732
 31
0.0
1001
GRADIENTCOLOR1ACI
1070
     5
1001
GRADIENTCOLOR2ACI
1070
     2
1001
ACAD
1010
0.0
1020
0.0
1030
0.0
  0
LINE
  5
7A4
  8
回08-記事
  6
PHANTOM2
 62
     7
 10
308.4230205137377
 20
188.5245124418731
 30
0.0
 11
301.2230205137377
 21
195.7245124418732
 31
0.0
1001
GRADIENTCOLOR1ACI
1070
     5
1001
GRADIENTCOLOR2ACI
1070
     2
1001
ACAD
1010
0.0
1020
0.0
1030
0.0
  0
LINE
  5
7A5
  8
回08-記事
  6
PHANTOM2
 62
     7
 10
309.7700589318983
 20
188.5245124418729
 30
0.0
 11
302.5700589318983
 21
195.724512441873
 31
0.0
1001
GRADIENTCOLOR1ACI
1070
     5
1001
GRADIENTCOLOR2ACI
1070
     2
1001
ACAD
1010
0.0
1020
0.0
1030
0.0
  0
LINE
  5
7A6
  8
回08-記事
  6
PHANTOM2
 62
     7
 10
311.117097350059
 20
188.5245124418729
 30
0.0
 11
303.9170973500588
 21
195.724512441873
 31
0.0
1001
GRADIENTCOLOR1ACI
1070
     5
1001
GRADIENTCOLOR2ACI
1070
     2
1001
ACAD
1010
0.0
1020
0.0
1030
0.0
  0
LINE
  5
7A7
  8
回08-記事
  6
PHANTOM2
 62
     7
 10
312.4641357682192
 20
188.5245124418729
 30
0.0
 11
305.2641357682191
 21
195.724512441873
 31
0.0
1001
GRADIENTCOLOR1ACI
1070
     5
1001
GRADIENTCOLOR2ACI
1070
     2
1001
ACAD
1010
0.0
1020
0.0
1030
0.0
  0
LINE
  5
7A8
  8
回08-記事
  6
PHANTOM2
 62
     7
 10
313.8111741863796
 20
188.5245124418729
 30
0.0
 11
306.6111741863796
 21
195.724512441873
 31
0.0
1001
GRADIENTCOLOR1ACI
1070
     5
1001
GRADIENTCOLOR2ACI
1070
     2
1001
ACAD
1010
0.0
1020
0.0
1030
0.0
  0
LINE
  5
7A9
  8
回08-記事
  6
PHANTOM2
 62
     7
 10
315.1582126045401
 20
188.5245124418731
 30
0.0
 11
307.95821260454
 21
195.724512441873
 31
0.0
1001
GRADIENTCOLOR1ACI
1070
     5
1001
GRADIENTCOLOR2ACI
1070
     2
1001
ACAD
1010
0.0
1020
0.0
1030
0.0
  0
LINE
  5
7AA
  8
回08-記事
  6
PHANTOM2
 62
     7
 10
316.5052510227003
 20
188.5245124418731
 30
0.0
 11
309.3052510227002
 21
195.7245124418732
 31
0.0
1001
GRADIENTCOLOR1ACI
1070
     5
1001
GRADIENTCOLOR2ACI
1070
     2
1001
ACAD
1010
0.0
1020
0.0
1030
0.0
  0
LINE
  5
7AB
  8
回08-記事
  6
PHANTOM2
 62
     7
 10
317.8522894408609
 20
188.5245124418731
 30
0.0
 11
310.6522894408608
 21
195.7245124418732
 31
0.0
1001
GRADIENTCOLOR1ACI
1070
     5
1001
GRADIENTCOLOR2ACI
1070
     2
1001
ACAD
1010
0.0
1020
0.0
1030
0.0
  0
LINE
  5
7AC
  8
回08-記事
  6
PHANTOM2
 62
     7
 10
319.1993278590213
 20
188.5245124418729
 30
0.0
 11
311.9993278590213
 21
195.724512441873
 31
0.0
1001
GRADIENTCOLOR1ACI
1070
     5
1001
GRADIENTCOLOR2ACI
1070
     2
1001
ACAD
1010
0.0
1020
0.0
1030
0.0
  0
LINE
  5
7AD
  8
回08-記事
  6
PHANTOM2
 62
     7
 10
320.5463662771817
 20
188.5245124418731
 30
0.0
 11
313.3463662771817
 21
195.7245124418732
 31
0.0
1001
GRADIENTCOLOR1ACI
1070
     5
1001
GRADIENTCOLOR2ACI
1070
     2
1001
ACAD
1010
0.0
1020
0.0
1030
0.0
  0
LINE
  5
7AE
  8
回08-記事
  6
PHANTOM2
 62
     7
 10
321.8934046953419
 20
188.5245124418731
 30
0.0
 11
314.6934046953422
 21
195.7245124418732
 31
0.0
1001
GRADIENTCOLOR1ACI
1070
     5
1001
GRADIENTCOLOR2ACI
1070
     2
1001
ACAD
1010
0.0
1020
0.0
1030
0.0
  0
LINE
  5
7AF
  8
回08-記事
  6
PHANTOM2
 62
     7
 10
323.2404431135023
 20
188.5245124418731
 30
0.0
 11
316.0404431135025
 21
195.7245124418732
 31
0.0
1001
GRADIENTCOLOR1ACI
1070
     5
1001
GRADIENTCOLOR2ACI
1070
     2
1001
ACAD
1010
0.0
1020
0.0
1030
0.0
  0
LINE
  5
7B0
  8
回08-記事
  6
PHANTOM2
 62
     7
 10
324.5874815316629
 20
188.5245124418731
 30
0.0
 11
317.3874815316627
 21
195.7245124418732
 31
0.0
1001
GRADIENTCOLOR1ACI
1070
     5
1001
GRADIENTCOLOR2ACI
1070
     2
1001
ACAD
1010
0.0
1020
0.0
1030
0.0
  0
LINE
  5
7B1
  8
回08-記事
  6
PHANTOM2
 62
     7
 10
325.9345199498234
 20
188.5245124418729
 30
0.0
 11
318.7345199498234
 21
195.724512441873
 31
0.0
1001
GRADIENTCOLOR1ACI
1070
     5
1001
GRADIENTCOLOR2ACI
1070
     2
1001
ACAD
1010
0.0
1020
0.0
1030
0.0
  0
LINE
  5
7B2
  8
回08-記事
  6
PHANTOM2
 62
     7
 10
327.2815583679839
 20
188.5245124418729
 30
0.0
 11
320.0815583679838
 21
195.724512441873
 31
0.0
1001
GRADIENTCOLOR1ACI
1070
     5
1001
GRADIENTCOLOR2ACI
1070
     2
1001
ACAD
1010
0.0
1020
0.0
1030
0.0
  0
LINE
  5
7B3
  8
回08-記事
  6
PHANTOM2
 62
     7
 10
328.6285967861443
 20
188.5245124418729
 30
0.0
 11
321.4285967861442
 21
195.724512441873
 31
0.0
1001
GRADIENTCOLOR1ACI
1070
     5
1001
GRADIENTCOLOR2ACI
1070
     2
1001
ACAD
1010
0.0
1020
0.0
1030
0.0
  0
LINE
  5
7B4
  8
回08-記事
  6
PHANTOM2
 62
     7
 10
329.9756352043047
 20
188.5245124418729
 30
0.0
 11
322.7756352043047
 21
195.724512441873
 31
0.0
1001
GRADIENTCOLOR1ACI
1070
     5
1001
GRADIENTCOLOR2ACI
1070
     2
1001
ACAD
1010
0.0
1020
0.0
1030
0.0
  0
LINE
  5
7B5
  8
回08-記事
  6
PHANTOM2
 62
     7
 10
330.6875219249402
 20
189.159664139398
 30
0.0
 11
324.1226736224648
 21
195.7245124418732
 31
0.0
1001
GRADIENTCOLOR1ACI
1070
     5
1001
GRADIENTCOLOR2ACI
1070
     2
1001
ACAD
1010
0.0
1020
0.0
1030
0.0
  0
LINE
  5
7B6
  8
回08-記事
  6
PHANTOM2
 62
     7
 10
330.6875219249401
 20
190.5067025575583
 30
0.0
 11
325.4697120406255
 21
195.724512441873
 31
0.0
1001
GRADIENTCOLOR1ACI
1070
     5
1001
GRADIENTCOLOR2ACI
1070
     2
1001
ACAD
1010
0.0
1020
0.0
1030
0.0
  0
LINE
  5
7B7
  8
回08-記事
  6
PHANTOM2
 62
     7
 10
330.6875219249402
 20
191.8537409757187
 30
0.0
 11
326.8167504587861
 21
195.724512441873
 31
0.0
1001
GRADIENTCOLOR1ACI
1070
     5
1001
GRADIENTCOLOR2ACI
1070
     2
1001
ACAD
1010
0.0
1020
0.0
1030
0.0
  0
LINE
  5
7B8
  8
回08-記事
  6
PHANTOM2
 62
     7
 10
330.6875219249404
 20
193.200779393879
 30
0.0
 11
328.1637888769463
 21
195.724512441873
 31
0.0
1001
GRADIENTCOLOR1ACI
1070
     5
1001
GRADIENTCOLOR2ACI
1070
     2
1001
ACAD
1010
0.0
1020
0.0
1030
0.0
  0
LINE
  5
7B9
  8
回08-記事
  6
PHANTOM2
 62
     7
 10
330.6875219249402
 20
194.5478178120395
 30
0.0
 11
329.5108272951068
 21
195.7245124418732
 31
0.0
1001
GRADIENTCOLOR1ACI
1070
     5
1001
GRADIENTCOLOR2ACI
1070
     2
1001
ACAD
1010
0.0
1020
0.0
1030
0.0
  0
ENDBLK
  5
7BB
  8
0
  6
CONTINUOUS
 62
     7
  0
BLOCK
  8
0
  2
*X8181
 70
     1
 10
0.0
 20
0.0
 30
0.0
  3
*X8181
  1

  0
INSERT
  5
7BE
  8
回08-記事
  6
CONTINUOUS
 62
     5
  2
_OPEN
 10
600.0821320012071
 20
155.001675404901
 30
0.0
 41
1.5
 42
1.5
 43
1.5
 50
342.2339629297096
  0
LINE
  5
7BF
  8
回08-記事
  6
CONTINUOUS
 62
     5
 10
598.6536663548304
 20
155.4593716984425
 30
0.0
 11
586.4671518911482
 21
159.3640665823301
 31
0.0
  0
LINE
  5
7C0
  8
回08-記事
  6
CONTINUOUS
 62
     5
 10
586.4671518911482
 20
159.3640665823301
 30
0.0
 11
551.2671518911481
 21
159.3640665823301
 31
0.0
  0
ENDBLK
  5
7C2
  8
0
  6
CONTINUOUS
 62
     7
  0
BLOCK
  8
0
  2
*X8282
 70
     1
 10
0.0
 20
0.0
 30
0.0
  3
*X8282
  1

  0
INSERT
  5
7C5
  8
回08-記事
  6
CONTINUOUS
 62
     5
  2
_OPEN
 10
602.3357728045827
 20
155.0667310473499
 30
0.0
 41
1.5
 42
1.5
 43
1.5
 50
207.8999606854051
  0
LINE
  5
7C6
  8
回08-記事
  6
CONTINUOUS
 62
     5
 10
603.661421731334
 20
155.7686248591216
 30
0.0
 11
607.1972366386724
 21
157.6407393782446
 31
0.0
  0
LINE
  5
7C7
  8
回08-記事
  6
CONTINUOUS
 62
     5
 10
607.1972366386724
 20
157.6407393782446
 30
0.0
 11
635.1972366386724
 21
157.6407393782446
 31
0.0
  0
ENDBLK
  5
7C9
  8
0
  6
CONTINUOUS
 62
     7
  0
BLOCK
  8
0
  2
*X8383
 70
     1
 10
0.0
 20
0.0
 30
0.0
  3
*X8383
  1

  0
LINE
  5
7D1
  8
回08-記事
  6
CONTINUOUS
 62
     7
 10
599.6258975098487
 20
170.0881372753633
 30
0.0
 11
600.3258975098487
 21
170.7881372753631
 31
0.0
1001
GRADIENTCOLOR1ACI
1070
     5
1001
GRADIENTCOLOR2ACI
1070
     2
1001
ACAD
1010
0.0
1020
0.0
1030
0.0
  0
LINE
  5
7D2
  8
回08-記事
  6
CONTINUOUS
 62
     7
 10
599.6258975098487
 20
168.7410988572029
 30
0.0
 11
600.3258975098487
 21
169.4410988572027
 31
0.0
1001
GRADIENTCOLOR1ACI
1070
     5
1001
GRADIENTCOLOR2ACI
1070
     2
1001
ACAD
1010
0.0
1020
0.0
1030
0.0
  0
LINE
  5
7D3
  8
回08-記事
  6
CONTINUOUS
 62
     7
 10
599.6258975098487
 20
167.3940604390426
 30
0.0
 11
600.3258975098487
 21
168.0940604390423
 31
0.0
1001
GRADIENTCOLOR1ACI
1070
     5
1001
GRADIENTCOLOR2ACI
1070
     2
1001
ACAD
1010
0.0
1020
0.0
1030
0.0
  0
LINE
  5
7D4
  8
回08-記事
  6
CONTINUOUS
 62
     7
 10
599.6258975098487
 20
166.0470220208821
 30
0.0
 11
600.3258975098487
 21
166.7470220208818
 31
0.0
1001
GRADIENTCOLOR1ACI
1070
     5
1001
GRADIENTCOLOR2ACI
1070
     2
1001
ACAD
1010
0.0
1020
0.0
1030
0.0
  0
LINE
  5
7D5
  8
回08-記事
  6
CONTINUOUS
 62
     7
 10
599.6258975098487
 20
164.6999836027218
 30
0.0
 11
600.3258975098487
 21
165.3999836027216
 31
0.0
1001
GRADIENTCOLOR1ACI
1070
     5
1001
GRADIENTCOLOR2ACI
1070
     2
1001
ACAD
1010
0.0
1020
0.0
1030
0.0
  0
LINE
  5
7D6
  8
回08-記事
  6
CONTINUOUS
 62
     7
 10
599.6258975098487
 20
163.3529451845614
 30
0.0
 11
600.3258975098487
 21
164.0529451845612
 31
0.0
1001
GRADIENTCOLOR1ACI
1070
     5
1001
GRADIENTCOLOR2ACI
1070
     2
1001
ACAD
1010
0.0
1020
0.0
1030
0.0
  0
LINE
  5
7D7
  8
回08-記事
  6
CONTINUOUS
 62
     7
 10
599.6258975098487
 20
162.005906766401
 30
0.0
 11
600.3258975098487
 21
162.7059067664008
 31
0.0
1001
GRADIENTCOLOR1ACI
1070
     5
1001
GRADIENTCOLOR2ACI
1070
     2
1001
ACAD
1010
0.0
1020
0.0
1030
0.0
  0
LINE
  5
7D8
  8
回08-記事
  6
CONTINUOUS
 62
     7
 10
599.6258975098487
 20
160.6588683482406
 30
0.0
 11
600.3258975098487
 21
161.3588683482403
 31
0.0
1001
GRADIENTCOLOR1ACI
1070
     5
1001
GRADIENTCOLOR2ACI
1070
     2
1001
ACAD
1010
0.0
1020
0.0
1030
0.0
  0
LINE
  5
7D9
  8
回08-記事
  6
CONTINUOUS
 62
     7
 10
599.6258975098487
 20
159.3118299300801
 30
0.0
 11
600.3258975098487
 21
160.0118299300799
 31
0.0
1001
GRADIENTCOLOR1ACI
1070
     5
1001
GRADIENTCOLOR2ACI
1070
     2
1001
ACAD
1010
0.0
1020
0.0
1030
0.0
  0
LINE
  5
7DA
  8
回08-記事
  6
CONTINUOUS
 62
     7
 10
599.6258975098487
 20
157.9647915119197
 30
0.0
 11
600.3258975098487
 21
158.6647915119195
 31
0.0
1001
GRADIENTCOLOR1ACI
1070
     5
1001
GRADIENTCOLOR2ACI
1070
     2
1001
ACAD
1010
0.0
1020
0.0
1030
0.0
  0
LINE
  5
7DB
  8
回08-記事
  6
CONTINUOUS
 62
     7
 10
599.6258975098487
 20
156.6177530937594
 30
0.0
 11
600.3258975098487
 21
157.3177530937592
 31
0.0
1001
GRADIENTCOLOR1ACI
1070
     5
1001
GRADIENTCOLOR2ACI
1070
     2
1001
ACAD
1010
0.0
1020
0.0
1030
0.0
  0
LINE
  5
7DC
  8
回08-記事
  6
CONTINUOUS
 62
     7
 10
599.6258975098487
 20
155.2707146755989
 30
0.0
 11
600.3258975098487
 21
155.9707146755988
 31
0.0
1001
GRADIENTCOLOR1ACI
1070
     5
1001
GRADIENTCOLOR2ACI
1070
     2
1001
ACAD
1010
0.0
1020
0.0
1030
0.0
  0
LINE
  5
7DD
  8
回08-記事
  6
CONTINUOUS
 62
     7
 10
599.6258975098487
 20
153.9236762574385
 30
0.0
 11
600.3258975098487
 21
154.6236762574384
 31
0.0
1001
GRADIENTCOLOR1ACI
1070
     5
1001
GRADIENTCOLOR2ACI
1070
     2
1001
ACAD
1010
0.0
1020
0.0
1030
0.0
  0
LINE
  5
7DE
  8
回08-記事
  6
CONTINUOUS
 62
     7
 10
599.6258975098487
 20
152.5766378392782
 30
0.0
 11
600.3258975098487
 21
153.276637839278
 31
0.0
1001
GRADIENTCOLOR1ACI
1070
     5
1001
GRADIENTCOLOR2ACI
1070
     2
1001
ACAD
1010
0.0
1020
0.0
1030
0.0
  0
LINE
  5
7DF
  8
回08-記事
  6
CONTINUOUS
 62
     7
 10
599.6258975098487
 20
151.2295994211177
 30
0.0
 11
600.3258975098487
 21
151.9295994211176
 31
0.0
1001
GRADIENTCOLOR1ACI
1070
     5
1001
GRADIENTCOLOR2ACI
1070
     2
1001
ACAD
1010
0.0
1020
0.0
1030
0.0
  0
LINE
  5
7E0
  8
回08-記事
  6
CONTINUOUS
 62
     7
 10
599.6258975098487
 20
149.8825610029574
 30
0.0
 11
600.3258975098487
 21
150.5825610029572
 31
0.0
1001
GRADIENTCOLOR1ACI
1070
     5
1001
GRADIENTCOLOR2ACI
1070
     2
1001
ACAD
1010
0.0
1020
0.0
1030
0.0
  0
LINE
  5
7E1
  8
回08-記事
  6
CONTINUOUS
 62
     7
 10
599.6258975098487
 20
148.535522584797
 30
0.0
 11
600.3258975098487
 21
149.2355225847969
 31
0.0
1001
GRADIENTCOLOR1ACI
1070
     5
1001
GRADIENTCOLOR2ACI
1070
     2
1001
ACAD
1010
0.0
1020
0.0
1030
0.0
  0
LINE
  5
7E2
  8
回08-記事
  6
CONTINUOUS
 62
     7
 10
599.6258975098487
 20
147.1884841666366
 30
0.0
 11
600.3258975098487
 21
147.8884841666364
 31
0.0
1001
GRADIENTCOLOR1ACI
1070
     5
1001
GRADIENTCOLOR2ACI
1070
     2
1001
ACAD
1010
0.0
1020
0.0
1030
0.0
  0
LINE
  5
7E3
  8
回08-記事
  6
CONTINUOUS
 62
     7
 10
599.6258975098487
 20
145.8414457484762
 30
0.0
 11
600.3258975098487
 21
146.5414457484761
 31
0.0
1001
GRADIENTCOLOR1ACI
1070
     5
1001
GRADIENTCOLOR2ACI
1070
     2
1001
ACAD
1010
0.0
1020
0.0
1030
0.0
  0
LINE
  5
7E4
  8
回08-記事
  6
CONTINUOUS
 62
     7
 10
600.3110840480059
 20
145.179593868473
 30
0.0
 11
600.3258975098487
 21
145.1944073303156
 31
0.0
1001
GRADIENTCOLOR1ACI
1070
     5
1001
GRADIENTCOLOR2ACI
1070
     2
1001
ACAD
1010
0.0
1020
0.0
1030
0.0
  0
ENDBLK
  5
7E6
  8
0
  6
CONTINUOUS
 62
     7
  0
BLOCK
  8
0
  2
*X8484
 70
     1
 10
0.0
 20
0.0
 30
0.0
  3
*X8484
  1

  0
LINE
  5
7EE
  8
回08-記事
  6
CONTINUOUS
 62
     7
 10
602.0258975098487
 20
170.0881372753632
 30
0.0
 11
602.7258975098487
 21
170.7881372753631
 31
0.0
1001
GRADIENTCOLOR1ACI
1070
     5
1001
GRADIENTCOLOR2ACI
1070
     2
1001
ACAD
1010
0.0
1020
0.0
1030
0.0
  0
LINE
  5
7EF
  8
回08-記事
  6
CONTINUOUS
 62
     7
 10
602.0258975098487
 20
168.7410988572029
 30
0.0
 11
602.7258975098487
 21
169.4410988572028
 31
0.0
1001
GRADIENTCOLOR1ACI
1070
     5
1001
GRADIENTCOLOR2ACI
1070
     2
1001
ACAD
1010
0.0
1020
0.0
1030
0.0
  0
LINE
  5
7F0
  8
回08-記事
  6
CONTINUOUS
 62
     7
 10
602.0258975098487
 20
167.3940604390425
 30
0.0
 11
602.7258975098487
 21
168.0940604390424
 31
0.0
1001
GRADIENTCOLOR1ACI
1070
     5
1001
GRADIENTCOLOR2ACI
1070
     2
1001
ACAD
1010
0.0
1020
0.0
1030
0.0
  0
LINE
  5
7F1
  8
回08-記事
  6
CONTINUOUS
 62
     7
 10
602.0258975098487
 20
166.0470220208821
 30
0.0
 11
602.7258975098487
 21
166.747022020882
 31
0.0
1001
GRADIENTCOLOR1ACI
1070
     5
1001
GRADIENTCOLOR2ACI
1070
     2
1001
ACAD
1010
0.0
1020
0.0
1030
0.0
  0
LINE
  5
7F2
  8
回08-記事
  6
CONTINUOUS
 62
     7
 10
602.0258975098487
 20
164.6999836027216
 30
0.0
 11
602.7258975098487
 21
165.3999836027215
 31
0.0
1001
GRADIENTCOLOR1ACI
1070
     5
1001
GRADIENTCOLOR2ACI
1070
     2
1001
ACAD
1010
0.0
1020
0.0
1030
0.0
  0
LINE
  5
7F3
  8
回08-記事
  6
CONTINUOUS
 62
     7
 10
602.0258975098487
 20
163.3529451845612
 30
0.0
 11
602.7258975098487
 21
164.0529451845612
 31
0.0
1001
GRADIENTCOLOR1ACI
1070
     5
1001
GRADIENTCOLOR2ACI
1070
     2
1001
ACAD
1010
0.0
1020
0.0
1030
0.0
  0
LINE
  5
7F4
  8
回08-記事
  6
CONTINUOUS
 62
     7
 10
602.0258975098487
 20
162.0059067664009
 30
0.0
 11
602.7258975098487
 21
162.7059067664007
 31
0.0
1001
GRADIENTCOLOR1ACI
1070
     5
1001
GRADIENTCOLOR2ACI
1070
     2
1001
ACAD
1010
0.0
1020
0.0
1030
0.0
  0
LINE
  5
7F5
  8
回08-記事
  6
CONTINUOUS
 62
     7
 10
602.0258975098487
 20
160.6588683482405
 30
0.0
 11
602.7258975098487
 21
161.3588683482403
 31
0.0
1001
GRADIENTCOLOR1ACI
1070
     5
1001
GRADIENTCOLOR2ACI
1070
     2
1001
ACAD
1010
0.0
1020
0.0
1030
0.0
  0
LINE
  5
7F6
  8
回08-記事
  6
CONTINUOUS
 62
     7
 10
602.0258975098487
 20
159.3118299300801
 30
0.0
 11
602.7258975098487
 21
160.0118299300799
 31
0.0
1001
GRADIENTCOLOR1ACI
1070
     5
1001
GRADIENTCOLOR2ACI
1070
     2
1001
ACAD
1010
0.0
1020
0.0
1030
0.0
  0
LINE
  5
7F7
  8
回08-記事
  6
CONTINUOUS
 62
     7
 10
602.0258975098487
 20
157.9647915119198
 30
0.0
 11
602.7258975098487
 21
158.6647915119195
 31
0.0
1001
GRADIENTCOLOR1ACI
1070
     5
1001
GRADIENTCOLOR2ACI
1070
     2
1001
ACAD
1010
0.0
1020
0.0
1030
0.0
  0
LINE
  5
7F8
  8
回08-記事
  6
CONTINUOUS
 62
     7
 10
602.0258975098487
 20
156.6177530937593
 30
0.0
 11
602.7258975098487
 21
157.3177530937591
 31
0.0
1001
GRADIENTCOLOR1ACI
1070
     5
1001
GRADIENTCOLOR2ACI
1070
     2
1001
ACAD
1010
0.0
1020
0.0
1030
0.0
  0
LINE
  5
7F9
  8
回08-記事
  6
CONTINUOUS
 62
     7
 10
602.0258975098487
 20
155.2707146755991
 30
0.0
 11
602.7258975098487
 21
155.9707146755988
 31
0.0
1001
GRADIENTCOLOR1ACI
1070
     5
1001
GRADIENTCOLOR2ACI
1070
     2
1001
ACAD
1010
0.0
1020
0.0
1030
0.0
  0
LINE
  5
7FA
  8
回08-記事
  6
CONTINUOUS
 62
     7
 10
602.0258975098487
 20
153.9236762574385
 30
0.0
 11
602.7258975098487
 21
154.6236762574384
 31
0.0
1001
GRADIENTCOLOR1ACI
1070
     5
1001
GRADIENTCOLOR2ACI
1070
     2
1001
ACAD
1010
0.0
1020
0.0
1030
0.0
  0
LINE
  5
7FB
  8
回08-記事
  6
CONTINUOUS
 62
     7
 10
602.0258975098487
 20
152.5766378392781
 30
0.0
 11
602.7258975098487
 21
153.2766378392779
 31
0.0
1001
GRADIENTCOLOR1ACI
1070
     5
1001
GRADIENTCOLOR2ACI
1070
     2
1001
ACAD
1010
0.0
1020
0.0
1030
0.0
  0
LINE
  5
7FC
  8
回08-記事
  6
CONTINUOUS
 62
     7
 10
602.0258975098487
 20
151.2295994211177
 30
0.0
 11
602.7258975098487
 21
151.9295994211176
 31
0.0
1001
GRADIENTCOLOR1ACI
1070
     5
1001
GRADIENTCOLOR2ACI
1070
     2
1001
ACAD
1010
0.0
1020
0.0
1030
0.0
  0
LINE
  5
7FD
  8
回08-記事
  6
CONTINUOUS
 62
     7
 10
602.0258975098487
 20
149.8825610029574
 30
0.0
 11
602.7258975098487
 21
150.5825610029572
 31
0.0
1001
GRADIENTCOLOR1ACI
1070
     5
1001
GRADIENTCOLOR2ACI
1070
     2
1001
ACAD
1010
0.0
1020
0.0
1030
0.0
  0
LINE
  5
7FE
  8
回08-記事
  6
CONTINUOUS
 62
     7
 10
602.0258975098487
 20
148.535522584797
 30
0.0
 11
602.7258975098484
 21
149.2355225847967
 31
0.0
1001
GRADIENTCOLOR1ACI
1070
     5
1001
GRADIENTCOLOR2ACI
1070
     2
1001
ACAD
1010
0.0
1020
0.0
1030
0.0
  0
LINE
  5
7FF
  8
回08-記事
  6
CONTINUOUS
 62
     7
 10
602.0258975098487
 20
147.1884841666366
 30
0.0
 11
602.7258975098487
 21
147.8884841666364
 31
0.0
1001
GRADIENTCOLOR1ACI
1070
     5
1001
GRADIENTCOLOR2ACI
1070
     2
1001
ACAD
1010
0.0
1020
0.0
1030
0.0
  0
LINE
  5
800
  8
回08-記事
  6
CONTINUOUS
 62
     7
 10
602.0258975098487
 20
145.8414457484761
 30
0.0
 11
602.7258975098487
 21
146.5414457484761
 31
0.0
1001
GRADIENTCOLOR1ACI
1070
     5
1001
GRADIENTCOLOR2ACI
1070
     2
1001
ACAD
1010
0.0
1020
0.0
1030
0.0
  0
LINE
  5
801
  8
回08-記事
  6
CONTINUOUS
 62
     7
 10
602.7110840480061
 20
145.1795938684731
 30
0.0
 11
602.7258975098487
 21
145.1944073303156
 31
0.0
1001
GRADIENTCOLOR1ACI
1070
     5
1001
GRADIENTCOLOR2ACI
1070
     2
1001
ACAD
1010
0.0
1020
0.0
1030
0.0
  0
ENDBLK
  5
803
  8
0
  6
CONTINUOUS
 62
     7
  0
BLOCK
  8
0
  2
*X8585
 70
     1
 10
0.0
 20
0.0
 30
0.0
  3
*X8585
  1

  0
LINE
  5
806
  8
回08-記事
  6
CONTINUOUS
 62
     7
 10
592.4327132908781
 20
191.476836674081
 30
0.0
 11
593.4121027590626
 21
192.4562261422656
 31
0.0
1001
GRADIENTCOLOR1ACI
1070
     5
1001
GRADIENTCOLOR2ACI
1070
     2
1001
ACAD
1010
0.0
1020
0.0
1030
0.0
  0
LINE
  5
807
  8
回08-記事
  6
CONTINUOUS
 62
     7
 10
592.4327132908781
 20
190.1297982559206
 30
0.0
 11
593.1327132908782
 21
190.829798255921
 31
0.0
1001
GRADIENTCOLOR1ACI
1070
     5
1001
GRADIENTCOLOR2ACI
1070
     2
1001
ACAD
1010
0.0
1020
0.0
1030
0.0
  0
LINE
  5
808
  8
回08-記事
  6
CONTINUOUS
 62
     7
 10
593.7591411772229
 20
191.4562261422655
 30
0.0
 11
594.7591411772228
 21
192.4562261422655
 31
0.0
1001
GRADIENTCOLOR1ACI
1070
     5
1001
GRADIENTCOLOR2ACI
1070
     2
1001
ACAD
1010
0.0
1020
0.0
1030
0.0
  0
LINE
  5
809
  8
回08-記事
  6
CONTINUOUS
 62
     7
 10
592.4327132908781
 20
188.7827598377602
 30
0.0
 11
593.1327132908782
 21
189.4827598377605
 31
0.0
1001
GRADIENTCOLOR1ACI
1070
     5
1001
GRADIENTCOLOR2ACI
1070
     2
1001
ACAD
1010
0.0
1020
0.0
1030
0.0
  0
LINE
  5
80A
  8
回08-記事
  6
CONTINUOUS
 62
     7
 10
595.1061795953835
 20
191.4562261422655
 30
0.0
 11
596.1061795953834
 21
192.4562261422655
 31
0.0
1001
GRADIENTCOLOR1ACI
1070
     5
1001
GRADIENTCOLOR2ACI
1070
     2
1001
ACAD
1010
0.0
1020
0.0
1030
0.0
  0
LINE
  5
80B
  8
回08-記事
  6
CONTINUOUS
 62
     7
 10
596.4532180135437
 20
191.4562261422655
 30
0.0
 11
597.4532180135437
 21
192.4562261422655
 31
0.0
1001
GRADIENTCOLOR1ACI
1070
     5
1001
GRADIENTCOLOR2ACI
1070
     2
1001
ACAD
1010
0.0
1020
0.0
1030
0.0
  0
LINE
  5
80C
  8
回08-記事
  6
CONTINUOUS
 62
     7
 10
597.8002564317042
 20
191.4562261422655
 30
0.0
 11
598.8002564317042
 21
192.4562261422655
 31
0.0
1001
GRADIENTCOLOR1ACI
1070
     5
1001
GRADIENTCOLOR2ACI
1070
     2
1001
ACAD
1010
0.0
1020
0.0
1030
0.0
  0
LINE
  5
80D
  8
回08-記事
  6
CONTINUOUS
 62
     7
 10
599.1472948498646
 20
191.4562261422656
 30
0.0
 11
600.1472948498647
 21
192.4562261422656
 31
0.0
1001
GRADIENTCOLOR1ACI
1070
     5
1001
GRADIENTCOLOR2ACI
1070
     2
1001
ACAD
1010
0.0
1020
0.0
1030
0.0
  0
LINE
  5
80E
  8
回08-記事
  6
CONTINUOUS
 62
     7
 10
602.0258975098487
 20
191.640751965929
 30
0.0
 11
602.5413716861852
 21
192.1562261422654
 31
0.0
1001
GRADIENTCOLOR1ACI
1070
     5
1001
GRADIENTCOLOR2ACI
1070
     2
1001
ACAD
1010
0.0
1020
0.0
1030
0.0
  0
LINE
  5
80F
  8
回08-記事
  6
CONTINUOUS
 62
     7
 10
602.0258975098487
 20
190.2937135477685
 30
0.0
 11
602.7258975098484
 21
190.9937135477681
 31
0.0
1001
GRADIENTCOLOR1ACI
1070
     5
1001
GRADIENTCOLOR2ACI
1070
     2
1001
ACAD
1010
0.0
1020
0.0
1030
0.0
  0
LINE
  5
810
  8
回08-記事
  6
CONTINUOUS
 62
     7
 10
603.1884101043457
 20
191.4562261422655
 30
0.0
 11
603.8884101043456
 21
192.1562261422654
 31
0.0
1001
GRADIENTCOLOR1ACI
1070
     5
1001
GRADIENTCOLOR2ACI
1070
     2
1001
ACAD
1010
0.0
1020
0.0
1030
0.0
  0
LINE
  5
811
  8
回08-記事
  6
CONTINUOUS
 62
     7
 10
602.0258975098487
 20
188.946675129608
 30
0.0
 11
602.7258975098487
 21
189.646675129608
 31
0.0
1001
GRADIENTCOLOR1ACI
1070
     5
1001
GRADIENTCOLOR2ACI
1070
     2
1001
ACAD
1010
0.0
1020
0.0
1030
0.0
  0
LINE
  5
812
  8
回08-記事
  6
CONTINUOUS
 62
     7
 10
604.5354485225062
 20
191.4562261422656
 30
0.0
 11
605.2354485225058
 21
192.1562261422654
 31
0.0
1001
GRADIENTCOLOR1ACI
1070
     5
1001
GRADIENTCOLOR2ACI
1070
     2
1001
ACAD
1010
0.0
1020
0.0
1030
0.0
  0
LINE
  5
813
  8
回08-記事
  6
CONTINUOUS
 62
     7
 10
608.3258975098487
 20
195.2466751296079
 30
0.0
 11
608.8037348221137
 21
195.7245124418731
 31
0.0
1001
GRADIENTCOLOR1ACI
1070
     5
1001
GRADIENTCOLOR2ACI
1070
     2
1001
ACAD
1010
0.0
1020
0.0
1030
0.0
  0
LINE
  5
814
  8
回08-記事
  6
CONTINUOUS
 62
     7
 10
605.8824869406667
 20
191.4562261422655
 30
0.0
 11
606.5824869406664
 21
192.1562261422654
 31
0.0
1001
GRADIENTCOLOR1ACI
1070
     5
1001
GRADIENTCOLOR2ACI
1070
     2
1001
ACAD
1010
0.0
1020
0.0
1030
0.0
  0
LINE
  5
815
  8
回08-記事
  6
CONTINUOUS
 62
     7
 10
608.3258975098487
 20
193.8996367114475
 30
0.0
 11
609.0258975098487
 21
194.5996367114478
 31
0.0
1001
GRADIENTCOLOR1ACI
1070
     5
1001
GRADIENTCOLOR2ACI
1070
     2
1001
ACAD
1010
0.0
1020
0.0
1030
0.0
  0
LINE
  5
816
  8
回08-記事
  6
CONTINUOUS
 62
     7
 10
607.2295253588272
 20
191.4562261422657
 30
0.0
 11
607.9295253588266
 21
192.1562261422654
 31
0.0
1001
GRADIENTCOLOR1ACI
1070
     5
1001
GRADIENTCOLOR2ACI
1070
     2
1001
ACAD
1010
0.0
1020
0.0
1030
0.0
  0
LINE
  5
817
  8
回08-記事
  6
CONTINUOUS
 62
     7
 10
608.3258975098487
 20
192.5525982932872
 30
0.0
 11
609.0258975098487
 21
193.2525982932874
 31
0.0
1001
GRADIENTCOLOR1ACI
1070
     5
1001
GRADIENTCOLOR2ACI
1070
     2
1001
ACAD
1010
0.0
1020
0.0
1030
0.0
  0
LINE
  5
818
  8
回08-記事
  6
CONTINUOUS
 62
     7
 10
608.5765637769875
 20
191.4562261422656
 30
0.0
 11
609.0258975098487
 21
191.905559875127
 31
0.0
1001
GRADIENTCOLOR1ACI
1070
     5
1001
GRADIENTCOLOR2ACI
1070
     2
1001
ACAD
1010
0.0
1020
0.0
1030
0.0
  0
ENDBLK
  5
81A
  8
0
  6
CONTINUOUS
 62
     7
  0
BLOCK
  8
0
  2
*X8686
 70
     1
 10
0.0
 20
0.0
 30
0.0
  3
*X8686
  1

  0
LINE
  5
84E
  8
回08-記事
  6
CONTINUOUS
 62
     7
 10
316.8723116898107
 20
171.7381530244825
 30
0.0
 11
317.3097041629903
 21
172.1755454976622
 31
0.0
1001
GRADIENTCOLOR1ACI
1070
     5
1001
GRADIENTCOLOR2ACI
1070
     2
1001
ACAD
1010
0.0
1020
0.0
1030
0.0
  0
LINE
  5
84F
  8
回08-記事
  6
CONTINUOUS
 62
     7
 10
316.8723116898107
 20
170.3911146063221
 30
0.0
 11
318.6567425811507
 21
172.1755454976622
 31
0.0
1001
GRADIENTCOLOR1ACI
1070
     5
1001
GRADIENTCOLOR2ACI
1070
     2
1001
ACAD
1010
0.0
1020
0.0
1030
0.0
  0
LINE
  5
850
  8
回08-記事
  6
CONTINUOUS
 62
     7
 10
316.8723116898107
 20
169.0440761881618
 30
0.0
 11
320.0037809993111
 21
172.1755454976622
 31
0.0
1001
GRADIENTCOLOR1ACI
1070
     5
1001
GRADIENTCOLOR2ACI
1070
     2
1001
ACAD
1010
0.0
1020
0.0
1030
0.0
  0
LINE
  5
851
  8
回08-記事
  6
CONTINUOUS
 62
     7
 10
316.8723116898107
 20
167.6970377700014
 30
0.0
 11
320.8723116898107
 21
171.6970377700014
 31
0.0
1001
GRADIENTCOLOR1ACI
1070
     5
1001
GRADIENTCOLOR2ACI
1070
     2
1001
ACAD
1010
0.0
1020
0.0
1030
0.0
  0
LINE
  5
852
  8
回08-記事
  6
CONTINUOUS
 62
     7
 10
316.8723116898107
 20
166.349999351841
 30
0.0
 11
320.8723116898107
 21
170.349999351841
 31
0.0
1001
GRADIENTCOLOR1ACI
1070
     5
1001
GRADIENTCOLOR2ACI
1070
     2
1001
ACAD
1010
0.0
1020
0.0
1030
0.0
  0
LINE
  5
853
  8
回08-記事
  6
CONTINUOUS
 62
     7
 10
316.8723116898107
 20
165.0029609336807
 30
0.0
 11
320.8723116898107
 21
169.0029609336806
 31
0.0
1001
GRADIENTCOLOR1ACI
1070
     5
1001
GRADIENTCOLOR2ACI
1070
     2
1001
ACAD
1010
0.0
1020
0.0
1030
0.0
  0
LINE
  5
854
  8
回08-記事
  6
CONTINUOUS
 62
     7
 10
316.8723116898107
 20
163.6559225155203
 30
0.0
 11
320.8723116898107
 21
167.6559225155203
 31
0.0
1001
GRADIENTCOLOR1ACI
1070
     5
1001
GRADIENTCOLOR2ACI
1070
     2
1001
ACAD
1010
0.0
1020
0.0
1030
0.0
  0
LINE
  5
855
  8
回08-記事
  6
CONTINUOUS
 62
     7
 10
316.8723116898107
 20
162.3088840973599
 30
0.0
 11
320.8723116898107
 21
166.3088840973599
 31
0.0
1001
GRADIENTCOLOR1ACI
1070
     5
1001
GRADIENTCOLOR2ACI
1070
     2
1001
ACAD
1010
0.0
1020
0.0
1030
0.0
  0
LINE
  5
856
  8
回08-記事
  6
CONTINUOUS
 62
     7
 10
316.8723116898107
 20
160.9618456791995
 30
0.0
 11
320.8723116898107
 21
164.9618456791995
 31
0.0
1001
GRADIENTCOLOR1ACI
1070
     5
1001
GRADIENTCOLOR2ACI
1070
     2
1001
ACAD
1010
0.0
1020
0.0
1030
0.0
  0
LINE
  5
857
  8
回08-記事
  6
CONTINUOUS
 62
     7
 10
316.8723116898107
 20
159.6148072610391
 30
0.0
 11
320.8723116898107
 21
163.6148072610392
 31
0.0
1001
GRADIENTCOLOR1ACI
1070
     5
1001
GRADIENTCOLOR2ACI
1070
     2
1001
ACAD
1010
0.0
1020
0.0
1030
0.0
  0
LINE
  5
858
  8
回08-記事
  6
CONTINUOUS
 62
     7
 10
316.8723116898107
 20
158.2677688428788
 30
0.0
 11
320.8723116898107
 21
162.2677688428788
 31
0.0
1001
GRADIENTCOLOR1ACI
1070
     5
1001
GRADIENTCOLOR2ACI
1070
     2
1001
ACAD
1010
0.0
1020
0.0
1030
0.0
  0
LINE
  5
859
  8
回08-記事
  6
CONTINUOUS
 62
     7
 10
316.8723116898107
 20
156.9207304247185
 30
0.0
 11
320.8723116898107
 21
160.9207304247185
 31
0.0
1001
GRADIENTCOLOR1ACI
1070
     5
1001
GRADIENTCOLOR2ACI
1070
     2
1001
ACAD
1010
0.0
1020
0.0
1030
0.0
  0
LINE
  5
85A
  8
回08-記事
  6
CONTINUOUS
 62
     7
 10
316.8723116898107
 20
155.5736920065581
 30
0.0
 11
320.8723116898107
 21
159.5736920065581
 31
0.0
1001
GRADIENTCOLOR1ACI
1070
     5
1001
GRADIENTCOLOR2ACI
1070
     2
1001
ACAD
1010
0.0
1020
0.0
1030
0.0
  0
LINE
  5
85B
  8
回08-記事
  6
CONTINUOUS
 62
     7
 10
316.8723116898107
 20
154.2266535883977
 30
0.0
 11
320.8723116898107
 21
158.2266535883977
 31
0.0
1001
GRADIENTCOLOR1ACI
1070
     5
1001
GRADIENTCOLOR2ACI
1070
     2
1001
ACAD
1010
0.0
1020
0.0
1030
0.0
  0
LINE
  5
85C
  8
回08-記事
  6
CONTINUOUS
 62
     7
 10
316.8723116898107
 20
152.8796151702374
 30
0.0
 11
320.8723116898107
 21
156.8796151702373
 31
0.0
1001
GRADIENTCOLOR1ACI
1070
     5
1001
GRADIENTCOLOR2ACI
1070
     2
1001
ACAD
1010
0.0
1020
0.0
1030
0.0
  0
LINE
  5
85D
  8
回08-記事
  6
CONTINUOUS
 62
     7
 10
316.8723116898107
 20
151.532576752077
 30
0.0
 11
320.8723116898107
 21
155.5325767520769
 31
0.0
1001
GRADIENTCOLOR1ACI
1070
     5
1001
GRADIENTCOLOR2ACI
1070
     2
1001
ACAD
1010
0.0
1020
0.0
1030
0.0
  0
LINE
  5
85E
  8
回08-記事
  6
CONTINUOUS
 62
     7
 10
316.8723116898107
 20
150.1855383339166
 30
0.0
 11
320.8723116898107
 21
154.1855383339166
 31
0.0
1001
GRADIENTCOLOR1ACI
1070
     5
1001
GRADIENTCOLOR2ACI
1070
     2
1001
ACAD
1010
0.0
1020
0.0
1030
0.0
  0
LINE
  5
85F
  8
回08-記事
  6
CONTINUOUS
 62
     7
 10
316.8723116898107
 20
148.8384999157562
 30
0.0
 11
320.8723116898107
 21
152.8384999157562
 31
0.0
1001
GRADIENTCOLOR1ACI
1070
     5
1001
GRADIENTCOLOR2ACI
1070
     2
1001
ACAD
1010
0.0
1020
0.0
1030
0.0
  0
LINE
  5
860
  8
回08-記事
  6
CONTINUOUS
 62
     7
 10
316.8723116898107
 20
147.4914614975959
 30
0.0
 11
320.8723116898107
 21
151.4914614975958
 31
0.0
1001
GRADIENTCOLOR1ACI
1070
     5
1001
GRADIENTCOLOR2ACI
1070
     2
1001
ACAD
1010
0.0
1020
0.0
1030
0.0
  0
LINE
  5
861
  8
回08-記事
  6
CONTINUOUS
 62
     7
 10
316.9034341080374
 20
146.1755454976621
 30
0.0
 11
320.8723116898107
 21
150.1444230794355
 31
0.0
1001
GRADIENTCOLOR1ACI
1070
     5
1001
GRADIENTCOLOR2ACI
1070
     2
1001
ACAD
1010
0.0
1020
0.0
1030
0.0
  0
LINE
  5
862
  8
回08-記事
  6
CONTINUOUS
 62
     7
 10
318.2504725261977
 20
146.1755454976621
 30
0.0
 11
320.8723116898107
 21
148.7973846612751
 31
0.0
1001
GRADIENTCOLOR1ACI
1070
     5
1001
GRADIENTCOLOR2ACI
1070
     2
1001
ACAD
1010
0.0
1020
0.0
1030
0.0
  0
LINE
  5
863
  8
回08-記事
  6
CONTINUOUS
 62
     7
 10
319.5975109443581
 20
146.1755454976621
 30
0.0
 11
320.8723116898107
 21
147.4503462431147
 31
0.0
1001
GRADIENTCOLOR1ACI
1070
     5
1001
GRADIENTCOLOR2ACI
1070
     2
1001
ACAD
1010
0.0
1020
0.0
1030
0.0
  0
ENDBLK
  5
865
  8
0
  6
CONTINUOUS
 62
     7
  0
BLOCK
  8
0
  2
*X8787
 70
     1
 10
0.0
 20
0.0
 30
0.0
  3
*X8787
  1

  0
TEXT
  5
87C
  8
回07-寸法
  6
CONTINUOUS
 62
     5
 10
599.7306102689305
 20
524.7273511006151
 30
0.0
 40
5.0
  1
2.1
  0
TEXT
  5
87D
  8
回07-寸法
  6
CONTINUOUS
 62
     5
 10
607.2306102689306
 20
524.7273511006151
 30
0.0
 40
3.333499999999999
  1
±0.2
  0
ENDBLK
  5
87F
  8
0
  6
CONTINUOUS
 62
     7
  0
BLOCK
  8
0
  2
*X8888
 70
     1
 10
0.0
 20
0.0
 30
0.0
  3
*X8888
  1

  0
TEXT
  5
882
  8
回08-記事
  6
CONTINUOUS
 62
     5
 10
576.2567101716307
 20
150.6126889211673
 30
0.0
 40
5.0
  1
0.3
  0
TEXT
  5
883
  8
回08-記事
  6
CONTINUOUS
 62
     5
 10
584.7567101716307
 20
150.6126889211673
 30
0.0
 40
3.333499999999999
  1
±0.05
  0
ENDBLK
  5
885
  8
0
  6
CONTINUOUS
 62
     7
  0
BLOCK
  8
0
  2
*X8989
 70
     1
 10
0.0
 20
0.0
 30
0.0
  3
*X8989
  1

  0
TEXT
  5
888
  8
回08-記事
  6
CONTINUOUS
 62
     5
 10
616.8757344894922
 20
146.023489443908
 30
0.0
 40
5.0
  1
0.3
  0
TEXT
  5
889
  8
回08-記事
  6
CONTINUOUS
 62
     5
 10
625.3757344894922
 20
146.023489443908
 30
0.0
 40
3.333499999999999
  1
±0.05
  0
ENDBLK
  5
88B
  8
0
  6
CONTINUOUS
 62
     7
  0
BLOCK
  8
0
  2
*X9090
 70
     1
 10
0.0
 20
0.0
 30
0.0
  3
*X9090
  1

  0
TEXT
  5
88E
  8
回07-寸法
  6
CONTINUOUS
 62
     5
 10
68.8827654197687
 20
376.1860095898407
 30
0.0
 40
5.0
  1
253.9
 50
90.0
  0
TEXT
  5
88F
  8
回07-寸法
  6
CONTINUOUS
 62
     5
 10
68.8827654197687
 20
391.7040614324757
 30
0.0
 40
3.5
  1
±0.3
 50
90.0
  0
ENDBLK
  5
891
  8
0
  6
CONTINUOUS
 62
     7
  0
BLOCK
  8
0
  2
*X9191
 70
     1
 10
0.0
 20
0.0
 30
0.0
  3
*X9191
  1

  0
TEXT
  5
894
  8
回07-寸法
  6
CONTINUOUS
 62
     5
 10
330.6007575357526
 20
572.7930276371426
 30
0.0
 40
5.0
  1
427.6
  0
TEXT
  5
895
  8
回07-寸法
  6
CONTINUOUS
 62
     5
 10
346.6007575357526
 20
572.7930276371426
 30
0.0
 40
3.5
  1
±0.3
  0
ENDBLK
  5
897
  8
0
  6
CONTINUOUS
 62
     7
  0
BLOCK
  8
0
  2
*X9292
 70
     1
 10
0.0
 20
0.0
 30
0.0
  3
*X9292
  1

  0
TEXT
  5
89A
  8
回07-寸法
  6
CONTINUOUS
 62
     5
 10
80.63325754575329
 20
520.955567007221
 30
0.0
 40
5.0
  1
(6.5)
 50
90.0
  0
TEXT
  5
89B
  8
回07-寸法
  6
CONTINUOUS
 62
     5
 10
80.63325754575329
 20
533.455567007221
 30
0.0
 40
3.333499999999999
  1
(Insulation area)
 50
90.0
  0
ENDBLK
  5
89D
  8
0
  6
CONTINUOUS
 62
     7
  0
BLOCK
  8
0
  2
*X9393
 70
     1
 10
0.0
 20
0.0
 30
0.0
  3
*X9393
  1

  0
TEXT
  5
8A0
  8
回07-寸法
  6
CONTINUOUS
 62
     5
 10
81.60461118732765
 20
560.9592105111585
 30
0.0
 40
5.0
  1
5.5
  0
TEXT
  5
8A1
  8
回07-寸法
  6
CONTINUOUS
 62
     5
 10
90.10461118732763
 20
560.9592105111585
 30
0.0
 40
3.333499999999999
  1
(Insulation area)
  0
ENDBLK
  5
8A3
  8
0
  6
CONTINUOUS
 62
     7
  0
BLOCK
  8
0
  2
*X9494
 70
     1
 10
0.0
 20
0.0
 30
0.0
  3
*X9494
  1

  0
TEXT
  5
8A6
  8
回07-寸法
  6
CONTINUOUS
 62
     5
 10
562.4612890318156
 20
561.0425355111585
 30
0.0
 40
5.0
  1
(5.5)
  0
TEXT
  5
8A7
  8
回07-寸法
  6
CONTINUOUS
 62
     5
 10
574.9612890318156
 20
561.0425355111585
 30
0.0
 40
3.333499999999999
  1
(Insulation area)
  0
ENDBLK
  5
8A9
  8
0
  6
CONTINUOUS
 62
     7
  0
BLOCK
  8
0
  2
*X9595
 70
     1
 10
0.0
 20
0.0
 30
0.0
  3
*X9595
  1

  0
TEXT
  5
8AC
  8
回07-寸法
  6
CONTINUOUS
 62
     5
 10
80.71609041976822
 20
211.2988891627331
 30
0.0
 40
5.0
  1
10.2
 50
90.0
  0
TEXT
  5
8AD
  8
回07-寸法
  6
CONTINUOUS
 62
     5
 10
80.71609041976822
 20
222.2988891627331
 30
0.0
 40
3.333499999999999
  1
(Insulation area)
 50
90.0
  0
ENDBLK
  5
8AF
  8
0
  6
CONTINUOUS
 62
     7
  0
BLOCK
  8
0
  2
*X9696
 70
     1
 10
0.0
 20
0.0
 30
0.0
  3
*X9696
  1

  0
TEXT
  5
8B2
  8
回07-寸法
  6
CONTINUOUS
 62
     5
 10
276.6537183322598
 20
204.347059696564
 30
0.0
 40
5.0
  1
100
 50
90.0
  0
TEXT
  5
8B3
  8
回07-寸法
  6
CONTINUOUS
 62
     5
 10
276.6537183322598
 20
213.847059696564
 30
0.0
 40
3.5
  1
±1
 50
90.0
  0
ENDBLK
  5
8B5
  8
0
  6
CONTINUOUS
 62
     7
  0
BLOCK
  8
0
  2
*X9797
 70
     1
 10
0.0
 20
0.0
 30
0.0
  3
*X9797
  1

  0
TEXT
  5
8B8
  8
回07-寸法
  6
CONTINUOUS
 62
     5
 10
367.9132575357527
 20
136.8168636538315
 30
0.0
 40
5.0
  1
13.5
  0
TEXT
  5
8B9
  8
回07-寸法
  6
CONTINUOUS
 62
     5
 10
378.9132575357527
 20
136.8168636538315
 30
0.0
 40
3.5
  1
±0.1
  0
ENDBLK
  5
8BB
  8
0
  6
CONTINUOUS
 62
     7
  0
BLOCK
  8
0
  2
*X9898
 70
     1
 10
0.0
 20
0.0
 30
0.0
  3
*X9898
  1

  0
TEXT
  5
8BE
  8
回07-寸法
  6
CONTINUOUS
 62
     5
 10
364.6503605148642
 20
146.8115838819695
 30
0.0
 40
5.0
  1
17.5
  0
TEXT
  5
8BF
  8
回07-寸法
  6
CONTINUOUS
 62
     5
 10
375.6503605148644
 20
146.8115838819695
 30
0.0
 40
3.5
  1
±0.1
  0
ENDBLK
  5
8C1
  8
0
  6
CONTINUOUS
 62
     7
  0
BLOCK
  8
0
  2
*X9999
 70
     1
 10
0.0
 20
0.0
 30
0.0
  3
*X9999
  1

  0
TEXT
  5
8C4
  8
回07-寸法
  6
CONTINUOUS
 62
     5
 10
404.9243828946916
 20
204.3470596965633
 30
0.0
 40
5.0
  1
100
 50
90.0
  0
TEXT
  5
8C5
  8
回07-寸法
  6
CONTINUOUS
 62
     5
 10
404.9243828946916
 20
213.8470596965633
 30
0.0
 40
3.5
  1
±1
 50
90.0
  0
ENDBLK
  5
8C7
  8
0
  6
CONTINUOUS
 62
     7
  0
BLOCK
  8
0
  2
*X100100
 70
     1
 10
0.0
 20
0.0
 30
0.0
  3
*X100100
  1

  0
TEXT
  5
8CA
  8
回07-寸法
  6
CONTINUOUS
 62
     5
 10
395.1975219684305
 20
135.1957503276703
 30
0.0
 40
5.0
  1
100
 50
90.0
  0
TEXT
  5
8CB
  8
回07-寸法
  6
CONTINUOUS
 62
     5
 10
395.1975219684305
 20
144.6957503276703
 30
0.0
 40
3.5
  1
±1
 50
90.0
  0
ENDBLK
  5
8CD
  8
0
  6
CONTINUOUS
 62
     7
  0
BLOCK
  8
0
  2
*X101101
 70
     1
 10
0.0
 20
0.0
 30
0.0
  3
*X101101
  1

  0
TEXT
  5
8D0
  8
回07-寸法
  6
CONTINUOUS
 62
     5
 10
354.923499588603
 20
77.66027451307656
 30
0.0
 40
5.0
  1
17.5
  0
TEXT
  5
8D1
  8
回07-寸法
  6
CONTINUOUS
 62
     5
 10
365.923499588603
 20
77.66027451307656
 30
0.0
 40
3.5
  1
±0.1
  0
ENDBLK
  5
8D3
  8
0
  6
CONTINUOUS
 62
     7
  0
BLOCK
  8
0
  2
*X102102
 70
     1
 10
0.0
 20
0.0
 30
0.0
  3
*X102102
  1

  0
TEXT
  5
8D6
  8
回07-寸法
  6
CONTINUOUS
 62
     5
 10
358.1863966094914
 20
67.66555428493854
 30
0.0
 40
5.0
  1
13.5
  0
TEXT
  5
8D7
  8
回07-寸法
  6
CONTINUOUS
 62
     5
 10
369.1863966094913
 20
67.66555428493854
 30
0.0
 40
3.5
  1
±0.1
  0
ENDBLK
  5
8D9
  8
0
  6
CONTINUOUS
 62
     7
  0
BLOCK
  8
0
  2
*X103103
 70
     1
 10
0.0
 20
0.0
 30
0.0
  3
*X103103
  1

  0
TEXT
  5
8DC
  8
回07-寸法
  6
CONTINUOUS
 62
     5
 10
266.9268574059986
 20
135.1957503276709
 30
0.0
 40
5.0
  1
100
 50
90.0
  0
TEXT
  5
8DD
  8
回07-寸法
  6
CONTINUOUS
 62
     5
 10
266.9268574059986
 20
144.6957503276709
 30
0.0
 40
3.5
  1
±1
 50
90.0
  0
ENDBLK
  5
8DF
  8
0
  6
CONTINUOUS
 62
     7
  0
BLOCK
  8
0
  2
*X104104
 70
     1
 10
0.0
 20
0.0
 30
0.0
  3
*X104104
  1

  0
TEXT
  5
8E2
  8
回07-寸法
  6
CONTINUOUS
 62
     5
 10
70.98972161949126
 20
142.14757979384
 30
0.0
 40
5.0
  1
10.2
 50
90.0
  0
TEXT
  5
8E3
  8
回07-寸法
  6
CONTINUOUS
 62
     5
 10
70.98972161949126
 20
153.14757979384
 30
0.0
 40
3.333499999999999
  1
(Insulation area)
 50
90.0
  0
ENDBLK
  5
8E5
  8
0
  6
CONTINUOUS
 62
     7
  0
BLOCK
  8
0
  2
*X105105
 70
     1
 10
0.0
 20
0.0
 30
0.0
  3
*X105105
  1

  0
TEXT
  5
8E8
  8
回07-寸法
  6
CONTINUOUS
 62
     5
 10
552.7344281055543
 20
491.8912261422654
 30
0.0
 40
5.0
  1
(5.5)
  0
TEXT
  5
8E9
  8
回07-寸法
  6
CONTINUOUS
 62
     5
 10
565.2344281055543
 20
491.8912261422654
 30
0.0
 40
3.333499999999999
  1
(Insulation area)
  0
ENDBLK
  5
8EB
  8
0
  6
CONTINUOUS
 62
     7
  0
BLOCK
  8
0
  2
*X106106
 70
     1
 10
0.0
 20
0.0
 30
0.0
  3
*X106106
  1

  0
TEXT
  5
8EE
  8
回07-寸法
  6
CONTINUOUS
 62
     5
 10
71.87775026106641
 20
491.8079011422656
 30
0.0
 40
5.0
  1
5.5
  0
TEXT
  5
8EF
  8
回07-寸法
  6
CONTINUOUS
 62
     5
 10
80.37775026106642
 20
491.8079011422656
 30
0.0
 40
3.333499999999999
  1
(Insulation area)
  0
ENDBLK
  5
8F1
  8
0
  6
CONTINUOUS
 62
     7
  0
BLOCK
  8
0
  2
*X107107
 70
     1
 10
0.0
 20
0.0
 30
0.0
  3
*X107107
  1

  0
TEXT
  5
8F4
  8
回07-寸法
  6
CONTINUOUS
 62
     5
 10
70.906396619492
 20
451.8042576383278
 30
0.0
 40
5.0
  1
(6.5)
 50
90.0
  0
TEXT
  5
8F5
  8
回07-寸法
  6
CONTINUOUS
 62
     5
 10
70.906396619492
 20
464.3042576383278
 30
0.0
 40
3.333499999999999
  1
(Insulation area)
 50
90.0
  0
ENDBLK
  5
8F7
  8
0
  6
CONTINUOUS
 62
     7
  0
BLOCK
  8
0
  2
*X108108
 70
     1
 10
0.0
 20
0.0
 30
0.0
  3
*X108108
  1

  0
TEXT
  5
8FA
  8
回07-寸法
  6
CONTINUOUS
 62
     5
 10
320.8738966094913
 20
503.6412261422654
 30
0.0
 40
5.0
  1
427.6
  0
TEXT
  5
8FB
  8
回07-寸法
  6
CONTINUOUS
 62
     5
 10
336.8738966094913
 20
503.6412261422654
 30
0.0
 40
3.5
  1
±0.3
  0
ENDBLK
  5
8FD
  8
0
  6
CONTINUOUS
 62
     7
  0
BLOCK
  8
0
  2
*X109109
 70
     1
 10
0.0
 20
0.0
 30
0.0
  3
*X109109
  1

  0
TEXT
  5
900
  8
回07-寸法
  6
CONTINUOUS
 62
     5
 10
59.15639661949171
 20
307.0347002209477
 30
0.0
 40
5.0
  1
253.9
 50
90.0
  0
TEXT
  5
901
  8
回07-寸法
  6
CONTINUOUS
 62
     5
 10
59.15639661949171
 20
322.5527520635826
 30
0.0
 40
3.5
  1
±0.3
 50
90.0
  0
ENDBLK
  5
903
  8
0
  6
CONTINUOUS
 62
     7
  0
BLOCK
  8
0
  2
*X110110
 70
     1
 10
0.0
 20
0.0
 30
0.0
  3
*X110110
  1

  0
TEXT
  5
906
  8
回08-記事
  6
CONTINUOUS
 62
     5
 10
607.0798345177226
 20
76.87218007501503
 30
0.0
 40
5.0
  1
0.3
  0
TEXT
  5
907
  8
回08-記事
  6
CONTINUOUS
 62
     5
 10
615.5798345177226
 20
76.87218007501503
 30
0.0
 40
3.333499999999999
  1
±0.05
  0
ENDBLK
  5
909
  8
0
  6
CONTINUOUS
 62
     7
  0
BLOCK
  8
0
  2
*X111111
 70
     1
 10
0.0
 20
0.0
 30
0.0
  3
*X111111
  1

  0
TEXT
  5
90C
  8
回08-記事
  6
CONTINUOUS
 62
     5
 10
566.5988882908781
 20
81.46137955227429
 30
0.0
 40
5.0
  1
0.3
  0
TEXT
  5
90D
  8
回08-記事
  6
CONTINUOUS
 62
     5
 10
575.0988882908781
 20
81.46137955227429
 30
0.0
 40
3.333499999999999
  1
±0.05
  0
ENDBLK
  5
90F
  8
0
  6
CONTINUOUS
 62
     7
  0
BLOCK
  8
0
  2
*X112112
 70
     1
 10
0.0
 20
0.0
 30
0.0
  3
*X112112
  1

  0
TEXT
  5
912
  8
回07-寸法
  6
CONTINUOUS
 62
     5
 10
590.0037493426692
 20
455.5755496057378
 30
0.0
 40
5.0
  1
2.1
  0
TEXT
  5
913
  8
回07-寸法
  6
CONTINUOUS
 62
     5
 10
597.5037493426692
 20
455.5755496057378
 30
0.0
 40
3.333499999999999
  1
±0.2
  0
ENDBLK
  5
915
  8
0
  6
CONTINUOUS
 62
     7
  0
ENDSEC
  0
SECTION
  2
ENTITIES
  0
TEXT
  5
5F
  8
回03-記事
  6
CONTINUOUS
 62
     5
 10
399.8868389267
 20
29.61559902290868
 30
0.0
 40
6.144000000000001
  1
without affecting product specification.
  0
TEXT
  5
61
  8
回03-記事
  6
CONTINUOUS
 62
     5
 10
399.8868389267
 20
40.39282233708468
 30
0.0
 40
6.144000000000001
  1
Edges and corners of ITO glass may be chamfered 
  0
TEXT
  5
62
  8
回03-記事
  6
CONTINUOUS
 62
     5
 10
399.8868389267
 20
51.17004565126039
 30
0.0
 40
6.144000000000001
  1
Unit: mm
  0
TEXT
  5
63
  8
回03-記事
  6
CONTINUOUS
 62
     5
 10
399.8868389267
 20
61.94726896543611
 30
0.0
 40
6.144000000000001
  1
EXCEPT WHERE INDICATED
  0
TEXT
  5
64
  8
回03-記事
  6
CONTINUOUS
 62
     5
 10
399.8868389267
 20
72.72449227961164
 30
0.0
 40
6.144000000000001
  1
TOLERANCE=±0.5mm
  0
TEXT
  5
65
  8
回08-記事
  6
CONTINUOUS
 62
     5
 10
543.9550684118374
 20
154.1022392980807
 30
0.0
 40
4.0
  1
MTR-G185WB100B
  0
TEXT
  5
69
  8
回08-記事
  6
CONTINUOUS
 62
     7
 10
353.4626351478717
 20
85.06795789467565
 30
0.0
 40
2.5
  1
(Conductor side near side)
  0
TEXT
  5
6A
  8
回08-記事
  6
CONTINUOUS
 62
     7
 10
274.8969642393029
 20
84.9513306789591
 30
0.0
 40
2.5
  1
(Conductor side far side)
 41
0.9
  0
TEXT
  5
6B
  8
回08-記事
  6
CONTINUOUS
 62
     7
 10
354.2791946866598
 20
88.2677001773032
 30
0.0
 40
2.399999999999999
  1
Tail-1
  0
TEXT
  5
6C
  8
回08-記事
  6
CONTINUOUS
 62
     7
 10
298.4669106376739
 20
88.25911071892965
 30
0.0
 40
2.399999999999999
  1
Tail-2
  0
INSERT
  5
6D
  8
回08-記事
  6
CONTINUOUS
 62
     5
 66
     1
  2
*X7777
 10
0.0
 20
0.0
 30
0.0
  0
SEQEND
  5
6FF
  8
0
  6
CONTINUOUS
 62
     7
  0
INSERT
  5
6E
  8
回08-記事
  6
CONTINUOUS
 62
     7
 66
     1
  2
*X7878
 10
0.0
 20
0.0
 30
0.0
  0
SEQEND
  5
706
  8
0
  6
CONTINUOUS
 62
     7
  0
TEXT
  5
6F
  8
回08-記事
  6
CONTINUOUS
 62
     7
 10
305.1770469243668
 20
93.12625251412972
 30
0.0
 40
3.0
  1
60
  0
TEXT
  5
70
  8
回08-記事
  6
CONTINUOUS
 62
     7
 10
327.9390645564228
 20
93.12625251412972
 30
0.0
 40
3.0
  1
27
  0
TEXT
  5
71
  8
回08-記事
  6
CONTINUOUS
 62
     7
 10
334.2319234422132
 20
93.12625251412972
 30
0.0
 40
3.0
  1
26
  0
TEXT
  5
72
  8
回08-記事
  6
CONTINUOUS
 62
     7
 10
353.441685601266
 20
93.12625251412972
 30
0.0
 40
3.0
  1
1
  0
TEXT
  5
73
  8
回08-記事
  6
CONTINUOUS
 62
     7
 10
754.2056700972441
 20
466.3615937149272
 30
0.0
 40
4.0
  1
PIN ASSIGNMENT
  0
TEXT
  5
74
  8
回08-記事
  6
CONTINUOUS
 62
     7
 10
727.1564362134779
 20
57.85953179671998
 30
0.0
 40
4.5
  1
PROTECTION TAPE
  0
TEXT
  5
75
  8
回08-記事
  6
CONTINUOUS
 62
     7
 10
718.8988897852142
 20
57.93646053839615
 30
0.0
 40
4.679999999999999
  1
6
  0
LINE
  5
76
  8
回08-記事
  6
CONTINUOUS
 62
     7
 10
716.507852417709
 20
56.5926989768592
 30
0.0
 11
810.6016652728701
 21
56.5926989768592
 31
0.0
  0
TEXT
  5
77
  8
回08-記事
  6
CONTINUOUS
 62
     7
 10
726.8539263871682
 20
65.28854072650926
 30
0.0
 40
4.679999999999999
  1
STIFFENER
  0
TEXT
  5
78
  8
回08-記事
  6
CONTINUOUS
 62
     7
 10
726.8539263871682
 20
73.08854072650934
 30
0.0
 40
4.679999999999999
  1
REINFORCEMENT FILM
  0
LINE
  5
79
  8
回08-記事
  6
CONTINUOUS
 62
     7
 10
810.6016652728701
 20
56.59269897685924
 30
0.0
 11
810.6016652728701
 21
103.3926989768593
 31
0.0
  0
TEXT
  5
7A
  8
回08-記事
  6
CONTINUOUS
 62
     7
 10
718.8988897852142
 20
81.33646053839617
 30
0.0
 40
4.679999999999999
  1
3
  0
TEXT
  5
7B
  8
回08-記事
  6
CONTINUOUS
 62
     7
 10
718.8988897852142
 20
73.53646053839629
 30
0.0
 40
4.679999999999999
  1
4
  0
TEXT
  5
7C
  8
回08-記事
  6
CONTINUOUS
 62
     7
 10
718.8988897852142
 20
89.13646053839626
 30
0.0
 40
4.679999999999999
  1
2
  0
TEXT
  5
7D
  8
回08-記事
  6
CONTINUOUS
 62
     7
 10
718.8988897852142
 20
65.73646053839621
 30
0.0
 40
4.679999999999999
  1
5
  0
LINE
  5
7E
  8
回08-記事
  6
CONTINUOUS
 62
     7
 10
724.6234469865751
 20
103.3926989768593
 30
0.0
 11
724.6234469865751
 21
56.59269897685924
 31
0.0
  0
LINE
  5
7F
  8
回08-記事
  6
CONTINUOUS
 62
     7
 10
716.507852417709
 20
103.3926989768593
 30
0.0
 11
716.507852417709
 21
56.59269897685924
 31
0.0
  0
TEXT
  5
80
  8
回08-記事
  6
CONTINUOUS
 62
     7
 10
718.8988897852142
 20
96.93646053839614
 30
0.0
 40
4.679999999999999
  1
1
  0
LINE
  5
81
  8
回08-記事
  6
CONTINUOUS
 62
     7
 10
716.507852417709
 20
64.39269897685909
 30
0.0
 11
810.6016652728701
 21
64.39269897685909
 31
0.0
  0
LINE
  5
82
  8
回08-記事
  6
CONTINUOUS
 62
     7
 10
716.507852417709
 20
95.59269897685927
 30
0.0
 11
810.6016652728701
 21
95.59269897685927
 31
0.0
  0
LINE
  5
83
  8
回08-記事
  6
CONTINUOUS
 62
     7
 10
716.507852417709
 20
103.3926989768594
 30
0.0
 11
810.6016652728701
 21
103.3926989768594
 31
0.0
  0
LINE
  5
84
  8
回08-記事
  6
CONTINUOUS
 62
     7
 10
716.507852417709
 20
72.19269897685922
 30
0.0
 11
810.6016652728701
 21
72.19269897685922
 31
0.0
  0
LINE
  5
85
  8
回08-記事
  6
CONTINUOUS
 62
     7
 10
716.507852417709
 20
79.99269897685912
 30
0.0
 11
810.6016652728701
 21
79.99269897685912
 31
0.0
  0
LINE
  5
86
  8
回08-記事
  6
CONTINUOUS
 62
     7
 10
716.507852417709
 20
87.79269897685919
 30
0.0
 11
810.6016652728701
 21
87.79269897685919
 31
0.0
  0
TEXT
  5
87
  8
回08-記事
  6
CONTINUOUS
 62
     7
 10
726.8539263871682
 20
96.48854072650935
 30
0.0
 40
4.679999999999999
  1
ITO FILM (ANTI-GLARE)
  0
TEXT
  5
88
  8
回08-記事
  6
CONTINUOUS
 62
     7
 10
726.8539263871682
 20
88.68854072650931
 30
0.0
 40
4.679999999999999
  1
ITO GLASS
  0
TEXT
  5
89
  8
回08-記事
  6
CONTINUOUS
 62
     7
 10
726.8539263871682
 20
80.88854072650923
 30
0.0
 40
4.679999999999999
  1
FPC
  0
TEXT
  5
8A
  8
回90-枠2
 10
748.8526720470182
 20
36.62694255476544
 30
0.0
 40
5.877614223360004
  1
Oct/12/2023
  0
TEXT
  5
8D
  8
回90-枠2
 10
660.6358540876342
 20
36.62694255476544
 30
0.0
 40
5.877614223360004
  1
MTR-G185WB100B
  0
LINE
  5
8E
  8
回90-枠2
  6
CONTINUOUS
 62
     7
 10
651.144571809438
 20
50.9454396807077
 30
0.0
 11
815.7177700635182
 21
50.9454396807077
 31
0.0
  0
TEXT
  5
8F
  8
回90-枠2
 10
762.9081407898303
 20
46.26195430083129
 30
0.0
 40
4.114329956352001
  1
DATE
  0
LINE
  5
90
  8
回90-枠2
  6
CONTINUOUS
 62
     7
 10
651.144571809438
 20
50.9454396807077
 30
0.0
 11
815.7177700635182
 21
50.9454396807077
 31
0.0
  0
TEXT
  5
91
  8
回90-枠2
 10
747.5732043400128
 20
21.40108120844042
 30
0.0
 40
5.877614223360004
  1
DMC Co., Ltd.
  0
LINE
  5
92
  8
回90-枠2
 10
727.5535567131184
 20
50.9454396807077
 30
0.0
 11
727.5535567131184
 21
15.67975434054796
 31
0.0
  0
TEXT
  5
93
  8
回90-枠2
 10
669.2204623481091
 20
22.79464521437984
 30
0.0
 40
3.526568534016003
  1
Multi Touch Resistive
  0
LINE
  5
94
  8
回90-枠2
 10
651.144571809438
 20
50.9454396807077
 30
0.0
 11
651.144571809438
 21
15.67975434054796
 31
0.0
  0
TEXT
  5
95
  8
回90-枠2
 10
684.0920032239862
 20
28.48924564251746
 30
0.0
 40
3.526568534016003
  1
TYPE
  0
LINE
  5
96
  8
回90-枠2
 10
654.6711403434535
 20
21.5573685639078
 30
0.0
 11
724.0269881791014
 21
21.5573685639078
 31
0.0
  0
TEXT
  5
97
  8
回90-枠2
 10
666.5106468255082
 20
16.5160565323319
 30
0.0
 40
3.526568534016003
  1
DIMENSIONAL DRAWING
  0
TEXT
  5
98
  8
回90-枠2
 10
679.1188256706711
 20
46.08183337842429
 30
0.0
 40
4.114329956352001
  1
PART No.
  0
LINE
  5
99
  8
回90-枠2
 10
651.144571809438
 20
33.31259701062794
 30
0.0
 11
815.7177700635182
 21
33.31259701062794
 31
0.0
  0
LINE
  5
9A
  8
回90-枠2
 10
651.144571809438
 20
27.43498278726787
 30
0.0
 11
727.5535567131184
 21
27.43498278726787
 31
0.0
  0
LINE
  5
9B
  8
回90-枠2
 10
651.144571809438
 20
45.06782545734785
 30
0.0
 11
815.7177700635182
 21
45.06782545734785
 31
0.0
  0
POLYLINE
  5
9C
  8
回01-上ER
  6
CONTINUOUS
 62
     7
 66
     1
 10
0.0
 20
0.0
 30
0.0
 70
     1
  0
VERTEX
  5
B69
  8
回01-上ER
  6
CONTINUOUS
 62
     7
 10
127.3833966094914
 20
437.0562261422647
 30
0.0
  0
VERTEX
  5
B6B
  8
回01-上ER
  6
CONTINUOUS
 62
     7
 10
538.9893966094924
 20
437.0562261422647
 30
0.0
  0
VERTEX
  5
B6C
  8
回01-上ER
  6
CONTINUOUS
 62
     7
 10
538.9893966094924
 20
408.3812261422647
 30
0.0
  0
VERTEX
  5
B6D
  8
回01-上ER
  6
CONTINUOUS
 62
     7
 10
127.3833966094914
 20
408.3812261422647
 30
0.0
  0
SEQEND
  5
B6A
  8
0
  6
CONTINUOUS
 62
     7
  0
POLYLINE
  5
A0
  8
回01-上ER
  6
CONTINUOUS
 62
     7
 66
     1
 10
0.0
 20
0.0
 30
0.0
 70
     1
  0
VERTEX
  5
B6E
  8
回01-上ER
  6
CONTINUOUS
 62
     7
 10
127.3833966094914
 20
407.9812261422648
 30
0.0
  0
VERTEX
  5
B70
  8
回01-上ER
  6
CONTINUOUS
 62
     7
 10
538.9893966094924
 20
407.9812261422648
 30
0.0
  0
VERTEX
  5
B71
  8
回01-上ER
  6
CONTINUOUS
 62
     7
 10
538.9893966094924
 20
379.3062261422648
 30
0.0
  0
VERTEX
  5
B72
  8
回01-上ER
  6
CONTINUOUS
 62
     7
 10
127.3833966094914
 20
379.3062261422648
 30
0.0
  0
SEQEND
  5
B6F
  8
0
  6
CONTINUOUS
 62
     7
  0
POLYLINE
  5
A1
  8
回01-上ER
  6
CONTINUOUS
 62
     7
 66
     1
 10
0.0
 20
0.0
 30
0.0
 70
     1
  0
VERTEX
  5
B73
  8
回01-上ER
  6
CONTINUOUS
 62
     7
 10
127.3833966094914
 20
378.9062261422651
 30
0.0
  0
VERTEX
  5
B75
  8
回01-上ER
  6
CONTINUOUS
 62
     7
 10
538.9893966094924
 20
378.9062261422651
 30
0.0
  0
VERTEX
  5
B76
  8
回01-上ER
  6
CONTINUOUS
 62
     7
 10
538.9893966094924
 20
350.231226142265
 30
0.0
  0
VERTEX
  5
B77
  8
回01-上ER
  6
CONTINUOUS
 62
     7
 10
127.3833966094914
 20
350.231226142265
 30
0.0
  0
SEQEND
  5
B74
  8
0
  6
CONTINUOUS
 62
     7
  0
POLYLINE
  5
A2
  8
回01-上ER
  6
CONTINUOUS
 62
     7
 66
     1
 10
0.0
 20
0.0
 30
0.0
 70
     1
  0
VERTEX
  5
B78
  8
回01-上ER
  6
CONTINUOUS
 62
     7
 10
127.3833966094914
 20
349.831226142265
 30
0.0
  0
VERTEX
  5
B7A
  8
回01-上ER
  6
CONTINUOUS
 62
     7
 10
538.9893966094924
 20
349.831226142265
 30
0.0
  0
VERTEX
  5
B7B
  8
回01-上ER
  6
CONTINUOUS
 62
     7
 10
538.9893966094924
 20
321.156226142265
 30
0.0
  0
VERTEX
  5
B7C
  8
回01-上ER
  6
CONTINUOUS
 62
     7
 10
127.3833966094914
 20
321.156226142265
 30
0.0
  0
SEQEND
  5
B79
  8
0
  6
CONTINUOUS
 62
     7
  0
POLYLINE
  5
A3
  8
回01-上ER
  6
CONTINUOUS
 62
     7
 66
     1
 10
0.0
 20
0.0
 30
0.0
 70
     1
  0
VERTEX
  5
B7D
  8
回01-上ER
  6
CONTINUOUS
 62
     7
 10
127.3833966094914
 20
320.7562261422651
 30
0.0
  0
VERTEX
  5
B7F
  8
回01-上ER
  6
CONTINUOUS
 62
     7
 10
538.9893966094924
 20
320.7562261422651
 30
0.0
  0
VERTEX
  5
B80
  8
回01-上ER
  6
CONTINUOUS
 62
     7
 10
538.9893966094924
 20
292.0812261422651
 30
0.0
  0
VERTEX
  5
B81
  8
回01-上ER
  6
CONTINUOUS
 62
     7
 10
127.3833966094914
 20
292.0812261422651
 30
0.0
  0
SEQEND
  5
B7E
  8
0
  6
CONTINUOUS
 62
     7
  0
POLYLINE
  5
A4
  8
回01-上ER
  6
CONTINUOUS
 62
     7
 66
     1
 10
0.0
 20
0.0
 30
0.0
 70
     1
  0
VERTEX
  5
B82
  8
回01-上ER
  6
CONTINUOUS
 62
     7
 10
127.3833966094914
 20
291.6812261422652
 30
0.0
  0
VERTEX
  5
B84
  8
回01-上ER
  6
CONTINUOUS
 62
     7
 10
538.9893966094924
 20
291.6812261422652
 30
0.0
  0
VERTEX
  5
B85
  8
回01-上ER
  6
CONTINUOUS
 62
     7
 10
538.9893966094924
 20
263.0062261422652
 30
0.0
  0
VERTEX
  5
B86
  8
回01-上ER
  6
CONTINUOUS
 62
     7
 10
127.3833966094914
 20
263.0062261422652
 30
0.0
  0
SEQEND
  5
B83
  8
0
  6
CONTINUOUS
 62
     7
  0
POLYLINE
  5
A5
  8
回01-上ER
  6
CONTINUOUS
 62
     7
 66
     1
 10
0.0
 20
0.0
 30
0.0
 70
     1
  0
VERTEX
  5
B87
  8
回01-上ER
  6
CONTINUOUS
 62
     7
 10
127.3833966094914
 20
262.6062261422654
 30
0.0
  0
VERTEX
  5
B89
  8
回01-上ER
  6
CONTINUOUS
 62
     7
 10
538.9893966094924
 20
262.6062261422654
 30
0.0
  0
VERTEX
  5
B8A
  8
回01-上ER
  6
CONTINUOUS
 62
     7
 10
538.9893966094924
 20
233.9312261422654
 30
0.0
  0
VERTEX
  5
B8B
  8
回01-上ER
  6
CONTINUOUS
 62
     7
 10
127.3833966094914
 20
233.9312261422654
 30
0.0
  0
SEQEND
  5
B88
  8
0
  6
CONTINUOUS
 62
     7
  0
POLYLINE
  5
A6
  8
回01-上ER
  6
CONTINUOUS
 62
     7
 66
     1
 10
0.0
 20
0.0
 30
0.0
 70
     1
  0
VERTEX
  5
B8C
  8
回01-上ER
  6
CONTINUOUS
 62
     7
 10
127.3833966094914
 20
233.5312261422654
 30
0.0
  0
VERTEX
  5
B8E
  8
回01-上ER
  6
CONTINUOUS
 62
     7
 10
538.9893966094924
 20
233.5312261422654
 30
0.0
  0
VERTEX
  5
B8F
  8
回01-上ER
  6
CONTINUOUS
 62
     7
 10
538.9893966094924
 20
204.8562261422654
 30
0.0
  0
VERTEX
  5
B90
  8
回01-上ER
  6
CONTINUOUS
 62
     7
 10
127.3833966094914
 20
204.8562261422654
 30
0.0
  0
SEQEND
  5
B8D
  8
0
  6
CONTINUOUS
 62
     7
  0
POLYLINE
  5
A7
  8
回03-下ER
  6
CONTINUOUS
 62
     7
 66
     1
 10
0.0
 20
0.0
 30
0.0
 70
     1
  0
VERTEX
  5
B91
  8
回03-下ER
  6
CONTINUOUS
 62
     7
 10
509.9603966094925
 20
204.8562261422654
 30
0.0
  0
VERTEX
  5
B93
  8
回03-下ER
  6
CONTINUOUS
 62
     7
 10
538.9893966094924
 20
204.8562261422654
 30
0.0
  0
VERTEX
  5
B94
  8
回03-下ER
  6
CONTINUOUS
 62
     7
 10
538.9893966094924
 20
437.0562261422647
 30
0.0
  0
VERTEX
  5
B95
  8
回03-下ER
  6
CONTINUOUS
 62
     7
 10
509.9603966094925
 20
437.0562261422647
 30
0.0
  0
SEQEND
  5
B92
  8
0
  6
CONTINUOUS
 62
     7
  0
POLYLINE
  5
AB
  8
回03-下ER
  6
CONTINUOUS
 62
     7
 66
     1
 10
0.0
 20
0.0
 30
0.0
 70
     1
  0
VERTEX
  5
B96
  8
回03-下ER
  6
CONTINUOUS
 62
     7
 10
480.5313966094923
 20
204.8562261422654
 30
0.0
  0
VERTEX
  5
B98
  8
回03-下ER
  6
CONTINUOUS
 62
     7
 10
509.5603966094925
 20
204.8562261422654
 30
0.0
  0
VERTEX
  5
B99
  8
回03-下ER
  6
CONTINUOUS
 62
     7
 10
509.5603966094925
 20
437.0562261422647
 30
0.0
  0
VERTEX
  5
B9A
  8
回03-下ER
  6
CONTINUOUS
 62
     7
 10
480.5313966094923
 20
437.0562261422647
 30
0.0
  0
SEQEND
  5
B97
  8
0
  6
CONTINUOUS
 62
     7
  0
POLYLINE
  5
AC
  8
回03-下ER
  6
CONTINUOUS
 62
     7
 66
     1
 10
0.0
 20
0.0
 30
0.0
 70
     1
  0
VERTEX
  5
B9B
  8
回03-下ER
  6
CONTINUOUS
 62
     7
 10
451.1023966094923
 20
204.8562261422654
 30
0.0
  0
VERTEX
  5
B9D
  8
回03-下ER
  6
CONTINUOUS
 62
     7
 10
480.1313966094923
 20
204.8562261422654
 30
0.0
  0
VERTEX
  5
B9E
  8
回03-下ER
  6
CONTINUOUS
 62
     7
 10
480.1313966094923
 20
437.0562261422647
 30
0.0
  0
VERTEX
  5
B9F
  8
回03-下ER
  6
CONTINUOUS
 62
     7
 10
451.1023966094923
 20
437.0562261422647
 30
0.0
  0
SEQEND
  5
B9C
  8
0
  6
CONTINUOUS
 62
     7
  0
POLYLINE
  5
AD
  8
回03-下ER
  6
CONTINUOUS
 62
     7
 66
     1
 10
0.0
 20
0.0
 30
0.0
 70
     1
  0
VERTEX
  5
BA0
  8
回03-下ER
  6
CONTINUOUS
 62
     7
 10
421.6733966094923
 20
204.8562261422654
 30
0.0
  0
VERTEX
  5
BA2
  8
回03-下ER
  6
CONTINUOUS
 62
     7
 10
450.7023966094923
 20
204.8562261422654
 30
0.0
  0
VERTEX
  5
BA3
  8
回03-下ER
  6
CONTINUOUS
 62
     7
 10
450.7023966094923
 20
437.0562261422647
 30
0.0
  0
VERTEX
  5
BA4
  8
回03-下ER
  6
CONTINUOUS
 62
     7
 10
421.6733966094923
 20
437.0562261422647
 30
0.0
  0
SEQEND
  5
BA1
  8
0
  6
CONTINUOUS
 62
     7
  0
POLYLINE
  5
AE
  8
回03-下ER
  6
CONTINUOUS
 62
     7
 66
     1
 10
0.0
 20
0.0
 30
0.0
 70
     1
  0
VERTEX
  5
BA5
  8
回03-下ER
  6
CONTINUOUS
 62
     7
 10
392.2443966094922
 20
204.8562261422654
 30
0.0
  0
VERTEX
  5
BA7
  8
回03-下ER
  6
CONTINUOUS
 62
     7
 10
421.2733966094921
 20
204.8562261422654
 30
0.0
  0
VERTEX
  5
BA8
  8
回03-下ER
  6
CONTINUOUS
 62
     7
 10
421.2733966094921
 20
437.0562261422647
 30
0.0
  0
VERTEX
  5
BA9
  8
回03-下ER
  6
CONTINUOUS
 62
     7
 10
392.2443966094922
 20
437.0562261422647
 30
0.0
  0
SEQEND
  5
BA6
  8
0
  6
CONTINUOUS
 62
     7
  0
POLYLINE
  5
AF
  8
回03-下ER
  6
CONTINUOUS
 62
     7
 66
     1
 10
0.0
 20
0.0
 30
0.0
 70
     1
  0
VERTEX
  5
BAA
  8
回03-下ER
  6
CONTINUOUS
 62
     7
 10
362.8153966094922
 20
204.8562261422654
 30
0.0
  0
VERTEX
  5
BAC
  8
回03-下ER
  6
CONTINUOUS
 62
     7
 10
391.8443966094922
 20
204.8562261422654
 30
0.0
  0
VERTEX
  5
BAD
  8
回03-下ER
  6
CONTINUOUS
 62
     7
 10
391.8443966094922
 20
437.0562261422647
 30
0.0
  0
VERTEX
  5
BAE
  8
回03-下ER
  6
CONTINUOUS
 62
     7
 10
362.8153966094922
 20
437.0562261422647
 30
0.0
  0
SEQEND
  5
BAB
  8
0
  6
CONTINUOUS
 62
     7
  0
POLYLINE
  5
B0
  8
回03-下ER
  6
CONTINUOUS
 62
     7
 66
     1
 10
0.0
 20
0.0
 30
0.0
 70
     1
  0
VERTEX
  5
BAF
  8
回03-下ER
  6
CONTINUOUS
 62
     7
 10
333.386396609492
 20
204.8562261422654
 30
0.0
  0
VERTEX
  5
BB1
  8
回03-下ER
  6
CONTINUOUS
 62
     7
 10
362.4153966094921
 20
204.8562261422654
 30
0.0
  0
VERTEX
  5
BB2
  8
回03-下ER
  6
CONTINUOUS
 62
     7
 10
362.4153966094921
 20
437.0562261422647
 30
0.0
  0
VERTEX
  5
BB3
  8
回03-下ER
  6
CONTINUOUS
 62
     7
 10
333.386396609492
 20
437.0562261422647
 30
0.0
  0
SEQEND
  5
BB0
  8
0
  6
CONTINUOUS
 62
     7
  0
POLYLINE
  5
B1
  8
回03-下ER
  6
CONTINUOUS
 62
     7
 66
     1
 10
0.0
 20
0.0
 30
0.0
 70
     1
  0
VERTEX
  5
BB4
  8
回03-下ER
  6
CONTINUOUS
 62
     7
 10
303.957396609492
 20
204.8562261422654
 30
0.0
  0
VERTEX
  5
BB6
  8
回03-下ER
  6
CONTINUOUS
 62
     7
 10
332.986396609492
 20
204.8562261422654
 30
0.0
  0
VERTEX
  5
BB7
  8
回03-下ER
  6
CONTINUOUS
 62
     7
 10
332.986396609492
 20
437.0562261422647
 30
0.0
  0
VERTEX
  5
BB8
  8
回03-下ER
  6
CONTINUOUS
 62
     7
 10
303.957396609492
 20
437.0562261422647
 30
0.0
  0
SEQEND
  5
BB5
  8
0
  6
CONTINUOUS
 62
     7
  0
POLYLINE
  5
B2
  8
回03-下ER
  6
CONTINUOUS
 62
     7
 66
     1
 10
0.0
 20
0.0
 30
0.0
 70
     1
  0
VERTEX
  5
BB9
  8
回03-下ER
  6
CONTINUOUS
 62
     7
 10
274.5283966094919
 20
204.8562261422654
 30
0.0
  0
VERTEX
  5
BBB
  8
回03-下ER
  6
CONTINUOUS
 62
     7
 10
303.5573966094919
 20
204.8562261422654
 30
0.0
  0
VERTEX
  5
BBC
  8
回03-下ER
  6
CONTINUOUS
 62
     7
 10
303.5573966094919
 20
437.0562261422647
 30
0.0
  0
VERTEX
  5
BBD
  8
回03-下ER
  6
CONTINUOUS
 62
     7
 10
274.5283966094919
 20
437.0562261422647
 30
0.0
  0
SEQEND
  5
BBA
  8
0
  6
CONTINUOUS
 62
     7
  0
POLYLINE
  5
B3
  8
回03-下ER
  6
CONTINUOUS
 62
     7
 66
     1
 10
0.0
 20
0.0
 30
0.0
 70
     1
  0
VERTEX
  5
BBE
  8
回03-下ER
  6
CONTINUOUS
 62
     7
 10
245.0993966094918
 20
204.8562261422654
 30
0.0
  0
VERTEX
  5
BC0
  8
回03-下ER
  6
CONTINUOUS
 62
     7
 10
274.1283966094918
 20
204.8562261422654
 30
0.0
  0
VERTEX
  5
BC1
  8
回03-下ER
  6
CONTINUOUS
 62
     7
 10
274.1283966094918
 20
437.0562261422647
 30
0.0
  0
VERTEX
  5
BC2
  8
回03-下ER
  6
CONTINUOUS
 62
     7
 10
245.0993966094918
 20
437.0562261422647
 30
0.0
  0
SEQEND
  5
BBF
  8
0
  6
CONTINUOUS
 62
     7
  0
POLYLINE
  5
B4
  8
回03-下ER
  6
CONTINUOUS
 62
     7
 66
     1
 10
0.0
 20
0.0
 30
0.0
 70
     1
  0
VERTEX
  5
BC3
  8
回03-下ER
  6
CONTINUOUS
 62
     7
 10
215.6703966094917
 20
204.8562261422654
 30
0.0
  0
VERTEX
  5
BC5
  8
回03-下ER
  6
CONTINUOUS
 62
     7
 10
244.6993966094917
 20
204.8562261422654
 30
0.0
  0
VERTEX
  5
BC6
  8
回03-下ER
  6
CONTINUOUS
 62
     7
 10
244.6993966094917
 20
437.0562261422647
 30
0.0
  0
VERTEX
  5
BC7
  8
回03-下ER
  6
CONTINUOUS
 62
     7
 10
215.6703966094917
 20
437.0562261422647
 30
0.0
  0
SEQEND
  5
BC4
  8
0
  6
CONTINUOUS
 62
     7
  0
POLYLINE
  5
B5
  8
回03-下ER
  6
CONTINUOUS
 62
     7
 66
     1
 10
0.0
 20
0.0
 30
0.0
 70
     1
  0
VERTEX
  5
BC8
  8
回03-下ER
  6
CONTINUOUS
 62
     7
 10
186.2413966094915
 20
204.8562261422654
 30
0.0
  0
VERTEX
  5
BCA
  8
回03-下ER
  6
CONTINUOUS
 62
     7
 10
215.2703966094916
 20
204.8562261422654
 30
0.0
  0
VERTEX
  5
BCB
  8
回03-下ER
  6
CONTINUOUS
 62
     7
 10
215.2703966094916
 20
437.0562261422647
 30
0.0
  0
VERTEX
  5
BCC
  8
回03-下ER
  6
CONTINUOUS
 62
     7
 10
186.2413966094915
 20
437.0562261422647
 30
0.0
  0
SEQEND
  5
BC9
  8
0
  6
CONTINUOUS
 62
     7
  0
POLYLINE
  5
B6
  8
回03-下ER
  6
CONTINUOUS
 62
     7
 66
     1
 10
0.0
 20
0.0
 30
0.0
 70
     1
  0
VERTEX
  5
BCD
  8
回03-下ER
  6
CONTINUOUS
 62
     7
 10
156.8123966094915
 20
204.8562261422654
 30
0.0
  0
VERTEX
  5
BCF
  8
回03-下ER
  6
CONTINUOUS
 62
     7
 10
185.8413966094915
 20
204.8562261422654
 30
0.0
  0
VERTEX
  5
BD0
  8
回03-下ER
  6
CONTINUOUS
 62
     7
 10
185.8413966094915
 20
437.0562261422647
 30
0.0
  0
VERTEX
  5
BD1
  8
回03-下ER
  6
CONTINUOUS
 62
     7
 10
156.8123966094915
 20
437.0562261422647
 30
0.0
  0
SEQEND
  5
BCE
  8
0
  6
CONTINUOUS
 62
     7
  0
POLYLINE
  5
B7
  8
回03-下ER
  6
CONTINUOUS
 62
     7
 66
     1
 10
0.0
 20
0.0
 30
0.0
 70
     1
  0
VERTEX
  5
BD2
  8
回03-下ER
  6
CONTINUOUS
 62
     7
 10
127.3833966094914
 20
204.8562261422654
 30
0.0
  0
VERTEX
  5
BD4
  8
回03-下ER
  6
CONTINUOUS
 62
     7
 10
156.4123966094914
 20
204.8562261422654
 30
0.0
  0
VERTEX
  5
BD5
  8
回03-下ER
  6
CONTINUOUS
 62
     7
 10
156.4123966094914
 20
437.0562261422647
 30
0.0
  0
VERTEX
  5
BD6
  8
回03-下ER
  6
CONTINUOUS
 62
     7
 10
127.3833966094914
 20
437.0562261422647
 30
0.0
  0
SEQEND
  5
BD3
  8
0
  6
CONTINUOUS
 62
     7
  0
POLYLINE
  5
B8
  8
回08-記事
  6
DASHED2
 62
     7
 66
     1
 10
0.0
 20
0.0
 30
0.0
 70
     1
1001
ACAD
1000
ASC_BOUNDS
1002
{
1070
    19
1005
BB
1002
}
  0
VERTEX
  5
BD7
  8
回08-記事
  6
DASHED2
 62
     7
 10
332.6875219249402
 20
188.524512441873
 30
0.0
  0
VERTEX
  5
BD9
  8
回08-記事
  6
DASHED2
 62
     7
 10
358.6875219249403
 20
188.524512441873
 30
0.0
  0
VERTEX
  5
BDA
  8
回08-記事
  6
DASHED2
 62
     7
 10
358.6875219249403
 20
195.7245124418731
 30
0.0
  0
VERTEX
  5
BDB
  8
回08-記事
  6
DASHED2
 62
     7
 10
332.6875219249402
 20
195.7245124418731
 30
0.0
  0
SEQEND
  5
BD8
  8
0
  6
CONTINUOUS
 62
     7
  0
POLYLINE
  5
BA
  8
回08-記事
  6
DASHED2
 62
     7
 66
     1
 10
0.0
 20
0.0
 30
0.0
 70
     1
1001
ACAD
1000
ASC_BOUNDS
1002
{
1070
    19
1005
BF
1002
}
  0
VERTEX
  5
BDC
  8
回08-記事
  6
DASHED2
 62
     7
 10
296.6875219249402
 20
188.524512441873
 30
0.0
  0
VERTEX
  5
BDE
  8
回08-記事
  6
DASHED2
 62
     7
 10
330.6875219249402
 20
188.524512441873
 30
0.0
  0
VERTEX
  5
BDF
  8
回08-記事
  6
DASHED2
 62
     7
 10
330.6875219249402
 20
195.7245124418731
 30
0.0
  0
VERTEX
  5
BE0
  8
回08-記事
  6
DASHED2
 62
     7
 10
296.6875219249402
 20
195.7245124418731
 30
0.0
  0
SEQEND
  5
BDD
  8
0
  6
CONTINUOUS
 62
     7
  0
INSERT
  5
BB
  8
回08-記事
  6
PHANTOM2
 62
     7
 66
     1
  2
*X7979
 10
0.0
 20
0.0
 30
0.0
1001
GRADIENTCOLOR1ACI
1070
     5
1001
GRADIENTCOLOR2ACI
1070
     2
1001
ACAD
1010
0.0
1020
0.0
1030
0.0
  0
SEQEND
  5
79A
  8
0
  6
CONTINUOUS
 62
     7
  0
INSERT
  5
BF
  8
回08-記事
  6
PHANTOM2
 62
     7
 66
     1
  2
*X8080
 10
0.0
 20
0.0
 30
0.0
1001
GRADIENTCOLOR1ACI
1070
     5
1001
GRADIENTCOLOR2ACI
1070
     2
1001
ACAD
1010
0.0
1020
0.0
1030
0.0
  0
SEQEND
  5
7BC
  8
0
  6
CONTINUOUS
 62
     7
  0
TEXT
  5
C0
  8
回90-枠1
 10
774.4471553691705
 20
556.0521774665992
 30
0.0
 40
4.0
  1
J
  0
LINE
  5
C4
  8
回90-枠1
 10
735.7177700635181
 20
560.6797543405479
 30
0.0
 11
735.7177700635181
 21
555.679754340548
 31
0.0
  0
TEXT
  5
C5
  8
回90-枠1
 10
694.4471553691705
 20
556.0521774665992
 30
0.0
 40
4.0
  1
I
  0
LINE
  5
C6
  8
回90-枠1
 10
655.7177700635182
 20
560.6797543405479
 30
0.0
 11
655.7177700635182
 21
555.679754340548
 31
0.0
  0
TEXT
  5
C7
  8
回90-枠1
 10
817.1221910671775
 20
508.4684416364072
 30
0.0
 40
4.0
  1
1
  0
LINE
  5
C8
  8
回90-枠1
 10
820.7177700635181
 20
465.6797543405478
 30
0.0
 11
815.7177700635182
 21
465.6797543405478
 31
0.0
  0
TEXT
  5
C9
  8
回90-枠1
 10
816.8206923638756
 20
418.4684416364071
 30
0.0
 40
4.0
  1
2
  0
LINE
  5
CA
  8
回90-枠1
 10
820.7177700635181
 20
375.6797543405479
 30
0.0
 11
815.7177700635182
 21
375.6797543405479
 31
0.0
  0
TEXT
  5
CB
  8
回90-枠1
 10
816.8152115196747
 20
328.4684416364072
 30
0.0
 40
4.0
  1
3
  0
LINE
  5
CC
  8
回90-枠1
 10
820.7177700635181
 20
285.6797543405479
 30
0.0
 11
815.7177700635182
 21
285.6797543405479
 31
0.0
  0
TEXT
  5
CD
  8
回90-枠1
 10
816.7421193995938
 20
238.4684416364073
 30
0.0
 40
4.0
  1
4
  0
LINE
  5
CE
  8
回90-枠1
 10
820.7177700635181
 20
195.6797543405479
 30
0.0
 11
815.7177700635182
 21
195.6797543405479
 31
0.0
  0
TEXT
  5
CF
  8
回90-枠1
 10
816.7421193995938
 20
148.4684416364072
 30
0.0
 40
4.0
  1
5
  0
LINE
  5
D0
  8
回90-枠1
 10
820.7177700635181
 20
105.6797543405479
 30
0.0
 11
815.7177700635182
 21
105.6797543405479
 31
0.0
  0
TEXT
  5
D1
  8
回90-枠1
 10
816.7421193995938
 20
58.46844163640724
 30
0.0
 40
4.0
  1
6
  0
TEXT
  5
D2
  8
回90-枠1
 10
774.4471553691705
 20
11.05217746659917
 30
0.0
 40
4.0
  1
J
  0
LINE
  5
D3
  8
回90-枠1
 10
735.7177700635181
 20
15.67975434054796
 30
0.0
 11
735.7177700635181
 21
10.67975434054796
 31
0.0
  0
TEXT
  5
D4
  8
回90-枠1
 10
694.4471553691705
 20
11.05217746659917
 30
0.0
 40
4.0
  1
I
  0
LINE
  5
D5
  8
回90-枠1
 10
655.7177700635182
 20
15.67975434054796
 30
0.0
 11
655.7177700635182
 21
10.67975434054796
 31
0.0
  0
LINE
  5
D6
  8
回90-枠1
 10
815.7177700635182
 20
555.679754340548
 30
0.0
 11
815.7177700635182
 21
15.67975434054796
 31
0.0
  0
LINE
  5
D7
  8
回90-枠1
 10
820.7177700635181
 20
10.67975434054796
 30
0.0
 11
820.7177700635181
 21
560.6797543405479
 31
0.0
  0
TEXT
  5
D8
  8
回90-枠1
 10
614.4471553691706
 20
556.0521774665992
 30
0.0
 40
4.0
  1
H
  0
LINE
  5
D9
  8
回90-枠1
 10
575.7177700635181
 20
560.6797543405479
 30
0.0
 11
575.7177700635181
 21
555.679754340548
 31
0.0
  0
TEXT
  5
DA
  8
回90-枠1
 10
534.4471553691705
 20
556.0521774665992
 30
0.0
 40
4.0
  1
G
  0
LINE
  5
DB
  8
回90-枠1
 10
495.7177700635181
 20
560.6797543405479
 30
0.0
 11
495.7177700635181
 21
555.679754340548
 31
0.0
  0
TEXT
  5
DC
  8
回90-枠1
 10
454.4471553691705
 20
556.0521774665992
 30
0.0
 40
4.0
  1
F
  0
LINE
  5
DD
  8
回90-枠1
 10
415.717770063518
 20
560.6797543405479
 30
0.0
 11
415.717770063518
 21
555.679754340548
 31
0.0
  0
TEXT
  5
DE
  8
回90-枠1
 10
374.4471553691706
 20
556.0521774665992
 30
0.0
 40
4.0
  1
E
  0
LINE
  5
DF
  8
回90-枠1
 10
335.7177700635182
 20
560.6797543405479
 30
0.0
 11
335.7177700635182
 21
555.679754340548
 31
0.0
  0
TEXT
  5
E0
  8
回90-枠1
 10
294.4471553691705
 20
556.0521774665992
 30
0.0
 40
4.0
  1
D
  0
LINE
  5
E1
  8
回90-枠1
 10
255.7177700635182
 20
560.6797543405479
 30
0.0
 11
255.7177700635182
 21
555.679754340548
 31
0.0
  0
TEXT
  5
E2
  8
回90-枠1
 10
214.4471553691706
 20
556.0521774665992
 30
0.0
 40
4.0
  1
C
  0
LINE
  5
E3
  8
回90-枠1
 10
175.7177700635182
 20
560.6797543405479
 30
0.0
 11
175.7177700635182
 21
555.679754340548
 31
0.0
  0
TEXT
  5
E4
  8
回90-枠1
 10
134.4471553691705
 20
556.0521774665992
 30
0.0
 40
4.0
  1
B
  0
LINE
  5
E5
  8
回90-枠1
 10
95.71777006351815
 20
560.6797543405479
 30
0.0
 11
95.71777006351815
 21
555.679754340548
 31
0.0
  0
TEXT
  5
E6
  8
回90-枠1
 10
54.44715536917056
 20
556.0521774665992
 30
0.0
 40
4.0
  1
A
  0
TEXT
  5
E7
  8
回90-枠1
 10
12.12219106717748
 20
508.4684416364072
 30
0.0
 40
4.0
  1
1
  0
LINE
  5
E8
  8
回90-枠1
 10
15.71777006351817
 20
465.6797543405478
 30
0.0
 11
10.71777006351817
 21
465.6797543405478
 31
0.0
  0
TEXT
  5
E9
  8
回90-枠1
 10
11.82069236387565
 20
418.4684416364071
 30
0.0
 40
4.0
  1
2
  0
LINE
  5
EA
  8
回90-枠1
 10
15.71777006351817
 20
375.6797543405479
 30
0.0
 11
10.71777006351817
 21
375.6797543405479
 31
0.0
  0
TEXT
  5
EB
  8
回90-枠1
 10
11.8152115196749
 20
328.4684416364072
 30
0.0
 40
4.0
  1
3
  0
LINE
  5
EC
  8
回90-枠1
 10
15.71777006351817
 20
285.6797543405479
 30
0.0
 11
10.71777006351817
 21
285.6797543405479
 31
0.0
  0
TEXT
  5
ED
  8
回90-枠1
 10
11.74211939959377
 20
238.4684416364073
 30
0.0
 40
4.0
  1
4
  0
LINE
  5
EE
  8
回90-枠1
 10
15.71777006351817
 20
195.6797543405479
 30
0.0
 11
10.71777006351817
 21
195.6797543405479
 31
0.0
  0
TEXT
  5
EF
  8
回90-枠1
 10
11.74211939959377
 20
148.4684416364072
 30
0.0
 40
4.0
  1
5
  0
TEXT
  5
F0
  8
回90-枠1
 10
614.4471553691706
 20
11.05217746659917
 30
0.0
 40
4.0
  1
H
  0
LINE
  5
F1
  8
回90-枠1
 10
575.7177700635181
 20
15.67975434054796
 30
0.0
 11
575.7177700635181
 21
10.67975434054796
 31
0.0
  0
TEXT
  5
F2
  8
回90-枠1
 10
534.4471553691705
 20
11.05217746659917
 30
0.0
 40
4.0
  1
G
  0
LINE
  5
F3
  8
回90-枠1
 10
495.7177700635181
 20
15.67975434054796
 30
0.0
 11
495.7177700635181
 21
10.67975434054796
 31
0.0
  0
TEXT
  5
F4
  8
回90-枠1
 10
454.4471553691705
 20
11.05217746659917
 30
0.0
 40
4.0
  1
F
  0
LINE
  5
F5
  8
回90-枠1
 10
415.717770063518
 20
15.67975434054796
 30
0.0
 11
415.717770063518
 21
10.67975434054796
 31
0.0
  0
TEXT
  5
F6
  8
回90-枠1
 10
374.4471553691706
 20
11.05217746659917
 30
0.0
 40
4.0
  1
E
  0
LINE
  5
F7
  8
回90-枠1
 10
335.7177700635182
 20
15.67975434054796
 30
0.0
 11
335.7177700635182
 21
10.67975434054796
 31
0.0
  0
TEXT
  5
F8
  8
回90-枠1
 10
294.4471553691705
 20
11.05217746659917
 30
0.0
 40
4.0
  1
D
  0
LINE
  5
F9
  8
回90-枠1
 10
255.7177700635182
 20
15.67975434054796
 30
0.0
 11
255.7177700635182
 21
10.67975434054796
 31
0.0
  0
TEXT
  5
FA
  8
回90-枠1
 10
214.4471553691706
 20
11.05217746659917
 30
0.0
 40
4.0
  1
C
  0
LINE
  5
FB
  8
回90-枠1
 10
175.7177700635182
 20
15.67975434054796
 30
0.0
 11
175.7177700635182
 21
10.67975434054796
 31
0.0
  0
LINE
  5
FC
  8
回90-枠1
 10
15.71777006351817
 20
105.6797543405479
 30
0.0
 11
10.71777006351817
 21
105.6797543405479
 31
0.0
  0
TEXT
  5
FD
  8
回90-枠1
 10
11.74211939959377
 20
58.46844163640724
 30
0.0
 40
4.0
  1
6
  0
TEXT
  5
FE
  8
回90-枠1
 10
134.4471553691705
 20
11.05217746659917
 30
0.0
 40
4.0
  1
B
  0
LINE
  5
FF
  8
回90-枠1
 10
95.71777006351815
 20
15.67975434054796
 30
0.0
 11
95.71777006351815
 21
10.67975434054796
 31
0.0
  0
TEXT
  5
100
  8
回90-枠1
 10
54.44715536917056
 20
11.05217746659917
 30
0.0
 40
4.0
  1
A
  0
LINE
  5
101
  8
回90-枠1
 10
15.71777006351817
 20
555.679754340548
 30
0.0
 11
15.71777006351817
 21
15.67975434054796
 31
0.0
  0
LINE
  5
102
  8
回90-枠1
 10
10.71777006351817
 20
10.67975434054796
 30
0.0
 11
10.71777006351817
 21
560.6797543405479
 31
0.0
  0
LINE
  5
103
  8
回90-枠1
 10
15.71777006351817
 20
15.67975434054796
 30
0.0
 11
815.7177700635182
 21
15.67975434054796
 31
0.0
  0
LINE
  5
104
  8
回90-枠1
 10
820.7177700635181
 20
10.67975434054796
 30
0.0
 11
10.71777006351817
 21
10.67975434054796
 31
0.0
  0
LINE
  5
105
  8
回90-枠1
 10
15.71777006351817
 20
555.679754340548
 30
0.0
 11
815.7177700635182
 21
555.679754340548
 31
0.0
  0
LINE
  5
106
  8
回90-枠1
 10
820.7177700635181
 20
560.6797543405479
 30
0.0
 11
10.71777006351817
 21
560.6797543405479
 31
0.0
  0
TEXT
  5
107
  8
回08-記事
  6
CONTINUOUS
 62
     7
 10
797.3075846267992
 20
255.8145173220239
 30
0.0
 40
4.0
  1
NC
  0
TEXT
  5
108
  8
回08-記事
  6
CONTINUOUS
 62
     7
 10
797.3075846267992
 20
412.5786773220233
 30
0.0
 40
4.0
  1
NC
  0
TEXT
  5
109
  8
回08-記事
  6
CONTINUOUS
 62
     7
 10
797.3075846267992
 20
400.9665173220236
 30
0.0
 40
4.0
  1
NC
  0
TEXT
  5
10A
  8
回08-記事
  6
CONTINUOUS
 62
     7
 10
797.3075846267992
 20
354.5178773220231
 30
0.0
 40
4.0
  1
NC
  0
TEXT
  5
10B
  8
回08-記事
  6
CONTINUOUS
 62
     7
 10
760.7397082545201
 20
354.5178773220231
 30
0.0
 40
4.0
  1
NC
  0
TEXT
  5
10C
  8
回08-記事
  6
CONTINUOUS
 62
     7
 10
760.7397082545201
 20
360.3239573220234
 30
0.0
 40
4.0
  1
NC
  0
TEXT
  5
10D
  8
回08-記事
  6
CONTINUOUS
 62
     7
 10
760.7397082545201
 20
366.1300373220237
 30
0.0
 40
4.0
  1
NC
  0
TEXT
  5
10E
  8
回08-記事
  6
CONTINUOUS
 62
     7
 10
760.7397082545201
 20
371.9361173220232
 30
0.0
 40
4.0
  1
NC
  0
TEXT
  5
10F
  8
回08-記事
  6
CONTINUOUS
 62
     7
 10
760.7397082545201
 20
383.5482773220237
 30
0.0
 40
4.0
  1
NC
  0
TEXT
  5
110
  8
回08-記事
  6
CONTINUOUS
 62
     7
 10
760.7397082545201
 20
389.354357322024
 30
0.0
 40
4.0
  1
NC
  0
TEXT
  5
111
  8
回08-記事
  6
CONTINUOUS
 62
     7
 10
760.7397082545201
 20
395.1604373220234
 30
0.0
 40
4.0
  1
NC
  0
TEXT
  5
112
  8
回08-記事
  6
CONTINUOUS
 62
     7
 10
760.7397082545201
 20
400.9665173220236
 30
0.0
 40
4.0
  1
NC
  0
TEXT
  5
113
  8
回08-記事
  6
CONTINUOUS
 62
     7
 10
760.3976443700672
 20
447.4151573220241
 30
0.0
 40
4.0
  1
R1
  0
TEXT
  5
114
  8
回08-記事
  6
CONTINUOUS
 62
     7
 10
797.3881073679038
 20
348.3269889934645
 30
0.0
 40
4.0
  1
D7
  0
TEXT
  5
115
  8
回08-記事
  6
CONTINUOUS
 62
     7
 10
797.3075846267992
 20
360.3239573220244
 30
0.0
 40
4.0
  1
D8
  0
LINE
  5
116
  8
回08-記事
  6
CONTINUOUS
 62
     7
 10
783.0758184314778
 20
257.3815790770752
 30
0.0
 11
795.6850877517234
 21
257.3815790770752
 31
0.0
  0
LINE
  5
117
  8
回08-記事
  6
CONTINUOUS
 62
     7
 10
783.0758184314778
 20
263.187659077075
 30
0.0
 11
795.6850877517234
 21
263.187659077075
 31
0.0
  0
TEXT
  5
118
  8
回08-記事
  6
CONTINUOUS
 62
     7
 10
776.1557079448337
 20
255.8145173220239
 30
0.0
 40
4.0
  1
60
  0
TEXT
  5
119
  8
回08-記事
  6
CONTINUOUS
 62
     7
 10
776.1557079448337
 20
261.6205973220242
 30
0.0
 40
4.0
  1
59
  0
TEXT
  5
11A
  8
回08-記事
  6
CONTINUOUS
 62
     7
 10
796.9655207423461
 20
389.354357322024
 30
0.0
 40
4.0
  1
D13
  0
TEXT
  5
11B
  8
回08-記事
  6
CONTINUOUS
 62
     7
 10
797.3075846267992
 20
366.1300373220237
 30
0.0
 40
4.0
  1
D9
  0
TEXT
  5
11C
  8
回08-記事
  6
CONTINUOUS
 62
     7
 10
797.3075846267992
 20
371.936117322024
 30
0.0
 40
4.0
  1
D10
  0
TEXT
  5
11D
  8
回08-記事
  6
CONTINUOUS
 62
     7
 10
797.3075846267992
 20
377.7421973220243
 30
0.0
 40
4.0
  1
D11
  0
TEXT
  5
11E
  8
回08-記事
  6
CONTINUOUS
 62
     7
 10
797.3075846267992
 20
383.5482773220237
 30
0.0
 40
4.0
  1
D12
  0
LINE
  5
11F
  8
回08-記事
  6
CONTINUOUS
 62
     7
 10
783.0758184314778
 20
268.9937390770749
 30
0.0
 11
795.6850877517234
 21
268.9937390770749
 31
0.0
  0
LINE
  5
120
  8
回08-記事
  6
CONTINUOUS
 62
     7
 10
783.0758184314778
 20
274.7998190770752
 30
0.0
 11
795.6850877517234
 21
274.7998190770752
 31
0.0
  0
LINE
  5
121
  8
回08-記事
  6
CONTINUOUS
 62
     7
 10
783.0758184314778
 20
280.605899077075
 30
0.0
 11
795.6850877517234
 21
280.605899077075
 31
0.0
  0
LINE
  5
122
  8
回08-記事
  6
CONTINUOUS
 62
     7
 10
783.0758184314778
 20
286.4119790770748
 30
0.0
 11
795.6850877517234
 21
286.4119790770748
 31
0.0
  0
LINE
  5
123
  8
回08-記事
  6
CONTINUOUS
 62
     7
 10
783.0758184314778
 20
292.2180590770751
 30
0.0
 11
795.6850877517234
 21
292.2180590770751
 31
0.0
  0
LINE
  5
124
  8
回08-記事
  6
CONTINUOUS
 62
     7
 10
783.0758184314778
 20
298.0241390770749
 30
0.0
 11
795.6850877517234
 21
298.0241390770749
 31
0.0
  0
TEXT
  5
125
  8
回08-記事
  6
CONTINUOUS
 62
     7
 10
776.1557079448337
 20
267.426677322024
 30
0.0
 40
4.0
  1
58
  0
TEXT
  5
126
  8
回08-記事
  6
CONTINUOUS
 62
     7
 10
776.1557079448337
 20
273.2327573220238
 30
0.0
 40
4.0
  1
57
  0
TEXT
  5
127
  8
回08-記事
  6
CONTINUOUS
 62
     7
 10
776.1557079448337
 20
279.0388373220241
 30
0.0
 40
4.0
  1
56
  0
TEXT
  5
128
  8
回08-記事
  6
CONTINUOUS
 62
     7
 10
776.1557079448337
 20
284.844917322024
 30
0.0
 40
4.0
  1
55
  0
TEXT
  5
129
  8
回08-記事
  6
CONTINUOUS
 62
     7
 10
776.1557079448337
 20
290.6509973220238
 30
0.0
 40
4.0
  1
54
  0
TEXT
  5
12A
  8
回08-記事
  6
CONTINUOUS
 62
     7
 10
776.1557079448337
 20
296.4570773220241
 30
0.0
 40
4.0
  1
53
  0
TEXT
  5
12B
  8
回08-記事
  6
CONTINUOUS
 62
     7
 10
797.3075846267992
 20
395.1604373220243
 30
0.0
 40
4.0
  1
D14
  0
TEXT
  5
12C
  8
回08-記事
  6
CONTINUOUS
 62
     7
 10
797.3075846267999
 20
406.7725973220238
 30
0.0
 40
4.0
  1
SUR
  0
TEXT
  5
12D
  8
回08-記事
  6
CONTINUOUS
 62
     7
 10
797.3881073679038
 20
336.7148289934648
 30
0.0
 40
4.0
  1
D5
  0
TEXT
  5
12E
  8
回08-記事
  6
CONTINUOUS
 62
     7
 10
796.8185775807312
 20
418.3741743758
 30
0.0
 40
4.0
  1
U14
  0
LINE
  5
12F
  8
回08-記事
  6
CONTINUOUS
 62
     7
 10
783.0758184314778
 20
303.8302190770746
 30
0.0
 11
795.6850877517234
 21
303.8302190770746
 31
0.0
  0
LINE
  5
130
  8
回08-記事
  6
CONTINUOUS
 62
     7
 10
783.0758184314778
 20
309.6362990770749
 30
0.0
 11
795.6850877517234
 21
309.6362990770749
 31
0.0
  0
TEXT
  5
131
  8
回08-記事
  6
CONTINUOUS
 62
     7
 10
776.1557079448337
 20
302.2631573220242
 30
0.0
 40
4.0
  1
52
  0
TEXT
  5
132
  8
回08-記事
  6
CONTINUOUS
 62
     7
 10
776.1557079448337
 20
308.0692373220235
 30
0.0
 40
4.0
  1
51
  0
TEXT
  5
133
  8
回08-記事
  6
CONTINUOUS
 62
     7
 10
796.8412799633622
 20
290.2430390128149
 30
0.0
 40
4.0
  1
U3
  0
TEXT
  5
134
  8
回08-記事
  6
CONTINUOUS
 62
     7
 10
797.3881073679038
 20
342.5209089934651
 30
0.0
 40
4.0
  1
D6
  0
TEXT
  5
135
  8
回08-記事
  6
CONTINUOUS
 62
     7
 10
796.9655207423461
 20
447.4151573220233
 30
0.0
 40
4.0
  1
U9
  0
TEXT
  5
136
  8
回08-記事
  6
CONTINUOUS
 62
     7
 10
797.3202459955089
 20
261.5811720339317
 30
0.0
 40
4.0
  1
U8
  0
TEXT
  5
137
  8
回08-記事
  6
CONTINUOUS
 62
     7
 10
797.2766576941818
 20
267.1073835382478
 30
0.0
 40
4.0
  1
U7
  0
TEXT
  5
138
  8
回08-記事
  6
CONTINUOUS
 62
     7
 10
796.8412799633622
 20
301.8551990128153
 30
0.0
 40
4.0
  1
U1
  0
TEXT
  5
139
  8
回08-記事
  6
CONTINUOUS
 62
     7
 10
797.198116670397
 20
313.7833570015563
 30
0.0
 40
4.0
  1
D1
  0
TEXT
  5
13A
  8
回08-記事
  6
CONTINUOUS
 62
     7
 10
796.7409342756917
 20
307.7814505754831
 30
0.0
 40
4.0
  1
SDL
  0
TEXT
  5
13B
  8
回08-記事
  6
CONTINUOUS
 62
     7
 10
797.3881073679038
 20
319.2965889934648
 30
0.0
 40
4.0
  1
D2
  0
TEXT
  5
13C
  8
回08-記事
  6
CONTINUOUS
 62
     7
 10
797.3881073679038
 20
325.1026689934651
 30
0.0
 40
4.0
  1
D3
  0
TEXT
  5
13D
  8
回08-記事
  6
CONTINUOUS
 62
     7
 10
797.3881073679038
 20
330.9087489934645
 30
0.0
 40
4.0
  1
D4
  0
LINE
  5
13E
  8
回08-記事
  6
CONTINUOUS
 62
     7
 10
783.0758184314778
 20
448.9822190770746
 30
0.0
 11
795.6850877517234
 21
448.9822190770746
 31
0.0
  0
TEXT
  5
13F
  8
回08-記事
  6
CONTINUOUS
 62
     7
 10
776.4369201247407
 20
447.4151573220241
 30
0.0
 40
4.0
  1
27
  0
LINE
  5
140
  8
回08-記事
  6
CONTINUOUS
 62
     7
 10
783.0758184314778
 20
443.1761390770752
 30
0.0
 11
795.6850877517234
 21
443.1761390770752
 31
0.0
  0
TEXT
  5
141
  8
回08-記事
  6
CONTINUOUS
 62
     7
 10
776.4369201247407
 20
441.6090773220238
 30
0.0
 40
4.0
  1
28
  0
LINE
  5
142
  8
回08-記事
  6
CONTINUOUS
 62
     7
 10
783.0758184314778
 20
437.3700590770749
 30
0.0
 11
795.6850877517234
 21
437.3700590770749
 31
0.0
  0
TEXT
  5
143
  8
回08-記事
  6
CONTINUOUS
 62
     7
 10
776.4369201247407
 20
435.8029973220236
 30
0.0
 40
4.0
  1
29
  0
LINE
  5
144
  8
回08-記事
  6
CONTINUOUS
 62
     7
 10
783.0758184314778
 20
431.5639790770746
 30
0.0
 11
795.6850877517234
 21
431.5639790770746
 31
0.0
  0
TEXT
  5
145
  8
回08-記事
  6
CONTINUOUS
 62
     7
 10
776.4406101980037
 20
429.9969173220241
 30
0.0
 40
4.0
  1
30
  0
LINE
  5
146
  8
回08-記事
  6
CONTINUOUS
 62
     7
 10
783.0758184314778
 20
425.7578990770752
 30
0.0
 11
795.6850877517234
 21
425.7578990770752
 31
0.0
  0
TEXT
  5
147
  8
回08-記事
  6
CONTINUOUS
 62
     7
 10
776.4406101980037
 20
424.1908373220239
 30
0.0
 40
4.0
  1
31
  0
LINE
  5
148
  8
回08-記事
  6
CONTINUOUS
 62
     7
 10
783.0758184314778
 20
419.9518190770748
 30
0.0
 11
795.6850877517234
 21
419.9518190770748
 31
0.0
  0
TEXT
  5
149
  8
回08-記事
  6
CONTINUOUS
 62
     7
 10
776.4406101980037
 20
418.3847573220236
 30
0.0
 40
4.0
  1
32
  0
LINE
  5
14A
  8
回08-記事
  6
CONTINUOUS
 62
     7
 10
783.0758184314778
 20
414.1457390770746
 30
0.0
 11
795.6850877517234
 21
414.1457390770746
 31
0.0
  0
TEXT
  5
14B
  8
回08-記事
  6
CONTINUOUS
 62
     7
 10
776.4656545096702
 20
412.5786773220241
 30
0.0
 40
4.0
  1
33
  0
LINE
  5
14C
  8
回08-記事
  6
CONTINUOUS
 62
     7
 10
783.0758184314778
 20
408.3396590770751
 30
0.0
 11
795.6850877517234
 21
408.3396590770751
 31
0.0
  0
TEXT
  5
14D
  8
回08-記事
  6
CONTINUOUS
 62
     7
 10
776.4656545096702
 20
406.7725973220238
 30
0.0
 40
4.0
  1
34
  0
TEXT
  5
14E
  8
回08-記事
  6
CONTINUOUS
 62
     7
 10
797.3075846267992
 20
424.1908373220239
 30
0.0
 40
4.0
  1
U13
  0
TEXT
  5
14F
  8
回08-記事
  6
CONTINUOUS
 62
     7
 10
797.3075846267992
 20
429.9969173220241
 30
0.0
 40
4.0
  1
U12
  0
TEXT
  5
150
  8
回08-記事
  6
CONTINUOUS
 62
     7
 10
797.3075846267992
 20
435.8029973220236
 30
0.0
 40
4.0
  1
U11
  0
TEXT
  5
151
  8
回08-記事
  6
CONTINUOUS
 62
     7
 10
797.3075846267992
 20
441.6090773220238
 30
0.0
 40
4.0
  1
U10
  0
TEXT
  5
152
  8
回08-記事
  6
CONTINUOUS
 62
     7
 10
796.8412799633622
 20
272.8247990128149
 30
0.0
 40
4.0
  1
U6
  0
TEXT
  5
153
  8
回08-記事
  6
CONTINUOUS
 62
     7
 10
796.8412799633622
 20
278.6308790128152
 30
0.0
 40
4.0
  1
U5
  0
TEXT
  5
154
  8
回08-記事
  6
CONTINUOUS
 62
     7
 10
796.8412799633622
 20
284.4369590128151
 30
0.0
 40
4.0
  1
U4
  0
TEXT
  5
155
  8
回08-記事
  6
CONTINUOUS
 62
     7
 10
796.8412799633622
 20
296.0491190128152
 30
0.0
 40
4.0
  1
U2
  0
LINE
  5
156
  8
回08-記事
  6
CONTINUOUS
 62
     7
 10
783.0758184314778
 20
315.4423790770751
 30
0.0
 11
795.6850877517234
 21
315.4423790770751
 31
0.0
  0
LINE
  5
157
  8
回08-記事
  6
CONTINUOUS
 62
     7
 10
783.0758184314778
 20
321.2484590770745
 30
0.0
 11
795.6850877517234
 21
321.2484590770745
 31
0.0
  0
LINE
  5
158
  8
回08-記事
  6
CONTINUOUS
 62
     7
 10
783.0758184314778
 20
327.0545390770748
 30
0.0
 11
795.6850877517234
 21
327.0545390770748
 31
0.0
  0
LINE
  5
159
  8
回08-記事
  6
CONTINUOUS
 62
     7
 10
783.0758184314778
 20
332.8606190770751
 30
0.0
 11
795.6850877517234
 21
332.8606190770751
 31
0.0
  0
LINE
  5
15A
  8
回08-記事
  6
CONTINUOUS
 62
     7
 10
783.0758184314778
 20
338.6666990770745
 30
0.0
 11
795.6850877517234
 21
338.6666990770745
 31
0.0
  0
LINE
  5
15B
  8
回08-記事
  6
CONTINUOUS
 62
     7
 10
783.0758184314778
 20
344.4727790770748
 30
0.0
 11
795.6850877517234
 21
344.4727790770748
 31
0.0
  0
LINE
  5
15C
  8
回08-記事
  6
CONTINUOUS
 62
     7
 10
783.0758184314778
 20
350.2788590770752
 30
0.0
 11
795.6850877517234
 21
350.2788590770752
 31
0.0
  0
LINE
  5
15D
  8
回08-記事
  6
CONTINUOUS
 62
     7
 10
783.0758184314778
 20
356.0849390770745
 30
0.0
 11
795.6850877517234
 21
356.0849390770745
 31
0.0
  0
LINE
  5
15E
  8
回08-記事
  6
CONTINUOUS
 62
     7
 10
783.0758184314778
 20
361.8910190770748
 30
0.0
 11
795.6850877517234
 21
361.8910190770748
 31
0.0
  0
LINE
  5
15F
  8
回08-記事
  6
CONTINUOUS
 62
     7
 10
783.0758184314778
 20
367.6970990770751
 30
0.0
 11
795.6850877517234
 21
367.6970990770751
 31
0.0
  0
LINE
  5
160
  8
回08-記事
  6
CONTINUOUS
 62
     7
 10
783.0758184314778
 20
373.5031790770744
 30
0.0
 11
795.6850877517234
 21
373.5031790770744
 31
0.0
  0
LINE
  5
161
  8
回08-記事
  6
CONTINUOUS
 62
     7
 10
783.0758184314778
 20
379.3092590770748
 30
0.0
 11
795.6850877517234
 21
379.3092590770748
 31
0.0
  0
LINE
  5
162
  8
回08-記事
  6
CONTINUOUS
 62
     7
 10
783.0758184314778
 20
385.115339077075
 30
0.0
 11
795.6850877517234
 21
385.115339077075
 31
0.0
  0
LINE
  5
163
  8
回08-記事
  6
CONTINUOUS
 62
     7
 10
783.0758184314778
 20
390.9214190770754
 30
0.0
 11
795.6850877517234
 21
390.9214190770754
 31
0.0
  0
LINE
  5
164
  8
回08-記事
  6
CONTINUOUS
 62
     7
 10
783.0758184314778
 20
396.7274990770746
 30
0.0
 11
795.6850877517234
 21
396.7274990770746
 31
0.0
  0
LINE
  5
165
  8
回08-記事
  6
CONTINUOUS
 62
     7
 10
783.0758184314778
 20
402.533579077075
 30
0.0
 11
795.6850877517234
 21
402.533579077075
 31
0.0
  0
TEXT
  5
166
  8
回08-記事
  6
CONTINUOUS
 62
     7
 10
776.1557079448337
 20
313.8753173220238
 30
0.0
 40
4.0
  1
50
  0
TEXT
  5
167
  8
回08-記事
  6
CONTINUOUS
 62
     7
 10
775.8534960168207
 20
319.6813973220241
 30
0.0
 40
4.0
  1
49
  0
TEXT
  5
168
  8
回08-記事
  6
CONTINUOUS
 62
     7
 10
775.8882854188775
 20
325.4874773220235
 30
0.0
 40
4.0
  1
48
  0
TEXT
  5
169
  8
回08-記事
  6
CONTINUOUS
 62
     7
 10
775.8503829137752
 20
331.2935573220238
 30
0.0
 40
4.0
  1
47
  0
TEXT
  5
16A
  8
回08-記事
  6
CONTINUOUS
 62
     7
 10
775.8503829137752
 20
337.0996373220241
 30
0.0
 40
4.0
  1
46
  0
TEXT
  5
16B
  8
回08-記事
  6
CONTINUOUS
 62
     7
 10
775.81799015724
 20
342.9057173220235
 30
0.0
 40
4.0
  1
45
  0
TEXT
  5
16C
  8
回08-記事
  6
CONTINUOUS
 62
     7
 10
775.81799015724
 20
348.7117973220239
 30
0.0
 40
4.0
  1
44
  0
TEXT
  5
16D
  8
回08-記事
  6
CONTINUOUS
 62
     7
 10
775.8086762094333
 20
354.5178773220241
 30
0.0
 40
4.0
  1
43
  0
TEXT
  5
16E
  8
回08-記事
  6
CONTINUOUS
 62
     7
 10
775.8086762094333
 20
360.3239573220234
 30
0.0
 40
4.0
  1
42
  0
TEXT
  5
16F
  8
回08-記事
  6
CONTINUOUS
 62
     7
 10
775.946091134673
 20
366.1300373220237
 30
0.0
 40
4.0
  1
41
  0
TEXT
  5
170
  8
回08-記事
  6
CONTINUOUS
 62
     7
 10
775.946091134673
 20
371.936117322024
 30
0.0
 40
4.0
  1
40
  0
TEXT
  5
171
  8
回08-記事
  6
CONTINUOUS
 62
     7
 10
776.2885895326451
 20
377.7421973220234
 30
0.0
 40
4.0
  1
39
  0
TEXT
  5
172
  8
回08-記事
  6
CONTINUOUS
 62
     7
 10
776.2885895326451
 20
383.5482773220237
 30
0.0
 40
4.0
  1
38
  0
TEXT
  5
173
  8
回08-記事
  6
CONTINUOUS
 62
     7
 10
776.2883739613551
 20
389.354357322024
 30
0.0
 40
4.0
  1
37
  0
TEXT
  5
174
  8
回08-記事
  6
CONTINUOUS
 62
     7
 10
776.2883739613551
 20
395.1604373220234
 30
0.0
 40
4.0
  1
36
  0
TEXT
  5
175
  8
回08-記事
  6
CONTINUOUS
 62
     7
 10
776.4656545096702
 20
400.9665173220236
 30
0.0
 40
4.0
  1
35
  0
TEXT
  5
176
  8
回08-記事
  6
CONTINUOUS
 62
     7
 10
760.7397082545201
 20
377.7421973220243
 30
0.0
 40
4.0
  1
SDR
  0
TEXT
  5
177
  8
回08-記事
  6
CONTINUOUS
 62
     7
 10
760.7397082545201
 20
412.5786773220241
 30
0.0
 40
4.0
  1
R7
  0
TEXT
  5
178
  8
回08-記事
  6
CONTINUOUS
 62
     7
 10
760.2885381799194
 20
336.7571775316464
 30
0.0
 40
4.0
  1
L6
  0
TEXT
  5
179
  8
回08-記事
  6
CONTINUOUS
 62
     7
 10
760.7397082545201
 20
406.7725973220238
 30
0.0
 40
4.0
  1
R8
  0
LINE
  5
17A
  8
回08-記事
  6
CONTINUOUS
 62
     7
 10
746.5079420591989
 20
303.8302190770746
 30
0.0
 11
759.1172113794442
 21
303.8302190770746
 31
0.0
  0
LINE
  5
17B
  8
回08-記事
  6
CONTINUOUS
 62
     7
 10
746.5079420591989
 20
309.6362990770749
 30
0.0
 11
759.1172113794442
 21
309.6362990770749
 31
0.0
  0
TEXT
  5
17C
  8
回08-記事
  6
CONTINUOUS
 62
     7
 10
740.1326221414526
 20
302.2631573220242
 30
0.0
 40
4.0
  1
26
  0
TEXT
  5
17D
  8
回08-記事
  6
CONTINUOUS
 62
     7
 10
740.1326221414526
 20
308.0692373220235
 30
0.0
 40
4.0
  1
25
  0
TEXT
  5
17E
  8
回08-記事
  6
CONTINUOUS
 62
     7
 10
760.3195463425261
 20
302.2541952485744
 30
0.0
 40
4.0
  1
SUL
  0
TEXT
  5
17F
  8
回08-記事
  6
CONTINUOUS
 62
     7
 10
760.2885381799194
 20
342.5632575316467
 30
0.0
 40
4.0
  1
L7
  0
TEXT
  5
180
  8
回08-記事
  6
CONTINUOUS
 62
     7
 10
760.3976443700672
 20
441.6090773220238
 30
0.0
 40
4.0
  1
R2
  0
TEXT
  5
181
  8
回08-記事
  6
CONTINUOUS
 62
     7
 10
760.1381075924242
 20
307.7267775316467
 30
0.0
 40
4.0
  1
L1
  0
TEXT
  5
182
  8
回08-記事
  6
CONTINUOUS
 62
     7
 10
760.1381075924242
 20
313.5328575316461
 30
0.0
 40
4.0
  1
L2
  0
TEXT
  5
183
  8
回08-記事
  6
CONTINUOUS
 62
     7
 10
760.2885381799194
 20
319.3389375316464
 30
0.0
 40
4.0
  1
L3
  0
TEXT
  5
184
  8
回08-記事
  6
CONTINUOUS
 62
     7
 10
760.2885381799194
 20
325.1450175316467
 30
0.0
 40
4.0
  1
L4
  0
TEXT
  5
185
  8
回08-記事
  6
CONTINUOUS
 62
     7
 10
760.2885381799194
 20
330.9510975316461
 30
0.0
 40
4.0
  1
L5
  0
TEXT
  5
186
  8
回08-記事
  6
CONTINUOUS
 62
     7
 10
760.2885381799194
 20
348.3693375316461
 30
0.0
 40
4.0
  1
L8
  0
TEXT
  5
187
  8
回08-記事
  6
CONTINUOUS
 62
     7
 10
742.6402095806122
 20
455.4526695239881
 30
0.0
 40
4.0
  1
Tail-1
  0
TEXT
  5
188
  8
回08-記事
  6
CONTINUOUS
 62
     7
 10
779.9776572430188
 20
455.4526695239881
 30
0.0
 40
4.0
  1
Tail-2
  0
LINE
  5
189
  8
回08-記事
  6
CONTINUOUS
 62
     7
 10
746.5079420591989
 20
448.9822190770746
 30
0.0
 11
759.1172113794442
 21
448.9822190770746
 31
0.0
  0
TEXT
  5
18A
  8
回08-記事
  6
CONTINUOUS
 62
     7
 10
741.5649976922602
 20
447.4151573220241
 30
0.0
 40
4.0
  1
1
  0
LINE
  5
18B
  8
回08-記事
  6
CONTINUOUS
 62
     7
 10
746.5079420591989
 20
443.1761390770752
 30
0.0
 11
759.1172113794442
 21
443.1761390770752
 31
0.0
  0
TEXT
  5
18C
  8
回08-記事
  6
CONTINUOUS
 62
     7
 10
741.5649976922602
 20
441.6090773220238
 30
0.0
 40
4.0
  1
2
  0
LINE
  5
18D
  8
回08-記事
  6
CONTINUOUS
 62
     7
 10
746.5079420591989
 20
437.3700590770749
 30
0.0
 11
759.1172113794442
 21
437.3700590770749
 31
0.0
  0
TEXT
  5
18E
  8
回08-記事
  6
CONTINUOUS
 62
     7
 10
741.5649976922602
 20
435.8029973220236
 30
0.0
 40
4.0
  1
3
  0
LINE
  5
18F
  8
回08-記事
  6
CONTINUOUS
 62
     7
 10
746.5079420591989
 20
431.5639790770746
 30
0.0
 11
759.1172113794442
 21
431.5639790770746
 31
0.0
  0
TEXT
  5
190
  8
回08-記事
  6
CONTINUOUS
 62
     7
 10
741.5649976922602
 20
429.9969173220241
 30
0.0
 40
4.0
  1
4
  0
LINE
  5
191
  8
回08-記事
  6
CONTINUOUS
 62
     7
 10
746.5079420591989
 20
425.7578990770752
 30
0.0
 11
759.1172113794442
 21
425.7578990770752
 31
0.0
  0
TEXT
  5
192
  8
回08-記事
  6
CONTINUOUS
 62
     7
 10
741.5649976922602
 20
424.1908373220239
 30
0.0
 40
4.0
  1
5
  0
LINE
  5
193
  8
回08-記事
  6
CONTINUOUS
 62
     7
 10
746.5079420591989
 20
419.9518190770748
 30
0.0
 11
759.1172113794442
 21
419.9518190770748
 31
0.0
  0
TEXT
  5
194
  8
回08-記事
  6
CONTINUOUS
 62
     7
 10
741.5649976922602
 20
418.3847573220236
 30
0.0
 40
4.0
  1
6
  0
LINE
  5
195
  8
回08-記事
  6
CONTINUOUS
 62
     7
 10
746.5079420591989
 20
414.1457390770746
 30
0.0
 11
759.1172113794442
 21
414.1457390770746
 31
0.0
  0
TEXT
  5
196
  8
回08-記事
  6
CONTINUOUS
 62
     7
 10
741.5649976922602
 20
412.5786773220241
 30
0.0
 40
4.0
  1
7
  0
LINE
  5
197
  8
回08-記事
  6
CONTINUOUS
 62
     7
 10
746.5079420591989
 20
408.3396590770751
 30
0.0
 11
759.1172113794442
 21
408.3396590770751
 31
0.0
  0
TEXT
  5
198
  8
回08-記事
  6
CONTINUOUS
 62
     7
 10
741.5649976922602
 20
406.7725973220238
 30
0.0
 40
4.0
  1
8
  0
TEXT
  5
199
  8
回08-記事
  6
CONTINUOUS
 62
     7
 10
760.7397082545201
 20
418.3847573220245
 30
0.0
 40
4.0
  1
R6
  0
TEXT
  5
19A
  8
回08-記事
  6
CONTINUOUS
 62
     7
 10
760.7397082545201
 20
424.1908373220239
 30
0.0
 40
4.0
  1
R5
  0
TEXT
  5
19B
  8
回08-記事
  6
CONTINUOUS
 62
     7
 10
760.7397082545201
 20
429.9969173220241
 30
0.0
 40
4.0
  1
R4
  0
TEXT
  5
19C
  8
回08-記事
  6
CONTINUOUS
 62
     7
 10
760.7397082545201
 20
435.8029973220236
 30
0.0
 40
4.0
  1
R3
  0
LINE
  5
19D
  8
回08-記事
  6
CONTINUOUS
 62
     7
 10
746.5079420591989
 20
315.4423790770751
 30
0.0
 11
759.1172113794442
 21
315.4423790770751
 31
0.0
  0
LINE
  5
19E
  8
回08-記事
  6
CONTINUOUS
 62
     7
 10
746.5079420591989
 20
321.2484590770745
 30
0.0
 11
759.1172113794442
 21
321.2484590770745
 31
0.0
  0
LINE
  5
19F
  8
回08-記事
  6
CONTINUOUS
 62
     7
 10
746.5079420591989
 20
327.0545390770748
 30
0.0
 11
759.1172113794442
 21
327.0545390770748
 31
0.0
  0
LINE
  5
1A0
  8
回08-記事
  6
CONTINUOUS
 62
     7
 10
746.5079420591989
 20
332.8606190770751
 30
0.0
 11
759.1172113794442
 21
332.8606190770751
 31
0.0
  0
LINE
  5
1A1
  8
回08-記事
  6
CONTINUOUS
 62
     7
 10
746.5079420591989
 20
338.6666990770745
 30
0.0
 11
759.1172113794442
 21
338.6666990770745
 31
0.0
  0
LINE
  5
1A2
  8
回08-記事
  6
CONTINUOUS
 62
     7
 10
746.5079420591989
 20
344.4727790770748
 30
0.0
 11
759.1172113794442
 21
344.4727790770748
 31
0.0
  0
LINE
  5
1A3
  8
回08-記事
  6
CONTINUOUS
 62
     7
 10
746.5079420591989
 20
350.2788590770752
 30
0.0
 11
759.1172113794442
 21
350.2788590770752
 31
0.0
  0
LINE
  5
1A4
  8
回08-記事
  6
CONTINUOUS
 62
     7
 10
746.5079420591989
 20
356.0849390770745
 30
0.0
 11
759.1172113794442
 21
356.0849390770745
 31
0.0
  0
LINE
  5
1A5
  8
回08-記事
  6
CONTINUOUS
 62
     7
 10
746.5079420591989
 20
361.8910190770748
 30
0.0
 11
759.1172113794442
 21
361.8910190770748
 31
0.0
  0
LINE
  5
1A6
  8
回08-記事
  6
CONTINUOUS
 62
     7
 10
746.5079420591989
 20
367.6970990770751
 30
0.0
 11
759.1172113794442
 21
367.6970990770751
 31
0.0
  0
LINE
  5
1A7
  8
回08-記事
  6
CONTINUOUS
 62
     7
 10
746.5079420591989
 20
373.5031790770744
 30
0.0
 11
759.1172113794442
 21
373.5031790770744
 31
0.0
  0
LINE
  5
1A8
  8
回08-記事
  6
CONTINUOUS
 62
     7
 10
746.5079420591989
 20
379.3092590770748
 30
0.0
 11
759.1172113794442
 21
379.3092590770748
 31
0.0
  0
LINE
  5
1A9
  8
回08-記事
  6
CONTINUOUS
 62
     7
 10
746.5079420591989
 20
385.115339077075
 30
0.0
 11
759.1172113794442
 21
385.115339077075
 31
0.0
  0
LINE
  5
1AA
  8
回08-記事
  6
CONTINUOUS
 62
     7
 10
746.5079420591989
 20
390.9214190770754
 30
0.0
 11
759.1172113794442
 21
390.9214190770754
 31
0.0
  0
LINE
  5
1AB
  8
回08-記事
  6
CONTINUOUS
 62
     7
 10
746.5079420591989
 20
396.7274990770746
 30
0.0
 11
759.1172113794442
 21
396.7274990770746
 31
0.0
  0
LINE
  5
1AC
  8
回08-記事
  6
CONTINUOUS
 62
     7
 10
746.5079420591989
 20
402.533579077075
 30
0.0
 11
759.1172113794442
 21
402.533579077075
 31
0.0
  0
TEXT
  5
1AD
  8
回08-記事
  6
CONTINUOUS
 62
     7
 10
740.1326221414526
 20
313.8753173220238
 30
0.0
 40
4.0
  1
24
  0
TEXT
  5
1AE
  8
回08-記事
  6
CONTINUOUS
 62
     7
 10
740.1326221414526
 20
319.6813973220241
 30
0.0
 40
4.0
  1
23
  0
TEXT
  5
1AF
  8
回08-記事
  6
CONTINUOUS
 62
     7
 10
740.1326221414526
 20
325.4874773220235
 30
0.0
 40
4.0
  1
22
  0
TEXT
  5
1B0
  8
回08-記事
  6
CONTINUOUS
 62
     7
 10
740.1326221414526
 20
331.2935573220238
 30
0.0
 40
4.0
  1
21
  0
TEXT
  5
1B1
  8
回08-記事
  6
CONTINUOUS
 62
     7
 10
740.1326221414526
 20
337.0996373220241
 30
0.0
 40
4.0
  1
20
  0
TEXT
  5
1B2
  8
回08-記事
  6
CONTINUOUS
 62
     7
 10
740.1326221414526
 20
342.9057173220235
 30
0.0
 40
4.0
  1
19
  0
TEXT
  5
1B3
  8
回08-記事
  6
CONTINUOUS
 62
     7
 10
740.1326221414526
 20
348.7117973220239
 30
0.0
 40
4.0
  1
18
  0
TEXT
  5
1B4
  8
回08-記事
  6
CONTINUOUS
 62
     7
 10
740.1326221414526
 20
354.5178773220241
 30
0.0
 40
4.0
  1
17
  0
TEXT
  5
1B5
  8
回08-記事
  6
CONTINUOUS
 62
     7
 10
740.1326221414526
 20
360.3239573220234
 30
0.0
 40
4.0
  1
16
  0
TEXT
  5
1B6
  8
回08-記事
  6
CONTINUOUS
 62
     7
 10
739.9230053312918
 20
366.1300373220237
 30
0.0
 40
4.0
  1
15
  0
TEXT
  5
1B7
  8
回08-記事
  6
CONTINUOUS
 62
     7
 10
739.9230053312918
 20
371.936117322024
 30
0.0
 40
4.0
  1
14
  0
TEXT
  5
1B8
  8
回08-記事
  6
CONTINUOUS
 62
     7
 10
739.9230053312918
 20
377.7421973220234
 30
0.0
 40
4.0
  1
13
  0
TEXT
  5
1B9
  8
回08-記事
  6
CONTINUOUS
 62
     7
 10
739.9230053312918
 20
383.5482773220237
 30
0.0
 40
4.0
  1
12
  0
TEXT
  5
1BA
  8
回08-記事
  6
CONTINUOUS
 62
     7
 10
739.9230053312918
 20
389.354357322024
 30
0.0
 40
4.0
  1
11
  0
TEXT
  5
1BB
  8
回08-記事
  6
CONTINUOUS
 62
     7
 10
739.9230053312918
 20
395.1604373220234
 30
0.0
 40
4.0
  1
10
  0
TEXT
  5
1BC
  8
回08-記事
  6
CONTINUOUS
 62
     7
 10
741.5649976922602
 20
400.9665173220236
 30
0.0
 40
4.0
  1
9
  0
LINE
  5
1BD
  8
回07-寸法
  6
CENTER2
 62
     5
 10
123.8863966094916
 20
320.9562261422655
 30
0.0
 11
542.4863966094915
 21
320.9562261422655
 31
0.0
  0
LINE
  5
1C2
  8
回07-寸法
  6
CENTER2
 62
     5
 10
333.1863966094914
 20
440.5562261422657
 30
0.0
 11
333.1863966094914
 21
201.3562261422654
 31
0.0
  0
DIMENSION
  5
1C3
  8
回07-寸法
  6
CONTINUOUS
 62
    18
  2
*D3939
 10
338.9363966094913
 20
67.16555428493854
 30
0.0
 11
229.1613966094915
 21
70.41555428493855
 31
0.0
 70
    32
  1
(<>)
  3
DMC
 13
119.3863966094916
 23
192.1562261422654
 33
0.0
 14
338.9363966094913
 24
92.66027451307641
 34
0.0
1001
ACAD
1000
DSTYLE
1002
{
1070
    41
1040
3.0
1070
    47
1040
0.2
1070
    48
1040
0.2
1070
   141
1040
1.5
1070
   371
1070
    13
1070
   372
1070
    13
1002
}
  0
DIMENSION
  5
1D3
  8
回07-寸法
  6
CONTINUOUS
 62
    18
  2
*D4040
 10
395.6975219684305
 20
192.1562261422651
 30
0.0
 11
392.6975219684305
 21
142.1582503276703
 31
0.0
 70
    32
  3
DMC
 13
351.9363966094914
 23
92.16027451307548
 33
0.0
 14
359.1875219249398
 24
192.1562261422651
 34
0.0
 50
90.0
1001
ACAD
1000
DSTYLE
1002
{
1070
    41
1040
3.0
1070
    47
1040
1.0
1070
    48
1040
1.0
1070
    71
1070
     1
1070
   141
1040
1.5
1070
   371
1070
    13
1070
   372
1070
    13
1002
}
  0
DIMENSION
  5
1E2
  8
回07-寸法
  6
CONTINUOUS
 62
     1
  2
*D4141
 10
359.1875219249398
 20
155.8355423060554
 30
0.0
 11
368.5010061769083
 21
155.8355423060554
 31
0.0
 70
   160
  3
DMC
 13
332.1875219249398
 23
189.0107564152164
 33
0.0
 14
359.1875219249398
 24
189.0148047860272
 34
0.0
1001
ACAD
1000
DSTYLE
1002
{
1070
    41
1040
3.0
1070
    47
1040
0.2
1070
    48
1040
0.2
1070
   141
1040
1.5
1070
   371
1070
    13
1070
   372
1070
    13
1002
}
  0
DIMENSION
  5
1F3
  8
回07-寸法
  6
CONTINUOUS
 62
     1
  2
*D4242
 10
296.1875219249398
 20
152.0536237731764
 30
0.0
 11
286.8339685343465
 21
152.0536237731764
 31
0.0
 70
   160
  3
DMC
 13
331.1875219249398
 23
188.9387503706717
 33
0.0
 14
296.1875219249398
 24
188.9427987414825
 34
0.0
1001
ACAD
1000
DSTYLE
1002
{
1070
    41
1040
3.0
1070
    47
1040
0.2
1070
    48
1040
0.2
1070
   141
1040
1.5
1070
   371
1070
    13
1070
   372
1070
    13
1002
}
  0
DIMENSION
  5
204
  8
回07-寸法
  6
CONTINUOUS
 62
     1
  2
*D4343
 10
372.7798231126199
 20
181.8494659082058
 30
0.0
 11
372.7798231126199
 21
170.4959125176123
 31
0.0
 70
   160
  3
DMC
 13
359.1875219249398
 23
192.1562261422648
 33
0.0
 14
352.4363966094913
 24
181.8494659082058
 34
0.0
 50
90.0
1001
ACAD
1000
DSTYLE
1002
{
1070
   271
1070
     1
1070
    41
1040
3.0
1070
    47
1040
0.2
1070
    48
1040
0.2
1070
   141
1040
1.5
1070
   371
1070
    13
1070
   372
1070
    13
1002
}
  0
DIMENSION
  5
215
  8
回07-寸法
  6
CONTINUOUS
 62
     1
  2
*D4444
 10
365.4437179220233
 20
188.6005912236538
 30
0.0
 11
365.4437179220233
 21
177.0098296632508
 31
0.0
 70
   160
  3
DMC
 13
359.1875219249398
 23
192.1562261422648
 33
0.0
 14
359.1875219249398
 24
188.6005912236538
 34
0.0
 50
90.0
1001
ACAD
1000
DSTYLE
1002
{
1070
   271
1070
     1
1070
    41
1040
3.0
1070
    47
1040
0.2
1070
    48
1040
0.2
1070
   141
1040
1.5
1070
   371
1070
    13
1070
   372
1070
    13
1002
}
  0
DIMENSION
  5
226
  8
回07-寸法
  6
CONTINUOUS
 62
     1
  2
*D4545
 10
282.3858232555983
 20
174.7797104945576
 30
0.0
 11
282.3858232555983
 21
163.2797104945574
 31
0.0
 70
   160
  3
DMC
 13
296.1875219249398
 23
192.1562261422654
 33
0.0
 14
309.9363966094913
 24
174.7797104945576
 34
0.0
 50
90.0
1001
ACAD
1000
DSTYLE
1002
{
1070
    41
1040
3.0
1070
    47
1040
0.2
1070
    48
1040
0.2
1070
   141
1040
1.5
1070
   271
1070
     1
1070
   371
1070
    13
1070
   372
1070
    13
1002
}
  0
DIMENSION
  5
237
  8
回07-寸法
  6
CONTINUOUS
 62
     1
  2
*D4646
 10
288.9436024611757
 20
188.5285851791092
 30
0.0
 11
288.9436024611757
 21
168.5654585965273
 31
0.0
 70
   160
  3
DMC
 13
296.1875219249398
 23
192.1562261422654
 33
0.0
 14
296.1875219249398
 24
188.5285851791092
 34
0.0
 50
90.0
1001
ACAD
1000
DSTYLE
1002
{
1070
    41
1040
3.0
1070
    47
1040
0.2
1070
    48
1040
0.2
1070
   141
1040
1.5
1070
   271
1070
     1
1070
   371
1070
    13
1070
   372
1070
    13
1002
}
  0
DIMENSION
  5
248
  8
回07-寸法
  6
CONTINUOUS
 62
     6
  2
*D4747
 10
119.3863966094916
 20
77.1602745130765
 30
0.0
 11
214.6613966094914
 21
80.41027451307648
 31
0.0
 70
    32
  1
(<>)
  3
DMC
 13
309.9363966094911
 23
92.65622614226558
 33
0.0
 14
119.3863966094916
 24
192.1562261422652
 34
0.0
 50
180.0
1001
ACAD
1000
DSTYLE
1002
{
1070
    41
1040
3.0
1070
    47
1040
0.2
1070
    48
1040
0.2
1070
   141
1040
1.5
1070
   371
1070
    13
1070
   372
1070
    13
1002
}
  0
DIMENSION
  5
257
  8
回07-寸法
  6
CONTINUOUS
 62
     6
  2
*D4848
 10
309.9363966094911
 20
77.16027451307656
 30
0.0
 11
364.385999588603
 21
77.16027451307656
 31
0.0
 70
   160
  3
DMC
 13
327.4363966094913
 23
92.65622614226558
 33
0.0
 14
309.9363966094911
 24
92.65622614226558
 34
0.0
 50
180.0
1001
ACAD
1000
DSTYLE
1002
{
1070
    41
1040
3.0
1070
    47
1040
0.1
1070
    48
1040
0.1
1070
    71
1070
     1
1070
   141
1040
1.5
1070
   371
1070
    13
1070
   372
1070
    13
1002
}
  0
DIMENSION
  5
268
  8
回07-寸法
  6
CONTINUOUS
 62
     6
  2
*D4949
 10
338.9363966094913
 20
67.16555428493854
 30
0.0
 11
367.6488966094914
 21
67.16555428493854
 31
0.0
 70
   160
  3
DMC
 13
352.4363966094913
 23
92.65622614226471
 33
0.0
 14
338.9363966094913
 24
92.65622614226558
 34
0.0
 50
180.0
1001
ACAD
1000
DSTYLE
1002
{
1070
    41
1040
3.0
1070
    47
1040
0.1
1070
    48
1040
0.1
1070
    71
1070
     1
1070
   141
1040
1.5
1070
   371
1070
    13
1070
   372
1070
    13
1002
}
  0
DIMENSION
  5
279
  8
回07-寸法
  6
CONTINUOUS
 62
     5
  2
*D5050
 10
267.4268574059986
 20
92.16027451307638
 30
0.0
 11
267.4268574059986
 21
142.1582503276709
 31
0.0
 70
   160
  3
DMC
 13
296.1875219249398
 23
192.1562261422654
 33
0.0
 14
310.4363966094914
 24
92.16027451307638
 34
0.0
 50
270.0
1001
ACAD
1000
DSTYLE
1002
{
1070
    41
1040
3.0
1070
    47
1040
1.0
1070
    48
1040
1.0
1070
    71
1070
     1
1070
   141
1040
1.5
1070
   371
1070
    13
1070
   372
1070
    13
1002
}
  0
DIMENSION
  5
288
  8
回07-寸法
  6
CONTINUOUS
 62
     7
  2
*D5151
 10
71.65639661949126
 20
192.1562261422654
 30
0.0
 11
71.65639661949126
 21
164.2769029680526
 31
0.0
 70
   160
  1
<>{\H0.6667x;(Insulation area)}
  3
DMC
 13
124.8863966094916
 23
202.3562261422654
 33
0.0
 14
119.3863966094916
 24
192.1562261422654
 34
0.0
 50
270.0
1001
ACADSTRINGINFO
1000
MIFCodePage
1070
     1
1001
ACAD
1000
DSTYLE
1002
{
1070
    41
1040
3.0
1070
    47
1040
0.2
1070
    48
1040
0.2
1070
   140
1040
5.0
1070
   141
1040
1.5
1070
   371
1070
    13
1070
   372
1070
    13
1002
}
  0
DIMENSION
  5
299
  8
回07-寸法
  6
CONTINUOUS
 62
     5
  2
*D5252
 10
95.65639661949148
 20
192.1562261422654
 30
0.0
 11
95.65639661949148
 21
180.9062261422652
 31
0.0
 70
   160
  3
DMC
 13
127.3864046194919
 23
204.8562261422656
 33
0.0
 14
119.3863966094916
 24
192.1562261422654
 34
0.0
 50
270.0
1001
ACAD
1000
DSTYLE
1002
{
1070
    41
1040
3.0
1070
    47
1040
0.2
1070
    48
1040
0.2
1070
   140
1040
5.0
1070
   141
1040
1.5
1070
   371
1070
    13
1070
   372
1070
    13
1002
}
  0
DIMENSION
  5
2AA
  8
回07-寸法
  6
CONTINUOUS
 62
     5
  2
*D5353
 10
83.65639661949149
 20
192.1562261422654
 30
0.0
 11
83.65639661949149
 21
180.9062261422652
 31
0.0
 70
   160
  3
DMC
 13
125.3863966194915
 23
202.8562261422654
 33
0.0
 14
119.3863966094916
 24
192.1562261422654
 34
0.0
 50
270.0
1001
ACAD
1000
DSTYLE
1002
{
1070
    41
1040
3.0
1070
    47
1040
0.2
1070
    48
1040
0.2
1070
   140
1040
5.0
1070
   141
1040
1.5
1070
   371
1070
    13
1070
   372
1070
    13
1002
}
  0
DIMENSION
  5
2BB
  8
回07-寸法
  6
CONTINUOUS
 62
     7
  2
*D5454
 10
546.9863966094915
 20
491.1412261422654
 30
0.0
 11
575.6147355317356
 21
494.3912261422656
 31
0.0
 70
    32
  1
(<>){\H0.6667x;(Insulation area)}
  3
DMC
 13
541.4863966094911
 23
439.5562261422656
 33
0.0
 14
546.9863966094915
 24
446.0562261422658
 34
0.0
 50
180.0
1001
ACADSTRINGINFO
1000
MIFCodePage
1070
     1
1001
ACAD
1000
DSTYLE
1002
{
1070
    41
1040
3.0
1070
    47
1040
0.2
1070
    48
1040
0.2
1070
   140
1040
5.0
1070
   141
1040
1.5
1070
   371
1070
    13
1070
   372
1070
    13
1002
}
  0
DIMENSION
  5
2CC
  8
回07-寸法
  6
CONTINUOUS
 62
     5
  2
*D5555
 10
546.9863966094915
 20
467.1412261422656
 30
0.0
 11
556.4844281055544
 21
467.1412261422656
 31
0.0
 70
   160
  1
(<>)
  3
DMC
 13
538.9863966094915
 23
437.0562261422657
 33
0.0
 14
546.9863966094915
 24
446.0562261422658
 34
0.0
 50
180.0
1001
ACAD
1000
DSTYLE
1002
{
1070
    41
1040
3.0
1070
    47
1040
0.2
1070
    48
1040
0.2
1070
   140
1040
5.0
1070
   141
1040
1.5
1070
   371
1070
    13
1070
   372
1070
    13
1002
}
  0
DIMENSION
  5
2DD
  8
回07-寸法
  6
CONTINUOUS
 62
     5
  2
*D5656
 10
546.9863966094915
 20
479.1412261422656
 30
0.0
 11
556.4844281055543
 21
482.3912261422655
 31
0.0
 70
    32
  1
(<>)
  3
DMC
 13
540.9863966094915
 23
439.0562261422656
 33
0.0
 14
546.9863966094915
 24
446.0562261422658
 34
0.0
 50
180.0
1001
ACAD
1000
DSTYLE
1002
{
1070
    41
1040
3.0
1070
    47
1040
0.2
1070
    48
1040
0.2
1070
   140
1040
5.0
1070
   141
1040
1.5
1070
   371
1070
    13
1070
   372
1070
    13
1002
}
  0
DIMENSION
  5
2EE
  8
回07-寸法
  6
CONTINUOUS
 62
     7
  2
*D5757
 10
124.8863966094916
 20
491.1412261422654
 30
0.0
 11
333.1863966094914
 21
494.1412261422653
 31
0.0
 70
    32
  3
DMC
 13
541.4863966094911
 23
439.5562261422656
 33
0.0
 14
124.8863966094916
 24
439.5562261422656
 34
0.0
 50
180.0
1001
ACAD
1000
DSTYLE
1002
{
1070
    41
1040
3.0
1070
    47
1040
0.2
1070
    48
1040
0.2
1070
   140
1040
5.0
1070
   141
1040
1.5
1070
   371
1070
    13
1070
   372
1070
    13
1002
}
  0
DIMENSION
  5
2FD
  8
回07-寸法
  6
CONTINUOUS
 62
     7
  2
*D5858
 10
119.3863966094916
 20
491.1412261422654
 30
0.0
 11
92.75707343527901
 21
494.2245636422654
 31
0.0
 70
    32
  1
<>{\H0.6667x;(Insulation area)}
  3
DMC
 13
124.8863966094916
 23
439.5562261422656
 33
0.0
 14
119.3863966094916
 24
446.0562261422658
 34
0.0
 50
180.0
1001
ACADSTRINGINFO
1000
MIFCodePage
1070
     1
1001
ACAD
1000
DSTYLE
1002
{
1070
    41
1040
3.0
1070
    47
1040
0.2
1070
    48
1040
0.2
1070
   140
1040
5.0
1070
   141
1040
1.5
1070
   371
1070
    13
1070
   372
1070
    13
1002
}
  0
DIMENSION
  5
30E
  8
回07-寸法
  6
CONTINUOUS
 62
     7
  2
*D5959
 10
71.65639661949197
 20
446.0562261422648
 30
0.0
 11
68.40639661949197
 21
474.6845650645089
 31
0.0
 70
    32
  1
(<>){\H0.6667x;(Insulation area)}
  3
DMC
 13
124.8863966094916
 23
439.5562261422656
 33
0.0
 14
119.3863966094916
 24
446.0562261422648
 34
0.0
 50
270.0
1001
ACADSTRINGINFO
1000
MIFCodePage
1070
     1
1001
ACAD
1000
DSTYLE
1002
{
1070
    41
1040
3.0
1070
    47
1040
0.2
1070
    48
1040
0.2
1070
   140
1040
5.0
1070
   141
1040
1.5
1070
   371
1070
    13
1070
   372
1070
    13
1002
}
  0
DIMENSION
  5
31F
  8
回07-寸法
  6
CONTINUOUS
 62
     7
  2
*D6060
 10
71.65639661949197
 20
439.5562261422656
 30
0.0
 11
68.65639661949194
 21
320.9562261422655
 31
0.0
 70
    32
  3
DMC
 13
124.8863966094916
 23
202.3562261422654
 33
0.0
 14
124.8863966094916
 24
439.5562261422656
 34
0.0
 50
270.0
1001
ACAD
1000
DSTYLE
1002
{
1070
    41
1040
3.0
1070
    47
1040
0.2
1070
    48
1040
0.2
1070
   140
1040
5.0
1070
   141
1040
1.5
1070
   371
1070
    13
1070
   372
1070
    13
1002
}
  0
DIMENSION
  5
32E
  8
回07-寸法
  6
CONTINUOUS
 62
     5
  2
*D6161
 10
119.3863966094916
 20
479.1412261422656
 30
0.0
 11
111.6127745622475
 21
479.1412261422656
 31
0.0
 70
   160
  3
DMC
 13
125.3863966194919
 23
439.0562261422655
 33
0.0
 14
119.3863966094916
 24
446.0562261422648
 34
0.0
 50
180.0
1001
ACAD
1000
DSTYLE
1002
{
1070
    41
1040
3.0
1070
    47
1040
0.2
1070
    48
1040
0.2
1070
   140
1040
5.0
1070
   141
1040
1.5
1070
   371
1070
    13
1070
   372
1070
    13
1002
}
  0
DIMENSION
  5
33F
  8
回07-寸法
  6
CONTINUOUS
 62
     5
  2
*D6262
 10
119.3863966094916
 20
467.1412261422656
 30
0.0
 11
111.8863966094916
 21
467.1412261422656
 31
0.0
 70
   160
  3
DMC
 13
127.3863966194919
 23
437.0562261422654
 33
0.0
 14
119.3863966094916
 24
446.0562261422648
 34
0.0
 50
180.0
1001
ACAD
1000
DSTYLE
1002
{
1070
    41
1040
3.0
1070
    47
1040
0.2
1070
    48
1040
0.2
1070
   140
1040
5.0
1070
   141
1040
1.5
1070
   371
1070
    13
1070
   372
1070
    13
1002
}
  0
DIMENSION
  5
350
  8
回07-寸法
  6
CONTINUOUS
 62
     5
  2
*D6363
 10
83.65639661949172
 20
446.0562261422658
 30
0.0
 11
83.65639661949172
 21
455.8692576383286
 31
0.0
 70
   160
  1
(<>)
  3
DMC
 13
125.3863966194919
 23
439.0562261422655
 33
0.0
 14
119.3863966094916
 24
446.0562261422658
 34
0.0
 50
270.0
1001
ACAD
1000
DSTYLE
1002
{
1070
    41
1040
3.0
1070
    47
1040
0.2
1070
    48
1040
0.2
1070
   140
1040
5.0
1070
   141
1040
1.5
1070
   371
1070
    13
1070
   372
1070
    13
1002
}
  0
DIMENSION
  5
361
  8
回07-寸法
  6
CONTINUOUS
 62
     5
  2
*D6464
 10
95.65639661949171
 20
446.0562261422648
 30
0.0
 11
95.65639661949171
 21
455.8692576383277
 31
0.0
 70
   160
  1
(<>)
  3
DMC
 13
127.3863966194919
 23
437.0562261422654
 33
0.0
 14
119.3863966094916
 24
446.0562261422648
 34
0.0
 50
270.0
1001
ACAD
1000
DSTYLE
1002
{
1070
    41
1040
3.0
1070
    47
1040
0.2
1070
    48
1040
0.2
1070
   140
1040
5.0
1070
   141
1040
1.5
1070
   371
1070
    13
1070
   372
1070
    13
1002
}
  0
DIMENSION
  5
372
  8
回07-寸法
  6
CONTINUOUS
 62
     5
  2
*D6565
 10
119.3863966094916
 20
503.1412261422656
 30
0.0
 11
333.1863966094914
 21
503.1412261422654
 31
0.0
 70
   160
  3
DMC
 13
546.9863966094915
 23
446.0562261422658
 33
0.0
 14
119.3863966094916
 24
446.0562261422648
 34
0.0
 50
180.0
1001
ACAD
1000
DSTYLE
1002
{
1070
    41
1040
3.0
1070
   147
1040
0.5
1070
    72
1070
     0
1070
    71
1070
     1
1070
    47
1040
0.3
1070
    48
1040
0.3
1070
   140
1040
5.0
1070
   141
1040
1.5
1070
   371
1070
    13
1070
   372
1070
    13
1002
}
  0
DIMENSION
  5
381
  8
回07-寸法
  6
CONTINUOUS
 62
     5
  2
*D6666
 10
540.9863966094915
 20
479.1412261422654
 30
0.0
 11
333.1863966144918
 21
479.1412261422656
 31
0.0
 70
   160
  1
<>(Viewing Area)
  3
DMC
 13
125.3863966194919
 23
439.0562261422655
 33
0.0
 14
540.9863966094915
 24
439.0562261422646
 34
0.0
 50
180.0
1001
ACAD
1000
DSTYLE
1002
{
1070
    41
1040
3.0
1070
    47
1040
0.2
1070
    48
1040
0.2
1070
   140
1040
5.0
1070
   141
1040
1.5
1070
   371
1070
    13
1070
   372
1070
    13
1002
}
  0
DIMENSION
  5
390
  8
回07-寸法
  6
CONTINUOUS
 62
     5
  2
*D6767
 10
127.3864046194919
 20
467.1412261422656
 30
0.0
 11
333.1864006144917
 21
470.3912261422654
 31
0.0
 70
    32
  1
<>(Active Area)
  3
DMC
 13
538.9863966094915
 23
437.0562261422654
 33
0.0
 14
127.3864046194919
 24
437.0562261422654
 34
0.0
 50
180.0
1001
ACAD
1000
DSTYLE
1002
{
1070
    41
1040
3.0
1070
    47
1040
0.2
1070
    48
1040
0.2
1070
   140
1040
5.0
1070
   141
1040
1.5
1070
   371
1070
    13
1070
   372
1070
    13
1002
}
  0
DIMENSION
  5
39F
  8
回07-寸法
  6
CONTINUOUS
 62
     5
  2
*D6868
 10
59.65639661949169
 20
192.1562261422654
 30
0.0
 11
59.65639661949172
 21
319.1062261422652
 31
0.0
 70
   160
  3
DMC
 13
119.3863966094916
 23
446.0562261422648
 33
0.0
 14
119.3863966094916
 24
192.1562261422654
 34
0.0
 50
270.0
1001
ACAD
1000
DSTYLE
1002
{
1070
    41
1040
3.0
1070
   147
1040
0.5
1070
    72
1070
     0
1070
    71
1070
     1
1070
    47
1040
0.3
1070
    48
1040
0.3
1070
   140
1040
5.0
1070
   141
1040
1.5
1070
   371
1070
    13
1070
   372
1070
    13
1002
}
  0
DIMENSION
  5
3AE
  8
回07-寸法
  6
CONTINUOUS
 62
     5
  2
*D6969
 10
83.65639661949169
 20
202.8562261422654
 30
0.0
 11
83.65639661949172
 21
320.9562261422655
 31
0.0
 70
   160
  1
<>(Viewing Area)
  3
DMC
 13
125.3863966194919
 23
439.0562261422655
 33
0.0
 14
125.3863966194919
 24
202.8562261422654
 34
0.0
 50
270.0
1001
ACAD
1000
DSTYLE
1002
{
1070
    41
1040
3.0
1070
    47
1040
0.2
1070
    48
1040
0.2
1070
   140
1040
5.0
1070
   141
1040
1.5
1070
   371
1070
    13
1070
   372
1070
    13
1002
}
  0
DIMENSION
  5
3BD
  8
回07-寸法
  6
CONTINUOUS
 62
     5
  2
*D7070
 10
95.65639661949177
 20
437.0562261422654
 30
0.0
 11
95.65639661949171
 21
320.9562261422655
 31
0.0
 70
   160
  1
<>(Active Area)
  3
DMC
 13
127.3863966194919
 23
204.8562261422654
 33
0.0
 14
127.3863966194919
 24
437.0562261422654
 34
0.0
 50
270.0
1001
ACAD
1000
DSTYLE
1002
{
1070
    41
1040
3.0
1070
    47
1040
0.2
1070
    48
1040
0.2
1070
   140
1040
5.0
1070
   141
1040
1.5
1070
   371
1070
    13
1070
   372
1070
    13
1002
}
  0
TEXT
  5
3CC
  8
回08-記事
  6
CONTINUOUS
 62
     5
 10
550.6671518911481
 20
159.86406658233
 30
0.0
 40
4.0
  1
Part No. label
1001
ACAD
1000
MTEXTBEGIN
1070
    73
1070
     1
1070
    44
1040
1.0
1070
    74
1070
     0
1000
MTEXTEND
  0
INSERT
  5
3CD
  8
回08-記事
  6
CONTINUOUS
 62
     7
 66
     1
  2
*X8181
 10
0.0
 20
0.0
 30
0.0
  0
SEQEND
  5
7C3
  8
0
  6
CONTINUOUS
 62
     7
  0
TEXT
  5
3CE
  8
回08-記事
  6
CONTINUOUS
 62
     5
 10
608.4472366386724
 20
158.1407393782446
 30
0.0
 40
5.0
  1
Lot label
1001
ACAD
1000
MTEXTBEGIN
1070
    73
1070
     1
1070
    44
1040
1.0
1070
    74
1070
     0
1000
MTEXTEND
  0
INSERT
  5
3CF
  8
回08-記事
  6
CONTINUOUS
 62
     7
 66
     1
  2
*X8282
 10
0.0
 20
0.0
 30
0.0
  0
SEQEND
  5
7CA
  8
0
  6
CONTINUOUS
 62
     7
  0
ARC
  5
3D0
  8
回08-記事
  6
CONTINUOUS
 62
     7
 10
601.3258975098485
 20
437.3712261422656
 30
0.0
 40
0.416177340283639
 50
90.0
 51
270.0
  0
ARC
  5
3D1
  8
回08-記事
  6
CONTINUOUS
 62
     7
 10
601.3258975098485
 20
433.8712261422656
 30
0.0
 40
0.416177340283639
 50
90.0
 51
270.0
  0
ARC
  5
3D2
  8
回08-記事
  6
CONTINUOUS
 62
     7
 10
601.3258975098485
 20
430.3712261422655
 30
0.0
 40
0.416177340283639
 50
90.0
 51
270.0
  0
ARC
  5
3D3
  8
回08-記事
  6
CONTINUOUS
 62
     7
 10
601.3258975098485
 20
426.8712261422654
 30
0.0
 40
0.416177340283639
 50
90.0
 51
270.0
  0
ARC
  5
3D4
  8
回08-記事
  6
CONTINUOUS
 62
     7
 10
601.3258975098485
 20
423.3712261422654
 30
0.0
 40
0.416177340283639
 50
90.0
 51
270.0
  0
ARC
  5
3D5
  8
回08-記事
  6
CONTINUOUS
 62
     7
 10
601.3258975098485
 20
419.8712261422654
 30
0.0
 40
0.416177340283639
 50
90.0
 51
270.0
  0
ARC
  5
3D6
  8
回08-記事
  6
CONTINUOUS
 62
     7
 10
601.3258975098485
 20
416.3712261422656
 30
0.0
 40
0.416177340283639
 50
90.0
 51
270.0
  0
ARC
  5
3D7
  8
回08-記事
  6
CONTINUOUS
 62
     7
 10
601.3258975098485
 20
412.8712261422656
 30
0.0
 40
0.416177340283639
 50
90.0
 51
270.0
  0
ARC
  5
3D8
  8
回08-記事
  6
CONTINUOUS
 62
     7
 10
601.3258975098485
 20
409.3712261422655
 30
0.0
 40
0.416177340283639
 50
90.0
 51
270.0
  0
ARC
  5
3D9
  8
回08-記事
  6
CONTINUOUS
 62
     7
 10
601.3258975098485
 20
405.8712261422654
 30
0.0
 40
0.416177340283639
 50
90.0
 51
270.0
  0
ARC
  5
3DA
  8
回08-記事
  6
CONTINUOUS
 62
     7
 10
601.3258975098485
 20
402.3712261422654
 30
0.0
 40
0.416177340283639
 50
90.0
 51
270.0
  0
POLYLINE
  5
3DB
  8
回08-記事
  6
CONTINUOUS
 62
     7
 66
     1
 10
0.0
 20
0.0
 30
0.0
 70
     1
  0
VERTEX
  5
BE1
  8
回08-記事
  6
CONTINUOUS
 62
     7
 10
599.6258975098487
 20
171.1795938684731
 30
0.0
  0
VERTEX
  5
BE3
  8
回08-記事
  6
CONTINUOUS
 62
     7
 10
600.3258975098487
 20
171.1795938684731
 30
0.0
  0
VERTEX
  5
BE4
  8
回08-記事
  6
CONTINUOUS
 62
     7
 10
600.3258975098487
 20
145.1795938684731
 30
0.0
  0
VERTEX
  5
BE5
  8
回08-記事
  6
CONTINUOUS
 62
     7
 10
599.6258975098487
 20
145.1795938684731
 30
0.0
  0
SEQEND
  5
BE2
  8
0
  6
CONTINUOUS
 62
     7
  0
INSERT
  5
3DC
  8
回08-記事
  6
CONTINUOUS
 62
     7
 66
     1
  2
*X8383
 10
0.0
 20
0.0
 30
0.0
1001
GRADIENTCOLOR1ACI
1070
     5
1001
GRADIENTCOLOR2ACI
1070
     2
1001
ACAD
1010
0.0
1020
0.0
1030
0.0
  0
SEQEND
  5
7E7
  8
0
  6
CONTINUOUS
 62
     7
  0
TEXT
  5
3DD
  8
回08-記事
  6
CONTINUOUS
 62
     7
 10
577.712151319691
 20
329.0268665054006
 30
0.0
 40
4.0
  1
1
  0
TEXT
  5
3DE
  8
回08-記事
  6
CONTINUOUS
 62
     7
 10
616.8436785981449
 20
319.0282352325553
 30
0.0
 40
4.0
  1
2
  0
TEXT
  5
3DF
  8
回08-記事
  6
CONTINUOUS
 62
     7
 10
614.8148523004508
 20
183.810340744816
 30
0.0
 40
4.0
  1
6
  0
LINE
  5
3E0
  8
回08-記事
  6
CONTINUOUS
 62
     7
 10
615.2115907962068
 20
321.3108912538257
 30
0.0
 11
606.4121382469927
 21
324.0885830578958
 31
0.0
  0
LINE
  5
3E1
  8
回08-記事
  6
CONTINUOUS
 62
     7
 10
581.6230559238078
 20
331.3206421115858
 30
0.0
 11
589.5874413881958
 21
328.386249710624
 31
0.0
  0
LINE
  5
3E2
  8
回08-記事
  6
CONTINUOUS
 62
     7
 10
596.7690411547201
 20
108.4250648275728
 30
0.0
 11
593.1827132908781
 21
101.7034696494792
 31
0.0
  0
LINE
  5
3E3
  8
回08-記事
  6
CONTINUOUS
 62
     7
 10
599.8672132255706
 20
101.6035697868778
 30
0.0
 11
596.7690411547201
 21
108.4250648275728
 31
0.0
  0
TEXT
  5
3E4
  8
回08-記事
  6
CONTINUOUS
 62
     7
 10
595.5817051740274
 20
108.5203773879593
 30
0.0
 40
3.0
  1
5
  0
LINE
  5
3E5
  8
回08-記事
  6
CONTINUOUS
 62
     7
 10
583.9418329581668
 20
174.2032458209846
 30
0.0
 11
600.7985071455069
 21
182.5890991839177
 31
0.0
  0
LINE
  5
3E6
  8
回08-記事
  6
CONTINUOUS
 62
     7
 10
591.9848170291327
 20
172.1364711997839
 30
0.0
 11
583.9418329581668
 21
174.2032458209846
 31
0.0
  0
TEXT
  5
3E7
  8
回08-記事
  6
CONTINUOUS
 62
     7
 10
579.3242031851039
 20
172.2356011124156
 30
0.0
 40
4.0
  1
3
  0
LINE
  5
3E8
  8
回08-記事
  6
CONTINUOUS
 62
     7
 10
612.549485949393
 20
131.4490847471306
 30
0.0
 11
601.593005839529
 21
137.7999065528892
 31
0.0
  0
LINE
  5
3E9
  8
回08-記事
  6
CONTINUOUS
 62
     7
 10
591.0521043528234
 20
130.8705275600977
 30
0.0
 11
612.549485949393
 21
131.4490847471306
 31
0.0
  0
TEXT
  5
3EA
  8
回08-記事
  6
CONTINUOUS
 62
     7
 10
612.5972160181223
 20
129.5821626144415
 30
0.0
 40
4.0
  1
4
  0
LINE
  5
3EB
  8
回08-記事
  6
CONTINUOUS
 62
     7
 10
615.0315849433539
 20
186.0605270616892
 30
0.0
 11
596.1586170248748
 21
191.8361073331798
 31
0.0
  0
LINE
  5
3EC
  8
回08-記事
  6
CONTINUOUS
 62
     7
 10
608.7336343352318
 20
192.5524604940682
 30
0.0
 11
615.0315849433539
 21
186.0605270616892
 31
0.0
  0
ARC
  5
3ED
  8
回08-記事
  6
CONTINUOUS
 62
     7
 10
601.3258975098485
 20
220.3712261422658
 30
0.0
 40
0.416177340283639
 50
90.0
 51
270.0
  0
ARC
  5
3EE
  8
回08-記事
  6
CONTINUOUS
 62
     7
 10
601.3258975098485
 20
216.8712261422658
 30
0.0
 40
0.416177340283639
 50
90.0
 51
270.0
  0
ARC
  5
3EF
  8
回08-記事
  6
CONTINUOUS
 62
     7
 10
601.3258975098485
 20
213.3712261422658
 30
0.0
 40
0.416177340283639
 50
90.0
 51
270.0
  0
ARC
  5
3F0
  8
回08-記事
  6
CONTINUOUS
 62
     7
 10
601.3258975098485
 20
209.8712261422658
 30
0.0
 40
0.416177340283639
 50
90.0
 51
270.0
  0
ARC
  5
3F1
  8
回08-記事
  6
CONTINUOUS
 62
     7
 10
601.3258975098485
 20
206.3712261422658
 30
0.0
 40
0.416177340283639
 50
90.0
 51
270.0
  0
ARC
  5
3F2
  8
回08-記事
  6
CONTINUOUS
 62
     7
 10
601.3258975098485
 20
202.8712261422658
 30
0.0
 40
0.416177340283639
 50
90.0
 51
270.0
  0
ARC
  5
3F3
  8
回08-記事
  6
CONTINUOUS
 62
     7
 10
601.3258975098485
 20
230.8712261422658
 30
0.0
 40
0.416177340283639
 50
90.0
 51
270.0
  0
ARC
  5
3F4
  8
回08-記事
  6
CONTINUOUS
 62
     7
 10
601.3258975098485
 20
227.3712261422658
 30
0.0
 40
0.416177340283639
 50
90.0
 51
270.0
  0
ARC
  5
3F5
  8
回08-記事
  6
CONTINUOUS
 62
     7
 10
601.3258975098485
 20
223.8712261422658
 30
0.0
 40
0.416177340283639
 50
90.0
 51
270.0
  0
ARC
  5
3F6
  8
回08-記事
  6
CONTINUOUS
 62
     7
 10
601.3258975098485
 20
398.8712261422656
 30
0.0
 40
0.416177340283639
 50
90.0
 51
270.0
  0
ARC
  5
3F7
  8
回08-記事
  6
CONTINUOUS
 62
     7
 10
601.3258975098485
 20
395.3712261422656
 30
0.0
 40
0.416177340283639
 50
90.0
 51
270.0
  0
ARC
  5
3F8
  8
回08-記事
  6
CONTINUOUS
 62
     7
 10
601.3258975098485
 20
391.8712261422657
 30
0.0
 40
0.416177340283639
 50
90.0
 51
270.0
  0
ARC
  5
3F9
  8
回08-記事
  6
CONTINUOUS
 62
     7
 10
601.3258975098485
 20
388.3712261422656
 30
0.0
 40
0.416177340283639
 50
90.0
 51
270.0
  0
ARC
  5
3FA
  8
回08-記事
  6
CONTINUOUS
 62
     7
 10
601.3258975098485
 20
384.8712261422656
 30
0.0
 40
0.416177340283639
 50
90.0
 51
270.0
  0
ARC
  5
3FB
  8
回08-記事
  6
CONTINUOUS
 62
     7
 10
601.3258975098485
 20
381.3712261422656
 30
0.0
 40
0.416177340283639
 50
90.0
 51
270.0
  0
ARC
  5
3FC
  8
回08-記事
  6
CONTINUOUS
 62
     7
 10
601.3258975098485
 20
377.8712261422656
 30
0.0
 40
0.416177340283639
 50
90.0
 51
270.0
  0
ARC
  5
3FD
  8
回08-記事
  6
CONTINUOUS
 62
     7
 10
601.3258975098485
 20
251.8712261422658
 30
0.0
 40
0.416177340283639
 50
90.0
 51
270.0
  0
ARC
  5
3FE
  8
回08-記事
  6
CONTINUOUS
 62
     7
 10
601.3258975098485
 20
248.3712261422658
 30
0.0
 40
0.416177340283639
 50
90.0
 51
270.0
  0
ARC
  5
3FF
  8
回08-記事
  6
CONTINUOUS
 62
     7
 10
601.3258975098485
 20
244.8712261422658
 30
0.0
 40
0.416177340283639
 50
90.0
 51
270.0
  0
ARC
  5
400
  8
回08-記事
  6
CONTINUOUS
 62
     7
 10
601.3258975098485
 20
241.3712261422658
 30
0.0
 40
0.416177340283639
 50
90.0
 51
270.0
  0
ARC
  5
401
  8
回08-記事
  6
CONTINUOUS
 62
     7
 10
601.3258975098485
 20
237.8712261422658
 30
0.0
 40
0.416177340283639
 50
90.0
 51
270.0
  0
ARC
  5
402
  8
回08-記事
  6
CONTINUOUS
 62
     7
 10
601.3258975098485
 20
234.3712261422658
 30
0.0
 40
0.416177340283639
 50
90.0
 51
270.0
  0
ARC
  5
403
  8
回08-記事
  6
CONTINUOUS
 62
     7
 10
601.3258975098485
 20
230.8712261422658
 30
0.0
 40
0.416177340283639
 50
90.0
 51
270.0
  0
ARC
  5
404
  8
回08-記事
  6
CONTINUOUS
 62
     7
 10
601.3258975098485
 20
297.3712261422658
 30
0.0
 40
0.416177340283639
 50
90.0
 51
270.0
  0
ARC
  5
405
  8
回08-記事
  6
CONTINUOUS
 62
     7
 10
601.3258975098485
 20
293.8712261422658
 30
0.0
 40
0.416177340283639
 50
90.0
 51
270.0
  0
ARC
  5
406
  8
回08-記事
  6
CONTINUOUS
 62
     7
 10
601.3258975098485
 20
290.3712261422658
 30
0.0
 40
0.416177340283639
 50
90.0
 51
270.0
  0
ARC
  5
407
  8
回08-記事
  6
CONTINUOUS
 62
     7
 10
601.3258975098485
 20
286.8712261422658
 30
0.0
 40
0.416177340283639
 50
90.0
 51
270.0
  0
ARC
  5
408
  8
回08-記事
  6
CONTINUOUS
 62
     7
 10
601.3258975098485
 20
283.3712261422658
 30
0.0
 40
0.416177340283639
 50
90.0
 51
270.0
  0
ARC
  5
409
  8
回08-記事
  6
CONTINUOUS
 62
     7
 10
601.3258975098485
 20
279.8712261422658
 30
0.0
 40
0.416177340283639
 50
90.0
 51
270.0
  0
ARC
  5
40A
  8
回08-記事
  6
CONTINUOUS
 62
     7
 10
601.3258975098485
 20
276.3712261422658
 30
0.0
 40
0.416177340283639
 50
90.0
 51
270.0
  0
ARC
  5
40B
  8
回08-記事
  6
CONTINUOUS
 62
     7
 10
601.3258975098485
 20
272.8712261422658
 30
0.0
 40
0.416177340283639
 50
90.0
 51
270.0
  0
ARC
  5
40C
  8
回08-記事
  6
CONTINUOUS
 62
     7
 10
601.3258975098485
 20
269.3712261422658
 30
0.0
 40
0.416177340283639
 50
90.0
 51
270.0
  0
ARC
  5
40D
  8
回08-記事
  6
CONTINUOUS
 62
     7
 10
601.3258975098485
 20
265.8712261422658
 30
0.0
 40
0.416177340283639
 50
90.0
 51
270.0
  0
ARC
  5
40E
  8
回08-記事
  6
CONTINUOUS
 62
     7
 10
601.3258975098485
 20
262.3712261422658
 30
0.0
 40
0.416177340283639
 50
90.0
 51
270.0
  0
ARC
  5
40F
  8
回08-記事
  6
CONTINUOUS
 62
     7
 10
601.3258975098485
 20
258.8712261422658
 30
0.0
 40
0.416177340283639
 50
90.0
 51
270.0
  0
ARC
  5
410
  8
回08-記事
  6
CONTINUOUS
 62
     7
 10
601.3258975098485
 20
255.3712261422658
 30
0.0
 40
0.416177340283639
 50
90.0
 51
270.0
  0
ARC
  5
411
  8
回08-記事
  6
CONTINUOUS
 62
     7
 10
601.3258975098485
 20
374.3712261422656
 30
0.0
 40
0.416177340283639
 50
90.0
 51
270.0
  0
ARC
  5
412
  8
回08-記事
  6
CONTINUOUS
 62
     7
 10
601.3258975098485
 20
370.8712261422657
 30
0.0
 40
0.416177340283639
 50
90.0
 51
270.0
  0
ARC
  5
413
  8
回08-記事
  6
CONTINUOUS
 62
     7
 10
601.3258975098485
 20
367.3712261422656
 30
0.0
 40
0.416177340283639
 50
90.0
 51
270.0
  0
ARC
  5
414
  8
回08-記事
  6
CONTINUOUS
 62
     7
 10
601.3258975098485
 20
363.8712261422656
 30
0.0
 40
0.416177340283639
 50
90.0
 51
270.0
  0
ARC
  5
415
  8
回08-記事
  6
CONTINUOUS
 62
     7
 10
601.3258975098485
 20
360.3712261422657
 30
0.0
 40
0.416177340283639
 50
90.0
 51
270.0
  0
ARC
  5
416
  8
回08-記事
  6
CONTINUOUS
 62
     7
 10
601.3258975098485
 20
356.8712261422656
 30
0.0
 40
0.416177340283639
 50
90.0
 51
270.0
  0
ARC
  5
417
  8
回08-記事
  6
CONTINUOUS
 62
     7
 10
601.3258975098485
 20
353.3712261422656
 30
0.0
 40
0.416177340283639
 50
90.0
 51
270.0
  0
ARC
  5
418
  8
回08-記事
  6
CONTINUOUS
 62
     7
 10
601.3258975098485
 20
349.8712261422657
 30
0.0
 40
0.416177340283639
 50
90.0
 51
270.0
  0
ARC
  5
419
  8
回08-記事
  6
CONTINUOUS
 62
     7
 10
601.3258975098485
 20
346.3712261422656
 30
0.0
 40
0.416177340283639
 50
90.0
 51
270.0
  0
ARC
  5
41A
  8
回08-記事
  6
CONTINUOUS
 62
     7
 10
601.3258975098485
 20
342.8712261422656
 30
0.0
 40
0.416177340283639
 50
90.0
 51
270.0
  0
ARC
  5
41B
  8
回08-記事
  6
CONTINUOUS
 62
     7
 10
601.3258975098485
 20
339.3712261422657
 30
0.0
 40
0.416177340283639
 50
90.0
 51
270.0
  0
ARC
  5
41C
  8
回08-記事
  6
CONTINUOUS
 62
     7
 10
601.3258975098485
 20
335.8712261422656
 30
0.0
 40
0.416177340283639
 50
90.0
 51
270.0
  0
ARC
  5
41D
  8
回08-記事
  6
CONTINUOUS
 62
     7
 10
601.3258975098485
 20
332.3712261422656
 30
0.0
 40
0.416177340283639
 50
90.0
 51
270.0
  0
ARC
  5
41E
  8
回08-記事
  6
CONTINUOUS
 62
     7
 10
601.3258975098485
 20
328.8712261422656
 30
0.0
 40
0.416177340283639
 50
90.0
 51
270.0
  0
ARC
  5
41F
  8
回08-記事
  6
CONTINUOUS
 62
     7
 10
601.3258975098485
 20
325.3712261422657
 30
0.0
 40
0.416177340283639
 50
90.0
 51
270.0
  0
ARC
  5
420
  8
回08-記事
  6
CONTINUOUS
 62
     7
 10
601.3258975098485
 20
321.8712261422656
 30
0.0
 40
0.416177340283639
 50
90.0
 51
270.0
  0
ARC
  5
421
  8
回08-記事
  6
CONTINUOUS
 62
     7
 10
601.3258975098485
 20
318.3712261422656
 30
0.0
 40
0.416177340283639
 50
90.0
 51
270.0
  0
ARC
  5
422
  8
回08-記事
  6
CONTINUOUS
 62
     7
 10
601.3258975098485
 20
314.8712261422657
 30
0.0
 40
0.416177340283639
 50
90.0
 51
270.0
  0
ARC
  5
423
  8
回08-記事
  6
CONTINUOUS
 62
     7
 10
601.3258975098485
 20
311.3712261422656
 30
0.0
 40
0.416177340283639
 50
90.0
 51
270.0
  0
ARC
  5
424
  8
回08-記事
  6
CONTINUOUS
 62
     7
 10
601.3258975098485
 20
307.8712261422656
 30
0.0
 40
0.416177340283639
 50
90.0
 51
270.0
  0
ARC
  5
425
  8
回08-記事
  6
CONTINUOUS
 62
     7
 10
601.3258975098485
 20
304.3712261422658
 30
0.0
 40
0.416177340283639
 50
90.0
 51
270.0
  0
ARC
  5
426
  8
回08-記事
  6
CONTINUOUS
 62
     7
 10
601.3258975098485
 20
300.8712261422658
 30
0.0
 40
0.416177340283639
 50
90.0
 51
270.0
  0
POLYLINE
  5
427
  8
回08-記事
  6
CONTINUOUS
 62
     7
 66
     1
 10
0.0
 20
0.0
 30
0.0
 70
     1
  0
VERTEX
  5
BE6
  8
回08-記事
  6
CONTINUOUS
 62
     7
 10
602.0258975098487
 20
171.1795938684731
 30
0.0
  0
VERTEX
  5
BE8
  8
回08-記事
  6
CONTINUOUS
 62
     7
 10
602.7258975098487
 20
171.1795938684731
 30
0.0
  0
VERTEX
  5
BE9
  8
回08-記事
  6
CONTINUOUS
 62
     7
 10
602.7258975098487
 20
145.1795938684731
 30
0.0
  0
VERTEX
  5
BEA
  8
回08-記事
  6
CONTINUOUS
 62
     7
 10
602.0258975098487
 20
145.1795938684731
 30
0.0
  0
SEQEND
  5
BE7
  8
0
  6
CONTINUOUS
 62
     7
  0
INSERT
  5
428
  8
回08-記事
  6
CONTINUOUS
 62
     7
 66
     1
  2
*X8484
 10
0.0
 20
0.0
 30
0.0
1001
GRADIENTCOLOR1ACI
1070
     5
1001
GRADIENTCOLOR2ACI
1070
     2
1001
ACAD
1010
0.0
1020
0.0
1030
0.0
  0
SEQEND
  5
804
  8
0
  6
CONTINUOUS
 62
     7
  0
LINE
  5
429
  8
回08-記事
  6
CONTINUOUS
 62
     7
 10
602.0258975098487
 20
192.1562261422654
 30
0.0
 11
602.0258975098487
 21
188.524512441873
 31
0.0
1001
ACAD
1000
ASC_BOUNDS
1002
{
1070
    19
1005
437
1002
}
  0
LINE
  5
42A
  8
回08-記事
  6
CONTINUOUS
 62
     7
 10
608.3258975098487
 20
192.1562261422654
 30
0.0
 11
602.0258975098487
 21
192.1562261422654
 31
0.0
1001
ACAD
1000
ASC_BOUNDS
1002
{
1070
    19
1005
437
1002
}
  0
LINE
  5
42B
  8
回08-記事
  6
CONTINUOUS
 62
     7
 10
608.3258975098487
 20
195.7245124418731
 30
0.0
 11
608.3258975098487
 21
192.1562261422654
 31
0.0
1001
ACAD
1000
ASC_BOUNDS
1002
{
1070
    19
1005
437
1002
}
  0
LINE
  5
42C
  8
回08-記事
  6
CONTINUOUS
 62
     7
 10
609.0258975098487
 20
195.7245124418731
 30
0.0
 11
608.3258975098487
 21
195.7245124418731
 31
0.0
1001
ACAD
1000
ASC_BOUNDS
1002
{
1070
    19
1005
437
1002
}
  0
LINE
  5
42D
  8
回08-記事
  6
CONTINUOUS
 62
     7
 10
609.0258975098487
 20
191.4562261422656
 30
0.0
 11
609.0258975098487
 21
195.7245124418731
 31
0.0
1001
ACAD
1000
ASC_BOUNDS
1002
{
1070
    19
1005
437
1002
}
  0
LINE
  5
42E
  8
回08-記事
  6
CONTINUOUS
 62
     7
 10
602.7258975098487
 20
191.4562261422656
 30
0.0
 11
609.0258975098487
 21
191.4562261422656
 31
0.0
1001
ACAD
1000
ASC_BOUNDS
1002
{
1070
    19
1005
437
1002
}
  0
LINE
  5
42F
  8
回08-記事
  6
CONTINUOUS
 62
     7
 10
602.7258975098487
 20
188.524512441873
 30
0.0
 11
602.7258975098487
 21
191.4562261422656
 31
0.0
1001
ACAD
1000
ASC_BOUNDS
1002
{
1070
    19
1005
437
1002
}
  0
LINE
  5
430
  8
回08-記事
  6
CONTINUOUS
 62
     7
 10
602.0258975098487
 20
188.524512441873
 30
0.0
 11
602.7258975098487
 21
188.524512441873
 31
0.0
1001
ACAD
1000
ASC_BOUNDS
1002
{
1070
    19
1005
437
1002
}
  0
LINE
  5
431
  8
回08-記事
  6
CONTINUOUS
 62
     7
 10
593.1327132908782
 20
188.524512441873
 30
0.0
 11
592.4327132908781
 21
188.524512441873
 31
0.0
1001
ACAD
1000
ASC_BOUNDS
1002
{
1070
    19
1005
437
1002
}
  0
LINE
  5
432
  8
回08-記事
  6
CONTINUOUS
 62
     7
 10
593.1327132908782
 20
191.4562261422656
 30
0.0
 11
593.1327132908782
 21
188.524512441873
 31
0.0
1001
ACAD
1000
ASC_BOUNDS
1002
{
1070
    19
1005
437
1002
}
  0
LINE
  5
433
  8
回08-記事
  6
CONTINUOUS
 62
     7
 10
600.3258975098487
 20
191.4562261422656
 30
0.0
 11
593.1327132908782
 21
191.4562261422656
 31
0.0
1001
ACAD
1000
ASC_BOUNDS
1002
{
1070
    19
1005
437
1002
}
  0
LINE
  5
434
  8
回08-記事
  6
CONTINUOUS
 62
     7
 10
600.3258975098487
 20
192.4562261422656
 30
0.0
 11
600.3258975098487
 21
191.4562261422656
 31
0.0
1001
ACAD
1000
ASC_BOUNDS
1002
{
1070
    19
1005
437
1002
}
  0
LINE
  5
435
  8
回08-記事
  6
CONTINUOUS
 62
     7
 10
592.4327132908781
 20
192.4562261422656
 30
0.0
 11
600.3258975098487
 21
192.4562261422656
 31
0.0
1001
ACAD
1000
ASC_BOUNDS
1002
{
1070
    19
1005
437
1002
}
  0
LINE
  5
436
  8
回08-記事
  6
CONTINUOUS
 62
     7
 10
592.4327132908781
 20
188.524512441873
 30
0.0
 11
592.4327132908781
 21
192.4562261422656
 31
0.0
1001
ACAD
1000
ASC_BOUNDS
1002
{
1070
    19
1005
437
1002
}
  0
INSERT
  5
437
  8
回08-記事
  6
CONTINUOUS
 62
     7
 66
     1
  2
*X8585
 10
0.0
 20
0.0
 30
0.0
1001
GRADIENTCOLOR1ACI
1070
     5
1001
GRADIENTCOLOR2ACI
1070
     2
1001
ACAD
1010
0.0
1020
0.0
1030
0.0
  0
SEQEND
  5
81B
  8
0
  6
CONTINUOUS
 62
     7
  0
DIMENSION
  5
438
  8
回08-記事
  6
CONTINUOUS
 62
     7
  2
*D7171
 10
601.3258975098485
 20
76.37218007501502
 30
0.0
 11
616.6197785137856
 21
79.37218007501503
 31
0.0
 70
    32
  1
0.3{\H0.6667x;±0.05}
  3
DMC
 13
598.8258975098484
 23
92.16027451307668
 33
0.0
 14
601.3258975098485
 24
92.16027451307668
 34
0.0
1001
ACADSTRINGINFO
1000
MIFCodePage
1070
     1
1001
ACAD
1000
DSTYLE
1002
{
1070
    41
1040
3.0
1070
    47
1040
0.2
1070
    48
1040
0.2
1070
   141
1040
1.5
1070
   371
1070
    13
1070
   372
1070
    13
1002
}
  0
DIMENSION
  5
449
  8
回08-記事
  6
CONTINUOUS
 62
     7
  2
*D7272
 10
591.4327132908781
 20
80.96137955227431
 30
0.0
 11
576.1388322869411
 21
83.96137955227429
 31
0.0
 70
    32
  1
0.3{\H0.6667x;±0.05}
  3
DMC
 13
593.9327132908781
 23
92.16027451307668
 33
0.0
 14
591.4327132908781
 24
92.16027451307668
 34
0.0
1001
ACADSTRINGINFO
1000
MIFCodePage
1070
     1
1001
ACAD
1000
DSTYLE
1002
{
1070
    41
1040
3.0
1070
    47
1040
0.2
1070
    48
1040
0.2
1070
   141
1040
1.5
1070
   371
1070
    13
1070
   372
1070
    13
1002
}
  0
DIMENSION
  5
45A
  8
回08-記事
  6
CONTINUOUS
 62
     7
  2
*D7373
 10
598.20724615524
 20
92.16027451307668
 30
0.0
 11
598.20724615524
 21
97.16027451307668
 31
0.0
 70
   160
  1
{\H0.66667x;(<>)}
  3
DMC
 13
593.9327132908781
 23
102.1602745130766
 33
0.0
 14
593.9327132908781
 24
92.16027451307668
 34
0.0
 50
90.0
1001
ACAD
1000
DSTYLE
1002
{
1070
    41
1040
3.0
1070
    47
1040
0.2
1070
    48
1040
0.2
1070
   141
1040
1.5
1070
   371
1070
    13
1070
   372
1070
    13
1002
}
  0
DIMENSION
  5
469
  8
回08-記事
  6
CONTINUOUS
 62
     7
  2
*D7474
 10
613.600483075767
 20
97.16027451307668
 30
0.0
 11
610.600483075767
 21
104.6602745130766
 31
0.0
 70
    32
  3
DMC
 13
601.3258975098485
 23
92.16027451307668
 33
0.0
 14
602.0258975098487
 24
97.16027451307668
 34
0.0
 50
90.0
1001
ACAD
1000
DSTYLE
1002
{
1070
    41
1040
3.0
1070
    47
1040
0.2
1070
    48
1040
0.2
1070
   141
1040
1.5
1070
   371
1070
    13
1070
   372
1070
    13
1002
}
  0
DIMENSION
  5
47A
  8
回08-記事
  6
CONTINUOUS
 62
     7
  2
*D7575
 10
583.4713031219063
 20
97.16027451307668
 30
0.0
 11
583.4713031219063
 21
94.66027451307651
 31
0.0
 70
   160
  3
DMC
 13
591.4327132908781
 23
92.16027451307668
 33
0.0
 14
590.7327132908782
 24
97.16027451307668
 34
0.0
 50
90.0
1001
ACAD
1000
DSTYLE
1002
{
1070
    41
1040
3.0
1070
    47
1040
0.2
1070
    48
1040
0.2
1070
   141
1040
1.5
1070
   371
1070
    13
1070
   372
1070
    13
1002
}
  0
DIMENSION
  5
48B
  8
回07-寸法
  6
CONTINUOUS
 62
     7
  2
*D7676
 10
608.3258975098487
 20
455.0755496057377
 30
0.0
 11
597.8793054003634
 21
455.0755496057377
 31
0.0
 70
   160
  1
2.1{\H0.6667x;±0.2}
  3
DMC
 13
587.4327132908781
 23
445.5562261422657
 33
0.0
 14
608.3258975098487
 24
446.0562261422658
 34
0.0
1001
ACADSTRINGINFO
1000
MIFCodePage
1070
     1
1001
ACAD
1000
DSTYLE
1002
{
1070
    41
1040
3.0
1070
    47
1040
0.2
1070
    48
1040
0.2
1070
   141
1040
1.5
1070
   371
1070
    13
1070
   372
1070
    13
1002
}
  0
LINE
  5
49A
  8
回08-記事
  6
CONTINUOUS
 62
     7
 10
591.4327132908781
 20
439.5562261422656
 30
0.0
 11
601.3258975098485
 21
439.5562261422656
 31
0.0
  0
LINE
  5
49B
  8
回08-記事
  6
CONTINUOUS
 62
     7
 10
591.4327132908781
 20
202.3562261422654
 30
0.0
 11
601.3258975098485
 21
202.3562261422654
 31
0.0
  0
LINE
  5
49C
  8
回08-記事
  6
CONTINUOUS
 62
     7
 10
592.4327132908781
 20
192.4562261422656
 30
0.0
 11
600.3258975098487
 21
192.4562261422656
 31
0.0
  0
LINE
  5
49D
  8
回08-記事
  6
CONTINUOUS
 62
     7
 10
591.4327132908786
 20
445.5562261422657
 30
0.0
 11
601.325897509849
 21
445.5562261422657
 31
0.0
  0
POLYLINE
  5
49E
  8
回08-記事
  6
CONTINUOUS
 62
     7
 66
     1
 10
0.0
 20
0.0
 30
0.0
 70
     1
  0
VERTEX
  5
BEB
  8
回08-記事
  6
CONTINUOUS
 62
     7
 10
602.0258975098487
 20
97.16027451307668
 30
0.0
  0
VERTEX
  5
BED
  8
回08-記事
  6
CONTINUOUS
 62
     7
 10
601.3258975098485
 20
97.16027451307668
 30
0.0
  0
VERTEX
  5
BEE
  8
回08-記事
  6
CONTINUOUS
 62
     7
 10
601.3258975098485
 20
192.1562261422654
 30
0.0
  0
VERTEX
  5
BEF
  8
回08-記事
  6
CONTINUOUS
 62
     7
 10
602.0258975098487
 20
192.1562261422654
 30
0.0
  0
SEQEND
  5
BEC
  8
0
  6
CONTINUOUS
 62
     7
  0
POLYLINE
  5
49F
  8
回08-記事
  6
CONTINUOUS
 62
     7
 66
     1
 10
0.0
 20
0.0
 30
0.0
 70
     1
  0
VERTEX
  5
BF0
  8
回08-記事
  6
CONTINUOUS
 62
     7
 10
590.7327132908782
 20
192.6562261422654
 30
0.0
  0
VERTEX
  5
BF2
  8
回08-記事
  6
CONTINUOUS
 62
     7
 10
591.4327132908781
 20
192.6562261422654
 30
0.0
  0
VERTEX
  5
BF3
  8
回08-記事
  6
CONTINUOUS
 62
     7
 10
591.4327132908781
 20
97.16027451307668
 30
0.0
  0
VERTEX
  5
BF4
  8
回08-記事
  6
CONTINUOUS
 62
     7
 10
590.7327132908782
 20
97.16027451307668
 30
0.0
  0
SEQEND
  5
BF1
  8
0
  6
CONTINUOUS
 62
     7
  0
POLYLINE
  5
4A0
  8
回08-記事
  6
CONTINUOUS
 62
     7
 66
     1
 10
0.0
 20
0.0
 30
0.0
 70
     1
  0
VERTEX
  5
BF5
  8
回08-記事
  6
CONTINUOUS
 62
     7
 10
598.8258975098484
 20
102.1602745130766
 30
0.0
  0
VERTEX
  5
BF7
  8
回08-記事
  6
CONTINUOUS
 62
     7
 10
600.3258975098487
 20
102.1602745130766
 30
0.0
  0
VERTEX
  5
BF8
  8
回08-記事
  6
CONTINUOUS
 62
     7
 10
600.3258975098487
 20
92.16027451307668
 30
0.0
  0
VERTEX
  5
BF9
  8
回08-記事
  6
CONTINUOUS
 62
     7
 10
598.8258975098484
 20
92.16027451307668
 30
0.0
  0
SEQEND
  5
BF6
  8
0
  6
CONTINUOUS
 62
     7
  0
POLYLINE
  5
4A1
  8
回08-記事
  6
CONTINUOUS
 62
     7
 66
     1
 10
0.0
 20
0.0
 30
0.0
 70
     1
  0
VERTEX
  5
BFA
  8
回08-記事
  6
CONTINUOUS
 62
     7
 10
592.4327132908781
 20
102.1602745130766
 30
0.0
  0
VERTEX
  5
BFC
  8
回08-記事
  6
CONTINUOUS
 62
     7
 10
593.9327132908781
 20
102.1602745130766
 30
0.0
  0
VERTEX
  5
BFD
  8
回08-記事
  6
CONTINUOUS
 62
     7
 10
593.9327132908781
 20
92.16027451307668
 30
0.0
  0
VERTEX
  5
BFE
  8
回08-記事
  6
CONTINUOUS
 62
     7
 10
592.4327132908781
 20
92.16027451307668
 30
0.0
  0
SEQEND
  5
BFB
  8
0
  6
CONTINUOUS
 62
     7
  0
POLYLINE
  5
4A2
  8
回08-記事
  6
CONTINUOUS
 62
     7
 66
     1
 10
0.0
 20
0.0
 30
0.0
 70
     1
  0
VERTEX
  5
BFF
  8
回08-記事
  6
CONTINUOUS
 62
     7
 10
600.3258975098487
 20
195.3062261422655
 30
0.0
  0
VERTEX
  5
C01
  8
回08-記事
  6
CONTINUOUS
 62
     7
 10
601.3258975098485
 20
195.3062261422655
 30
0.0
  0
VERTEX
  5
C02
  8
回08-記事
  6
CONTINUOUS
 62
     7
 10
601.3258975098485
 20
92.16027451307668
 30
0.0
  0
VERTEX
  5
C03
  8
回08-記事
  6
CONTINUOUS
 62
     7
 10
600.3258975098487
 20
92.16027451307668
 30
0.0
  0
SEQEND
  5
C00
  8
0
  6
CONTINUOUS
 62
     7
  0
POLYLINE
  5
4A3
  8
回08-記事
  6
CONTINUOUS
 62
     7
 66
     1
 10
0.0
 20
0.0
 30
0.0
 70
     1
  0
VERTEX
  5
C04
  8
回08-記事
  6
CONTINUOUS
 62
     7
 10
591.4327132908781
 20
195.3062261422655
 30
0.0
  0
VERTEX
  5
C06
  8
回08-記事
  6
CONTINUOUS
 62
     7
 10
592.4327132908781
 20
195.3062261422655
 30
0.0
  0
VERTEX
  5
C07
  8
回08-記事
  6
CONTINUOUS
 62
     7
 10
592.4327132908781
 20
92.16027451307668
 30
0.0
  0
VERTEX
  5
C08
  8
回08-記事
  6
CONTINUOUS
 62
     7
 10
591.4327132908781
 20
92.16027451307668
 30
0.0
  0
SEQEND
  5
C05
  8
0
  6
CONTINUOUS
 62
     7
  0
POLYLINE
  5
4A4
  8
回08-記事
  6
CONTINUOUS
 62
     7
 66
     1
 10
0.0
 20
0.0
 30
0.0
 70
     1
  0
VERTEX
  5
C09
  8
回08-記事
  6
CONTINUOUS
 62
     7
 10
587.4327132908781
 20
445.5562261422657
 30
0.0
  0
VERTEX
  5
C0B
  8
回08-記事
  6
CONTINUOUS
 62
     7
 10
591.4327132908786
 20
445.5562261422657
 30
0.0
  0
VERTEX
  5
C0C
  8
回08-記事
  6
CONTINUOUS
 62
     7
 10
591.4327132908786
 20
192.6562261422656
 30
0.0
  0
VERTEX
  5
C0D
  8
回08-記事
  6
CONTINUOUS
 62
     7
 10
587.4327132908781
 20
192.6562261422656
 30
0.0
  0
SEQEND
  5
C0A
  8
0
  6
CONTINUOUS
 62
     7
  0
POLYLINE
  5
4A5
  8
回08-記事
  6
CONTINUOUS
 62
     7
 66
     1
 10
0.0
 20
0.0
 30
0.0
 70
     1
  0
VERTEX
  5
C0E
  8
回08-記事
  6
CONTINUOUS
 62
     7
 10
601.3258975098485
 20
446.0562261422658
 30
0.0
  0
VERTEX
  5
C10
  8
回08-記事
  6
CONTINUOUS
 62
     7
 10
608.3258975098487
 20
446.0562261422658
 30
0.0
  0
VERTEX
  5
C11
  8
回08-記事
  6
CONTINUOUS
 62
     7
 10
608.3258975098487
 20
192.1562261422654
 30
0.0
  0
VERTEX
  5
C12
  8
回08-記事
  6
CONTINUOUS
 62
     7
 10
601.3258975098485
 20
192.1562261422654
 30
0.0
  0
SEQEND
  5
C0F
  8
0
  6
CONTINUOUS
 62
     7
  0
TEXT
  5
4A6
  8
回08-記事
  6
CONTINUOUS
 62
     7
 10
529.8547218238907
 20
433.5873381976703
 30
0.0
 40
2.0
  1
SUR
  0
TEXT
  5
4A7
  8
回08-記事
  6
CONTINUOUS
 62
     7
 10
128.3082506414059
 20
425.9535644234141
 30
0.0
 40
2.0
  1
SUL
  0
TEXT
  5
4A8
  8
回08-記事
  6
CONTINUOUS
 62
     7
 10
533.0342748728742
 20
214.4839126135938
 30
0.0
 40
2.0
  1
SDR
  0
TEXT
  5
4A9
  8
回08-記事
  6
CONTINUOUS
 62
     7
 10
133.9489347277556
 20
205.8321666986791
 30
0.0
 40
2.0
  1
SUL
  0
TEXT
  5
4AA
  8
回08-記事
  6
CONTINUOUS
 62
     7
 10
533.13183388565
 20
217.4282139336166
 30
0.0
 40
3.0
  1
R8
  0
TEXT
  5
4AB
  8
回08-記事
  6
CONTINUOUS
 62
     7
 10
533.13183388565
 20
246.5474659683914
 30
0.0
 40
3.0
  1
R7
  0
TEXT
  5
4AC
  8
回08-記事
  6
CONTINUOUS
 62
     7
 10
533.13183388565
 20
275.6667180031662
 30
0.0
 40
3.0
  1
R6
  0
TEXT
  5
4AD
  8
回08-記事
  6
CONTINUOUS
 62
     7
 10
533.13183388565
 20
304.785970037941
 30
0.0
 40
3.0
  1
R5
  0
TEXT
  5
4AE
  8
回08-記事
  6
CONTINUOUS
 62
     7
 10
533.13183388565
 20
333.9052220727158
 30
0.0
 40
3.0
  1
R4
  0
TEXT
  5
4AF
  8
回08-記事
  6
CONTINUOUS
 62
     7
 10
533.13183388565
 20
363.0244741074906
 30
0.0
 40
3.0
  1
R3
  0
TEXT
  5
4B0
  8
回08-記事
  6
CONTINUOUS
 62
     7
 10
533.13183388565
 20
392.1437261422655
 30
0.0
 40
3.0
  1
R2
  0
TEXT
  5
4B1
  8
回08-記事
  6
CONTINUOUS
 62
     7
 10
533.13183388565
 20
421.2629781770401
 30
0.0
 40
3.0
  1
R1
  0
TEXT
  5
4B2
  8
回08-記事
  6
CONTINUOUS
 62
     7
 10
128.2656306856218
 20
217.4282139336166
 30
0.0
 40
3.0
  1
L8
  0
TEXT
  5
4B3
  8
回08-記事
  6
CONTINUOUS
 62
     7
 10
128.2656306856218
 20
246.5474659683914
 30
0.0
 40
3.0
  1
L7
  0
TEXT
  5
4B4
  8
回08-記事
  6
CONTINUOUS
 62
     7
 10
128.2656306856218
 20
275.6667180031662
 30
0.0
 40
3.0
  1
L6
  0
TEXT
  5
4B5
  8
回08-記事
  6
CONTINUOUS
 62
     7
 10
128.2656306856218
 20
304.785970037941
 30
0.0
 40
3.0
  1
L5
  0
TEXT
  5
4B6
  8
回08-記事
  6
CONTINUOUS
 62
     7
 10
128.2656306856218
 20
333.9052220727158
 30
0.0
 40
3.0
  1
L4
  0
TEXT
  5
4B7
  8
回08-記事
  6
CONTINUOUS
 62
     7
 10
128.2656306856218
 20
363.0244741074906
 30
0.0
 40
3.0
  1
L3
  0
TEXT
  5
4B8
  8
回08-記事
  6
CONTINUOUS
 62
     7
 10
128.2656306856218
 20
392.1437261422655
 30
0.0
 40
3.0
  1
L2
  0
TEXT
  5
4B9
  8
回08-記事
  6
CONTINUOUS
 62
     7
 10
128.2656306856218
 20
421.2629781770401
 30
0.0
 40
3.0
  1
L1
  0
TEXT
  5
4BA
  8
回08-記事
  6
CONTINUOUS
 62
     7
 10
522.642603762594
 20
433.0058135970328
 30
0.0
 40
3.0
  1
U14
  0
TEXT
  5
4BB
  8
回08-記事
  6
CONTINUOUS
 62
     7
 10
493.2579614998354
 20
433.0058135970328
 30
0.0
 40
3.0
  1
U13
  0
TEXT
  5
4BC
  8
回08-記事
  6
CONTINUOUS
 62
     7
 10
463.8733192370766
 20
433.0058135970328
 30
0.0
 40
3.0
  1
U12
  0
TEXT
  5
4BD
  8
回08-記事
  6
CONTINUOUS
 62
     7
 10
434.4886769743181
 20
433.0058135970328
 30
0.0
 40
3.0
  1
U11
  0
TEXT
  5
4BE
  8
回08-記事
  6
CONTINUOUS
 62
     7
 10
405.1040347115597
 20
433.0058135970328
 30
0.0
 40
3.0
  1
U10
  0
TEXT
  5
4BF
  8
回08-記事
  6
CONTINUOUS
 62
     7
 10
375.7193924488013
 20
433.0058135970328
 30
0.0
 40
3.0
  1
U9
  0
TEXT
  5
4C0
  8
回08-記事
  6
CONTINUOUS
 62
     7
 10
346.3347501860428
 20
433.0058135970328
 30
0.0
 40
3.0
  1
U8
  0
TEXT
  5
4C1
  8
回08-記事
  6
CONTINUOUS
 62
     7
 10
316.9501079232839
 20
433.0058135970328
 30
0.0
 40
3.0
  1
U7
  0
TEXT
  5
4C2
  8
回08-記事
  6
CONTINUOUS
 62
     7
 10
287.5654656605254
 20
433.0058135970328
 30
0.0
 40
3.0
  1
U6
  0
TEXT
  5
4C3
  8
回08-記事
  6
CONTINUOUS
 62
     7
 10
258.180823397767
 20
433.0058135970328
 30
0.0
 40
3.0
  1
U5
  0
TEXT
  5
4C4
  8
回08-記事
  6
CONTINUOUS
 62
     7
 10
228.7961811350085
 20
433.0058135970328
 30
0.0
 40
3.0
  1
U4
  0
TEXT
  5
4C5
  8
回08-記事
  6
CONTINUOUS
 62
     7
 10
199.41153887225
 20
433.0058135970328
 30
0.0
 40
3.0
  1
U3
  0
TEXT
  5
4C6
  8
回08-記事
  6
CONTINUOUS
 62
     7
 10
170.0268966094911
 20
433.0058135970328
 30
0.0
 40
3.0
  1
U2
  0
TEXT
  5
4C7
  8
回08-記事
  6
CONTINUOUS
 62
     7
 10
140.6422543467327
 20
433.0058135970328
 30
0.0
 40
3.0
  1
U1
  0
TEXT
  5
4C8
  8
回08-記事
  6
CONTINUOUS
 62
     7
 10
522.642603762594
 20
205.6584339990521
 30
0.0
 40
3.0
  1
D14
  0
TEXT
  5
4C9
  8
回08-記事
  6
CONTINUOUS
 62
     7
 10
493.2579614998354
 20
205.6584339990521
 30
0.0
 40
3.0
  1
D13
  0
TEXT
  5
4CA
  8
回08-記事
  6
CONTINUOUS
 62
     7
 10
463.8733192370766
 20
205.6584339990521
 30
0.0
 40
3.0
  1
D12
  0
TEXT
  5
4CB
  8
回08-記事
  6
CONTINUOUS
 62
     7
 10
434.4886769743181
 20
205.6584339990521
 30
0.0
 40
3.0
  1
D11
  0
TEXT
  5
4CC
  8
回08-記事
  6
CONTINUOUS
 62
     7
 10
405.1040347115597
 20
205.6584339990521
 30
0.0
 40
3.0
  1
D10
  0
TEXT
  5
4CD
  8
回08-記事
  6
CONTINUOUS
 62
     7
 10
375.7193924488013
 20
205.6584339990521
 30
0.0
 40
3.0
  1
D9
  0
TEXT
  5
4CE
  8
回08-記事
  6
CONTINUOUS
 62
     7
 10
346.3347501860428
 20
205.6584339990521
 30
0.0
 40
3.0
  1
D8
  0
TEXT
  5
4CF
  8
回08-記事
  6
CONTINUOUS
 62
     7
 10
316.9501079232839
 20
205.6584339990521
 30
0.0
 40
3.0
  1
D7
  0
TEXT
  5
4D0
  8
回08-記事
  6
CONTINUOUS
 62
     7
 10
287.5654656605254
 20
205.6584339990521
 30
0.0
 40
3.0
  1
D6
  0
TEXT
  5
4D1
  8
回08-記事
  6
CONTINUOUS
 62
     7
 10
258.180823397767
 20
205.6584339990521
 30
0.0
 40
3.0
  1
D5
  0
TEXT
  5
4D2
  8
回08-記事
  6
CONTINUOUS
 62
     7
 10
228.7961811350085
 20
205.6584339990521
 30
0.0
 40
3.0
  1
D4
  0
TEXT
  5
4D3
  8
回08-記事
  6
CONTINUOUS
 62
     7
 10
199.41153887225
 20
205.6584339990521
 30
0.0
 40
3.0
  1
D3
  0
TEXT
  5
4D4
  8
回08-記事
  6
CONTINUOUS
 62
     7
 10
170.0268966094911
 20
205.6584339990521
 30
0.0
 40
3.0
  1
D2
  0
TEXT
  5
4D5
  8
回08-記事
  6
CONTINUOUS
 62
     7
 10
140.6422543467327
 20
205.6584339990521
 30
0.0
 40
3.0
  1
D1
  0
POLYLINE
  5
4D6
  8
回08-記事
  6
CONTINUOUS
 62
     7
 66
     1
 10
0.0
 20
0.0
 30
0.0
 70
     1
  0
VERTEX
  5
C13
  8
回08-記事
  6
CONTINUOUS
 62
     7
 10
317.3723116898107
 20
172.1755454976622
 30
0.0
  0
VERTEX
  5
C15
  8
回08-記事
  6
CONTINUOUS
 62
     7
 10
320.3723116898107
 20
172.1755454976622
 30
0.0
 42
-0.4142135623730951
  0
VERTEX
  5
C16
  8
回08-記事
  6
CONTINUOUS
 62
     7
 10
320.8723116898107
 20
171.6755454976621
 30
0.0
  0
VERTEX
  5
C17
  8
回08-記事
  6
CONTINUOUS
 62
     7
 10
320.8723116898107
 20
146.6755454976621
 30
0.0
 42
-0.4142135623730951
  0
VERTEX
  5
C18
  8
回08-記事
  6
CONTINUOUS
 62
     7
 10
320.3723116898107
 20
146.1755454976621
 30
0.0
  0
VERTEX
  5
C19
  8
回08-記事
  6
CONTINUOUS
 62
     7
 10
317.3723116898107
 20
146.1755454976621
 30
0.0
 42
-0.4142135623730951
  0
VERTEX
  5
C1A
  8
回08-記事
  6
CONTINUOUS
 62
     7
 10
316.8723116898107
 20
146.6755454976621
 30
0.0
  0
VERTEX
  5
C1B
  8
回08-記事
  6
CONTINUOUS
 62
     7
 10
316.8723116898107
 20
171.6755454976621
 30
0.0
 42
-0.4142135623730951
  0
SEQEND
  5
C14
  8
0
  6
CONTINUOUS
 62
     7
  0
INSERT
  5
4D7
  8
回08-記事
  6
CONTINUOUS
 62
     7
 66
     1
  2
*X8686
 10
0.0
 20
0.0
 30
0.0
1001
GRADIENTCOLOR1ACI
1070
     5
1001
GRADIENTCOLOR2ACI
1070
     2
1001
ACAD
1010
0.0
1020
0.0
1030
0.0
  0
SEQEND
  5
866
  8
0
  6
CONTINUOUS
 62
     7
  0
LINE
  5
4D8
  8
回05-ﾃｰﾙ
  6
CONTINUOUS
 62
     7
 10
330.8946287061265
 20
188.235691960296
 30
0.0
 11
327.7292898283047
 21
185.0703530824747
 31
0.0
  0
ARC
  5
4DA
  8
回05-ﾃｰﾙ
  6
CONTINUOUS
 62
     7
 10
308.9363966094913
 20
174.3654969321849
 30
0.0
 40
1.0
 50
0.0
 51
45.0000000000087
  0
LINE
  5
4DB
  8
回05-ﾃｰﾙ
  6
CONTINUOUS
 62
     7
 10
296.4804151437531
 20
188.235691960296
 30
0.0
 11
309.6435033906776
 21
175.0726037133716
 31
0.0
  0
ARC
  5
4DC
  8
回05-ﾃｰﾙ
  6
CONTINUOUS
 62
     7
 10
297.1875219249398
 20
188.9427987414827
 30
0.0
 40
1.0
 50
180.0
 51
225.0000000000087
  0
LINE
  5
4DD
  8
回05-ﾃｰﾙ
  6
CONTINUOUS
 62
     7
 10
296.1875219249398
 20
192.1562261422654
 30
0.0
 11
296.1875219249398
 21
188.9427987414827
 31
0.0
  0
ARC
  5
4DE
  8
回05-ﾃｰﾙ
  6
CONTINUOUS
 62
     7
 10
330.1875219249398
 20
188.9427987414827
 30
0.0
 40
1.0
 50
314.9999999999913
 51
0.0
  0
LINE
  5
4DF
  8
回05-ﾃｰﾙ
  6
CONTINUOUS
 62
     7
 10
331.1875219249398
 20
188.9427987414827
 30
0.0
 11
331.1875219249398
 21
192.1562261422654
 31
0.0
  0
ARC
  5
4E0
  8
回05-ﾃｰﾙ
  6
CONTINUOUS
 62
     7
 10
310.4363966094914
 20
92.66027451307655
 30
0.0
 40
0.5
 50
180.0
 51
270.0
  0
LINE
  5
4E1
  8
回05-ﾃｰﾙ
  6
CONTINUOUS
 62
     7
 10
309.9363966094913
 20
174.3654969321849
 30
0.0
 11
309.9363966094913
 21
92.66027451307655
 31
0.0
  0
LINE
  5
4E2
  8
回05-ﾃｰﾙ
  6
CONTINUOUS
 62
     7
 10
310.4363966094914
 20
92.16027451307656
 30
0.0
 11
326.9363966094914
 21
92.16027451307656
 31
0.0
  0
ARC
  5
4E3
  8
回05-ﾃｰﾙ
  6
CONTINUOUS
 62
     7
 10
326.9363966094914
 20
92.66027451307655
 30
0.0
 40
0.5
 50
270.0
 51
0.0
  0
ARC
  5
4E4
  8
回05-ﾃｰﾙ
  6
CONTINUOUS
 62
     7
 10
328.4363966094913
 20
184.363246301288
 30
0.0
 40
1.0
 50
134.9999999999913
 51
180.0
  0
LINE
  5
4E5
  8
回05-ﾃｰﾙ
  6
CONTINUOUS
 62
     7
 10
327.4363966094913
 20
92.66027451307655
 30
0.0
 11
327.4363966094913
 21
184.363246301288
 31
0.0
  0
ARC
  5
4E6
  8
回05-ﾃｰﾙ
  6
CONTINUOUS
 62
     7
 10
353.4363966094913
 20
181.4352523458327
 30
0.0
 40
1.0
 50
134.9999999999913
 51
180.0
  0
LINE
  5
4E7
  8
回05-ﾃｰﾙ
  6
CONTINUOUS
 62
     7
 10
352.7292898283047
 20
182.1423591270193
 30
0.0
 11
358.8946287061265
 21
188.3076980048407
 31
0.0
  0
ARC
  5
4E8
  8
回05-ﾃｰﾙ
  6
CONTINUOUS
 62
     7
 10
337.9363966094913
 20
181.4375029767305
 30
0.0
 40
1.0
 50
0.0
 51
45.0000000000087
  0
LINE
  5
4E9
  8
回05-ﾃｰﾙ
  6
CONTINUOUS
 62
     7
 10
338.6435033906777
 20
182.1446097579162
 30
0.0
 11
332.4804151437531
 21
188.3076980048415
 31
0.0
  0
ARC
  5
4EA
  8
回05-ﾃｰﾙ
  6
CONTINUOUS
 62
     7
 10
333.1875219249398
 20
189.0148047860273
 30
0.0
 40
1.0
 50
180.0
 51
225.0000000000087
  0
LINE
  5
4EB
  8
回05-ﾃｰﾙ
  6
CONTINUOUS
 62
     7
 10
332.1875219249398
 20
189.0148047860273
 30
0.0
 11
332.1875219249398
 21
192.1562261422654
 31
0.0
  0
ARC
  5
4EC
  8
回05-ﾃｰﾙ
  6
CONTINUOUS
 62
     7
 10
358.1875219249398
 20
189.0148047860273
 30
0.0
 40
1.0
 50
314.9999999999913
 51
0.0
  0
LINE
  5
4ED
  8
回05-ﾃｰﾙ
  6
CONTINUOUS
 62
     7
 10
359.1875219249398
 20
189.0148047860273
 30
0.0
 11
359.1875219249398
 21
192.1562261422654
 31
0.0
  0
ARC
  5
4EE
  8
回05-ﾃｰﾙ
  6
CONTINUOUS
 62
     7
 10
339.4363966094914
 20
92.66027451307655
 30
0.0
 40
0.5
 50
180.0
 51
270.0
  0
LINE
  5
4EF
  8
回05-ﾃｰﾙ
  6
CONTINUOUS
 62
     7
 10
338.9363966094913
 20
92.66027451307655
 30
0.0
 11
338.9363966094913
 21
181.4375029767305
 31
0.0
  0
LINE
  5
4F0
  8
回05-ﾃｰﾙ
  6
CONTINUOUS
 62
     7
 10
339.4363966094914
 20
92.16027451307656
 30
0.0
 11
351.9363966094914
 21
92.16027451307656
 31
0.0
  0
ARC
  5
4F1
  8
回05-ﾃｰﾙ
  6
CONTINUOUS
 62
     7
 10
351.9363966094914
 20
92.66027451307563
 30
0.0
 40
0.5
 50
270.0
 51
0.0
  0
LINE
  5
4F2
  8
回05-ﾃｰﾙ
  6
CONTINUOUS
 62
     7
 10
352.4363966094913
 20
92.66027451307563
 30
0.0
 11
352.4363966094913
 21
181.4352523458327
 31
0.0
  0
POLYLINE
  5
4F3
  8
回04-下接
  6
CONTINUOUS
 62
     7
 66
     1
 10
0.0
 20
0.0
 30
0.0
 70
     1
  0
VERTEX
  5
C1C
  8
回04-下接
  6
CONTINUOUS
 62
     7
 10
119.3863966094916
 20
446.0562261422658
 30
0.0
  0
VERTEX
  5
C1E
  8
回04-下接
  6
CONTINUOUS
 62
     7
 10
546.9863966094915
 20
446.0562261422658
 30
0.0
  0
VERTEX
  5
C1F
  8
回04-下接
  6
CONTINUOUS
 62
     7
 10
546.9863966094915
 20
192.1562261422654
 30
0.0
  0
VERTEX
  5
C20
  8
回04-下接
  6
CONTINUOUS
 62
     7
 10
119.3863966094916
 20
192.1562261422654
 30
0.0
  0
SEQEND
  5
C1D
  8
0
  6
CONTINUOUS
 62
     7
  0
POLYLINE
  5
4F7
  8
回08-記事
  6
PHANTOM2
 62
     7
 66
     1
 10
0.0
 20
0.0
 30
0.0
 70
     1
  0
VERTEX
  5
C21
  8
回08-記事
  6
PHANTOM2
 62
     7
 10
124.8863966094916
 20
439.5562261422656
 30
0.0
  0
VERTEX
  5
C23
  8
回08-記事
  6
PHANTOM2
 62
     7
 10
541.4863966094911
 20
439.5562261422656
 30
0.0
  0
VERTEX
  5
C24
  8
回08-記事
  6
PHANTOM2
 62
     7
 10
541.4863966094911
 20
202.3562261422654
 30
0.0
  0
VERTEX
  5
C25
  8
回08-記事
  6
PHANTOM2
 62
     7
 10
124.8863966094916
 20
202.3562261422654
 30
0.0
  0
SEQEND
  5
C22
  8
0
  6
CONTINUOUS
 62
     7
  0
POLYLINE
  5
4F8
  8
回08-記事
  6
CONTINUOUS
 62
     7
 66
     1
 10
0.0
 20
0.0
 30
0.0
 70
     1
  0
VERTEX
  5
C26
  8
回08-記事
  6
CONTINUOUS
 62
     7
 10
125.3863966094916
 20
439.0562261422656
 30
0.0
  0
VERTEX
  5
C28
  8
回08-記事
  6
CONTINUOUS
 62
     7
 10
540.9863966094915
 20
439.0562261422656
 30
0.0
  0
VERTEX
  5
C29
  8
回08-記事
  6
CONTINUOUS
 62
     7
 10
540.9863966094915
 20
202.8562261422654
 30
0.0
  0
VERTEX
  5
C2A
  8
回08-記事
  6
CONTINUOUS
 62
     7
 10
125.3863966094916
 20
202.8562261422654
 30
0.0
  0
SEQEND
  5
C27
  8
0
  6
CONTINUOUS
 62
     7
  0
POLYLINE
  5
4F9
  8
回08-記事
  6
CONTINUOUS
 62
     7
 66
     1
 10
0.0
 20
0.0
 30
0.0
 70
     1
  0
VERTEX
  5
C2B
  8
回08-記事
  6
CONTINUOUS
 62
     7
 10
127.3863966094916
 20
437.0562261422657
 30
0.0
  0
VERTEX
  5
C2D
  8
回08-記事
  6
CONTINUOUS
 62
     7
 10
538.9863966094915
 20
437.0562261422657
 30
0.0
  0
VERTEX
  5
C2E
  8
回08-記事
  6
CONTINUOUS
 62
     7
 10
538.9863966094915
 20
204.8562261422654
 30
0.0
  0
VERTEX
  5
C2F
  8
回08-記事
  6
CONTINUOUS
 62
     7
 10
127.3863966094916
 20
204.8562261422654
 30
0.0
  0
SEQEND
  5
C2C
  8
0
  6
CONTINUOUS
 62
     7
  0
ENDSEC
  0
EOF
