  0
SECTION
  2
HEADER
  9
$ACADVER
  1
AC1009
  9
$INSBASE
 10
0.0
 20
0.0
 30
0.0
  9
$EXTMIN
 10
-3917.369353027669
 20
-1255.298646644781
 30
0.0
  9
$EXTMAX
 10
-3107.369353027669
 20
-705.2986466447809
 30
0.0
  9
$LIMMIN
 10
0.0
 20
0.0
  9
$LIMMAX
 10
3000.0
 20
2500.0
  9
$ORTHOMODE
 70
     1
  9
$REGENMODE
 70
     1
  9
$FILLMODE
 70
     1
  9
$QTEXTMODE
 70
     0
  9
$MIRRTEXT
 70
     1
  9
$DRAGMODE
 70
     2
  9
$LTSCALE
 40
10.0
  9
$OSMODE
 70
    37
  9
$ATTMODE
 70
     1
  9
$TEXTSIZE
 40
5.0
  9
$TRACEWID
 40
1.0
  9
$TEXTSTYLE
  7
STANDARD
  9
$CLAYER
  8
0
  9
$CELTYPE
  6
CONTINUOUS
  9
$CECOLOR
 62
     7
  9
$DIMSCALE
 40
1.0
  9
$DIMASZ
 40
1.5
  9
$DIMEXO
 40
0.0
  9
$DIMDLI
 40
0.0
  9
$DIMRND
 40
0.0
  9
$DIMDLE
 40
0.0
  9
$DIMEXE
 40
1.0
  9
$DIMTP
 40
0.2
  9
$DIMTM
 40
0.2
  9
$DIMTXT
 40
3.0
  9
$DIMCEN
 40
1.5
  9
$DIMTSZ
 40
0.0
  9
$DIMTOL
 70
     0
  9
$DIMLIM
 70
     0
  9
$DIMTIH
 70
     0
  9
$DIMTOH
 70
     0
  9
$DIMSE1
 70
     0
  9
$DIMSE2
 70
     0
  9
$DIMTAD
 70
     3
  9
$DIMZIN
 70
     8
  9
$DIMBLK
  1
OPEN
  9
$DIMASO
 70
     1
  9
$DIMSHO
 70
     1
  9
$DIMPOST
  1

  9
$DIMAPOST
  1

  9
$DIMALT
 70
     0
  9
$DIMALTD
 70
     3
  9
$DIMALTF
 40
0.03937007874016
  9
$DIMLFAC
 40
1.0
  9
$DIMTOFL
 70
     1
  9
$DIMTVP
 40
0.0
  9
$DIMTIX
 70
     0
  9
$DIMSOXD
 70
     0
  9
$DIMSAH
 70
     0
  9
$DIMBLK1
  1

  9
$DIMBLK2
  1

  9
$DIMSTYLE
  2
DMC
  9
$DIMCLRD
 70
     5
  9
$DIMCLRE
 70
     5
  9
$DIMCLRT
 70
     5
  9
$DIMTFAC
 40
0.7
  9
$DIMGAP
 40
0.5
  9
$LUNITS
 70
     2
  9
$LUPREC
 70
     4
  9
$SKETCHINC
 40
1.0
  9
$FILLETRAD
 40
2.0
  9
$AUNITS
 70
     0
  9
$AUPREC
 70
     0
  9
$MENU
  1
.
  9
$ELEVATION
 40
0.0
  9
$PELEVATION
 40
0.0
  9
$THICKNESS
 40
0.0
  9
$LIMCHECK
 70
     0
  9
$BLIPMODE
 70
     0
  9
$CHAMFERA
 40
1.0
  9
$CHAMFERB
 40
1.0
  9
$SKPOLY
 70
     0
  9
$TDCREATE
 40
2451811.529221065
  9
$TDUPDATE
 40
2460231.114538831
  9
$TDINDWG
 40
4.117085706
  9
$TDUSRTIMER
 40
4.117085012
  9
$USRTIMER
 70
     1
  9
$ANGBASE
 50
0.0
  9
$ANGDIR
 70
     0
  9
$PDMODE
 70
     0
  9
$PDSIZE
 40
0.0
  9
$PLINEWID
 40
0.5
  9
$COORDS
 70
     0
  9
$SPLFRAME
 70
     0
  9
$SPLINETYPE
 70
     6
  9
$SPLINESEGS
 70
     8
  9
$ATTDIA
 70
     1
  9
$ATTREQ
 70
     1
  9
$HANDLING
 70
     1
  9
$HANDSEED
  5
921
  9
$SURFTAB1
 70
     6
  9
$SURFTAB2
 70
     6
  9
$SURFTYPE
 70
     6
  9
$SURFU
 70
     6
  9
$SURFV
 70
     6
  9
$UCSNAME
  2

  9
$UCSORG
 10
0.0
 20
0.0
 30
0.0
  9
$UCSXDIR
 10
1.0
 20
0.0
 30
0.0
  9
$UCSYDIR
 10
0.0
 20
1.0
 30
0.0
  9
$PUCSNAME
  2

  9
$PUCSORG
 10
0.0
 20
0.0
 30
0.0
  9
$PUCSXDIR
 10
1.0
 20
0.0
 30
0.0
  9
$PUCSYDIR
 10
0.0
 20
1.0
 30
0.0
  9
$USERI1
 70
     0
  9
$USERI2
 70
     0
  9
$USERI3
 70
     0
  9
$USERI4
 70
     0
  9
$USERI5
 70
     0
  9
$USERR1
 40
0.0
  9
$USERR2
 40
0.0
  9
$USERR3
 40
0.0
  9
$USERR4
 40
0.0
  9
$USERR5
 40
0.0
  9
$WORLDVIEW
 70
     1
  9
$SHADEDGE
 70
     3
  9
$SHADEDIF
 70
    70
  9
$TILEMODE
 70
     1
  9
$MAXACTVP
 70
    64
  9
$PLIMCHECK
 70
     0
  9
$PEXTMIN
 10
1.000000000000000E+20
 20
1.000000000000000E+20
 30
1.000000000000000E+20
  9
$PEXTMAX
 10
-1.000000000000000E+20
 20
-1.000000000000000E+20
 30
-1.000000000000000E+20
  9
$PLIMMIN
 10
0.0
 20
0.0
  9
$PLIMMAX
 10
420.0
 20
297.0
  9
$UNITMODE
 70
     0
  9
$VISRETAIN
 70
     1
  9
$PLINEGEN
 70
     0
  9
$PSLTSCALE
 70
     1
  0
ENDSEC
  0
SECTION
  2
TABLES
  0
TABLE
  2
VPORT
 70
     1
  0
VPORT
  2
*ACTIVE
 70
     0
 10
0.0
 20
0.0
 11
1.0
 21
1.0
 12
-3343.655985948427
 22
-1017.115723656513
 13
0.0
 23
0.0
 14
10.0
 24
10.0
 15
10.0
 25
10.0
 16
0.0
 26
0.0
 36
1.0
 17
0.0
 27
0.0
 37
0.0
 40
900.5248891334609
 41
1.853689567430025
 42
50.0
 43
0.0
 44
0.0
 50
0.0
 51
0.0
 71
     0
 72
   500
 73
     1
 74
     3
 75
     0
 76
     0
 77
     0
 78
     0
  0
ENDTAB
  0
TABLE
  2
LTYPE
 70
     4
  0
LTYPE
  2
CONTINUOUS
 70
     0
  3
Solid line
 72
    65
 73
     0
 40
0.0
  0
LTYPE
  2
CENTER2
 70
     0
  3
Center (.5x) ___ _ ___ _ ___ _ ___ _ ___ _ ___
 72
    65
 73
     4
 40
28.575
 49
19.05
 49
-3.174999999999999
 49
3.174999999999999
 49
-3.174999999999999
  0
LTYPE
  2
PHANTOM2
 70
     0
  3
___ _ _ ___ _ _ ___ _ _ ___ _ _ ___ _ _ ___ _ _
 72
    65
 73
     6
 40
1.25
 49
0.625
 49
-0.125
 49
0.125
 49
-0.125
 49
0.125
 49
-0.125
  0
LTYPE
  2
DASHED2
 70
     0
  3
Dashed (.5x) _ _ _ _ _ _ _ _ _ _ _ _ _ _ _ _ _
 72
    65
 73
     2
 40
9.524999999999998
 49
6.349999999999999
 49
-3.174999999999999
  0
ENDTAB
  0
TABLE
  2
LAYER
 70
    11
  0
LAYER
  2
0
 70
     0
 62
     7
  6
CONTINUOUS
  0
LAYER
  2
DEFPOINTS
 70
     0
 62
     7
  6
CONTINUOUS
  0
LAYER
  2
回07-寸法
 70
     0
 62
     7
  6
CONTINUOUS
  0
LAYER
  2
回03-下ER
 70
     0
 62
     7
  6
CONTINUOUS
  0
LAYER
  2
回04-下接
 70
     0
 62
     7
  6
CONTINUOUS
  0
LAYER
  2
回01-上ER
 70
     0
 62
     7
  6
CONTINUOUS
  0
LAYER
  2
回08-記事
 70
     0
 62
     7
  6
CONTINUOUS
  0
LAYER
  2
回05-ﾃｰﾙ
 70
     0
 62
     7
  6
CONTINUOUS
  0
LAYER
  2
回90-枠1
 70
     0
 62
     7
  6
CONTINUOUS
  0
LAYER
  2
回90-枠2
 70
     0
 62
     7
  6
CONTINUOUS
  0
LAYER
  2
回03-記事
 70
     0
 62
     7
  6
CONTINUOUS
  0
ENDTAB
  0
TABLE
  2
STYLE
 70
     1
  0
STYLE
  2
STANDARD
 70
     0
 40
5.0
 41
1.0
 50
0.0
 71
     0
 42
5.0
  3
isocp.shx
  4
bigfont.shx
  0
ENDTAB
  0
TABLE
  2
VIEW
 70
     0
  0
ENDTAB
  0
TABLE
  2
UCS
 70
     0
  0
ENDTAB
  0
TABLE
  2
APPID
 70
     6
  0
APPID
  2
ACAD
 70
     0
  0
APPID
  2
ACAD_PSEXT
 70
     0
  0
APPID
  2
GRADIENTCOLOR1ACI
 70
     0
  0
APPID
  2
GRADIENTCOLOR2ACI
 70
     0
  0
APPID
  2
ACAD_NAV_VCDISPLAY
 70
     0
  0
APPID
  2
ACADSTRINGINFO
 70
     0
  0
ENDTAB
  0
TABLE
  2
DIMSTYLE
 70
     2
  0
DIMSTYLE
  2
DMC
 70
     0
  3

  4

  5
OPEN
  6

  7

 40
1.0
 41
2.0
 42
0.0
 43
0.0
 44
1.0
 45
0.0
 46
0.0
 47
0.0
 48
0.0
140
3.0
141
2.0
142
0.0
143
0.03937007874016
144
1.0
145
0.0
146
0.7
147
0.5
 71
     0
 72
     0
 73
     0
 74
     0
 75
     0
 76
     0
 77
     3
 78
     8
170
     0
171
     3
172
     1
173
     0
174
     0
175
     0
176
     5
177
     5
178
     5
  0
DIMSTYLE
  2
STANDARD
 70
     0
  3

  4

  5

  6

  7

 40
1.0
 41
0.18
 42
0.0625
 43
0.38
 44
0.18
 45
0.0
 46
0.0
 47
0.0
 48
0.0
140
0.18
141
0.09
142
0.0
143
25.4
144
1.0
145
0.0
146
1.0
147
0.09
 71
     0
 72
     0
 73
     1
 74
     1
 75
     0
 76
     0
 77
     0
 78
     0
170
     0
171
     2
172
     0
173
     0
174
     0
175
     0
176
     0
177
     0
178
     0
  0
ENDTAB
  0
ENDSEC
  0
SECTION
  2
BLOCKS
  0
BLOCK
  8
0
  2
$MODEL_SPACE
 70
     0
 10
0.0
 20
0.0
 30
0.0
  3
$MODEL_SPACE
  1

  0
ENDBLK
  8
0
  5
22
  0
BLOCK
 67
     1
  8
0
  2
$PAPER_SPACE
 70
     0
 10
0.0
 20
0.0
 30
0.0
  3
$PAPER_SPACE
  1

  0
ENDBLK
  5
2B
 67
     1
  8
0
  0
BLOCK
  8
0
  2
_OPEN
 70
     0
 10
0.0
 20
0.0
 30
0.0
  3
_OPEN
  1

  0
LINE
  5
15
  8
0
  6
CONTINUOUS
 62
     0
 10
-1.0
 20
0.1666666666666666
 30
0.0
 11
0.0
 21
0.0
 31
0.0
  0
LINE
  5
16
  8
0
  6
CONTINUOUS
 62
     0
 10
-1.0
 20
-0.1666666666666666
 30
0.0
 11
0.0
 21
0.0
 31
0.0
  0
LINE
  5
17
  8
0
  6
CONTINUOUS
 62
     0
 10
0.0
 20
0.0
 30
0.0
 11
-1.0
 21
0.0
 31
0.0
  0
ENDBLK
  5
18
  8
0
  0
BLOCK
  8
0
  2
*D1
 70
     1
 10
0.0
 20
0.0
 30
0.0
  3
*D1
  1

  0
LINE
  5
4B4
  8
回07-寸法
  6
CONTINUOUS
 62
     5
 10
-3294.120949754011
 20
-791.2169781244728
 30
0.0
 11
-3294.120949754011
 21
-780.4418471328378
 31
0.0
  0
LINE
  5
4B5
  8
回07-寸法
  6
CONTINUOUS
 62
     5
 10
-3273.22776553504
 20
-790.4611705963099
 30
0.0
 11
-3273.22776553504
 21
-780.4418471328378
 31
0.0
  0
LINE
  5
4B6
  8
回07-寸法
  6
CONTINUOUS
 62
     5
 10
-3291.120949754011
 20
-781.4418471328377
 30
0.0
 11
-3276.22776553504
 21
-781.4418471328377
 31
0.0
  0
INSERT
  5
4B7
  8
回07-寸法
  6
CONTINUOUS
 62
     5
 66
     1
  2
_OPEN
 10
-3294.120949754011
 20
-781.4418471328377
 30
0.0
 41
3.0
 42
3.0
 43
3.0
 50
180.0
  0
SEQEND
  5
4B8
  8
0
  6
CONTINUOUS
 62
     7
  0
INSERT
  5
4B9
  8
回07-寸法
  6
CONTINUOUS
 62
     5
 66
     1
  2
_OPEN
 10
-3273.22776553504
 20
-781.4418471328377
 30
0.0
 41
3.0
 42
3.0
 43
3.0
  0
SEQEND
  5
4BA
  8
0
  6
CONTINUOUS
 62
     7
  0
INSERT
  5
4BB
  8
回07-寸法
  6
CONTINUOUS
 62
     5
 66
     1
  2
*X87
 10
0.0
 20
0.0
 30
0.0
  0
SEQEND
  5
884
  8
0
  6
CONTINUOUS
 62
     7
  0
POINT
  5
4BC
  8
DEFPOINTS
  6
CONTINUOUS
 62
     0
 10
-3294.120949754011
 20
-791.2169781244728
 30
0.0
  0
POINT
  5
4BD
  8
DEFPOINTS
  6
CONTINUOUS
 62
     0
 10
-3273.22776553504
 20
-790.4611705963099
 30
0.0
  0
POINT
  5
4BE
  8
DEFPOINTS
  6
CONTINUOUS
 62
     0
 10
-3273.22776553504
 20
-781.4418471328377
 30
0.0
  0
ENDBLK
  5
4BF
  8
0
 62
     5
  0
BLOCK
  8
0
  2
*D2
 70
     1
 10
0.0
 20
0.0
 30
0.0
  3
*D2
  1

  0
LINE
  5
4A3
  8
回08-記事
  6
CONTINUOUS
 62
     5
 10
-3290.120949754011
 20
-1183.657122225498
 30
0.0
 11
-3299.082359922983
 21
-1183.657122225498
 31
0.0
  0
LINE
  5
4A4
  8
回08-記事
  6
CONTINUOUS
 62
     5
 10
-3290.820949754011
 20
-1178.657122225498
 30
0.0
 11
-3299.082359922983
 21
-1178.657122225498
 31
0.0
  0
LINE
  5
4A5
  8
回08-記事
  6
CONTINUOUS
 62
     5
 10
-3298.082359922982
 20
-1183.657122225498
 30
0.0
 11
-3298.082359922982
 21
-1178.657122225498
 31
0.0
  0
LINE
  5
4A6
  8
回08-記事
  6
CONTINUOUS
 62
     5
 10
-3298.082359922982
 20
-1186.657122225498
 30
0.0
 11
-3298.082359922982
 21
-1189.657122225498
 31
0.0
  0
LINE
  5
4A7
  8
回08-記事
  6
CONTINUOUS
 62
     5
 10
-3298.082359922982
 20
-1175.657122225498
 30
0.0
 11
-3298.082359922982
 21
-1172.657122225498
 31
0.0
  0
INSERT
  5
4A8
  8
回08-記事
  6
CONTINUOUS
 62
     5
 66
     1
  2
_OPEN
 10
-3298.082359922982
 20
-1183.657122225498
 30
0.0
 41
3.0
 42
3.0
 43
3.0
 50
90.0
  0
SEQEND
  5
4A9
  8
0
  6
CONTINUOUS
 62
     7
  0
INSERT
  5
4AA
  8
回08-記事
  6
CONTINUOUS
 62
     5
 66
     1
  2
_OPEN
 10
-3298.082359922982
 20
-1178.657122225498
 30
0.0
 41
3.0
 42
3.0
 43
3.0
 50
270.0
  0
SEQEND
  5
4AB
  8
0
  6
CONTINUOUS
 62
     7
  0
TEXT
  5
4AC
  8
回08-記事
  6
CONTINUOUS
 62
     5
 10
-3298.582359922983
 20
-1182.907122225497
 30
0.0
 40
5.0
  1
5
 50
90.0
1001
ACAD
1000
MTEXTBEGIN
1070
    73
1070
     1
1070
    44
1040
1.0
1070
    74
1070
     0
1000
MTEXTEND
  0
POINT
  5
4AD
  8
DEFPOINTS
  6
CONTINUOUS
 62
     0
 10
-3290.120949754011
 20
-1183.657122225498
 30
0.0
  0
POINT
  5
4AE
  8
DEFPOINTS
  6
CONTINUOUS
 62
     0
 10
-3290.820949754011
 20
-1178.657122225498
 30
0.0
  0
POINT
  5
4AF
  8
DEFPOINTS
  6
CONTINUOUS
 62
     0
 10
-3298.082359922982
 20
-1178.657122225498
 30
0.0
  0
ENDBLK
  5
4B0
  8
0
 62
     5
  0
BLOCK
  8
0
  2
*D3
 70
     1
 10
0.0
 20
0.0
 30
0.0
  3
*D3
  1

  0
LINE
  5
492
  8
回08-記事
  6
CONTINUOUS
 62
     5
 10
-3280.22776553504
 20
-1183.657122225498
 30
0.0
 11
-3266.953179969125
 21
-1183.657122225498
 31
0.0
  0
LINE
  5
493
  8
回08-記事
  6
CONTINUOUS
 62
     5
 10
-3279.52776553504
 20
-1178.657122225498
 30
0.0
 11
-3266.953179969125
 21
-1178.657122225498
 31
0.0
  0
LINE
  5
494
  8
回08-記事
  6
CONTINUOUS
 62
     5
 10
-3267.953179969125
 20
-1175.657122225498
 30
0.0
 11
-3267.953179969125
 21
-1169.657122225498
 31
0.0
  0
LINE
  5
495
  8
回08-記事
  6
CONTINUOUS
 62
     5
 10
-3267.953179969125
 20
-1183.657122225498
 30
0.0
 11
-3267.953179969125
 21
-1178.657122225498
 31
0.0
  0
LINE
  5
496
  8
回08-記事
  6
CONTINUOUS
 62
     5
 10
-3267.953179969125
 20
-1186.657122225498
 30
0.0
 11
-3267.953179969125
 21
-1189.657122225498
 31
0.0
  0
INSERT
  5
497
  8
回08-記事
  6
CONTINUOUS
 62
     5
 66
     1
  2
_OPEN
 10
-3267.953179969125
 20
-1183.657122225498
 30
0.0
 41
3.0
 42
3.0
 43
3.0
 50
90.0
  0
SEQEND
  5
498
  8
0
  6
CONTINUOUS
 62
     7
  0
INSERT
  5
499
  8
回08-記事
  6
CONTINUOUS
 62
     5
 66
     1
  2
_OPEN
 10
-3267.953179969125
 20
-1178.657122225498
 30
0.0
 41
3.0
 42
3.0
 43
3.0
 50
270.0
  0
SEQEND
  5
49A
  8
0
  6
CONTINUOUS
 62
     7
  0
TEXT
  5
49B
  8
回08-記事
  6
CONTINUOUS
 62
     5
 10
-3268.453179969125
 20
-1172.907122225498
 30
0.0
 40
5.0
  1
5
 50
90.0
1001
ACAD
1000
MTEXTBEGIN
1070
    73
1070
     1
1070
    44
1040
1.0
1070
    74
1070
     0
1000
MTEXTEND
  0
POINT
  5
49C
  8
DEFPOINTS
  6
CONTINUOUS
 62
     0
 10
-3280.22776553504
 20
-1183.657122225498
 30
0.0
  0
POINT
  5
49D
  8
DEFPOINTS
  6
CONTINUOUS
 62
     0
 10
-3279.52776553504
 20
-1178.657122225498
 30
0.0
  0
POINT
  5
49E
  8
DEFPOINTS
  6
CONTINUOUS
 62
     0
 10
-3267.953179969125
 20
-1178.657122225498
 30
0.0
  0
ENDBLK
  5
49F
  8
0
 62
     5
  0
BLOCK
  8
0
  2
*D4
 70
     1
 10
0.0
 20
0.0
 30
0.0
  3
*D4
  1

  0
LINE
  5
483
  8
回08-記事
  6
CONTINUOUS
 62
     5
 10
-3287.620949754011
 20
-1173.657122225498
 30
0.0
 11
-3282.346416889649
 21
-1173.657122225498
 31
0.0
  0
LINE
  5
484
  8
回08-記事
  6
CONTINUOUS
 62
     5
 10
-3287.620949754011
 20
-1183.657122225498
 30
0.0
 11
-3282.346416889649
 21
-1183.657122225498
 31
0.0
  0
LINE
  5
485
  8
回08-記事
  6
CONTINUOUS
 62
     5
 10
-3283.346416889649
 20
-1176.657122225498
 30
0.0
 11
-3283.346416889649
 21
-1180.657122225498
 31
0.0
  0
INSERT
  5
486
  8
回08-記事
  6
CONTINUOUS
 62
     5
 66
     1
  2
_OPEN
 10
-3283.346416889649
 20
-1173.657122225498
 30
0.0
 41
3.0
 42
3.0
 43
3.0
 50
90.0
  0
SEQEND
  5
487
  8
0
  6
CONTINUOUS
 62
     7
  0
INSERT
  5
488
  8
回08-記事
  6
CONTINUOUS
 62
     5
 66
     1
  2
_OPEN
 10
-3283.346416889649
 20
-1183.657122225498
 30
0.0
 41
3.0
 42
3.0
 43
3.0
 50
270.0
  0
SEQEND
  5
489
  8
0
  6
CONTINUOUS
 62
     7
  0
TEXT
  5
48A
  8
回08-記事
  6
CONTINUOUS
 62
     5
 10
-3284.013084389649
 20
-1181.990472225498
 30
0.0
 40
3.333349999999999
  1
(10)
 50
90.0
1001
ACAD
1000
MTEXTBEGIN
1070
    73
1070
     1
1070
    44
1040
1.0
1070
    74
1070
     0
1000
MTEXTEND
  0
POINT
  5
48B
  8
DEFPOINTS
  6
CONTINUOUS
 62
     0
 10
-3287.620949754011
 20
-1173.657122225498
 30
0.0
  0
POINT
  5
48C
  8
DEFPOINTS
  6
CONTINUOUS
 62
     0
 10
-3287.620949754011
 20
-1183.657122225498
 30
0.0
  0
POINT
  5
48D
  8
DEFPOINTS
  6
CONTINUOUS
 62
     0
 10
-3283.346416889649
 20
-1183.657122225498
 30
0.0
  0
ENDBLK
  5
48E
  8
0
 62
     5
  0
BLOCK
  8
0
  2
*D5
 70
     1
 10
0.0
 20
0.0
 30
0.0
  3
*D5
  1

  0
LINE
  5
472
  8
回08-記事
  6
CONTINUOUS
 62
     5
 10
-3287.620949754011
 20
-1183.657122225498
 30
0.0
 11
-3287.620949754011
 21
-1196.49148662646
 31
0.0
  0
LINE
  5
473
  8
回08-記事
  6
CONTINUOUS
 62
     5
 10
-3290.120949754011
 20
-1183.657122225498
 30
0.0
 11
-3290.120949754011
 21
-1196.49148662646
 31
0.0
  0
LINE
  5
474
  8
回08-記事
  6
CONTINUOUS
 62
     5
 10
-3293.120949754011
 20
-1195.49148662646
 30
0.0
 11
-3314.708711761884
 21
-1195.49148662646
 31
0.0
  0
LINE
  5
475
  8
回08-記事
  6
CONTINUOUS
 62
     5
 10
-3287.620949754011
 20
-1195.49148662646
 30
0.0
 11
-3290.120949754011
 21
-1195.49148662646
 31
0.0
  0
LINE
  5
476
  8
回08-記事
  6
CONTINUOUS
 62
     5
 10
-3284.620949754011
 20
-1195.49148662646
 30
0.0
 11
-3281.620949754011
 21
-1195.49148662646
 31
0.0
  0
INSERT
  5
477
  8
回08-記事
  6
CONTINUOUS
 62
     5
 66
     1
  2
_OPEN
 10
-3287.620949754011
 20
-1195.49148662646
 30
0.0
 41
3.0
 42
3.0
 43
3.0
 50
180.0
  0
SEQEND
  5
478
  8
0
  6
CONTINUOUS
 62
     7
  0
INSERT
  5
479
  8
回08-記事
  6
CONTINUOUS
 62
     5
 66
     1
  2
_OPEN
 10
-3290.120949754011
 20
-1195.49148662646
 30
0.0
 41
3.0
 42
3.0
 43
3.0
  0
SEQEND
  5
47A
  8
0
  6
CONTINUOUS
 62
     7
  0
INSERT
  5
47B
  8
回08-記事
  6
CONTINUOUS
 62
     5
 66
     1
  2
*X88
 10
0.0
 20
0.0
 30
0.0
  0
SEQEND
  5
88A
  8
0
  6
CONTINUOUS
 62
     7
  0
POINT
  5
47C
  8
DEFPOINTS
  6
CONTINUOUS
 62
     0
 10
-3287.620949754011
 20
-1183.657122225498
 30
0.0
  0
POINT
  5
47D
  8
DEFPOINTS
  6
CONTINUOUS
 62
     0
 10
-3290.120949754011
 20
-1183.657122225498
 30
0.0
  0
POINT
  5
47E
  8
DEFPOINTS
  6
CONTINUOUS
 62
     0
 10
-3290.120949754011
 20
-1195.49148662646
 30
0.0
  0
ENDBLK
  5
47F
  8
0
 62
     5
  0
BLOCK
  8
0
  2
*D6
 70
     1
 10
0.0
 20
0.0
 30
0.0
  3
*D6
  1

  0
LINE
  5
461
  8
回08-記事
  6
CONTINUOUS
 62
     5
 10
-3282.727765535041
 20
-1183.657122225498
 30
0.0
 11
-3282.727765535041
 21
-1200.445216663559
 31
0.0
  0
LINE
  5
462
  8
回08-記事
  6
CONTINUOUS
 62
     5
 10
-3280.22776553504
 20
-1183.657122225498
 30
0.0
 11
-3280.22776553504
 21
-1200.445216663559
 31
0.0
  0
LINE
  5
463
  8
回08-記事
  6
CONTINUOUS
 62
     5
 10
-3277.227765535041
 20
-1199.445216663559
 30
0.0
 11
-3255.640003527167
 21
-1199.445216663559
 31
0.0
  0
LINE
  5
464
  8
回08-記事
  6
CONTINUOUS
 62
     5
 10
-3282.727765535041
 20
-1199.445216663559
 30
0.0
 11
-3280.22776553504
 21
-1199.445216663559
 31
0.0
  0
LINE
  5
465
  8
回08-記事
  6
CONTINUOUS
 62
     5
 10
-3285.72776553504
 20
-1199.445216663559
 30
0.0
 11
-3288.72776553504
 21
-1199.445216663559
 31
0.0
  0
INSERT
  5
466
  8
回08-記事
  6
CONTINUOUS
 62
     5
 66
     1
  2
_OPEN
 10
-3282.727765535041
 20
-1199.445216663559
 30
0.0
 41
3.0
 42
3.0
 43
3.0
  0
SEQEND
  5
467
  8
0
  6
CONTINUOUS
 62
     7
  0
INSERT
  5
468
  8
回08-記事
  6
CONTINUOUS
 62
     5
 66
     1
  2
_OPEN
 10
-3280.22776553504
 20
-1199.445216663559
 30
0.0
 41
3.0
 42
3.0
 43
3.0
 50
180.0
  0
SEQEND
  5
469
  8
0
  6
CONTINUOUS
 62
     7
  0
INSERT
  5
46A
  8
回08-記事
  6
CONTINUOUS
 62
     5
 66
     1
  2
*X89
 10
0.0
 20
0.0
 30
0.0
  0
SEQEND
  5
890
  8
0
  6
CONTINUOUS
 62
     7
  0
POINT
  5
46B
  8
DEFPOINTS
  6
CONTINUOUS
 62
     0
 10
-3282.727765535041
 20
-1183.657122225498
 30
0.0
  0
POINT
  5
46C
  8
DEFPOINTS
  6
CONTINUOUS
 62
     0
 10
-3280.22776553504
 20
-1183.657122225498
 30
0.0
  0
POINT
  5
46D
  8
DEFPOINTS
  6
CONTINUOUS
 62
     0
 10
-3280.22776553504
 20
-1199.445216663559
 30
0.0
  0
ENDBLK
  5
46E
  8
0
 62
     5
  0
BLOCK
  8
0
  2
*D7
 70
     1
 10
0.0
 20
0.0
 30
0.0
  3
*D7
  1

  0
LINE
  5
2FB
  8
回07-寸法
  6
CONTINUOUS
 62
     5
 10
-3829.781365664204
 20
-1070.61617059631
 30
0.0
 11
-3862.511365654203
 21
-1070.61617059631
 31
0.0
  0
LINE
  5
2FC
  8
回07-寸法
  6
CONTINUOUS
 62
     5
 10
-3829.781365654204
 20
-802.50617059631
 30
0.0
 11
-3862.511365654203
 21
-802.50617059631
 31
0.0
  0
LINE
  5
2FD
  8
回07-寸法
  6
CONTINUOUS
 62
     5
 10
-3861.511365654204
 20
-1067.61617059631
 30
0.0
 11
-3861.511365654204
 21
-805.5061705963099
 31
0.0
  0
INSERT
  5
2FE
  8
回07-寸法
  6
CONTINUOUS
 62
     5
 66
     1
  2
_OPEN
 10
-3861.511365654204
 20
-1070.61617059631
 30
0.0
 41
3.0
 42
3.0
 43
3.0
 50
270.0
  0
SEQEND
  5
2FF
  8
0
  6
CONTINUOUS
 62
     7
  0
INSERT
  5
300
  8
回07-寸法
  6
CONTINUOUS
 62
     5
 66
     1
  2
_OPEN
 10
-3861.511365654204
 20
-802.50617059631
 30
0.0
 41
3.0
 42
3.0
 43
3.0
 50
90.0
  0
SEQEND
  5
301
  8
0
  6
CONTINUOUS
 62
     7
  0
TEXT
  5
302
  8
回07-寸法
  6
CONTINUOUS
 62
     5
 10
-3862.261365654203
 20
-965.3106863443413
 30
0.0
 40
5.0
  1
268.11(Active Area)
 50
90.0
1001
ACAD
1000
MTEXTBEGIN
1070
    73
1070
     1
1070
    44
1040
1.0
1070
    74
1070
     0
1000
MTEXTEND
  0
POINT
  5
303
  8
DEFPOINTS
  6
CONTINUOUS
 62
     0
 10
-3829.781365664204
 20
-1070.61617059631
 30
0.0
  0
POINT
  5
304
  8
DEFPOINTS
  6
CONTINUOUS
 62
     0
 10
-3829.781365654204
 20
-802.50617059631
 30
0.0
  0
POINT
  5
305
  8
DEFPOINTS
  6
CONTINUOUS
 62
     0
 10
-3861.511365654204
 20
-802.50617059631
 30
0.0
  0
ENDBLK
  5
306
  8
0
 62
     5
  0
BLOCK
  8
0
  2
*D8
 70
     1
 10
0.0
 20
0.0
 30
0.0
  3
*D8
  1

  0
LINE
  5
2EC
  8
回07-寸法
  6
CONTINUOUS
 62
     5
 10
-3831.781365654205
 20
-800.5061705963099
 30
0.0
 11
-3874.511365654204
 21
-800.5061705963099
 31
0.0
  0
LINE
  5
2ED
  8
回07-寸法
  6
CONTINUOUS
 62
     5
 10
-3831.781365654205
 20
-1072.61617059631
 30
0.0
 11
-3874.511365654204
 21
-1072.61617059631
 31
0.0
  0
LINE
  5
2EE
  8
回07-寸法
  6
CONTINUOUS
 62
     5
 10
-3873.511365654204
 20
-803.50617059631
 30
0.0
 11
-3873.511365654204
 21
-1069.61617059631
 31
0.0
  0
INSERT
  5
2EF
  8
回07-寸法
  6
CONTINUOUS
 62
     5
 66
     1
  2
_OPEN
 10
-3873.511365654204
 20
-800.5061705963099
 30
0.0
 41
3.0
 42
3.0
 43
3.0
 50
90.0
  0
SEQEND
  5
2F0
  8
0
  6
CONTINUOUS
 62
     7
  0
INSERT
  5
2F1
  8
回07-寸法
  6
CONTINUOUS
 62
     5
 66
     1
  2
_OPEN
 10
-3873.511365654204
 20
-1072.61617059631
 30
0.0
 41
3.0
 42
3.0
 43
3.0
 50
270.0
  0
SEQEND
  5
2F2
  8
0
  6
CONTINUOUS
 62
     7
  0
TEXT
  5
2F3
  8
回07-寸法
  6
CONTINUOUS
 62
     5
 10
-3875.261365654204
 20
-967.0601863443417
 30
0.0
 40
5.0
  1
272.11(Viewing Area)
 50
90.0
1001
ACAD
1000
MTEXTBEGIN
1070
    73
1070
     1
1070
    44
1040
1.0
1070
    74
1070
     0
1000
MTEXTEND
  0
POINT
  5
2F4
  8
DEFPOINTS
  6
CONTINUOUS
 62
     0
 10
-3831.781365654205
 20
-800.5061705963099
 30
0.0
  0
POINT
  5
2F5
  8
DEFPOINTS
  6
CONTINUOUS
 62
     0
 10
-3831.781365654205
 20
-1072.61617059631
 30
0.0
  0
POINT
  5
2F6
  8
DEFPOINTS
  6
CONTINUOUS
 62
     0
 10
-3873.511365654204
 20
-1072.61617059631
 30
0.0
  0
ENDBLK
  5
2F7
  8
0
 62
     5
  0
BLOCK
  8
0
  2
*D9
 70
     1
 10
0.0
 20
0.0
 30
0.0
  3
*D9
  1

  0
LINE
  5
2DD
  8
回07-寸法
  6
CONTINUOUS
 62
     5
 10
-3840.461365664205
 20
-790.4611705963108
 30
0.0
 11
-3898.511365654203
 21
-790.4611705963108
 31
0.0
  0
LINE
  5
2DE
  8
回07-寸法
  6
CONTINUOUS
 62
     5
 10
-3840.461365664204
 20
-1083.661170596309
 30
0.0
 11
-3898.511365654203
 21
-1083.661170596309
 31
0.0
  0
LINE
  5
2DF
  8
回07-寸法
  6
CONTINUOUS
 62
     5
 10
-3897.511365654203
 20
-793.4611705963107
 30
0.0
 11
-3897.511365654203
 21
-1080.661170596309
 31
0.0
  0
INSERT
  5
2E0
  8
回07-寸法
  6
CONTINUOUS
 62
     5
 66
     1
  2
_OPEN
 10
-3897.511365654203
 20
-790.4611705963108
 30
0.0
 41
3.0
 42
3.0
 43
3.0
 50
90.0
  0
SEQEND
  5
2E1
  8
0
  6
CONTINUOUS
 62
     7
  0
INSERT
  5
2E2
  8
回07-寸法
  6
CONTINUOUS
 62
     5
 66
     1
  2
_OPEN
 10
-3897.511365654203
 20
-1083.661170596309
 30
0.0
 41
3.0
 42
3.0
 43
3.0
 50
270.0
  0
SEQEND
  5
2E3
  8
0
  6
CONTINUOUS
 62
     7
  0
INSERT
  5
2E4
  8
回07-寸法
  6
CONTINUOUS
 62
     5
 66
     1
  2
*X90
 10
0.0
 20
0.0
 30
0.0
  0
SEQEND
  5
896
  8
0
  6
CONTINUOUS
 62
     7
  0
POINT
  5
2E5
  8
DEFPOINTS
  6
CONTINUOUS
 62
     0
 10
-3840.461365664205
 20
-790.4611705963108
 30
0.0
  0
POINT
  5
2E6
  8
DEFPOINTS
  6
CONTINUOUS
 62
     0
 10
-3840.461365664204
 20
-1083.661170596309
 30
0.0
  0
POINT
  5
2E7
  8
DEFPOINTS
  6
CONTINUOUS
 62
     0
 10
-3897.511365654203
 20
-1083.661170596309
 30
0.0
  0
ENDBLK
  5
2E8
  8
0
 62
     5
  0
BLOCK
  8
0
  2
*D10
 70
     1
 10
0.0
 20
0.0
 30
0.0
  3
*D10
  1

  0
LINE
  5
2CE
  8
回07-寸法
  6
CONTINUOUS
 62
     5
 10
-3353.141365674205
 20
-802.50617059631
 30
0.0
 11
-3353.141365674205
 21
-771.4211705963101
 31
0.0
  0
LINE
  5
2CF
  8
回07-寸法
  6
CONTINUOUS
 62
     5
 10
-3829.781357654204
 20
-802.50617059631
 30
0.0
 11
-3829.781357654204
 21
-771.4211705963099
 31
0.0
  0
LINE
  5
2D0
  8
回07-寸法
  6
CONTINUOUS
 62
     5
 10
-3356.141365674204
 20
-772.42117059631
 30
0.0
 11
-3826.781357654203
 21
-772.4211705963099
 31
0.0
  0
INSERT
  5
2D1
  8
回07-寸法
  6
CONTINUOUS
 62
     5
 66
     1
  2
_OPEN
 10
-3353.141365674205
 20
-772.42117059631
 30
0.0
 41
3.0
 42
3.0
 43
3.0
 50
360.0
  0
SEQEND
  5
2D2
  8
0
  6
CONTINUOUS
 62
     7
  0
INSERT
  5
2D3
  8
回07-寸法
  6
CONTINUOUS
 62
     5
 66
     1
  2
_OPEN
 10
-3829.781357654204
 20
-772.4211705963099
 30
0.0
 41
3.0
 42
3.0
 43
3.0
 50
180.0
  0
SEQEND
  5
2D4
  8
0
  6
CONTINUOUS
 62
     7
  0
TEXT
  5
2D5
  8
回07-寸法
  6
CONTINUOUS
 62
     5
 10
-3621.710377412235
 20
-771.67117059631
 30
0.0
 40
5.0
  1
476.64(Active Area)
1001
ACAD
1000
MTEXTBEGIN
1070
    73
1070
     1
1070
    44
1040
1.0
1070
    74
1070
     0
1000
MTEXTEND
  0
POINT
  5
2D6
  8
DEFPOINTS
  6
CONTINUOUS
 62
     0
 10
-3353.141365674205
 20
-802.50617059631
 30
0.0
  0
POINT
  5
2D7
  8
DEFPOINTS
  6
CONTINUOUS
 62
     0
 10
-3829.781357654204
 20
-802.50617059631
 30
0.0
  0
POINT
  5
2D8
  8
DEFPOINTS
  6
CONTINUOUS
 62
     0
 10
-3829.781357654204
 20
-772.4211705963099
 30
0.0
  0
ENDBLK
  5
2D9
  8
0
 62
     5
  0
BLOCK
  8
0
  2
*D11
 70
     1
 10
0.0
 20
0.0
 30
0.0
  3
*D11
  1

  0
LINE
  5
2BF
  8
回07-寸法
  6
CONTINUOUS
 62
     5
 10
-3831.781365654205
 20
-800.5061705963099
 30
0.0
 11
-3831.781365654205
 21
-759.4211705963099
 31
0.0
  0
LINE
  5
2C0
  8
回07-寸法
  6
CONTINUOUS
 62
     5
 10
-3351.141365664204
 20
-800.5061705963109
 30
0.0
 11
-3351.141365664204
 21
-759.4211705963099
 31
0.0
  0
LINE
  5
2C1
  8
回07-寸法
  6
CONTINUOUS
 62
     5
 10
-3828.781365654204
 20
-760.4211705963099
 30
0.0
 11
-3354.141365664204
 21
-760.4211705963099
 31
0.0
  0
INSERT
  5
2C2
  8
回07-寸法
  6
CONTINUOUS
 62
     5
 66
     1
  2
_OPEN
 10
-3831.781365654205
 20
-760.4211705963099
 30
0.0
 41
3.0
 42
3.0
 43
3.0
 50
180.0
  0
SEQEND
  5
2C3
  8
0
  6
CONTINUOUS
 62
     7
  0
INSERT
  5
2C4
  8
回07-寸法
  6
CONTINUOUS
 62
     5
 66
     1
  2
_OPEN
 10
-3351.141365664204
 20
-760.4211705963099
 30
0.0
 41
3.0
 42
3.0
 43
3.0
  0
SEQEND
  5
2C5
  8
0
  6
CONTINUOUS
 62
     7
  0
TEXT
  5
2C6
  8
回07-寸法
  6
CONTINUOUS
 62
     5
 10
-3623.460381407235
 20
-758.6711705963099
 30
0.0
 40
5.0
  1
480.64(Viewing Area)
1001
ACAD
1000
MTEXTBEGIN
1070
    73
1070
     1
1070
    44
1040
1.0
1070
    74
1070
     0
1000
MTEXTEND
  0
POINT
  5
2C7
  8
DEFPOINTS
  6
CONTINUOUS
 62
     0
 10
-3831.781365654205
 20
-800.5061705963099
 30
0.0
  0
POINT
  5
2C8
  8
DEFPOINTS
  6
CONTINUOUS
 62
     0
 10
-3351.141365664204
 20
-800.5061705963109
 30
0.0
  0
POINT
  5
2C9
  8
DEFPOINTS
  6
CONTINUOUS
 62
     0
 10
-3351.141365664204
 20
-760.4211705963099
 30
0.0
  0
ENDBLK
  5
2CA
  8
0
 62
     5
  0
BLOCK
  8
0
  2
*D12
 70
     1
 10
0.0
 20
0.0
 30
0.0
  3
*D12
  1

  0
LINE
  5
2B0
  8
回07-寸法
  6
CONTINUOUS
 62
     5
 10
-3341.461365664204
 20
-793.4611705963098
 30
0.0
 11
-3341.461365664204
 21
-735.42117059631
 31
0.0
  0
LINE
  5
2B1
  8
回07-寸法
  6
CONTINUOUS
 62
     5
 10
-3841.461365664204
 20
-791.4611705963108
 30
0.0
 11
-3841.461365664204
 21
-735.42117059631
 31
0.0
  0
LINE
  5
2B2
  8
回07-寸法
  6
CONTINUOUS
 62
     5
 10
-3344.461365664204
 20
-736.42117059631
 30
0.0
 11
-3838.461365664204
 21
-736.42117059631
 31
0.0
  0
INSERT
  5
2B3
  8
回07-寸法
  6
CONTINUOUS
 62
     5
 66
     1
  2
_OPEN
 10
-3341.461365664204
 20
-736.42117059631
 30
0.0
 41
3.0
 42
3.0
 43
3.0
  0
SEQEND
  5
2B4
  8
0
  6
CONTINUOUS
 62
     7
  0
INSERT
  5
2B5
  8
回07-寸法
  6
CONTINUOUS
 62
     5
 66
     1
  2
_OPEN
 10
-3841.461365664204
 20
-736.42117059631
 30
0.0
 41
3.0
 42
3.0
 43
3.0
 50
180.0
  0
SEQEND
  5
2B6
  8
0
  6
CONTINUOUS
 62
     7
  0
INSERT
  5
2B7
  8
回07-寸法
  6
CONTINUOUS
 62
     5
 66
     1
  2
*X91
 10
0.0
 20
0.0
 30
0.0
  0
SEQEND
  5
89C
  8
0
  6
CONTINUOUS
 62
     7
  0
POINT
  5
2B8
  8
DEFPOINTS
  6
CONTINUOUS
 62
     0
 10
-3341.461365664204
 20
-793.4611705963098
 30
0.0
  0
POINT
  5
2B9
  8
DEFPOINTS
  6
CONTINUOUS
 62
     0
 10
-3841.461365664204
 20
-791.4611705963108
 30
0.0
  0
POINT
  5
2BA
  8
DEFPOINTS
  6
CONTINUOUS
 62
     0
 10
-3841.461365664204
 20
-736.42117059631
 30
0.0
  0
ENDBLK
  5
2BB
  8
0
 62
     5
  0
BLOCK
  8
0
  2
*D13
 70
     1
 10
0.0
 20
0.0
 30
0.0
  3
*D13
  1

  0
LINE
  5
29F
  8
回07-寸法
  6
CONTINUOUS
 62
     5
 10
-3831.781365654205
 20
-1072.61617059631
 30
0.0
 11
-3874.511365654204
 21
-1072.61617059631
 31
0.0
  0
LINE
  5
2A0
  8
回07-寸法
  6
CONTINUOUS
 62
     5
 10
-3840.461365664204
 20
-1083.661170596309
 30
0.0
 11
-3874.511365654204
 21
-1083.661170596309
 31
0.0
  0
LINE
  5
2A1
  8
回07-寸法
  6
CONTINUOUS
 62
     5
 10
-3873.511365654204
 20
-1086.661170596309
 30
0.0
 11
-3873.511365654204
 21
-1106.764723986902
 31
0.0
  0
LINE
  5
2A2
  8
回07-寸法
  6
CONTINUOUS
 62
     5
 10
-3873.511365654204
 20
-1072.61617059631
 30
0.0
 11
-3873.511365654204
 21
-1083.661170596309
 31
0.0
  0
LINE
  5
2A3
  8
回07-寸法
  6
CONTINUOUS
 62
     5
 10
-3873.511365654204
 20
-1069.61617059631
 30
0.0
 11
-3873.511365654204
 21
-1066.61617059631
 31
0.0
  0
INSERT
  5
2A4
  8
回07-寸法
  6
CONTINUOUS
 62
     5
 66
     1
  2
_OPEN
 10
-3873.511365654204
 20
-1072.61617059631
 30
0.0
 41
3.0
 42
3.0
 43
3.0
 50
270.0
  0
SEQEND
  5
2A5
  8
0
  6
CONTINUOUS
 62
     7
  0
INSERT
  5
2A6
  8
回07-寸法
  6
CONTINUOUS
 62
     5
 66
     1
  2
_OPEN
 10
-3873.511365654204
 20
-1083.661170596309
 30
0.0
 41
3.0
 42
3.0
 43
3.0
 50
90.0
  0
SEQEND
  5
2A7
  8
0
  6
CONTINUOUS
 62
     7
  0
TEXT
  5
2A8
  8
回07-寸法
  6
CONTINUOUS
 62
     5
 10
-3874.011365654204
 20
-1107.014723986902
 30
0.0
 40
5.0
  1
11.045
 50
90.0
1001
ACAD
1000
MTEXTBEGIN
1070
    73
1070
     1
1070
    44
1040
1.0
1070
    74
1070
     0
1000
MTEXTEND
  0
POINT
  5
2A9
  8
DEFPOINTS
  6
CONTINUOUS
 62
     0
 10
-3831.781365654205
 20
-1072.61617059631
 30
0.0
  0
POINT
  5
2AA
  8
DEFPOINTS
  6
CONTINUOUS
 62
     0
 10
-3840.461365664204
 20
-1083.661170596309
 30
0.0
  0
POINT
  5
2AB
  8
DEFPOINTS
  6
CONTINUOUS
 62
     0
 10
-3873.511365654204
 20
-1083.661170596309
 30
0.0
  0
ENDBLK
  5
2AC
  8
0
 62
     5
  0
BLOCK
  8
0
  2
*D14
 70
     1
 10
0.0
 20
0.0
 30
0.0
  3
*D14
  1

  0
LINE
  5
28E
  8
回07-寸法
  6
CONTINUOUS
 62
     5
 10
-3829.781357654204
 20
-1070.61617059631
 30
0.0
 11
-3862.511365654203
 21
-1070.61617059631
 31
0.0
  0
LINE
  5
28F
  8
回07-寸法
  6
CONTINUOUS
 62
     5
 10
-3840.461365664204
 20
-1083.661170596309
 30
0.0
 11
-3862.511365654203
 21
-1083.661170596309
 31
0.0
  0
LINE
  5
290
  8
回07-寸法
  6
CONTINUOUS
 62
     5
 10
-3861.511365654204
 20
-1086.661170596309
 30
0.0
 11
-3861.511365654204
 21
-1107.764723986902
 31
0.0
  0
LINE
  5
291
  8
回07-寸法
  6
CONTINUOUS
 62
     5
 10
-3861.511365654204
 20
-1070.61617059631
 30
0.0
 11
-3861.511365654204
 21
-1083.661170596309
 31
0.0
  0
LINE
  5
292
  8
回07-寸法
  6
CONTINUOUS
 62
     5
 10
-3861.511365654204
 20
-1067.61617059631
 30
0.0
 11
-3861.511365654204
 21
-1064.61617059631
 31
0.0
  0
INSERT
  5
293
  8
回07-寸法
  6
CONTINUOUS
 62
     5
 66
     1
  2
_OPEN
 10
-3861.511365654204
 20
-1070.61617059631
 30
0.0
 41
3.0
 42
3.0
 43
3.0
 50
270.0
  0
SEQEND
  5
294
  8
0
  6
CONTINUOUS
 62
     7
  0
INSERT
  5
295
  8
回07-寸法
  6
CONTINUOUS
 62
     5
 66
     1
  2
_OPEN
 10
-3861.511365654204
 20
-1083.661170596309
 30
0.0
 41
3.0
 42
3.0
 43
3.0
 50
90.0
  0
SEQEND
  5
296
  8
0
  6
CONTINUOUS
 62
     7
  0
TEXT
  5
297
  8
回07-寸法
  6
CONTINUOUS
 62
     5
 10
-3862.011365654204
 20
-1108.014723986902
 30
0.0
 40
5.0
  1
13.045
 50
90.0
1001
ACAD
1000
MTEXTBEGIN
1070
    73
1070
     1
1070
    44
1040
1.0
1070
    74
1070
     0
1000
MTEXTEND
  0
POINT
  5
298
  8
DEFPOINTS
  6
CONTINUOUS
 62
     0
 10
-3829.781357654204
 20
-1070.61617059631
 30
0.0
  0
POINT
  5
299
  8
DEFPOINTS
  6
CONTINUOUS
 62
     0
 10
-3840.461365664204
 20
-1083.661170596309
 30
0.0
  0
POINT
  5
29A
  8
DEFPOINTS
  6
CONTINUOUS
 62
     0
 10
-3861.511365654204
 20
-1083.661170596309
 30
0.0
  0
ENDBLK
  5
29B
  8
0
 62
     5
  0
BLOCK
  8
0
  2
*D15
 70
     1
 10
0.0
 20
0.0
 30
0.0
  3
*D15
  1

  0
LINE
  5
27D
  8
回07-寸法
  6
CONTINUOUS
 62
     5
 10
-3829.781365654204
 20
-802.50617059631
 30
0.0
 11
-3862.511365654203
 21
-802.50617059631
 31
0.0
  0
LINE
  5
27E
  8
回07-寸法
  6
CONTINUOUS
 62
     5
 10
-3840.461365664205
 20
-790.4611705963108
 30
0.0
 11
-3862.511365654203
 21
-790.4611705963108
 31
0.0
  0
LINE
  5
27F
  8
回07-寸法
  6
CONTINUOUS
 62
     5
 10
-3861.511365654204
 20
-787.4611705963108
 30
0.0
 11
-3861.511365654204
 21
-762.4651076041839
 31
0.0
  0
LINE
  5
280
  8
回07-寸法
  6
CONTINUOUS
 62
     5
 10
-3861.511365654204
 20
-802.50617059631
 30
0.0
 11
-3861.511365654204
 21
-790.4611705963108
 31
0.0
  0
LINE
  5
281
  8
回07-寸法
  6
CONTINUOUS
 62
     5
 10
-3861.511365654204
 20
-805.5061705963099
 30
0.0
 11
-3861.511365654204
 21
-808.5061705963099
 31
0.0
  0
INSERT
  5
282
  8
回07-寸法
  6
CONTINUOUS
 62
     5
 66
     1
  2
_OPEN
 10
-3861.511365654204
 20
-802.50617059631
 30
0.0
 41
3.0
 42
3.0
 43
3.0
 50
90.0
  0
SEQEND
  5
283
  8
0
  6
CONTINUOUS
 62
     7
  0
INSERT
  5
284
  8
回07-寸法
  6
CONTINUOUS
 62
     5
 66
     1
  2
_OPEN
 10
-3861.511365654204
 20
-790.4611705963108
 30
0.0
 41
3.0
 42
3.0
 43
3.0
 50
270.0
  0
SEQEND
  5
285
  8
0
  6
CONTINUOUS
 62
     7
  0
TEXT
  5
286
  8
回07-寸法
  6
CONTINUOUS
 62
     5
 10
-3862.261365654204
 20
-784.7131391002467
 30
0.0
 40
5.0
  1
(12.045)
 50
90.0
1001
ACAD
1000
MTEXTBEGIN
1070
    73
1070
     1
1070
    44
1040
1.0
1070
    74
1070
     0
1000
MTEXTEND
  0
POINT
  5
287
  8
DEFPOINTS
  6
CONTINUOUS
 62
     0
 10
-3829.781365654204
 20
-802.50617059631
 30
0.0
  0
POINT
  5
288
  8
DEFPOINTS
  6
CONTINUOUS
 62
     0
 10
-3840.461365664205
 20
-790.4611705963108
 30
0.0
  0
POINT
  5
289
  8
DEFPOINTS
  6
CONTINUOUS
 62
     0
 10
-3861.511365654204
 20
-790.4611705963108
 30
0.0
  0
ENDBLK
  5
28A
  8
0
 62
     5
  0
BLOCK
  8
0
  2
*D16
 70
     1
 10
0.0
 20
0.0
 30
0.0
  3
*D16
  1

  0
LINE
  5
26C
  8
回07-寸法
  6
CONTINUOUS
 62
     5
 10
-3831.781365654205
 20
-800.5061705963099
 30
0.0
 11
-3874.511365654204
 21
-800.5061705963099
 31
0.0
  0
LINE
  5
26D
  8
回07-寸法
  6
CONTINUOUS
 62
     5
 10
-3840.461365664205
 20
-790.4611705963099
 30
0.0
 11
-3874.511365654204
 21
-790.4611705963099
 31
0.0
  0
LINE
  5
26E
  8
回07-寸法
  6
CONTINUOUS
 62
     5
 10
-3873.511365654204
 20
-787.4611705963099
 30
0.0
 11
-3873.511365654204
 21
-762.4651076041829
 31
0.0
  0
LINE
  5
26F
  8
回07-寸法
  6
CONTINUOUS
 62
     5
 10
-3873.511365654204
 20
-800.5061705963099
 30
0.0
 11
-3873.511365654204
 21
-790.4611705963099
 31
0.0
  0
LINE
  5
270
  8
回07-寸法
  6
CONTINUOUS
 62
     5
 10
-3873.511365654204
 20
-803.50617059631
 30
0.0
 11
-3873.511365654204
 21
-806.5061705963099
 31
0.0
  0
INSERT
  5
271
  8
回07-寸法
  6
CONTINUOUS
 62
     5
 66
     1
  2
_OPEN
 10
-3873.511365654204
 20
-800.5061705963099
 30
0.0
 41
3.0
 42
3.0
 43
3.0
 50
90.0
  0
SEQEND
  5
272
  8
0
  6
CONTINUOUS
 62
     7
  0
INSERT
  5
273
  8
回07-寸法
  6
CONTINUOUS
 62
     5
 66
     1
  2
_OPEN
 10
-3873.511365654204
 20
-790.4611705963099
 30
0.0
 41
3.0
 42
3.0
 43
3.0
 50
270.0
  0
SEQEND
  5
274
  8
0
  6
CONTINUOUS
 62
     7
  0
TEXT
  5
275
  8
回07-寸法
  6
CONTINUOUS
 62
     5
 10
-3874.261365654204
 20
-784.7131391002458
 30
0.0
 40
5.0
  1
(10.045)
 50
90.0
1001
ACAD
1000
MTEXTBEGIN
1070
    73
1070
     1
1070
    44
1040
1.0
1070
    74
1070
     0
1000
MTEXTEND
  0
POINT
  5
276
  8
DEFPOINTS
  6
CONTINUOUS
 62
     0
 10
-3831.781365654205
 20
-800.5061705963099
 30
0.0
  0
POINT
  5
277
  8
DEFPOINTS
  6
CONTINUOUS
 62
     0
 10
-3840.461365664205
 20
-790.4611705963099
 30
0.0
  0
POINT
  5
278
  8
DEFPOINTS
  6
CONTINUOUS
 62
     0
 10
-3873.511365654204
 20
-790.4611705963099
 30
0.0
  0
ENDBLK
  5
279
  8
0
 62
     5
  0
BLOCK
  8
0
  2
*D17
 70
     1
 10
0.0
 20
0.0
 30
0.0
  3
*D17
  1

  0
LINE
  5
25B
  8
回07-寸法
  6
CONTINUOUS
 62
     5
 10
-3351.141365664204
 20
-800.5061705963109
 30
0.0
 11
-3351.141365664204
 21
-759.4211705963099
 31
0.0
  0
LINE
  5
25C
  8
回07-寸法
  6
CONTINUOUS
 62
     5
 10
-3341.461365664204
 20
-793.4611705963098
 30
0.0
 11
-3341.461365664204
 21
-759.4211705963099
 31
0.0
  0
LINE
  5
25D
  8
回07-寸法
  6
CONTINUOUS
 62
     5
 10
-3339.961365664204
 20
-760.4211705963099
 30
0.0
 11
-3322.947250829443
 21
-760.4211705963099
 31
0.0
  0
LINE
  5
25E
  8
回07-寸法
  6
CONTINUOUS
 62
     5
 10
-3351.141365664204
 20
-760.4211705963099
 30
0.0
 11
-3341.461365664204
 21
-760.4211705963099
 31
0.0
  0
LINE
  5
25F
  8
回07-寸法
  6
CONTINUOUS
 62
     5
 10
-3352.641365664204
 20
-760.4211705963099
 30
0.0
 11
-3354.141365664204
 21
-760.4211705963099
 31
0.0
  0
INSERT
  5
260
  8
回07-寸法
  6
CONTINUOUS
 62
     5
 66
     1
  2
_OPEN
 10
-3351.141365664204
 20
-760.4211705963099
 30
0.0
 41
1.5
 42
1.5
 43
1.5
  0
SEQEND
  5
261
  8
0
  6
CONTINUOUS
 62
     7
  0
INSERT
  5
262
  8
回07-寸法
  6
CONTINUOUS
 62
     5
 66
     1
  2
_OPEN
 10
-3341.461365664204
 20
-760.4211705963099
 30
0.0
 41
1.5
 42
1.5
 43
1.5
 50
180.0
  0
SEQEND
  5
263
  8
0
  6
CONTINUOUS
 62
     7
  0
TEXT
  5
264
  8
回07-寸法
  6
CONTINUOUS
 62
     5
 10
-3338.713334168141
 20
-759.6711705963099
 30
0.0
 40
5.0
  1
(9.68)
1001
ACAD
1000
MTEXTBEGIN
1070
    73
1070
     1
1070
    44
1040
1.0
1070
    74
1070
     0
1000
MTEXTEND
  0
POINT
  5
265
  8
DEFPOINTS
  6
CONTINUOUS
 62
     0
 10
-3351.141365664204
 20
-800.5061705963109
 30
0.0
  0
POINT
  5
266
  8
DEFPOINTS
  6
CONTINUOUS
 62
     0
 10
-3341.461365664204
 20
-793.4611705963098
 30
0.0
  0
POINT
  5
267
  8
DEFPOINTS
  6
CONTINUOUS
 62
     0
 10
-3341.461365664204
 20
-760.4211705963099
 30
0.0
  0
ENDBLK
  5
268
  8
0
 62
     5
  0
BLOCK
  8
0
  2
*D18
 70
     1
 10
0.0
 20
0.0
 30
0.0
  3
*D18
  1

  0
LINE
  5
24A
  8
回07-寸法
  6
CONTINUOUS
 62
     5
 10
-3353.141365664205
 20
-802.50617059631
 30
0.0
 11
-3353.141365664205
 21
-771.4211705979766
 31
0.0
  0
LINE
  5
24B
  8
回07-寸法
  6
CONTINUOUS
 62
     5
 10
-3341.461365664204
 20
-793.4611705963098
 30
0.0
 11
-3341.461365664204
 21
-771.4211705979766
 31
0.0
  0
LINE
  5
24C
  8
回07-寸法
  6
CONTINUOUS
 62
     5
 10
-3339.961365664204
 20
-772.4211705979767
 30
0.0
 11
-3321.465302672078
 21
-772.4211705979767
 31
0.0
  0
LINE
  5
24D
  8
回07-寸法
  6
CONTINUOUS
 62
     5
 10
-3353.141365664205
 20
-772.4211705979767
 30
0.0
 11
-3341.461365664204
 21
-772.4211705979767
 31
0.0
  0
LINE
  5
24E
  8
回07-寸法
  6
CONTINUOUS
 62
     5
 10
-3354.641365664205
 20
-772.4211705979767
 30
0.0
 11
-3356.141365664205
 21
-772.4211705979767
 31
0.0
  0
INSERT
  5
24F
  8
回07-寸法
  6
CONTINUOUS
 62
     5
 66
     1
  2
_OPEN
 10
-3353.141365664205
 20
-772.4211705979767
 30
0.0
 41
1.5
 42
1.5
 43
1.5
  0
SEQEND
  5
250
  8
0
  6
CONTINUOUS
 62
     7
  0
INSERT
  5
251
  8
回07-寸法
  6
CONTINUOUS
 62
     5
 66
     1
  2
_OPEN
 10
-3341.461365664204
 20
-772.4211705979767
 30
0.0
 41
1.5
 42
1.5
 43
1.5
 50
180.0
  0
SEQEND
  5
252
  8
0
  6
CONTINUOUS
 62
     7
  0
TEXT
  5
253
  8
回07-寸法
  6
CONTINUOUS
 62
     5
 10
-3338.713334168141
 20
-771.6711705979767
 30
0.0
 40
5.0
  1
(11.68)
1001
ACAD
1000
MTEXTBEGIN
1070
    73
1070
     1
1070
    44
1040
1.0
1070
    74
1070
     0
1000
MTEXTEND
  0
POINT
  5
254
  8
DEFPOINTS
  6
CONTINUOUS
 62
     0
 10
-3353.141365664205
 20
-802.50617059631
 30
0.0
  0
POINT
  5
255
  8
DEFPOINTS
  6
CONTINUOUS
 62
     0
 10
-3341.461365664204
 20
-793.4611705963098
 30
0.0
  0
POINT
  5
256
  8
DEFPOINTS
  6
CONTINUOUS
 62
     0
 10
-3341.461365664204
 20
-772.4211705979767
 30
0.0
  0
ENDBLK
  5
257
  8
0
 62
     5
  0
BLOCK
  8
0
  2
*D19
 70
     1
 10
0.0
 20
0.0
 30
0.0
  3
*D19
  1

  0
LINE
  5
239
  8
回07-寸法
  6
CONTINUOUS
 62
     5
 10
-3829.781365654204
 20
-802.50617059631
 30
0.0
 11
-3829.781365654204
 21
-771.4211692629764
 31
0.0
  0
LINE
  5
23A
  8
回07-寸法
  6
CONTINUOUS
 62
     5
 10
-3841.461365664204
 20
-791.4611705963108
 30
0.0
 11
-3841.461365664204
 21
-771.4211692629764
 31
0.0
  0
LINE
  5
23B
  8
回07-寸法
  6
CONTINUOUS
 62
     5
 10
-3844.461365664204
 20
-772.4211692629765
 30
0.0
 11
-3860.461365664205
 21
-772.4211692629765
 31
0.0
  0
LINE
  5
23C
  8
回07-寸法
  6
CONTINUOUS
 62
     5
 10
-3829.781365654204
 20
-772.4211692629765
 30
0.0
 11
-3841.461365664204
 21
-772.4211692629765
 31
0.0
  0
LINE
  5
23D
  8
回07-寸法
  6
CONTINUOUS
 62
     5
 10
-3826.781365654204
 20
-772.4211692629765
 30
0.0
 11
-3823.781365654204
 21
-772.4211692629765
 31
0.0
  0
INSERT
  5
23E
  8
回07-寸法
  6
CONTINUOUS
 62
     5
 66
     1
  2
_OPEN
 10
-3829.781365654204
 20
-772.4211692629765
 30
0.0
 41
3.0
 42
3.0
 43
3.0
 50
180.0
  0
SEQEND
  5
23F
  8
0
  6
CONTINUOUS
 62
     7
  0
INSERT
  5
240
  8
回07-寸法
  6
CONTINUOUS
 62
     5
 66
     1
  2
_OPEN
 10
-3841.461365664204
 20
-772.4211692629765
 30
0.0
 41
3.0
 42
3.0
 43
3.0
  0
SEQEND
  5
241
  8
0
  6
CONTINUOUS
 62
     7
  0
TEXT
  5
242
  8
回07-寸法
  6
CONTINUOUS
 62
     5
 10
-3860.711365664204
 20
-771.9211692629764
 30
0.0
 40
5.0
  1
11.68
1001
ACAD
1000
MTEXTBEGIN
1070
    73
1070
     1
1070
    44
1040
1.0
1070
    74
1070
     0
1000
MTEXTEND
  0
POINT
  5
243
  8
DEFPOINTS
  6
CONTINUOUS
 62
     0
 10
-3829.781365654204
 20
-802.50617059631
 30
0.0
  0
POINT
  5
244
  8
DEFPOINTS
  6
CONTINUOUS
 62
     0
 10
-3841.461365664204
 20
-791.4611705963108
 30
0.0
  0
POINT
  5
245
  8
DEFPOINTS
  6
CONTINUOUS
 62
     0
 10
-3841.461365664204
 20
-772.4211692629765
 30
0.0
  0
ENDBLK
  5
246
  8
0
 62
     5
  0
BLOCK
  8
0
  2
*D20
 70
     1
 10
0.0
 20
0.0
 30
0.0
  3
*D20
  1

  0
LINE
  5
228
  8
回07-寸法
  6
CONTINUOUS
 62
     5
 10
-3831.781365654205
 20
-800.5061705963099
 30
0.0
 11
-3831.781365654205
 21
-759.4211705963099
 31
0.0
  0
LINE
  5
229
  8
回07-寸法
  6
CONTINUOUS
 62
     5
 10
-3841.461365664204
 20
-791.4611705963108
 30
0.0
 11
-3841.461365664204
 21
-759.4211705963099
 31
0.0
  0
LINE
  5
22A
  8
回07-寸法
  6
CONTINUOUS
 62
     5
 10
-3844.461365664204
 20
-760.4211705963099
 30
0.0
 11
-3859.064919054798
 21
-760.4211705963099
 31
0.0
  0
LINE
  5
22B
  8
回07-寸法
  6
CONTINUOUS
 62
     5
 10
-3831.781365654205
 20
-760.4211705963099
 30
0.0
 11
-3841.461365664204
 21
-760.4211705963099
 31
0.0
  0
LINE
  5
22C
  8
回07-寸法
  6
CONTINUOUS
 62
     5
 10
-3828.781365654204
 20
-760.4211705963099
 30
0.0
 11
-3825.781365654204
 21
-760.4211705963099
 31
0.0
  0
INSERT
  5
22D
  8
回07-寸法
  6
CONTINUOUS
 62
     5
 66
     1
  2
_OPEN
 10
-3831.781365654205
 20
-760.4211705963099
 30
0.0
 41
3.0
 42
3.0
 43
3.0
 50
180.0
  0
SEQEND
  5
22E
  8
0
  6
CONTINUOUS
 62
     7
  0
INSERT
  5
22F
  8
回07-寸法
  6
CONTINUOUS
 62
     5
 66
     1
  2
_OPEN
 10
-3841.461365664204
 20
-760.4211705963099
 30
0.0
 41
3.0
 42
3.0
 43
3.0
  0
SEQEND
  5
230
  8
0
  6
CONTINUOUS
 62
     7
  0
TEXT
  5
231
  8
回07-寸法
  6
CONTINUOUS
 62
     5
 10
-3859.332970897432
 20
-759.9211705963099
 30
0.0
 40
5.0
  1
9.68
1001
ACAD
1000
MTEXTBEGIN
1070
    73
1070
     1
1070
    44
1040
1.0
1070
    74
1070
     0
1000
MTEXTEND
  0
POINT
  5
232
  8
DEFPOINTS
  6
CONTINUOUS
 62
     0
 10
-3831.781365654205
 20
-800.5061705963099
 30
0.0
  0
POINT
  5
233
  8
DEFPOINTS
  6
CONTINUOUS
 62
     0
 10
-3841.461365664204
 20
-791.4611705963108
 30
0.0
  0
POINT
  5
234
  8
DEFPOINTS
  6
CONTINUOUS
 62
     0
 10
-3841.461365664204
 20
-760.4211705963099
 30
0.0
  0
ENDBLK
  5
235
  8
0
 62
     5
  0
BLOCK
  8
0
  2
*D21
 70
     1
 10
0.0
 20
0.0
 30
0.0
  3
*D21
  1

  0
LINE
  5
219
  8
回07-寸法
  6
CONTINUOUS
 62
     5
 10
-3832.281365664204
 20
-1073.11617059631
 30
0.0
 11
-3886.511365654206
 21
-1073.11617059631
 31
0.0
  0
LINE
  5
21A
  8
回07-寸法
  6
CONTINUOUS
 62
     5
 10
-3832.281365664204
 20
-800.00617059631
 30
0.0
 11
-3886.511365654206
 21
-800.00617059631
 31
0.0
  0
LINE
  5
21B
  8
回07-寸法
  6
CONTINUOUS
 62
     5
 10
-3885.511365654206
 20
-1070.11617059631
 30
0.0
 11
-3885.511365654206
 21
-803.0061705963099
 31
0.0
  0
INSERT
  5
21C
  8
回07-寸法
  6
CONTINUOUS
 62
     5
 66
     1
  2
_OPEN
 10
-3885.511365654206
 20
-1073.11617059631
 30
0.0
 41
3.0
 42
3.0
 43
3.0
 50
270.0
  0
SEQEND
  5
21D
  8
0
  6
CONTINUOUS
 62
     7
  0
INSERT
  5
21E
  8
回07-寸法
  6
CONTINUOUS
 62
     5
 66
     1
  2
_OPEN
 10
-3885.511365654206
 20
-800.00617059631
 30
0.0
 41
3.0
 42
3.0
 43
3.0
 50
90.0
  0
SEQEND
  5
21F
  8
0
  6
CONTINUOUS
 62
     7
  0
TEXT
  5
220
  8
回07-寸法
  6
CONTINUOUS
 62
     5
 10
-3886.011365654206
 20
-945.0611705963101
 30
0.0
 40
5.0
  1
273.11
 50
90.0
1001
ACAD
1000
MTEXTBEGIN
1070
    73
1070
     1
1070
    44
1040
1.0
1070
    74
1070
     0
1000
MTEXTEND
  0
POINT
  5
221
  8
DEFPOINTS
  6
CONTINUOUS
 62
     0
 10
-3832.281365664204
 20
-1073.11617059631
 30
0.0
  0
POINT
  5
222
  8
DEFPOINTS
  6
CONTINUOUS
 62
     0
 10
-3832.281365664204
 20
-800.00617059631
 30
0.0
  0
POINT
  5
223
  8
DEFPOINTS
  6
CONTINUOUS
 62
     0
 10
-3885.511365654206
 20
-800.00617059631
 30
0.0
  0
ENDBLK
  5
224
  8
0
 62
     5
  0
BLOCK
  8
0
  2
*D22
 70
     1
 10
0.0
 20
0.0
 30
0.0
  3
*D22
  1

  0
LINE
  5
208
  8
回07-寸法
  6
CONTINUOUS
 62
     5
 10
-3832.281365664204
 20
-1073.11617059631
 30
0.0
 11
-3886.511365654204
 21
-1073.11617059631
 31
0.0
  0
LINE
  5
209
  8
回07-寸法
  6
CONTINUOUS
 62
     5
 10
-3840.461365664204
 20
-1083.661170596309
 30
0.0
 11
-3886.511365654204
 21
-1083.661170596309
 31
0.0
  0
LINE
  5
20A
  8
回07-寸法
  6
CONTINUOUS
 62
     5
 10
-3885.511365654204
 20
-1086.661170596309
 30
0.0
 11
-3885.511365654204
 21
-1140.919816944734
 31
0.0
  0
LINE
  5
20B
  8
回07-寸法
  6
CONTINUOUS
 62
     5
 10
-3885.511365654204
 20
-1073.11617059631
 30
0.0
 11
-3885.511365654204
 21
-1083.661170596309
 31
0.0
  0
LINE
  5
20C
  8
回07-寸法
  6
CONTINUOUS
 62
     5
 10
-3885.511365654204
 20
-1070.11617059631
 30
0.0
 11
-3885.511365654204
 21
-1067.11617059631
 31
0.0
  0
INSERT
  5
20D
  8
回07-寸法
  6
CONTINUOUS
 62
     5
 66
     1
  2
_OPEN
 10
-3885.511365654204
 20
-1073.11617059631
 30
0.0
 41
3.0
 42
3.0
 43
3.0
 50
270.0
  0
SEQEND
  5
20E
  8
0
  6
CONTINUOUS
 62
     7
  0
INSERT
  5
20F
  8
回07-寸法
  6
CONTINUOUS
 62
     5
 66
     1
  2
_OPEN
 10
-3885.511365654204
 20
-1083.661170596309
 30
0.0
 41
3.0
 42
3.0
 43
3.0
 50
90.0
  0
SEQEND
  5
210
  8
0
  6
CONTINUOUS
 62
     7
  0
INSERT
  5
211
  8
回07-寸法
  6
CONTINUOUS
 62
     5
 66
     1
  2
*X92
 10
0.0
 20
0.0
 30
0.0
  0
SEQEND
  5
8A2
  8
0
  6
CONTINUOUS
 62
     7
  0
POINT
  5
212
  8
DEFPOINTS
  6
CONTINUOUS
 62
     0
 10
-3832.281365664204
 20
-1073.11617059631
 30
0.0
  0
POINT
  5
213
  8
DEFPOINTS
  6
CONTINUOUS
 62
     0
 10
-3840.461365664204
 20
-1083.661170596309
 30
0.0
  0
POINT
  5
214
  8
DEFPOINTS
  6
CONTINUOUS
 62
     0
 10
-3885.511365654204
 20
-1083.661170596309
 30
0.0
  0
ENDBLK
  5
215
  8
0
 62
     5
  0
BLOCK
  8
0
  2
*D23
 70
     1
 10
0.0
 20
0.0
 30
0.0
  3
*D23
  1

  0
LINE
  5
1F7
  8
回07-寸法
  6
CONTINUOUS
 62
     5
 10
-3832.281365664204
 20
-800.00617059631
 30
0.0
 11
-3886.511365654209
 21
-800.00617059631
 31
0.0
  0
LINE
  5
1F8
  8
回07-寸法
  6
CONTINUOUS
 62
     5
 10
-3840.461365664205
 20
-790.4611705963108
 30
0.0
 11
-3886.511365654209
 21
-790.4611705963108
 31
0.0
  0
LINE
  5
1F9
  8
回07-寸法
  6
CONTINUOUS
 62
     5
 10
-3885.511365654209
 20
-787.4611705963108
 30
0.0
 11
-3885.511365654209
 21
-764.9470557615496
 31
0.0
  0
LINE
  5
1FA
  8
回07-寸法
  6
CONTINUOUS
 62
     5
 10
-3885.511365654209
 20
-800.00617059631
 30
0.0
 11
-3885.511365654209
 21
-790.4611705963108
 31
0.0
  0
LINE
  5
1FB
  8
回07-寸法
  6
CONTINUOUS
 62
     5
 10
-3885.511365654209
 20
-803.0061705963099
 30
0.0
 11
-3885.511365654209
 21
-806.00617059631
 31
0.0
  0
INSERT
  5
1FC
  8
回07-寸法
  6
CONTINUOUS
 62
     5
 66
     1
  2
_OPEN
 10
-3885.511365654209
 20
-800.00617059631
 30
0.0
 41
3.0
 42
3.0
 43
3.0
 50
90.0
  0
SEQEND
  5
1FD
  8
0
  6
CONTINUOUS
 62
     7
  0
INSERT
  5
1FE
  8
回07-寸法
  6
CONTINUOUS
 62
     5
 66
     1
  2
_OPEN
 10
-3885.511365654209
 20
-790.4611705963108
 30
0.0
 41
3.0
 42
3.0
 43
3.0
 50
270.0
  0
SEQEND
  5
1FF
  8
0
  6
CONTINUOUS
 62
     7
  0
TEXT
  5
200
  8
回07-寸法
  6
CONTINUOUS
 62
     5
 10
-3886.261365654209
 20
-784.7131391002476
 30
0.0
 40
5.0
  1
(9.545)
 50
90.0
1001
ACAD
1000
MTEXTBEGIN
1070
    73
1070
     1
1070
    44
1040
1.0
1070
    74
1070
     0
1000
MTEXTEND
  0
POINT
  5
201
  8
DEFPOINTS
  6
CONTINUOUS
 62
     0
 10
-3832.281365664204
 20
-800.00617059631
 30
0.0
  0
POINT
  5
202
  8
DEFPOINTS
  6
CONTINUOUS
 62
     0
 10
-3840.461365664205
 20
-790.4611705963108
 30
0.0
  0
POINT
  5
203
  8
DEFPOINTS
  6
CONTINUOUS
 62
     0
 10
-3885.511365654209
 20
-790.4611705963108
 30
0.0
  0
ENDBLK
  5
204
  8
0
 62
     5
  0
BLOCK
  8
0
  2
*D24
 70
     1
 10
0.0
 20
0.0
 30
0.0
  3
*D24
  1

  0
LINE
  5
1E6
  8
回07-寸法
  6
CONTINUOUS
 62
     5
 10
-3832.281365664204
 20
-800.00617059631
 30
0.0
 11
-3832.281365664204
 21
-747.4211705963099
 31
0.0
  0
LINE
  5
1E7
  8
回07-寸法
  6
CONTINUOUS
 62
     5
 10
-3841.461365664204
 20
-791.4611705963099
 30
0.0
 11
-3841.461365664204
 21
-747.4211705963099
 31
0.0
  0
LINE
  5
1E8
  8
回07-寸法
  6
CONTINUOUS
 62
     5
 10
-3844.461365664204
 20
-748.4211705963099
 30
0.0
 11
-3891.22001201263
 21
-748.4211705963099
 31
0.0
  0
LINE
  5
1E9
  8
回07-寸法
  6
CONTINUOUS
 62
     5
 10
-3832.281365664204
 20
-748.4211705963099
 30
0.0
 11
-3841.461365664204
 21
-748.4211705963099
 31
0.0
  0
LINE
  5
1EA
  8
回07-寸法
  6
CONTINUOUS
 62
     5
 10
-3829.281365664204
 20
-748.4211705963099
 30
0.0
 11
-3826.281365664204
 21
-748.4211705963099
 31
0.0
  0
INSERT
  5
1EB
  8
回07-寸法
  6
CONTINUOUS
 62
     5
 66
     1
  2
_OPEN
 10
-3832.281365664204
 20
-748.4211705963099
 30
0.0
 41
3.0
 42
3.0
 43
3.0
 50
180.0
  0
SEQEND
  5
1EC
  8
0
  6
CONTINUOUS
 62
     7
  0
INSERT
  5
1ED
  8
回07-寸法
  6
CONTINUOUS
 62
     5
 66
     1
  2
_OPEN
 10
-3841.461365664204
 20
-748.4211705963099
 30
0.0
 41
3.0
 42
3.0
 43
3.0
  0
SEQEND
  5
1EE
  8
0
  6
CONTINUOUS
 62
     7
  0
INSERT
  5
1EF
  8
回07-寸法
  6
CONTINUOUS
 62
     5
 66
     1
  2
*X93
 10
0.0
 20
0.0
 30
0.0
  0
SEQEND
  5
8A8
  8
0
  6
CONTINUOUS
 62
     7
  0
POINT
  5
1F0
  8
DEFPOINTS
  6
CONTINUOUS
 62
     0
 10
-3832.281365664204
 20
-800.00617059631
 30
0.0
  0
POINT
  5
1F1
  8
DEFPOINTS
  6
CONTINUOUS
 62
     0
 10
-3841.461365664204
 20
-791.4611705963099
 30
0.0
  0
POINT
  5
1F2
  8
DEFPOINTS
  6
CONTINUOUS
 62
     0
 10
-3841.461365664204
 20
-748.4211705963099
 30
0.0
  0
ENDBLK
  5
1F3
  8
0
 62
     5
  0
BLOCK
  8
0
  2
*D25
 70
     1
 10
0.0
 20
0.0
 30
0.0
  3
*D25
  1

  0
LINE
  5
1D7
  8
回07-寸法
  6
CONTINUOUS
 62
     5
 10
-3350.641365664205
 20
-800.00617059631
 30
0.0
 11
-3350.641365664205
 21
-747.42117059631
 31
0.0
  0
LINE
  5
1D8
  8
回07-寸法
  6
CONTINUOUS
 62
     5
 10
-3832.281365664204
 20
-800.00617059631
 30
0.0
 11
-3832.281365664204
 21
-747.4211705963099
 31
0.0
  0
LINE
  5
1D9
  8
回07-寸法
  6
CONTINUOUS
 62
     5
 10
-3353.641365664205
 20
-748.42117059631
 30
0.0
 11
-3829.281365664204
 21
-748.4211705963099
 31
0.0
  0
INSERT
  5
1DA
  8
回07-寸法
  6
CONTINUOUS
 62
     5
 66
     1
  2
_OPEN
 10
-3350.641365664205
 20
-748.42117059631
 30
0.0
 41
3.0
 42
3.0
 43
3.0
 50
360.0
  0
SEQEND
  5
1DB
  8
0
  6
CONTINUOUS
 62
     7
  0
INSERT
  5
1DC
  8
回07-寸法
  6
CONTINUOUS
 62
     5
 66
     1
  2
_OPEN
 10
-3832.281365664204
 20
-748.4211705963099
 30
0.0
 41
3.0
 42
3.0
 43
3.0
 50
180.0
  0
SEQEND
  5
1DD
  8
0
  6
CONTINUOUS
 62
     7
  0
TEXT
  5
1DE
  8
回07-寸法
  6
CONTINUOUS
 62
     5
 10
-3600.961365664204
 20
-747.92117059631
 30
0.0
 40
5.0
  1
481.64
1001
ACAD
1000
MTEXTBEGIN
1070
    73
1070
     1
1070
    44
1040
1.0
1070
    74
1070
     0
1000
MTEXTEND
  0
POINT
  5
1DF
  8
DEFPOINTS
  6
CONTINUOUS
 62
     0
 10
-3350.641365664205
 20
-800.00617059631
 30
0.0
  0
POINT
  5
1E0
  8
DEFPOINTS
  6
CONTINUOUS
 62
     0
 10
-3832.281365664204
 20
-800.00617059631
 30
0.0
  0
POINT
  5
1E1
  8
DEFPOINTS
  6
CONTINUOUS
 62
     0
 10
-3832.281365664204
 20
-748.4211705963099
 30
0.0
  0
ENDBLK
  5
1E2
  8
0
 62
     5
  0
BLOCK
  8
0
  2
*D26
 70
     1
 10
0.0
 20
0.0
 30
0.0
  3
*D26
  1

  0
LINE
  5
1C6
  8
回07-寸法
  6
CONTINUOUS
 62
     5
 10
-3350.641365664205
 20
-800.00617059631
 30
0.0
 11
-3350.641365664205
 21
-747.4211705963099
 31
0.0
  0
LINE
  5
1C7
  8
回07-寸法
  6
CONTINUOUS
 62
     5
 10
-3341.461365664204
 20
-793.4611705963098
 30
0.0
 11
-3341.461365664204
 21
-747.4211705963099
 31
0.0
  0
LINE
  5
1C8
  8
回07-寸法
  6
CONTINUOUS
 62
     5
 10
-3339.961365664204
 20
-748.4211705963099
 30
0.0
 11
-3290.686635977081
 21
-748.4211705963099
 31
0.0
  0
LINE
  5
1C9
  8
回07-寸法
  6
CONTINUOUS
 62
     5
 10
-3350.641365664205
 20
-748.4211705963099
 30
0.0
 11
-3341.461365664204
 21
-748.4211705963099
 31
0.0
  0
LINE
  5
1CA
  8
回07-寸法
  6
CONTINUOUS
 62
     5
 10
-3352.141365664205
 20
-748.4211705963099
 30
0.0
 11
-3353.641365664205
 21
-748.4211705963099
 31
0.0
  0
INSERT
  5
1CB
  8
回07-寸法
  6
CONTINUOUS
 62
     5
 66
     1
  2
_OPEN
 10
-3350.641365664205
 20
-748.4211705963099
 30
0.0
 41
1.5
 42
1.5
 43
1.5
  0
SEQEND
  5
1CC
  8
0
  6
CONTINUOUS
 62
     7
  0
INSERT
  5
1CD
  8
回07-寸法
  6
CONTINUOUS
 62
     5
 66
     1
  2
_OPEN
 10
-3341.461365664204
 20
-748.4211705963099
 30
0.0
 41
1.5
 42
1.5
 43
1.5
 50
180.0
  0
SEQEND
  5
1CE
  8
0
  6
CONTINUOUS
 62
     7
  0
INSERT
  5
1CF
  8
回07-寸法
  6
CONTINUOUS
 62
     5
 66
     1
  2
*X94
 10
0.0
 20
0.0
 30
0.0
  0
SEQEND
  5
8AE
  8
0
  6
CONTINUOUS
 62
     7
  0
POINT
  5
1D0
  8
DEFPOINTS
  6
CONTINUOUS
 62
     0
 10
-3350.641365664205
 20
-800.00617059631
 30
0.0
  0
POINT
  5
1D1
  8
DEFPOINTS
  6
CONTINUOUS
 62
     0
 10
-3341.461365664204
 20
-793.4611705963098
 30
0.0
  0
POINT
  5
1D2
  8
DEFPOINTS
  6
CONTINUOUS
 62
     0
 10
-3341.461365664204
 20
-748.4211705963099
 30
0.0
  0
ENDBLK
  5
1D3
  8
0
 62
     5
  0
BLOCK
  8
0
  2
*D27
 70
     1
 10
0.0
 20
0.0
 30
0.0
  3
*D27
  1

  0
LINE
  5
1B2
  8
回07-寸法
  6
CONTINUOUS
 62
     5
 10
-3628.460240348756
 20
-1083.661170596309
 30
0.0
 11
-3658.650637841357
 21
-1083.661170596309
 31
0.0
  0
LINE
  5
1B3
  8
回07-寸法
  6
CONTINUOUS
 62
     5
 10
-3614.211365664204
 20
-1183.257170596309
 30
0.0
 11
-3658.650637841357
 21
-1183.257170596309
 31
0.0
  0
LINE
  5
1B4
  8
回07-寸法
  6
CONTINUOUS
 62
     5
 10
-3657.650637841357
 20
-1086.661170596309
 30
0.0
 11
-3657.650637841357
 21
-1180.257170596309
 31
0.0
  0
INSERT
  5
1B5
  8
回07-寸法
  6
CONTINUOUS
 62
     5
 66
     1
  2
_OPEN
 10
-3657.650637841357
 20
-1083.661170596309
 30
0.0
 41
3.0
 42
3.0
 43
3.0
 50
90.0
  0
SEQEND
  5
1B6
  8
0
  6
CONTINUOUS
 62
     7
  0
INSERT
  5
1B7
  8
回07-寸法
  6
CONTINUOUS
 62
     5
 66
     1
  2
_OPEN
 10
-3657.650637841357
 20
-1183.257170596309
 30
0.0
 41
3.0
 42
3.0
 43
3.0
 50
270.0
  0
SEQEND
  5
1B8
  8
0
  6
CONTINUOUS
 62
     7
  0
INSERT
  5
1B9
  8
回07-寸法
  6
CONTINUOUS
 62
     5
 66
     1
  2
*X95
 10
0.0
 20
0.0
 30
0.0
  0
SEQEND
  5
8B4
  8
0
  6
CONTINUOUS
 62
     7
  0
POINT
  5
1BA
  8
DEFPOINTS
  6
CONTINUOUS
 62
     0
 10
-3628.460240348756
 20
-1083.661170596309
 30
0.0
  0
POINT
  5
1BB
  8
DEFPOINTS
  6
CONTINUOUS
 62
     0
 10
-3614.211365664204
 20
-1183.257170596309
 30
0.0
  0
POINT
  5
1BC
  8
DEFPOINTS
  6
CONTINUOUS
 62
     0
 10
-3657.650637841357
 20
-1183.257170596309
 30
0.0
  0
ENDBLK
  5
1BD
  8
0
 62
     5
  0
BLOCK
  8
0
  2
*D28
 70
     1
 10
0.0
 20
0.0
 30
0.0
  3
*D28
  1

  0
LINE
  5
1A1
  8
回07-寸法
  6
CONTINUOUS
 62
     5
 10
-3572.211365664204
 20
-1182.75717059631
 30
0.0
 11
-3572.211365664204
 21
-1209.251890824447
 31
0.0
  0
LINE
  5
1A2
  8
回07-寸法
  6
CONTINUOUS
 62
     5
 10
-3585.711365664205
 20
-1182.757170596309
 30
0.0
 11
-3585.711365664205
 21
-1209.251890824447
 31
0.0
  0
LINE
  5
1A3
  8
回07-寸法
  6
CONTINUOUS
 62
     5
 10
-3569.211365664204
 20
-1208.251890824447
 30
0.0
 11
-3547.786365664205
 21
-1208.251890824447
 31
0.0
  0
LINE
  5
1A4
  8
回07-寸法
  6
CONTINUOUS
 62
     5
 10
-3572.211365664204
 20
-1208.251890824447
 30
0.0
 11
-3585.711365664205
 21
-1208.251890824447
 31
0.0
  0
LINE
  5
1A5
  8
回07-寸法
  6
CONTINUOUS
 62
     5
 10
-3588.711365664205
 20
-1208.251890824447
 30
0.0
 11
-3591.711365664205
 21
-1208.251890824447
 31
0.0
  0
INSERT
  5
1A6
  8
回07-寸法
  6
CONTINUOUS
 62
     5
 66
     1
  2
_OPEN
 10
-3572.211365664204
 20
-1208.251890824447
 30
0.0
 41
3.0
 42
3.0
 43
3.0
 50
180.0
  0
SEQEND
  5
1A7
  8
0
  6
CONTINUOUS
 62
     7
  0
INSERT
  5
1A8
  8
回07-寸法
  6
CONTINUOUS
 62
     5
 66
     1
  2
_OPEN
 10
-3585.711365664205
 20
-1208.251890824447
 30
0.0
 41
3.0
 42
3.0
 43
3.0
  0
SEQEND
  5
1A9
  8
0
  6
CONTINUOUS
 62
     7
  0
INSERT
  5
1AA
  8
回07-寸法
  6
CONTINUOUS
 62
     5
 66
     1
  2
*X96
 10
0.0
 20
0.0
 30
0.0
  0
SEQEND
  5
8BA
  8
0
  6
CONTINUOUS
 62
     7
  0
POINT
  5
1AB
  8
DEFPOINTS
  6
CONTINUOUS
 62
     0
 10
-3572.211365664204
 20
-1182.75717059631
 30
0.0
  0
POINT
  5
1AC
  8
DEFPOINTS
  6
CONTINUOUS
 62
     0
 10
-3585.711365664205
 20
-1182.757170596309
 30
0.0
  0
POINT
  5
1AD
  8
DEFPOINTS
  6
CONTINUOUS
 62
     0
 10
-3585.711365664205
 20
-1208.251890824447
 30
0.0
  0
ENDBLK
  5
1AE
  8
0
 62
     5
  0
BLOCK
  8
0
  2
*D29
 70
     1
 10
0.0
 20
0.0
 30
0.0
  3
*D29
  1

  0
LINE
  5
190
  8
回07-寸法
  6
CONTINUOUS
 62
     5
 10
-3597.211365664204
 20
-1182.757170596309
 30
0.0
 11
-3597.211365664204
 21
-1199.257170596309
 31
0.0
  0
LINE
  5
191
  8
回07-寸法
  6
CONTINUOUS
 62
     5
 10
-3614.711365664204
 20
-1182.757170596309
 30
0.0
 11
-3614.711365664204
 21
-1199.257170596309
 31
0.0
  0
LINE
  5
192
  8
回07-寸法
  6
CONTINUOUS
 62
     5
 10
-3594.211365664204
 20
-1198.257170596309
 30
0.0
 11
-3552.83925154131
 21
-1198.257170596309
 31
0.0
  0
LINE
  5
193
  8
回07-寸法
  6
CONTINUOUS
 62
     5
 10
-3597.211365664204
 20
-1198.257170596309
 30
0.0
 11
-3614.711365664204
 21
-1198.257170596309
 31
0.0
  0
LINE
  5
194
  8
回07-寸法
  6
CONTINUOUS
 62
     5
 10
-3617.711365664205
 20
-1198.257170596309
 30
0.0
 11
-3620.711365664205
 21
-1198.257170596309
 31
0.0
  0
INSERT
  5
195
  8
回07-寸法
  6
CONTINUOUS
 62
     5
 66
     1
  2
_OPEN
 10
-3597.211365664204
 20
-1198.257170596309
 30
0.0
 41
3.0
 42
3.0
 43
3.0
 50
180.0
  0
SEQEND
  5
196
  8
0
  6
CONTINUOUS
 62
     7
  0
INSERT
  5
197
  8
回07-寸法
  6
CONTINUOUS
 62
     5
 66
     1
  2
_OPEN
 10
-3614.711365664204
 20
-1198.257170596309
 30
0.0
 41
3.0
 42
3.0
 43
3.0
  0
SEQEND
  5
198
  8
0
  6
CONTINUOUS
 62
     7
  0
INSERT
  5
199
  8
回07-寸法
  6
CONTINUOUS
 62
     5
 66
     1
  2
*X97
 10
0.0
 20
0.0
 30
0.0
  0
SEQEND
  5
8C0
  8
0
  6
CONTINUOUS
 62
     7
  0
POINT
  5
19A
  8
DEFPOINTS
  6
CONTINUOUS
 62
     0
 10
-3597.211365664204
 20
-1182.757170596309
 30
0.0
  0
POINT
  5
19B
  8
DEFPOINTS
  6
CONTINUOUS
 62
     0
 10
-3614.711365664204
 20
-1182.757170596309
 30
0.0
  0
POINT
  5
19C
  8
DEFPOINTS
  6
CONTINUOUS
 62
     0
 10
-3614.711365664204
 20
-1198.257170596309
 30
0.0
  0
ENDBLK
  5
19D
  8
0
 62
     5
  0
BLOCK
  8
0
  2
*D30
 70
     1
 10
0.0
 20
0.0
 30
0.0
  3
*D30
  1

  0
LINE
  5
181
  8
回07-寸法
  6
CONTINUOUS
 62
     5
 10
-3614.711365664205
 20
-1183.161170596308
 30
0.0
 11
-3614.711365664205
 21
-1199.257170596309
 31
0.0
  0
LINE
  5
182
  8
回07-寸法
  6
CONTINUOUS
 62
     5
 10
-3841.461365664204
 20
-1082.661170596309
 30
0.0
 11
-3841.461365664204
 21
-1199.257170596309
 31
0.0
  0
LINE
  5
183
  8
回07-寸法
  6
CONTINUOUS
 62
     5
 10
-3617.711365664205
 20
-1198.257170596309
 30
0.0
 11
-3838.461365664204
 21
-1198.257170596309
 31
0.0
  0
INSERT
  5
184
  8
回07-寸法
  6
CONTINUOUS
 62
     5
 66
     1
  2
_OPEN
 10
-3614.711365664205
 20
-1198.257170596309
 30
0.0
 41
3.0
 42
3.0
 43
3.0
  0
SEQEND
  5
185
  8
0
  6
CONTINUOUS
 62
     7
  0
INSERT
  5
186
  8
回07-寸法
  6
CONTINUOUS
 62
     5
 66
     1
  2
_OPEN
 10
-3841.461365664204
 20
-1198.257170596309
 30
0.0
 41
3.0
 42
3.0
 43
3.0
 50
180.0
  0
SEQEND
  5
187
  8
0
  6
CONTINUOUS
 62
     7
  0
TEXT
  5
188
  8
回07-寸法
  6
CONTINUOUS
 62
     5
 10
-3739.586365664204
 20
-1197.507170596309
 30
0.0
 40
5.0
  1
(226.75)
1001
ACAD
1000
MTEXTBEGIN
1070
    73
1070
     1
1070
    44
1040
1.0
1070
    74
1070
     0
1000
MTEXTEND
  0
POINT
  5
189
  8
DEFPOINTS
  6
CONTINUOUS
 62
     0
 10
-3614.711365664205
 20
-1183.161170596308
 30
0.0
  0
POINT
  5
18A
  8
DEFPOINTS
  6
CONTINUOUS
 62
     0
 10
-3841.461365664204
 20
-1082.661170596309
 30
0.0
  0
POINT
  5
18B
  8
DEFPOINTS
  6
CONTINUOUS
 62
     0
 10
-3841.461365664204
 20
-1198.257170596309
 30
0.0
  0
ENDBLK
  5
18C
  8
0
 62
     5
  0
BLOCK
  8
0
  2
*D31
 70
     1
 10
0.0
 20
0.0
 30
0.0
  3
*D31
  1

  0
LINE
  5
170
  8
回07-寸法
  6
CONTINUOUS
 62
     5
 10
-3628.460240348756
 20
-1083.661170596309
 30
0.0
 11
-3636.70415981252
 21
-1083.661170596309
 31
0.0
  0
LINE
  5
171
  8
回07-寸法
  6
CONTINUOUS
 62
     5
 10
-3628.460240348756
 20
-1086.888859930276
 30
0.0
 11
-3636.70415981252
 21
-1086.888859930276
 31
0.0
  0
LINE
  5
172
  8
回07-寸法
  6
CONTINUOUS
 62
     5
 10
-3635.70415981252
 20
-1089.888859930276
 30
0.0
 11
-3635.70415981252
 21
-1109.632645440604
 31
0.0
  0
LINE
  5
173
  8
回07-寸法
  6
CONTINUOUS
 62
     5
 10
-3635.70415981252
 20
-1083.661170596309
 30
0.0
 11
-3635.70415981252
 21
-1086.888859930276
 31
0.0
  0
LINE
  5
174
  8
回07-寸法
  6
CONTINUOUS
 62
     5
 10
-3635.70415981252
 20
-1080.661170596309
 30
0.0
 11
-3635.70415981252
 21
-1077.661170596309
 31
0.0
  0
INSERT
  5
175
  8
回07-寸法
  6
CONTINUOUS
 62
     5
 66
     1
  2
_OPEN
 10
-3635.70415981252
 20
-1083.661170596309
 30
0.0
 41
3.0
 42
3.0
 43
3.0
 50
270.0
  0
SEQEND
  5
176
  8
0
  6
CONTINUOUS
 62
     7
  0
INSERT
  5
177
  8
回07-寸法
  6
CONTINUOUS
 62
     5
 66
     1
  2
_OPEN
 10
-3635.70415981252
 20
-1086.888859930276
 30
0.0
 41
3.0
 42
3.0
 43
3.0
 50
90.0
  0
SEQEND
  5
178
  8
0
  6
CONTINUOUS
 62
     7
  0
TEXT
  5
179
  8
回07-寸法
  6
CONTINUOUS
 62
     5
 10
-3636.20415981252
 20
-1109.882645440604
 30
0.0
 40
5.0
  1
3.2
 50
90.0
1001
ACAD
1000
MTEXTBEGIN
1070
    73
1070
     1
1070
    44
1040
1.0
1070
    74
1070
     0
1000
MTEXTEND
  0
POINT
  5
17A
  8
DEFPOINTS
  6
CONTINUOUS
 62
     0
 10
-3628.460240348756
 20
-1083.661170596309
 30
0.0
  0
POINT
  5
17B
  8
DEFPOINTS
  6
CONTINUOUS
 62
     0
 10
-3628.460240348756
 20
-1086.888859930276
 30
0.0
  0
POINT
  5
17C
  8
DEFPOINTS
  6
CONTINUOUS
 62
     0
 10
-3635.70415981252
 20
-1086.888859930276
 30
0.0
  0
ENDBLK
  5
17D
  8
0
 62
     5
  0
BLOCK
  8
0
  2
*D32
 70
     1
 10
0.0
 20
0.0
 30
0.0
  3
*D32
  1

  0
LINE
  5
15F
  8
回07-寸法
  6
CONTINUOUS
 62
     5
 10
-3628.460240348756
 20
-1083.661170596309
 30
0.0
 11
-3646.167886489719
 21
-1083.661170596309
 31
0.0
  0
LINE
  5
160
  8
回07-寸法
  6
CONTINUOUS
 62
     5
 10
-3614.711365664204
 20
-1100.637734614828
 30
0.0
 11
-3646.167886489719
 21
-1100.637734614828
 31
0.0
  0
LINE
  5
161
  8
回07-寸法
  6
CONTINUOUS
 62
     5
 10
-3645.167886489718
 20
-1103.637734614828
 30
0.0
 11
-3645.167886489718
 21
-1112.137734614828
 31
0.0
  0
LINE
  5
162
  8
回07-寸法
  6
CONTINUOUS
 62
     5
 10
-3645.167886489718
 20
-1083.661170596309
 30
0.0
 11
-3645.167886489718
 21
-1100.637734614828
 31
0.0
  0
LINE
  5
163
  8
回07-寸法
  6
CONTINUOUS
 62
     5
 10
-3645.167886489718
 20
-1080.661170596309
 30
0.0
 11
-3645.167886489718
 21
-1077.661170596309
 31
0.0
  0
INSERT
  5
164
  8
回07-寸法
  6
CONTINUOUS
 62
     5
 66
     1
  2
_OPEN
 10
-3645.167886489718
 20
-1083.661170596309
 30
0.0
 41
3.0
 42
3.0
 43
3.0
 50
270.0
  0
SEQEND
  5
165
  8
0
  6
CONTINUOUS
 62
     7
  0
INSERT
  5
166
  8
回07-寸法
  6
CONTINUOUS
 62
     5
 66
     1
  2
_OPEN
 10
-3645.167886489718
 20
-1100.637734614828
 30
0.0
 41
3.0
 42
3.0
 43
3.0
 50
90.0
  0
SEQEND
  5
167
  8
0
  6
CONTINUOUS
 62
     7
  0
TEXT
  5
168
  8
回07-寸法
  6
CONTINUOUS
 62
     5
 10
-3645.667886489718
 20
-1112.387734614828
 30
0.0
 40
5.0
  1
17
 50
90.0
1001
ACAD
1000
MTEXTBEGIN
1070
    73
1070
     1
1070
    44
1040
1.0
1070
    74
1070
     0
1000
MTEXTEND
  0
POINT
  5
169
  8
DEFPOINTS
  6
CONTINUOUS
 62
     0
 10
-3628.460240348756
 20
-1083.661170596309
 30
0.0
  0
POINT
  5
16A
  8
DEFPOINTS
  6
CONTINUOUS
 62
     0
 10
-3614.711365664204
 20
-1100.637734614828
 30
0.0
  0
POINT
  5
16B
  8
DEFPOINTS
  6
CONTINUOUS
 62
     0
 10
-3645.167886489718
 20
-1100.637734614828
 30
0.0
  0
ENDBLK
  5
16C
  8
0
 62
     5
  0
BLOCK
  8
0
  2
*D33
 70
     1
 10
0.0
 20
0.0
 30
0.0
  3
*D33
  1

  0
LINE
  5
14E
  8
回07-寸法
  6
CONTINUOUS
 62
     5
 10
-3565.460240348756
 20
-1083.661170596309
 30
0.0
 11
-3558.204044351672
 21
-1083.661170596309
 31
0.0
  0
LINE
  5
14F
  8
回07-寸法
  6
CONTINUOUS
 62
     5
 10
-3565.460240348756
 20
-1086.816853885731
 30
0.0
 11
-3558.204044351672
 21
-1086.816853885731
 31
0.0
  0
LINE
  5
150
  8
回07-寸法
  6
CONTINUOUS
 62
     5
 10
-3559.204044351673
 20
-1089.816853885732
 30
0.0
 11
-3559.204044351673
 21
-1102.808119884224
 31
0.0
  0
LINE
  5
151
  8
回07-寸法
  6
CONTINUOUS
 62
     5
 10
-3559.204044351673
 20
-1083.661170596309
 30
0.0
 11
-3559.204044351673
 21
-1086.816853885731
 31
0.0
  0
LINE
  5
152
  8
回07-寸法
  6
CONTINUOUS
 62
     5
 10
-3559.204044351673
 20
-1080.661170596309
 30
0.0
 11
-3559.204044351673
 21
-1077.661170596309
 31
0.0
  0
INSERT
  5
153
  8
回07-寸法
  6
CONTINUOUS
 62
     5
 66
     1
  2
_OPEN
 10
-3559.204044351673
 20
-1083.661170596309
 30
0.0
 41
3.0
 42
3.0
 43
3.0
 50
270.0
  0
SEQEND
  5
154
  8
0
  6
CONTINUOUS
 62
     7
  0
INSERT
  5
155
  8
回07-寸法
  6
CONTINUOUS
 62
     5
 66
     1
  2
_OPEN
 10
-3559.204044351673
 20
-1086.816853885731
 30
0.0
 41
3.0
 42
3.0
 43
3.0
 50
90.0
  0
SEQEND
  5
156
  8
0
  6
CONTINUOUS
 62
     7
  0
TEXT
  5
157
  8
回07-寸法
  6
CONTINUOUS
 62
     5
 10
-3559.704044351673
 20
-1103.058119884224
 30
0.0
 40
5.0
  1
3.2
 50
90.0
1001
ACAD
1000
MTEXTBEGIN
1070
    73
1070
     1
1070
    44
1040
1.0
1070
    74
1070
     0
1000
MTEXTEND
  0
POINT
  5
158
  8
DEFPOINTS
  6
CONTINUOUS
 62
     0
 10
-3565.460240348756
 20
-1083.661170596309
 30
0.0
  0
POINT
  5
159
  8
DEFPOINTS
  6
CONTINUOUS
 62
     0
 10
-3565.460240348756
 20
-1086.816853885731
 30
0.0
  0
POINT
  5
15A
  8
DEFPOINTS
  6
CONTINUOUS
 62
     0
 10
-3559.204044351673
 20
-1086.816853885731
 30
0.0
  0
ENDBLK
  5
15B
  8
0
 62
     5
  0
BLOCK
  8
0
  2
*D34
 70
     1
 10
0.0
 20
0.0
 30
0.0
  3
*D34
  1

  0
LINE
  5
13D
  8
回07-寸法
  6
CONTINUOUS
 62
     5
 10
-3565.460240348756
 20
-1083.661170596309
 30
0.0
 11
-3550.867939161076
 21
-1083.661170596309
 31
0.0
  0
LINE
  5
13E
  8
回07-寸法
  6
CONTINUOUS
 62
     5
 10
-3572.211365664204
 20
-1093.567979201179
 30
0.0
 11
-3550.867939161076
 21
-1093.567979201179
 31
0.0
  0
LINE
  5
13F
  8
回07-寸法
  6
CONTINUOUS
 62
     5
 10
-3551.867939161076
 20
-1096.567979201179
 30
0.0
 11
-3551.867939161076
 21
-1108.189294339326
 31
0.0
  0
LINE
  5
140
  8
回07-寸法
  6
CONTINUOUS
 62
     5
 10
-3551.867939161076
 20
-1083.661170596309
 30
0.0
 11
-3551.867939161076
 21
-1093.567979201179
 31
0.0
  0
LINE
  5
141
  8
回07-寸法
  6
CONTINUOUS
 62
     5
 10
-3551.867939161076
 20
-1080.661170596309
 30
0.0
 11
-3551.867939161076
 21
-1077.661170596309
 31
0.0
  0
INSERT
  5
142
  8
回07-寸法
  6
CONTINUOUS
 62
     5
 66
     1
  2
_OPEN
 10
-3551.867939161076
 20
-1083.661170596309
 30
0.0
 41
3.0
 42
3.0
 43
3.0
 50
270.0
  0
SEQEND
  5
143
  8
0
  6
CONTINUOUS
 62
     7
  0
INSERT
  5
144
  8
回07-寸法
  6
CONTINUOUS
 62
     5
 66
     1
  2
_OPEN
 10
-3551.867939161076
 20
-1093.567979201179
 30
0.0
 41
3.0
 42
3.0
 43
3.0
 50
90.0
  0
SEQEND
  5
145
  8
0
  6
CONTINUOUS
 62
     7
  0
TEXT
  5
146
  8
回07-寸法
  6
CONTINUOUS
 62
     5
 10
-3552.367939161076
 20
-1108.457346181961
 30
0.0
 40
5.0
  1
9.9
 50
90.0
1001
ACAD
1000
MTEXTBEGIN
1070
    73
1070
     1
1070
    44
1040
1.0
1070
    74
1070
     0
1000
MTEXTEND
  0
POINT
  5
147
  8
DEFPOINTS
  6
CONTINUOUS
 62
     0
 10
-3565.460240348756
 20
-1083.661170596309
 30
0.0
  0
POINT
  5
148
  8
DEFPOINTS
  6
CONTINUOUS
 62
     0
 10
-3572.211365664204
 20
-1093.567979201179
 30
0.0
  0
POINT
  5
149
  8
DEFPOINTS
  6
CONTINUOUS
 62
     0
 10
-3551.867939161076
 20
-1093.567979201179
 30
0.0
  0
ENDBLK
  5
14A
  8
0
 62
     5
  0
BLOCK
  8
0
  2
*D35
 70
     1
 10
0.0
 20
0.0
 30
0.0
  3
*D35
  1

  0
LINE
  5
12C
  8
回07-寸法
  6
CONTINUOUS
 62
     5
 10
-3593.460240348756
 20
-1086.474646367903
 30
0.0
 11
-3593.460240348756
 21
-1123.854557078824
 31
0.0
  0
LINE
  5
12D
  8
回07-寸法
  6
CONTINUOUS
 62
     5
 10
-3628.460240348756
 20
-1086.474646367903
 30
0.0
 11
-3628.460240348756
 21
-1123.854557078824
 31
0.0
  0
LINE
  5
12E
  8
回07-寸法
  6
CONTINUOUS
 62
     5
 10
-3631.460240348757
 20
-1122.854557078825
 30
0.0
 11
-3642.868961237539
 21
-1122.854557078825
 31
0.0
  0
LINE
  5
12F
  8
回07-寸法
  6
CONTINUOUS
 62
     5
 10
-3593.460240348756
 20
-1122.854557078825
 30
0.0
 11
-3628.460240348756
 21
-1122.854557078825
 31
0.0
  0
LINE
  5
130
  8
回07-寸法
  6
CONTINUOUS
 62
     5
 10
-3590.460240348756
 20
-1122.854557078825
 30
0.0
 11
-3587.460240348756
 21
-1122.854557078825
 31
0.0
  0
INSERT
  5
131
  8
回07-寸法
  6
CONTINUOUS
 62
     5
 66
     1
  2
_OPEN
 10
-3593.460240348756
 20
-1122.854557078825
 30
0.0
 41
3.0
 42
3.0
 43
3.0
 50
180.0
  0
SEQEND
  5
132
  8
0
  6
CONTINUOUS
 62
     7
  0
INSERT
  5
133
  8
回07-寸法
  6
CONTINUOUS
 62
     5
 66
     1
  2
_OPEN
 10
-3628.460240348756
 20
-1122.854557078825
 30
0.0
 41
3.0
 42
3.0
 43
3.0
  0
SEQEND
  5
134
  8
0
  6
CONTINUOUS
 62
     7
  0
TEXT
  5
135
  8
回07-寸法
  6
CONTINUOUS
 62
     5
 10
-3643.118961237539
 20
-1122.354557078824
 30
0.0
 40
5.0
  1
35
1001
ACAD
1000
MTEXTBEGIN
1070
    73
1070
     1
1070
    44
1040
1.0
1070
    74
1070
     0
1000
MTEXTEND
  0
POINT
  5
136
  8
DEFPOINTS
  6
CONTINUOUS
 62
     0
 10
-3593.460240348756
 20
-1086.474646367903
 30
0.0
  0
POINT
  5
137
  8
DEFPOINTS
  6
CONTINUOUS
 62
     0
 10
-3628.460240348756
 20
-1086.474646367903
 30
0.0
  0
POINT
  5
138
  8
DEFPOINTS
  6
CONTINUOUS
 62
     0
 10
-3628.460240348756
 20
-1122.854557078825
 30
0.0
  0
ENDBLK
  5
139
  8
0
 62
     5
  0
BLOCK
  8
0
  2
*D36
 70
     1
 10
0.0
 20
0.0
 30
0.0
  3
*D36
  1

  0
LINE
  5
11B
  8
回07-寸法
  6
CONTINUOUS
 62
     5
 10
-3592.460240348756
 20
-1086.402640323358
 30
0.0
 11
-3592.460240348756
 21
-1117.561586918295
 31
0.0
  0
LINE
  5
11C
  8
回07-寸法
  6
CONTINUOUS
 62
     5
 10
-3565.460240348756
 20
-1086.402640323358
 30
0.0
 11
-3565.460240348756
 21
-1117.561586918295
 31
0.0
  0
LINE
  5
11D
  8
回07-寸法
  6
CONTINUOUS
 62
     5
 10
-3562.460240348757
 20
-1116.561586918296
 30
0.0
 11
-3552.896756096788
 21
-1116.561586918296
 31
0.0
  0
LINE
  5
11E
  8
回07-寸法
  6
CONTINUOUS
 62
     5
 10
-3592.460240348756
 20
-1116.561586918296
 30
0.0
 11
-3565.460240348756
 21
-1116.561586918296
 31
0.0
  0
LINE
  5
11F
  8
回07-寸法
  6
CONTINUOUS
 62
     5
 10
-3595.460240348756
 20
-1116.561586918296
 30
0.0
 11
-3598.460240348757
 21
-1116.561586918296
 31
0.0
  0
INSERT
  5
120
  8
回07-寸法
  6
CONTINUOUS
 62
     5
 66
     1
  2
_OPEN
 10
-3592.460240348756
 20
-1116.561586918296
 30
0.0
 41
3.0
 42
3.0
 43
3.0
  0
SEQEND
  5
121
  8
0
  6
CONTINUOUS
 62
     7
  0
INSERT
  5
122
  8
回07-寸法
  6
CONTINUOUS
 62
     5
 66
     1
  2
_OPEN
 10
-3565.460240348756
 20
-1116.561586918296
 30
0.0
 41
3.0
 42
3.0
 43
3.0
 50
180.0
  0
SEQEND
  5
123
  8
0
  6
CONTINUOUS
 62
     7
  0
TEXT
  5
124
  8
回07-寸法
  6
CONTINUOUS
 62
     5
 10
-3559.646756096788
 20
-1116.061586918295
 30
0.0
 40
5.0
  1
27
1001
ACAD
1000
MTEXTBEGIN
1070
    73
1070
     1
1070
    44
1040
1.0
1070
    74
1070
     0
1000
MTEXTEND
  0
POINT
  5
125
  8
DEFPOINTS
  6
CONTINUOUS
 62
     0
 10
-3592.460240348756
 20
-1086.402640323358
 30
0.0
  0
POINT
  5
126
  8
DEFPOINTS
  6
CONTINUOUS
 62
     0
 10
-3565.460240348756
 20
-1086.402640323358
 30
0.0
  0
POINT
  5
127
  8
DEFPOINTS
  6
CONTINUOUS
 62
     0
 10
-3565.460240348756
 20
-1116.561586918296
 30
0.0
  0
ENDBLK
  5
128
  8
0
 62
     5
  0
BLOCK
  8
0
  2
*D37
 70
     1
 10
0.0
 20
0.0
 30
0.0
  3
*D37
  1

  0
LINE
  5
10C
  8
回07-寸法
  6
CONTINUOUS
 62
     5
 10
-3572.711365664204
 20
-1183.25717059631
 30
0.0
 11
-3527.898338978221
 21
-1183.25717059631
 31
0.0
  0
LINE
  5
10D
  8
回07-寸法
  6
CONTINUOUS
 62
     5
 10
-3565.460240348756
 20
-1083.661170596309
 30
0.0
 11
-3527.898338978221
 21
-1083.661170596309
 31
0.0
  0
LINE
  5
10E
  8
回07-寸法
  6
CONTINUOUS
 62
     5
 10
-3528.898338978221
 20
-1180.25717059631
 30
0.0
 11
-3528.898338978221
 21
-1086.661170596309
 31
0.0
  0
INSERT
  5
10F
  8
回07-寸法
  6
CONTINUOUS
 62
     5
 66
     1
  2
_OPEN
 10
-3528.898338978221
 20
-1183.25717059631
 30
0.0
 41
3.0
 42
3.0
 43
3.0
 50
270.0
  0
SEQEND
  5
110
  8
0
  6
CONTINUOUS
 62
     7
  0
INSERT
  5
111
  8
回07-寸法
  6
CONTINUOUS
 62
     5
 66
     1
  2
_OPEN
 10
-3528.898338978221
 20
-1083.661170596309
 30
0.0
 41
3.0
 42
3.0
 43
3.0
 50
90.0
  0
SEQEND
  5
112
  8
0
  6
CONTINUOUS
 62
     7
  0
INSERT
  5
113
  8
回07-寸法
  6
CONTINUOUS
 62
     5
 66
     1
  2
*X98
 10
0.0
 20
0.0
 30
0.0
  0
SEQEND
  5
8C6
  8
0
  6
CONTINUOUS
 62
     7
  0
POINT
  5
114
  8
DEFPOINTS
  6
CONTINUOUS
 62
     0
 10
-3572.711365664204
 20
-1183.25717059631
 30
0.0
  0
POINT
  5
115
  8
DEFPOINTS
  6
CONTINUOUS
 62
     0
 10
-3565.460240348756
 20
-1083.661170596309
 30
0.0
  0
POINT
  5
116
  8
DEFPOINTS
  6
CONTINUOUS
 62
     0
 10
-3528.898338978221
 20
-1083.661170596309
 30
0.0
  0
ENDBLK
  5
117
  8
0
 62
     5
  0
BLOCK
  8
0
  2
*D38
 70
     1
 10
0.0
 20
0.0
 30
0.0
  3
*D38
  1

  0
LINE
  5
FC
  8
回07-寸法
  6
CONTINUOUS
 62
     5
 10
-3841.461365664204
 20
-1082.661170596309
 30
0.0
 11
-3841.461365664204
 21
-1209.251890824447
 31
0.0
  0
LINE
  5
FD
  8
回07-寸法
  6
CONTINUOUS
 62
     5
 10
-3585.711365664205
 20
-1182.757170596309
 30
0.0
 11
-3585.711365664205
 21
-1209.251890824447
 31
0.0
  0
LINE
  5
FE
  8
回07-寸法
  6
CONTINUOUS
 62
     5
 10
-3838.461365664204
 20
-1208.251890824447
 30
0.0
 11
-3588.711365664205
 21
-1208.251890824447
 31
0.0
  0
INSERT
  5
FF
  8
回07-寸法
  6
CONTINUOUS
 62
     5
 66
     1
  2
_OPEN
 10
-3841.461365664204
 20
-1208.251890824447
 30
0.0
 41
3.0
 42
3.0
 43
3.0
 50
180.0
  0
SEQEND
  5
100
  8
0
  6
CONTINUOUS
 62
     7
  0
INSERT
  5
101
  8
回07-寸法
  6
CONTINUOUS
 62
     5
 66
     1
  2
_OPEN
 10
-3585.711365664205
 20
-1208.251890824447
 30
0.0
 41
3.0
 42
3.0
 43
3.0
  0
SEQEND
  5
102
  8
0
  6
CONTINUOUS
 62
     7
  0
TEXT
  5
103
  8
回07-寸法
  6
CONTINUOUS
 62
     5
 10
-3725.086365664204
 20
-1207.501890824447
 30
0.0
 40
5.0
  1
(255.75)
1001
ACAD
1000
MTEXTBEGIN
1070
    73
1070
     1
1070
    44
1040
1.0
1070
    74
1070
     0
1000
MTEXTEND
  0
POINT
  5
104
  8
DEFPOINTS
  6
CONTINUOUS
 62
     0
 10
-3841.461365664204
 20
-1082.661170596309
 30
0.0
  0
POINT
  5
106
  8
DEFPOINTS
  6
CONTINUOUS
 62
     0
 10
-3585.711365664205
 20
-1182.757170596309
 30
0.0
  0
POINT
  5
107
  8
DEFPOINTS
  6
CONTINUOUS
 62
     0
 10
-3585.711365664205
 20
-1208.251890824447
 30
0.0
  0
ENDBLK
  5
108
  8
0
 62
     5
  0
BLOCK
  8
0
  2
*D39
 70
     1
 10
0.0
 20
0.0
 30
0.0
  3
*D39
  1

  0
LINE
  5
510
  8
回07-寸法
  6
CONTINUOUS
 62
     5
 10
-3851.188226590466
 20
-1151.812479965202
 30
0.0
 11
-3851.188226590466
 21
-1278.40320019334
 31
0.0
  0
LINE
  5
512
  8
回07-寸法
  6
CONTINUOUS
 62
     5
 10
-3595.438226590465
 20
-1251.908479965202
 30
0.0
 11
-3595.438226590465
 21
-1278.40320019334
 31
0.0
  0
LINE
  5
513
  8
回07-寸法
  6
CONTINUOUS
 62
     5
 10
-3848.188226590465
 20
-1277.40320019334
 30
0.0
 11
-3598.438226590465
 21
-1277.40320019334
 31
0.0
  0
INSERT
  5
514
  8
回07-寸法
  6
CONTINUOUS
 62
     5
  2
_OPEN
 10
-3851.188226590466
 20
-1277.40320019334
 30
0.0
 41
3.0
 42
3.0
 43
3.0
 50
180.0
  0
INSERT
  5
515
  8
回07-寸法
  6
CONTINUOUS
 62
     5
  2
_OPEN
 10
-3595.438226590465
 20
-1277.40320019334
 30
0.0
 41
3.0
 42
3.0
 43
3.0
  0
TEXT
  5
516
  8
回07-寸法
  6
CONTINUOUS
 62
     5
 10
-3734.813226590465
 20
-1276.65320019334
 30
0.0
 40
5.0
  1
(255.75)
  0
POINT
  5
517
  8
DEFPOINTS
  6
CONTINUOUS
 62
     0
 10
-3851.188226590466
 20
-1151.812479965202
 30
0.0
  0
POINT
  5
518
  8
DEFPOINTS
  6
CONTINUOUS
 62
     0
 10
-3595.438226590465
 20
-1251.908479965202
 30
0.0
  0
POINT
  5
519
  8
DEFPOINTS
  6
CONTINUOUS
 62
     0
 10
-3595.438226590465
 20
-1277.40320019334
 30
0.0
  0
ENDBLK
  5
51B
  8
0
  6
CONTINUOUS
 62
     7
  0
BLOCK
  8
0
  2
*D40
 70
     1
 10
0.0
 20
0.0
 30
0.0
  3
*D40
  1

  0
LINE
  5
51D
  8
回07-寸法
  6
CONTINUOUS
 62
     5
 10
-3582.438226590465
 20
-1252.408479965203
 30
0.0
 11
-3537.625199904482
 21
-1252.408479965203
 31
0.0
  0
LINE
  5
51E
  8
回07-寸法
  6
CONTINUOUS
 62
     5
 10
-3575.187101275017
 20
-1152.812479965202
 30
0.0
 11
-3537.625199904482
 21
-1152.812479965202
 31
0.0
  0
LINE
  5
51F
  8
回07-寸法
  6
CONTINUOUS
 62
     5
 10
-3538.625199904482
 20
-1249.408479965203
 30
0.0
 11
-3538.625199904482
 21
-1155.812479965202
 31
0.0
  0
INSERT
  5
520
  8
回07-寸法
  6
CONTINUOUS
 62
     5
  2
_OPEN
 10
-3538.625199904482
 20
-1252.408479965203
 30
0.0
 41
3.0
 42
3.0
 43
3.0
 50
270.0
  0
INSERT
  5
521
  8
回07-寸法
  6
CONTINUOUS
 62
     5
  2
_OPEN
 10
-3538.625199904482
 20
-1152.812479965202
 30
0.0
 41
3.0
 42
3.0
 43
3.0
 50
90.0
  0
INSERT
  5
522
  8
回07-寸法
  6
CONTINUOUS
 62
     5
 66
     1
  2
*X99
 10
0.0
 20
0.0
 30
0.0
  0
SEQEND
  5
8CC
  8
0
  6
CONTINUOUS
 62
     7
  0
POINT
  5
523
  8
DEFPOINTS
  6
CONTINUOUS
 62
     0
 10
-3582.438226590465
 20
-1252.408479965203
 30
0.0
  0
POINT
  5
524
  8
DEFPOINTS
  6
CONTINUOUS
 62
     0
 10
-3575.187101275017
 20
-1152.812479965202
 30
0.0
  0
POINT
  5
525
  8
DEFPOINTS
  6
CONTINUOUS
 62
     0
 10
-3538.625199904482
 20
-1152.812479965202
 30
0.0
  0
ENDBLK
  5
527
  8
0
  6
CONTINUOUS
 62
     7
  0
BLOCK
  8
0
  2
*D41
 70
     1
 10
0.0
 20
0.0
 30
0.0
  3
*D41
  1

  0
LINE
  5
529
  8
回07-寸法
  6
CONTINUOUS
 62
     5
 10
-3602.187101275017
 20
-1155.553949692251
 30
0.0
 11
-3602.187101275017
 21
-1186.712896287188
 31
0.0
  0
LINE
  5
52B
  8
回07-寸法
  6
CONTINUOUS
 62
     5
 10
-3575.187101275017
 20
-1155.553949692251
 30
0.0
 11
-3575.187101275017
 21
-1186.712896287188
 31
0.0
  0
LINE
  5
52C
  8
回07-寸法
  6
CONTINUOUS
 62
     5
 10
-3572.187101275017
 20
-1185.712896287189
 30
0.0
 11
-3562.623617023048
 21
-1185.712896287189
 31
0.0
  0
LINE
  5
52D
  8
回07-寸法
  6
CONTINUOUS
 62
     5
 10
-3602.187101275017
 20
-1185.712896287189
 30
0.0
 11
-3575.187101275017
 21
-1185.712896287189
 31
0.0
  0
LINE
  5
52E
  8
回07-寸法
  6
CONTINUOUS
 62
     5
 10
-3605.187101275017
 20
-1185.712896287189
 30
0.0
 11
-3608.187101275017
 21
-1185.712896287189
 31
0.0
  0
INSERT
  5
52F
  8
回07-寸法
  6
CONTINUOUS
 62
     5
  2
_OPEN
 10
-3602.187101275017
 20
-1185.712896287189
 30
0.0
 41
3.0
 42
3.0
 43
3.0
  0
INSERT
  5
530
  8
回07-寸法
  6
CONTINUOUS
 62
     5
  2
_OPEN
 10
-3575.187101275017
 20
-1185.712896287189
 30
0.0
 41
3.0
 42
3.0
 43
3.0
 50
180.0
  0
TEXT
  5
531
  8
回07-寸法
  6
CONTINUOUS
 62
     5
 10
-3569.373617023049
 20
-1185.212896287188
 30
0.0
 40
5.0
  1
27
  0
POINT
  5
532
  8
DEFPOINTS
  6
CONTINUOUS
 62
     0
 10
-3602.187101275017
 20
-1155.553949692251
 30
0.0
  0
POINT
  5
533
  8
DEFPOINTS
  6
CONTINUOUS
 62
     0
 10
-3575.187101275017
 20
-1155.553949692251
 30
0.0
  0
POINT
  5
534
  8
DEFPOINTS
  6
CONTINUOUS
 62
     0
 10
-3575.187101275017
 20
-1185.712896287189
 30
0.0
  0
ENDBLK
  5
536
  8
0
  6
CONTINUOUS
 62
     7
  0
BLOCK
  8
0
  2
*D42
 70
     1
 10
0.0
 20
0.0
 30
0.0
  3
*D42
  1

  0
LINE
  5
538
  8
回07-寸法
  6
CONTINUOUS
 62
     5
 10
-3603.187101275017
 20
-1155.625955736796
 30
0.0
 11
-3603.187101275017
 21
-1193.005866447717
 31
0.0
  0
LINE
  5
539
  8
回07-寸法
  6
CONTINUOUS
 62
     5
 10
-3638.187101275017
 20
-1155.625955736796
 30
0.0
 11
-3638.187101275017
 21
-1193.005866447717
 31
0.0
  0
LINE
  5
53A
  8
回07-寸法
  6
CONTINUOUS
 62
     5
 10
-3641.187101275017
 20
-1192.005866447717
 30
0.0
 11
-3652.5958221638
 21
-1192.005866447717
 31
0.0
  0
LINE
  5
53B
  8
回07-寸法
  6
CONTINUOUS
 62
     5
 10
-3603.187101275017
 20
-1192.005866447717
 30
0.0
 11
-3638.187101275017
 21
-1192.005866447717
 31
0.0
  0
LINE
  5
53C
  8
回07-寸法
  6
CONTINUOUS
 62
     5
 10
-3600.187101275017
 20
-1192.005866447717
 30
0.0
 11
-3597.187101275017
 21
-1192.005866447717
 31
0.0
  0
INSERT
  5
53D
  8
回07-寸法
  6
CONTINUOUS
 62
     5
  2
_OPEN
 10
-3603.187101275017
 20
-1192.005866447717
 30
0.0
 41
3.0
 42
3.0
 43
3.0
 50
180.0
  0
INSERT
  5
53E
  8
回07-寸法
  6
CONTINUOUS
 62
     5
  2
_OPEN
 10
-3638.187101275017
 20
-1192.005866447717
 30
0.0
 41
3.0
 42
3.0
 43
3.0
  0
TEXT
  5
53F
  8
回07-寸法
  6
CONTINUOUS
 62
     5
 10
-3652.845822163801
 20
-1191.505866447717
 30
0.0
 40
5.0
  1
35
  0
POINT
  5
540
  8
DEFPOINTS
  6
CONTINUOUS
 62
     0
 10
-3603.187101275017
 20
-1155.625955736796
 30
0.0
  0
POINT
  5
541
  8
DEFPOINTS
  6
CONTINUOUS
 62
     0
 10
-3638.187101275017
 20
-1155.625955736796
 30
0.0
  0
POINT
  5
542
  8
DEFPOINTS
  6
CONTINUOUS
 62
     0
 10
-3638.187101275017
 20
-1192.005866447717
 30
0.0
  0
ENDBLK
  5
544
  8
0
  6
CONTINUOUS
 62
     7
  0
BLOCK
  8
0
  2
*D43
 70
     1
 10
0.0
 20
0.0
 30
0.0
  3
*D43
  1

  0
LINE
  5
546
  8
回07-寸法
  6
CONTINUOUS
 62
     5
 10
-3575.187101275017
 20
-1152.812479965202
 30
0.0
 11
-3560.594800087337
 21
-1152.812479965202
 31
0.0
  0
LINE
  5
547
  8
回07-寸法
  6
CONTINUOUS
 62
     5
 10
-3581.938226590465
 20
-1162.719288570072
 30
0.0
 11
-3560.594800087337
 21
-1162.719288570072
 31
0.0
  0
LINE
  5
548
  8
回07-寸法
  6
CONTINUOUS
 62
     5
 10
-3561.594800087337
 20
-1165.719288570072
 30
0.0
 11
-3561.594800087337
 21
-1177.340603708219
 31
0.0
  0
LINE
  5
549
  8
回07-寸法
  6
CONTINUOUS
 62
     5
 10
-3561.594800087337
 20
-1152.812479965202
 30
0.0
 11
-3561.594800087337
 21
-1162.719288570072
 31
0.0
  0
LINE
  5
54A
  8
回07-寸法
  6
CONTINUOUS
 62
     5
 10
-3561.594800087337
 20
-1149.812479965202
 30
0.0
 11
-3561.594800087337
 21
-1146.812479965202
 31
0.0
  0
INSERT
  5
54B
  8
回07-寸法
  6
CONTINUOUS
 62
     5
  2
_OPEN
 10
-3561.594800087337
 20
-1152.812479965202
 30
0.0
 41
3.0
 42
3.0
 43
3.0
 50
270.0
  0
INSERT
  5
54C
  8
回07-寸法
  6
CONTINUOUS
 62
     5
  2
_OPEN
 10
-3561.594800087337
 20
-1162.719288570072
 30
0.0
 41
3.0
 42
3.0
 43
3.0
 50
90.0
  0
TEXT
  5
54D
  8
回07-寸法
  6
CONTINUOUS
 62
     5
 10
-3562.094800087338
 20
-1177.608655550854
 30
0.0
 40
5.0
  1
9.9
 50
90.0
  0
POINT
  5
54E
  8
DEFPOINTS
  6
CONTINUOUS
 62
     0
 10
-3575.187101275017
 20
-1152.812479965202
 30
0.0
  0
POINT
  5
54F
  8
DEFPOINTS
  6
CONTINUOUS
 62
     0
 10
-3581.938226590465
 20
-1162.719288570072
 30
0.0
  0
POINT
  5
550
  8
DEFPOINTS
  6
CONTINUOUS
 62
     0
 10
-3561.594800087337
 20
-1162.719288570072
 30
0.0
  0
ENDBLK
  5
552
  8
0
  6
CONTINUOUS
 62
     7
  0
BLOCK
  8
0
  2
*D44
 70
     1
 10
0.0
 20
0.0
 30
0.0
  3
*D44
  1

  0
LINE
  5
554
  8
回07-寸法
  6
CONTINUOUS
 62
     5
 10
-3575.187101275017
 20
-1152.812479965202
 30
0.0
 11
-3567.930905277934
 21
-1152.812479965202
 31
0.0
  0
LINE
  5
555
  8
回07-寸法
  6
CONTINUOUS
 62
     5
 10
-3575.187101275017
 20
-1155.968163254624
 30
0.0
 11
-3567.930905277934
 21
-1155.968163254624
 31
0.0
  0
LINE
  5
556
  8
回07-寸法
  6
CONTINUOUS
 62
     5
 10
-3568.930905277934
 20
-1158.968163254624
 30
0.0
 11
-3568.930905277934
 21
-1171.959429253117
 31
0.0
  0
LINE
  5
557
  8
回07-寸法
  6
CONTINUOUS
 62
     5
 10
-3568.930905277934
 20
-1152.812479965202
 30
0.0
 11
-3568.930905277934
 21
-1155.968163254624
 31
0.0
  0
LINE
  5
558
  8
回07-寸法
  6
CONTINUOUS
 62
     5
 10
-3568.930905277934
 20
-1149.812479965202
 30
0.0
 11
-3568.930905277934
 21
-1146.812479965202
 31
0.0
  0
INSERT
  5
559
  8
回07-寸法
  6
CONTINUOUS
 62
     5
  2
_OPEN
 10
-3568.930905277934
 20
-1152.812479965202
 30
0.0
 41
3.0
 42
3.0
 43
3.0
 50
270.0
  0
INSERT
  5
55A
  8
回07-寸法
  6
CONTINUOUS
 62
     5
  2
_OPEN
 10
-3568.930905277934
 20
-1155.968163254624
 30
0.0
 41
3.0
 42
3.0
 43
3.0
 50
90.0
  0
TEXT
  5
55B
  8
回07-寸法
  6
CONTINUOUS
 62
     5
 10
-3569.430905277934
 20
-1172.209429253117
 30
0.0
 40
5.0
  1
3.2
 50
90.0
  0
POINT
  5
55C
  8
DEFPOINTS
  6
CONTINUOUS
 62
     0
 10
-3575.187101275017
 20
-1152.812479965202
 30
0.0
  0
POINT
  5
55D
  8
DEFPOINTS
  6
CONTINUOUS
 62
     0
 10
-3575.187101275017
 20
-1155.968163254624
 30
0.0
  0
POINT
  5
55E
  8
DEFPOINTS
  6
CONTINUOUS
 62
     0
 10
-3568.930905277934
 20
-1155.968163254624
 30
0.0
  0
ENDBLK
  5
560
  8
0
  6
CONTINUOUS
 62
     7
  0
BLOCK
  8
0
  2
*D45
 70
     1
 10
0.0
 20
0.0
 30
0.0
  3
*D45
  1

  0
LINE
  5
562
  8
回07-寸法
  6
CONTINUOUS
 62
     5
 10
-3638.187101275017
 20
-1152.812479965202
 30
0.0
 11
-3655.89474741598
 21
-1152.812479965202
 31
0.0
  0
LINE
  5
563
  8
回07-寸法
  6
CONTINUOUS
 62
     5
 10
-3624.438226590465
 20
-1169.789043983721
 30
0.0
 11
-3655.89474741598
 21
-1169.789043983721
 31
0.0
  0
LINE
  5
564
  8
回07-寸法
  6
CONTINUOUS
 62
     5
 10
-3654.89474741598
 20
-1172.789043983721
 30
0.0
 11
-3654.89474741598
 21
-1181.289043983721
 31
0.0
  0
LINE
  5
565
  8
回07-寸法
  6
CONTINUOUS
 62
     5
 10
-3654.89474741598
 20
-1152.812479965202
 30
0.0
 11
-3654.89474741598
 21
-1169.789043983721
 31
0.0
  0
LINE
  5
566
  8
回07-寸法
  6
CONTINUOUS
 62
     5
 10
-3654.89474741598
 20
-1149.812479965202
 30
0.0
 11
-3654.89474741598
 21
-1146.812479965202
 31
0.0
  0
INSERT
  5
567
  8
回07-寸法
  6
CONTINUOUS
 62
     5
  2
_OPEN
 10
-3654.89474741598
 20
-1152.812479965202
 30
0.0
 41
3.0
 42
3.0
 43
3.0
 50
270.0
  0
INSERT
  5
568
  8
回07-寸法
  6
CONTINUOUS
 62
     5
  2
_OPEN
 10
-3654.89474741598
 20
-1169.789043983721
 30
0.0
 41
3.0
 42
3.0
 43
3.0
 50
90.0
  0
TEXT
  5
569
  8
回07-寸法
  6
CONTINUOUS
 62
     5
 10
-3655.39474741598
 20
-1181.539043983721
 30
0.0
 40
5.0
  1
17
 50
90.0
  0
POINT
  5
56A
  8
DEFPOINTS
  6
CONTINUOUS
 62
     0
 10
-3638.187101275017
 20
-1152.812479965202
 30
0.0
  0
POINT
  5
56B
  8
DEFPOINTS
  6
CONTINUOUS
 62
     0
 10
-3624.438226590465
 20
-1169.789043983721
 30
0.0
  0
POINT
  5
56C
  8
DEFPOINTS
  6
CONTINUOUS
 62
     0
 10
-3654.89474741598
 20
-1169.789043983721
 30
0.0
  0
ENDBLK
  5
56E
  8
0
  6
CONTINUOUS
 62
     7
  0
BLOCK
  8
0
  2
*D46
 70
     1
 10
0.0
 20
0.0
 30
0.0
  3
*D46
  1

  0
LINE
  5
570
  8
回07-寸法
  6
CONTINUOUS
 62
     5
 10
-3638.187101275017
 20
-1152.812479965202
 30
0.0
 11
-3646.431020738781
 21
-1152.812479965202
 31
0.0
  0
LINE
  5
571
  8
回07-寸法
  6
CONTINUOUS
 62
     5
 10
-3638.187101275017
 20
-1156.040169299169
 30
0.0
 11
-3646.431020738781
 21
-1156.040169299169
 31
0.0
  0
LINE
  5
572
  8
回07-寸法
  6
CONTINUOUS
 62
     5
 10
-3645.431020738781
 20
-1159.040169299169
 30
0.0
 11
-3645.431020738781
 21
-1178.783954809497
 31
0.0
  0
LINE
  5
573
  8
回07-寸法
  6
CONTINUOUS
 62
     5
 10
-3645.431020738781
 20
-1152.812479965202
 30
0.0
 11
-3645.431020738781
 21
-1156.040169299169
 31
0.0
  0
LINE
  5
574
  8
回07-寸法
  6
CONTINUOUS
 62
     5
 10
-3645.431020738781
 20
-1149.812479965202
 30
0.0
 11
-3645.431020738781
 21
-1146.812479965202
 31
0.0
  0
INSERT
  5
575
  8
回07-寸法
  6
CONTINUOUS
 62
     5
  2
_OPEN
 10
-3645.431020738781
 20
-1152.812479965202
 30
0.0
 41
3.0
 42
3.0
 43
3.0
 50
270.0
  0
INSERT
  5
576
  8
回07-寸法
  6
CONTINUOUS
 62
     5
  2
_OPEN
 10
-3645.431020738781
 20
-1156.040169299169
 30
0.0
 41
3.0
 42
3.0
 43
3.0
 50
90.0
  0
TEXT
  5
577
  8
回07-寸法
  6
CONTINUOUS
 62
     5
 10
-3645.931020738781
 20
-1179.033954809497
 30
0.0
 40
5.0
  1
3.2
 50
90.0
  0
POINT
  5
578
  8
DEFPOINTS
  6
CONTINUOUS
 62
     0
 10
-3638.187101275017
 20
-1152.812479965202
 30
0.0
  0
POINT
  5
579
  8
DEFPOINTS
  6
CONTINUOUS
 62
     0
 10
-3638.187101275017
 20
-1156.040169299169
 30
0.0
  0
POINT
  5
57A
  8
DEFPOINTS
  6
CONTINUOUS
 62
     0
 10
-3645.431020738781
 20
-1156.040169299169
 30
0.0
  0
ENDBLK
  5
57C
  8
0
  6
CONTINUOUS
 62
     7
  0
BLOCK
  8
0
  2
*D47
 70
     1
 10
0.0
 20
0.0
 30
0.0
  3
*D47
  1

  0
LINE
  5
57E
  8
回07-寸法
  6
CONTINUOUS
 62
     5
 10
-3624.438226590466
 20
-1252.312479965201
 30
0.0
 11
-3624.438226590466
 21
-1268.408479965202
 31
0.0
  0
LINE
  5
580
  8
回07-寸法
  6
CONTINUOUS
 62
     5
 10
-3851.188226590466
 20
-1151.812479965202
 30
0.0
 11
-3851.188226590466
 21
-1268.408479965202
 31
0.0
  0
LINE
  5
581
  8
回07-寸法
  6
CONTINUOUS
 62
     5
 10
-3627.438226590466
 20
-1267.408479965202
 30
0.0
 11
-3848.188226590465
 21
-1267.408479965202
 31
0.0
  0
INSERT
  5
582
  8
回07-寸法
  6
CONTINUOUS
 62
     5
  2
_OPEN
 10
-3624.438226590466
 20
-1267.408479965202
 30
0.0
 41
3.0
 42
3.0
 43
3.0
  0
INSERT
  5
583
  8
回07-寸法
  6
CONTINUOUS
 62
     5
  2
_OPEN
 10
-3851.188226590466
 20
-1267.408479965202
 30
0.0
 41
3.0
 42
3.0
 43
3.0
 50
180.0
  0
TEXT
  5
584
  8
回07-寸法
  6
CONTINUOUS
 62
     5
 10
-3749.313226590466
 20
-1266.658479965202
 30
0.0
 40
5.0
  1
(226.75)
  0
POINT
  5
585
  8
DEFPOINTS
  6
CONTINUOUS
 62
     0
 10
-3624.438226590466
 20
-1252.312479965201
 30
0.0
  0
POINT
  5
586
  8
DEFPOINTS
  6
CONTINUOUS
 62
     0
 10
-3851.188226590466
 20
-1151.812479965202
 30
0.0
  0
POINT
  5
587
  8
DEFPOINTS
  6
CONTINUOUS
 62
     0
 10
-3851.188226590466
 20
-1267.408479965202
 30
0.0
  0
ENDBLK
  5
589
  8
0
  6
CONTINUOUS
 62
     7
  0
BLOCK
  8
0
  2
*D48
 70
     1
 10
0.0
 20
0.0
 30
0.0
  3
*D48
  1

  0
LINE
  5
58B
  8
回07-寸法
  6
CONTINUOUS
 62
     5
 10
-3606.938226590465
 20
-1251.908479965202
 30
0.0
 11
-3606.938226590465
 21
-1268.408479965202
 31
0.0
  0
LINE
  5
58C
  8
回07-寸法
  6
CONTINUOUS
 62
     5
 10
-3624.438226590465
 20
-1251.908479965202
 30
0.0
 11
-3624.438226590465
 21
-1268.408479965202
 31
0.0
  0
LINE
  5
58D
  8
回07-寸法
  6
CONTINUOUS
 62
     5
 10
-3603.938226590465
 20
-1267.408479965202
 30
0.0
 11
-3562.56611246757
 21
-1267.408479965202
 31
0.0
  0
LINE
  5
58E
  8
回07-寸法
  6
CONTINUOUS
 62
     5
 10
-3606.938226590465
 20
-1267.408479965202
 30
0.0
 11
-3624.438226590465
 21
-1267.408479965202
 31
0.0
  0
LINE
  5
58F
  8
回07-寸法
  6
CONTINUOUS
 62
     5
 10
-3627.438226590465
 20
-1267.408479965202
 30
0.0
 11
-3630.438226590465
 21
-1267.408479965202
 31
0.0
  0
INSERT
  5
590
  8
回07-寸法
  6
CONTINUOUS
 62
     5
  2
_OPEN
 10
-3606.938226590465
 20
-1267.408479965202
 30
0.0
 41
3.0
 42
3.0
 43
3.0
 50
180.0
  0
INSERT
  5
591
  8
回07-寸法
  6
CONTINUOUS
 62
     5
  2
_OPEN
 10
-3624.438226590465
 20
-1267.408479965202
 30
0.0
 41
3.0
 42
3.0
 43
3.0
  0
INSERT
  5
592
  8
回07-寸法
  6
CONTINUOUS
 62
     5
 66
     1
  2
*X100
 10
0.0
 20
0.0
 30
0.0
  0
SEQEND
  5
8D2
  8
0
  6
CONTINUOUS
 62
     7
  0
POINT
  5
593
  8
DEFPOINTS
  6
CONTINUOUS
 62
     0
 10
-3606.938226590465
 20
-1251.908479965202
 30
0.0
  0
POINT
  5
594
  8
DEFPOINTS
  6
CONTINUOUS
 62
     0
 10
-3624.438226590465
 20
-1251.908479965202
 30
0.0
  0
POINT
  5
595
  8
DEFPOINTS
  6
CONTINUOUS
 62
     0
 10
-3624.438226590465
 20
-1267.408479965202
 30
0.0
  0
ENDBLK
  5
597
  8
0
  6
CONTINUOUS
 62
     7
  0
BLOCK
  8
0
  2
*D49
 70
     1
 10
0.0
 20
0.0
 30
0.0
  3
*D49
  1

  0
LINE
  5
599
  8
回07-寸法
  6
CONTINUOUS
 62
     5
 10
-3581.938226590465
 20
-1251.908479965203
 30
0.0
 11
-3581.938226590465
 21
-1278.40320019334
 31
0.0
  0
LINE
  5
59A
  8
回07-寸法
  6
CONTINUOUS
 62
     5
 10
-3595.438226590465
 20
-1251.908479965202
 30
0.0
 11
-3595.438226590465
 21
-1278.40320019334
 31
0.0
  0
LINE
  5
59B
  8
回07-寸法
  6
CONTINUOUS
 62
     5
 10
-3578.938226590465
 20
-1277.40320019334
 30
0.0
 11
-3557.513226590465
 21
-1277.40320019334
 31
0.0
  0
LINE
  5
59C
  8
回07-寸法
  6
CONTINUOUS
 62
     5
 10
-3581.938226590465
 20
-1277.40320019334
 30
0.0
 11
-3595.438226590465
 21
-1277.40320019334
 31
0.0
  0
LINE
  5
59D
  8
回07-寸法
  6
CONTINUOUS
 62
     5
 10
-3598.438226590465
 20
-1277.40320019334
 30
0.0
 11
-3601.438226590465
 21
-1277.40320019334
 31
0.0
  0
INSERT
  5
59E
  8
回07-寸法
  6
CONTINUOUS
 62
     5
  2
_OPEN
 10
-3581.938226590465
 20
-1277.40320019334
 30
0.0
 41
3.0
 42
3.0
 43
3.0
 50
180.0
  0
INSERT
  5
59F
  8
回07-寸法
  6
CONTINUOUS
 62
     5
  2
_OPEN
 10
-3595.438226590465
 20
-1277.40320019334
 30
0.0
 41
3.0
 42
3.0
 43
3.0
  0
INSERT
  5
5A0
  8
回07-寸法
  6
CONTINUOUS
 62
     5
 66
     1
  2
*X101
 10
0.0
 20
0.0
 30
0.0
  0
SEQEND
  5
8D8
  8
0
  6
CONTINUOUS
 62
     7
  0
POINT
  5
5A1
  8
DEFPOINTS
  6
CONTINUOUS
 62
     0
 10
-3581.938226590465
 20
-1251.908479965203
 30
0.0
  0
POINT
  5
5A2
  8
DEFPOINTS
  6
CONTINUOUS
 62
     0
 10
-3595.438226590465
 20
-1251.908479965202
 30
0.0
  0
POINT
  5
5A3
  8
DEFPOINTS
  6
CONTINUOUS
 62
     0
 10
-3595.438226590465
 20
-1277.40320019334
 30
0.0
  0
ENDBLK
  5
5A5
  8
0
  6
CONTINUOUS
 62
     7
  0
BLOCK
  8
0
  2
*D50
 70
     1
 10
0.0
 20
0.0
 30
0.0
  3
*D50
  1

  0
LINE
  5
5A7
  8
回07-寸法
  6
CONTINUOUS
 62
     5
 10
-3638.187101275017
 20
-1152.812479965202
 30
0.0
 11
-3668.377498767618
 21
-1152.812479965202
 31
0.0
  0
LINE
  5
5A9
  8
回07-寸法
  6
CONTINUOUS
 62
     5
 10
-3623.938226590465
 20
-1252.408479965202
 30
0.0
 11
-3668.377498767618
 21
-1252.408479965202
 31
0.0
  0
LINE
  5
5AA
  8
回07-寸法
  6
CONTINUOUS
 62
     5
 10
-3667.377498767618
 20
-1155.812479965202
 30
0.0
 11
-3667.377498767618
 21
-1249.408479965202
 31
0.0
  0
INSERT
  5
5AB
  8
回07-寸法
  6
CONTINUOUS
 62
     5
  2
_OPEN
 10
-3667.377498767618
 20
-1152.812479965202
 30
0.0
 41
3.0
 42
3.0
 43
3.0
 50
90.0
  0
INSERT
  5
5AC
  8
回07-寸法
  6
CONTINUOUS
 62
     5
  2
_OPEN
 10
-3667.377498767618
 20
-1252.408479965202
 30
0.0
 41
3.0
 42
3.0
 43
3.0
 50
270.0
  0
INSERT
  5
5AD
  8
回07-寸法
  6
CONTINUOUS
 62
     5
 66
     1
  2
*X102
 10
0.0
 20
0.0
 30
0.0
  0
SEQEND
  5
8DE
  8
0
  6
CONTINUOUS
 62
     7
  0
POINT
  5
5AE
  8
DEFPOINTS
  6
CONTINUOUS
 62
     0
 10
-3638.187101275017
 20
-1152.812479965202
 30
0.0
  0
POINT
  5
5AF
  8
DEFPOINTS
  6
CONTINUOUS
 62
     0
 10
-3623.938226590465
 20
-1252.408479965202
 30
0.0
  0
POINT
  5
5B0
  8
DEFPOINTS
  6
CONTINUOUS
 62
     0
 10
-3667.377498767618
 20
-1252.408479965202
 30
0.0
  0
ENDBLK
  5
5B2
  8
0
  6
CONTINUOUS
 62
     7
  0
BLOCK
  8
0
  2
*D51
 70
     1
 10
0.0
 20
0.0
 30
0.0
  3
*D51
  1

  0
LINE
  5
5B4
  8
回07-寸法
  6
CONTINUOUS
 62
     5
 10
-3360.368226590465
 20
-869.157479965203
 30
0.0
 11
-3360.368226590465
 21
-816.572479965203
 31
0.0
  0
LINE
  5
5B6
  8
回07-寸法
  6
CONTINUOUS
 62
     5
 10
-3351.188226590466
 20
-862.612479965203
 30
0.0
 11
-3351.188226590466
 21
-816.572479965203
 31
0.0
  0
LINE
  5
5B7
  8
回07-寸法
  6
CONTINUOUS
 62
     5
 10
-3349.688226590465
 20
-817.572479965203
 30
0.0
 11
-3300.413496903342
 21
-817.572479965203
 31
0.0
  0
LINE
  5
5B8
  8
回07-寸法
  6
CONTINUOUS
 62
     5
 10
-3360.368226590465
 20
-817.572479965203
 30
0.0
 11
-3351.188226590466
 21
-817.572479965203
 31
0.0
  0
LINE
  5
5B9
  8
回07-寸法
  6
CONTINUOUS
 62
     5
 10
-3361.868226590465
 20
-817.572479965203
 30
0.0
 11
-3363.368226590465
 21
-817.572479965203
 31
0.0
  0
INSERT
  5
5BA
  8
回07-寸法
  6
CONTINUOUS
 62
     5
  2
_OPEN
 10
-3360.368226590465
 20
-817.572479965203
 30
0.0
 41
1.5
 42
1.5
 43
1.5
  0
INSERT
  5
5BB
  8
回07-寸法
  6
CONTINUOUS
 62
     5
  2
_OPEN
 10
-3351.188226590466
 20
-817.572479965203
 30
0.0
 41
1.5
 42
1.5
 43
1.5
 50
180.0
  0
INSERT
  5
5BC
  8
回07-寸法
  6
CONTINUOUS
 62
     5
 66
     1
  2
*X103
 10
0.0
 20
0.0
 30
0.0
  0
SEQEND
  5
8E4
  8
0
  6
CONTINUOUS
 62
     7
  0
POINT
  5
5BD
  8
DEFPOINTS
  6
CONTINUOUS
 62
     0
 10
-3360.368226590465
 20
-869.157479965203
 30
0.0
  0
POINT
  5
5BE
  8
DEFPOINTS
  6
CONTINUOUS
 62
     0
 10
-3351.188226590466
 20
-862.612479965203
 30
0.0
  0
POINT
  5
5BF
  8
DEFPOINTS
  6
CONTINUOUS
 62
     0
 10
-3351.188226590466
 20
-817.572479965203
 30
0.0
  0
ENDBLK
  5
5C1
  8
0
  6
CONTINUOUS
 62
     7
  0
BLOCK
  8
0
  2
*D52
 70
     1
 10
0.0
 20
0.0
 30
0.0
  3
*D52
  1

  0
LINE
  5
5C3
  8
回07-寸法
  6
CONTINUOUS
 62
     5
 10
-3360.368226590465
 20
-869.157479965203
 30
0.0
 11
-3360.368226590465
 21
-816.572479965203
 31
0.0
  0
LINE
  5
5C4
  8
回07-寸法
  6
CONTINUOUS
 62
     5
 10
-3842.008226590465
 20
-869.157479965203
 30
0.0
 11
-3842.008226590465
 21
-816.572479965203
 31
0.0
  0
LINE
  5
5C5
  8
回07-寸法
  6
CONTINUOUS
 62
     5
 10
-3363.368226590465
 20
-817.572479965203
 30
0.0
 11
-3839.008226590465
 21
-817.572479965203
 31
0.0
  0
INSERT
  5
5C6
  8
回07-寸法
  6
CONTINUOUS
 62
     5
  2
_OPEN
 10
-3360.368226590465
 20
-817.572479965203
 30
0.0
 41
3.0
 42
3.0
 43
3.0
  0
INSERT
  5
5C7
  8
回07-寸法
  6
CONTINUOUS
 62
     5
  2
_OPEN
 10
-3842.008226590465
 20
-817.572479965203
 30
0.0
 41
3.0
 42
3.0
 43
3.0
 50
180.0
  0
TEXT
  5
5C8
  8
回07-寸法
  6
CONTINUOUS
 62
     5
 10
-3610.688226590465
 20
-817.0724799652029
 30
0.0
 40
5.0
  1
481.64
  0
POINT
  5
5C9
  8
DEFPOINTS
  6
CONTINUOUS
 62
     0
 10
-3360.368226590465
 20
-869.157479965203
 30
0.0
  0
POINT
  5
5CA
  8
DEFPOINTS
  6
CONTINUOUS
 62
     0
 10
-3842.008226590465
 20
-869.157479965203
 30
0.0
  0
POINT
  5
5CB
  8
DEFPOINTS
  6
CONTINUOUS
 62
     0
 10
-3842.008226590465
 20
-817.572479965203
 30
0.0
  0
ENDBLK
  5
5CD
  8
0
  6
CONTINUOUS
 62
     7
  0
BLOCK
  8
0
  2
*D53
 70
     1
 10
0.0
 20
0.0
 30
0.0
  3
*D53
  1

  0
LINE
  5
5CF
  8
回07-寸法
  6
CONTINUOUS
 62
     5
 10
-3842.008226590465
 20
-869.157479965203
 30
0.0
 11
-3842.008226590465
 21
-816.572479965203
 31
0.0
  0
LINE
  5
5D0
  8
回07-寸法
  6
CONTINUOUS
 62
     5
 10
-3851.188226590466
 20
-860.6124799652029
 30
0.0
 11
-3851.188226590466
 21
-816.572479965203
 31
0.0
  0
LINE
  5
5D1
  8
回07-寸法
  6
CONTINUOUS
 62
     5
 10
-3854.188226590466
 20
-817.572479965203
 30
0.0
 11
-3900.94687293889
 21
-817.572479965203
 31
0.0
  0
LINE
  5
5D2
  8
回07-寸法
  6
CONTINUOUS
 62
     5
 10
-3842.008226590465
 20
-817.572479965203
 30
0.0
 11
-3851.188226590466
 21
-817.572479965203
 31
0.0
  0
LINE
  5
5D3
  8
回07-寸法
  6
CONTINUOUS
 62
     5
 10
-3839.008226590465
 20
-817.572479965203
 30
0.0
 11
-3836.008226590465
 21
-817.572479965203
 31
0.0
  0
INSERT
  5
5D4
  8
回07-寸法
  6
CONTINUOUS
 62
     5
  2
_OPEN
 10
-3842.008226590465
 20
-817.572479965203
 30
0.0
 41
3.0
 42
3.0
 43
3.0
 50
180.0
  0
INSERT
  5
5D5
  8
回07-寸法
  6
CONTINUOUS
 62
     5
  2
_OPEN
 10
-3851.188226590466
 20
-817.572479965203
 30
0.0
 41
3.0
 42
3.0
 43
3.0
  0
INSERT
  5
5D6
  8
回07-寸法
  6
CONTINUOUS
 62
     5
 66
     1
  2
*X104
 10
0.0
 20
0.0
 30
0.0
  0
SEQEND
  5
8EA
  8
0
  6
CONTINUOUS
 62
     7
  0
POINT
  5
5D7
  8
DEFPOINTS
  6
CONTINUOUS
 62
     0
 10
-3842.008226590465
 20
-869.157479965203
 30
0.0
  0
POINT
  5
5D8
  8
DEFPOINTS
  6
CONTINUOUS
 62
     0
 10
-3851.188226590466
 20
-860.6124799652029
 30
0.0
  0
POINT
  5
5D9
  8
DEFPOINTS
  6
CONTINUOUS
 62
     0
 10
-3851.188226590466
 20
-817.572479965203
 30
0.0
  0
ENDBLK
  5
5DB
  8
0
  6
CONTINUOUS
 62
     7
  0
BLOCK
  8
0
  2
*D54
 70
     1
 10
0.0
 20
0.0
 30
0.0
  3
*D54
  1

  0
LINE
  5
5DD
  8
回07-寸法
  6
CONTINUOUS
 62
     5
 10
-3842.008226590465
 20
-869.157479965203
 30
0.0
 11
-3896.23822658047
 21
-869.157479965203
 31
0.0
  0
LINE
  5
5DE
  8
回07-寸法
  6
CONTINUOUS
 62
     5
 10
-3850.188226590466
 20
-859.6124799652038
 30
0.0
 11
-3896.23822658047
 21
-859.6124799652038
 31
0.0
  0
LINE
  5
5DF
  8
回07-寸法
  6
CONTINUOUS
 62
     5
 10
-3895.23822658047
 20
-856.6124799652039
 30
0.0
 11
-3895.23822658047
 21
-834.0983651304426
 31
0.0
  0
LINE
  5
5E0
  8
回07-寸法
  6
CONTINUOUS
 62
     5
 10
-3895.23822658047
 20
-869.157479965203
 30
0.0
 11
-3895.23822658047
 21
-859.6124799652038
 31
0.0
  0
LINE
  5
5E1
  8
回07-寸法
  6
CONTINUOUS
 62
     5
 10
-3895.23822658047
 20
-872.157479965203
 30
0.0
 11
-3895.23822658047
 21
-875.1574799652031
 31
0.0
  0
INSERT
  5
5E2
  8
回07-寸法
  6
CONTINUOUS
 62
     5
  2
_OPEN
 10
-3895.23822658047
 20
-869.157479965203
 30
0.0
 41
3.0
 42
3.0
 43
3.0
 50
90.0
  0
INSERT
  5
5E3
  8
回07-寸法
  6
CONTINUOUS
 62
     5
  2
_OPEN
 10
-3895.23822658047
 20
-859.6124799652038
 30
0.0
 41
3.0
 42
3.0
 43
3.0
 50
270.0
  0
TEXT
  5
5E4
  8
回07-寸法
  6
CONTINUOUS
 62
     5
 10
-3895.98822658047
 20
-853.8644484691408
 30
0.0
 40
5.0
  1
(9.545)
 50
90.0
  0
POINT
  5
5E5
  8
DEFPOINTS
  6
CONTINUOUS
 62
     0
 10
-3842.008226590465
 20
-869.157479965203
 30
0.0
  0
POINT
  5
5E6
  8
DEFPOINTS
  6
CONTINUOUS
 62
     0
 10
-3850.188226590466
 20
-859.6124799652038
 30
0.0
  0
POINT
  5
5E7
  8
DEFPOINTS
  6
CONTINUOUS
 62
     0
 10
-3895.23822658047
 20
-859.6124799652038
 30
0.0
  0
ENDBLK
  5
5E9
  8
0
  6
CONTINUOUS
 62
     7
  0
BLOCK
  8
0
  2
*D55
 70
     1
 10
0.0
 20
0.0
 30
0.0
  3
*D55
  1

  0
LINE
  5
5EB
  8
回07-寸法
  6
CONTINUOUS
 62
     5
 10
-3842.008226590465
 20
-1142.267479965203
 30
0.0
 11
-3896.238226580466
 21
-1142.267479965203
 31
0.0
  0
LINE
  5
5EC
  8
回07-寸法
  6
CONTINUOUS
 62
     5
 10
-3850.188226590466
 20
-1152.812479965202
 30
0.0
 11
-3896.238226580466
 21
-1152.812479965202
 31
0.0
  0
LINE
  5
5ED
  8
回07-寸法
  6
CONTINUOUS
 62
     5
 10
-3895.238226580465
 20
-1155.812479965202
 30
0.0
 11
-3895.238226580465
 21
-1210.071126313627
 31
0.0
  0
LINE
  5
5EE
  8
回07-寸法
  6
CONTINUOUS
 62
     5
 10
-3895.238226580465
 20
-1142.267479965203
 30
0.0
 11
-3895.238226580465
 21
-1152.812479965202
 31
0.0
  0
LINE
  5
5EF
  8
回07-寸法
  6
CONTINUOUS
 62
     5
 10
-3895.238226580465
 20
-1139.267479965203
 30
0.0
 11
-3895.238226580465
 21
-1136.267479965203
 31
0.0
  0
INSERT
  5
5F0
  8
回07-寸法
  6
CONTINUOUS
 62
     5
  2
_OPEN
 10
-3895.238226580465
 20
-1142.267479965203
 30
0.0
 41
3.0
 42
3.0
 43
3.0
 50
270.0
  0
INSERT
  5
5F1
  8
回07-寸法
  6
CONTINUOUS
 62
     5
  2
_OPEN
 10
-3895.238226580465
 20
-1152.812479965202
 30
0.0
 41
3.0
 42
3.0
 43
3.0
 50
90.0
  0
INSERT
  5
5F2
  8
回07-寸法
  6
CONTINUOUS
 62
     5
 66
     1
  2
*X105
 10
0.0
 20
0.0
 30
0.0
  0
SEQEND
  5
8F0
  8
0
  6
CONTINUOUS
 62
     7
  0
POINT
  5
5F3
  8
DEFPOINTS
  6
CONTINUOUS
 62
     0
 10
-3842.008226590465
 20
-1142.267479965203
 30
0.0
  0
POINT
  5
5F4
  8
DEFPOINTS
  6
CONTINUOUS
 62
     0
 10
-3850.188226590466
 20
-1152.812479965202
 30
0.0
  0
POINT
  5
5F5
  8
DEFPOINTS
  6
CONTINUOUS
 62
     0
 10
-3895.238226580465
 20
-1152.812479965202
 30
0.0
  0
ENDBLK
  5
5F7
  8
0
  6
CONTINUOUS
 62
     7
  0
BLOCK
  8
0
  2
*D56
 70
     1
 10
0.0
 20
0.0
 30
0.0
  3
*D56
  1

  0
LINE
  5
5F9
  8
回07-寸法
  6
CONTINUOUS
 62
     5
 10
-3842.008226590465
 20
-1142.267479965203
 30
0.0
 11
-3896.238226580467
 21
-1142.267479965203
 31
0.0
  0
LINE
  5
5FA
  8
回07-寸法
  6
CONTINUOUS
 62
     5
 10
-3842.008226590465
 20
-869.157479965203
 30
0.0
 11
-3896.238226580467
 21
-869.157479965203
 31
0.0
  0
LINE
  5
5FB
  8
回07-寸法
  6
CONTINUOUS
 62
     5
 10
-3895.238226580467
 20
-1139.267479965203
 30
0.0
 11
-3895.238226580467
 21
-872.157479965203
 31
0.0
  0
INSERT
  5
5FC
  8
回07-寸法
  6
CONTINUOUS
 62
     5
  2
_OPEN
 10
-3895.238226580467
 20
-1142.267479965203
 30
0.0
 41
3.0
 42
3.0
 43
3.0
 50
270.0
  0
INSERT
  5
5FD
  8
回07-寸法
  6
CONTINUOUS
 62
     5
  2
_OPEN
 10
-3895.238226580467
 20
-869.157479965203
 30
0.0
 41
3.0
 42
3.0
 43
3.0
 50
90.0
  0
TEXT
  5
5FE
  8
回07-寸法
  6
CONTINUOUS
 62
     5
 10
-3895.738226580468
 20
-1014.212479965203
 30
0.0
 40
5.0
  1
273.11
 50
90.0
  0
POINT
  5
5FF
  8
DEFPOINTS
  6
CONTINUOUS
 62
     0
 10
-3842.008226590465
 20
-1142.267479965203
 30
0.0
  0
POINT
  5
600
  8
DEFPOINTS
  6
CONTINUOUS
 62
     0
 10
-3842.008226590465
 20
-869.157479965203
 30
0.0
  0
POINT
  5
601
  8
DEFPOINTS
  6
CONTINUOUS
 62
     0
 10
-3895.238226580467
 20
-869.157479965203
 30
0.0
  0
ENDBLK
  5
603
  8
0
  6
CONTINUOUS
 62
     7
  0
BLOCK
  8
0
  2
*D57
 70
     1
 10
0.0
 20
0.0
 30
0.0
  3
*D57
  1

  0
LINE
  5
605
  8
回07-寸法
  6
CONTINUOUS
 62
     5
 10
-3841.508226580465
 20
-869.6574799652029
 30
0.0
 11
-3841.508226580465
 21
-828.572479965203
 31
0.0
  0
LINE
  5
606
  8
回07-寸法
  6
CONTINUOUS
 62
     5
 10
-3851.188226590466
 20
-860.6124799652038
 30
0.0
 11
-3851.188226590466
 21
-828.572479965203
 31
0.0
  0
LINE
  5
607
  8
回07-寸法
  6
CONTINUOUS
 62
     5
 10
-3854.188226590466
 20
-829.5724799652029
 30
0.0
 11
-3868.791779981059
 21
-829.5724799652029
 31
0.0
  0
LINE
  5
608
  8
回07-寸法
  6
CONTINUOUS
 62
     5
 10
-3841.508226580465
 20
-829.5724799652029
 30
0.0
 11
-3851.188226590466
 21
-829.5724799652029
 31
0.0
  0
LINE
  5
609
  8
回07-寸法
  6
CONTINUOUS
 62
     5
 10
-3838.508226580465
 20
-829.5724799652029
 30
0.0
 11
-3835.508226580465
 21
-829.5724799652029
 31
0.0
  0
INSERT
  5
60A
  8
回07-寸法
  6
CONTINUOUS
 62
     5
  2
_OPEN
 10
-3841.508226580465
 20
-829.5724799652029
 30
0.0
 41
3.0
 42
3.0
 43
3.0
 50
180.0
  0
INSERT
  5
60B
  8
回07-寸法
  6
CONTINUOUS
 62
     5
  2
_OPEN
 10
-3851.188226590466
 20
-829.5724799652029
 30
0.0
 41
3.0
 42
3.0
 43
3.0
  0
TEXT
  5
60C
  8
回07-寸法
  6
CONTINUOUS
 62
     5
 10
-3869.059831823694
 20
-829.072479965203
 30
0.0
 40
5.0
  1
9.68
  0
POINT
  5
60D
  8
DEFPOINTS
  6
CONTINUOUS
 62
     0
 10
-3841.508226580465
 20
-869.6574799652029
 30
0.0
  0
POINT
  5
60E
  8
DEFPOINTS
  6
CONTINUOUS
 62
     0
 10
-3851.188226590466
 20
-860.6124799652038
 30
0.0
  0
POINT
  5
60F
  8
DEFPOINTS
  6
CONTINUOUS
 62
     0
 10
-3851.188226590466
 20
-829.5724799652029
 30
0.0
  0
ENDBLK
  5
611
  8
0
  6
CONTINUOUS
 62
     7
  0
BLOCK
  8
0
  2
*D58
 70
     1
 10
0.0
 20
0.0
 30
0.0
  3
*D58
  1

  0
LINE
  5
613
  8
回07-寸法
  6
CONTINUOUS
 62
     5
 10
-3839.508226580465
 20
-871.6574799652031
 30
0.0
 11
-3839.508226580465
 21
-840.5724786318694
 31
0.0
  0
LINE
  5
614
  8
回07-寸法
  6
CONTINUOUS
 62
     5
 10
-3851.188226590466
 20
-860.6124799652038
 30
0.0
 11
-3851.188226590466
 21
-840.5724786318694
 31
0.0
  0
LINE
  5
615
  8
回07-寸法
  6
CONTINUOUS
 62
     5
 10
-3854.188226590466
 20
-841.5724786318694
 30
0.0
 11
-3870.188226590465
 21
-841.5724786318694
 31
0.0
  0
LINE
  5
616
  8
回07-寸法
  6
CONTINUOUS
 62
     5
 10
-3839.508226580465
 20
-841.5724786318694
 30
0.0
 11
-3851.188226590466
 21
-841.5724786318694
 31
0.0
  0
LINE
  5
617
  8
回07-寸法
  6
CONTINUOUS
 62
     5
 10
-3836.508226580465
 20
-841.5724786318694
 30
0.0
 11
-3833.508226580465
 21
-841.5724786318694
 31
0.0
  0
INSERT
  5
618
  8
回07-寸法
  6
CONTINUOUS
 62
     5
  2
_OPEN
 10
-3839.508226580465
 20
-841.5724786318694
 30
0.0
 41
3.0
 42
3.0
 43
3.0
 50
180.0
  0
INSERT
  5
619
  8
回07-寸法
  6
CONTINUOUS
 62
     5
  2
_OPEN
 10
-3851.188226590466
 20
-841.5724786318694
 30
0.0
 41
3.0
 42
3.0
 43
3.0
  0
TEXT
  5
61A
  8
回07-寸法
  6
CONTINUOUS
 62
     5
 10
-3870.438226590465
 20
-841.0724786318693
 30
0.0
 40
5.0
  1
11.68
  0
POINT
  5
61B
  8
DEFPOINTS
  6
CONTINUOUS
 62
     0
 10
-3839.508226580465
 20
-871.6574799652031
 30
0.0
  0
POINT
  5
61C
  8
DEFPOINTS
  6
CONTINUOUS
 62
     0
 10
-3851.188226590466
 20
-860.6124799652038
 30
0.0
  0
POINT
  5
61D
  8
DEFPOINTS
  6
CONTINUOUS
 62
     0
 10
-3851.188226590466
 20
-841.5724786318694
 30
0.0
  0
ENDBLK
  5
61F
  8
0
  6
CONTINUOUS
 62
     7
  0
BLOCK
  8
0
  2
*D59
 70
     1
 10
0.0
 20
0.0
 30
0.0
  3
*D59
  1

  0
LINE
  5
621
  8
回07-寸法
  6
CONTINUOUS
 62
     5
 10
-3362.868226590466
 20
-871.6574799652031
 30
0.0
 11
-3362.868226590466
 21
-840.5724799668696
 31
0.0
  0
LINE
  5
622
  8
回07-寸法
  6
CONTINUOUS
 62
     5
 10
-3351.188226590466
 20
-862.612479965203
 30
0.0
 11
-3351.188226590466
 21
-840.5724799668696
 31
0.0
  0
LINE
  5
623
  8
回07-寸法
  6
CONTINUOUS
 62
     5
 10
-3349.688226590465
 20
-841.5724799668696
 30
0.0
 11
-3331.192163598339
 21
-841.5724799668696
 31
0.0
  0
LINE
  5
624
  8
回07-寸法
  6
CONTINUOUS
 62
     5
 10
-3362.868226590466
 20
-841.5724799668696
 30
0.0
 11
-3351.188226590466
 21
-841.5724799668696
 31
0.0
  0
LINE
  5
625
  8
回07-寸法
  6
CONTINUOUS
 62
     5
 10
-3364.368226590465
 20
-841.5724799668696
 30
0.0
 11
-3365.868226590465
 21
-841.5724799668696
 31
0.0
  0
INSERT
  5
626
  8
回07-寸法
  6
CONTINUOUS
 62
     5
  2
_OPEN
 10
-3362.868226590466
 20
-841.5724799668696
 30
0.0
 41
1.5
 42
1.5
 43
1.5
  0
INSERT
  5
627
  8
回07-寸法
  6
CONTINUOUS
 62
     5
  2
_OPEN
 10
-3351.188226590466
 20
-841.5724799668696
 30
0.0
 41
1.5
 42
1.5
 43
1.5
 50
180.0
  0
TEXT
  5
628
  8
回07-寸法
  6
CONTINUOUS
 62
     5
 10
-3348.440195094402
 20
-840.8224799668696
 30
0.0
 40
5.0
  1
(11.68)
  0
POINT
  5
629
  8
DEFPOINTS
  6
CONTINUOUS
 62
     0
 10
-3362.868226590466
 20
-871.6574799652031
 30
0.0
  0
POINT
  5
62A
  8
DEFPOINTS
  6
CONTINUOUS
 62
     0
 10
-3351.188226590466
 20
-862.612479965203
 30
0.0
  0
POINT
  5
62B
  8
DEFPOINTS
  6
CONTINUOUS
 62
     0
 10
-3351.188226590466
 20
-841.5724799668696
 30
0.0
  0
ENDBLK
  5
62D
  8
0
  6
CONTINUOUS
 62
     7
  0
BLOCK
  8
0
  2
*D60
 70
     1
 10
0.0
 20
0.0
 30
0.0
  3
*D60
  1

  0
LINE
  5
62F
  8
回07-寸法
  6
CONTINUOUS
 62
     5
 10
-3360.868226590465
 20
-869.6574799652038
 30
0.0
 11
-3360.868226590465
 21
-828.572479965203
 31
0.0
  0
LINE
  5
630
  8
回07-寸法
  6
CONTINUOUS
 62
     5
 10
-3351.188226590466
 20
-862.612479965203
 30
0.0
 11
-3351.188226590466
 21
-828.572479965203
 31
0.0
  0
LINE
  5
631
  8
回07-寸法
  6
CONTINUOUS
 62
     5
 10
-3349.688226590465
 20
-829.5724799652029
 30
0.0
 11
-3332.674111755704
 21
-829.5724799652029
 31
0.0
  0
LINE
  5
632
  8
回07-寸法
  6
CONTINUOUS
 62
     5
 10
-3360.868226590465
 20
-829.5724799652029
 30
0.0
 11
-3351.188226590466
 21
-829.5724799652029
 31
0.0
  0
LINE
  5
633
  8
回07-寸法
  6
CONTINUOUS
 62
     5
 10
-3362.368226590465
 20
-829.5724799652029
 30
0.0
 11
-3363.868226590466
 21
-829.5724799652029
 31
0.0
  0
INSERT
  5
634
  8
回07-寸法
  6
CONTINUOUS
 62
     5
  2
_OPEN
 10
-3360.868226590465
 20
-829.5724799652029
 30
0.0
 41
1.5
 42
1.5
 43
1.5
  0
INSERT
  5
635
  8
回07-寸法
  6
CONTINUOUS
 62
     5
  2
_OPEN
 10
-3351.188226590466
 20
-829.5724799652029
 30
0.0
 41
1.5
 42
1.5
 43
1.5
 50
180.0
  0
TEXT
  5
636
  8
回07-寸法
  6
CONTINUOUS
 62
     5
 10
-3348.440195094402
 20
-828.8224799652029
 30
0.0
 40
5.0
  1
(9.68)
  0
POINT
  5
637
  8
DEFPOINTS
  6
CONTINUOUS
 62
     0
 10
-3360.868226590465
 20
-869.6574799652038
 30
0.0
  0
POINT
  5
638
  8
DEFPOINTS
  6
CONTINUOUS
 62
     0
 10
-3351.188226590466
 20
-862.612479965203
 30
0.0
  0
POINT
  5
639
  8
DEFPOINTS
  6
CONTINUOUS
 62
     0
 10
-3351.188226590466
 20
-829.5724799652029
 30
0.0
  0
ENDBLK
  5
63B
  8
0
  6
CONTINUOUS
 62
     7
  0
BLOCK
  8
0
  2
*D61
 70
     1
 10
0.0
 20
0.0
 30
0.0
  3
*D61
  1

  0
LINE
  5
63D
  8
回07-寸法
  6
CONTINUOUS
 62
     5
 10
-3841.508226580465
 20
-869.6574799652029
 30
0.0
 11
-3884.238226580464
 21
-869.6574799652029
 31
0.0
  0
LINE
  5
63E
  8
回07-寸法
  6
CONTINUOUS
 62
     5
 10
-3850.188226590466
 20
-859.6124799652029
 30
0.0
 11
-3884.238226580464
 21
-859.6124799652029
 31
0.0
  0
LINE
  5
63F
  8
回07-寸法
  6
CONTINUOUS
 62
     5
 10
-3883.238226580465
 20
-856.612479965203
 30
0.0
 11
-3883.238226580465
 21
-831.6164169730759
 31
0.0
  0
LINE
  5
640
  8
回07-寸法
  6
CONTINUOUS
 62
     5
 10
-3883.238226580465
 20
-869.6574799652029
 30
0.0
 11
-3883.238226580465
 21
-859.6124799652029
 31
0.0
  0
LINE
  5
641
  8
回07-寸法
  6
CONTINUOUS
 62
     5
 10
-3883.238226580465
 20
-872.6574799652031
 30
0.0
 11
-3883.238226580465
 21
-875.657479965203
 31
0.0
  0
INSERT
  5
642
  8
回07-寸法
  6
CONTINUOUS
 62
     5
  2
_OPEN
 10
-3883.238226580465
 20
-869.6574799652029
 30
0.0
 41
3.0
 42
3.0
 43
3.0
 50
90.0
  0
INSERT
  5
643
  8
回07-寸法
  6
CONTINUOUS
 62
     5
  2
_OPEN
 10
-3883.238226580465
 20
-859.6124799652029
 30
0.0
 41
3.0
 42
3.0
 43
3.0
 50
270.0
  0
TEXT
  5
644
  8
回07-寸法
  6
CONTINUOUS
 62
     5
 10
-3883.988226580465
 20
-853.864448469139
 30
0.0
 40
5.0
  1
(10.045)
 50
90.0
  0
POINT
  5
645
  8
DEFPOINTS
  6
CONTINUOUS
 62
     0
 10
-3841.508226580465
 20
-869.6574799652029
 30
0.0
  0
POINT
  5
646
  8
DEFPOINTS
  6
CONTINUOUS
 62
     0
 10
-3850.188226590466
 20
-859.6124799652029
 30
0.0
  0
POINT
  5
647
  8
DEFPOINTS
  6
CONTINUOUS
 62
     0
 10
-3883.238226580465
 20
-859.6124799652029
 30
0.0
  0
ENDBLK
  5
649
  8
0
  6
CONTINUOUS
 62
     7
  0
BLOCK
  8
0
  2
*D62
 70
     1
 10
0.0
 20
0.0
 30
0.0
  3
*D62
  1

  0
LINE
  5
64B
  8
回07-寸法
  6
CONTINUOUS
 62
     5
 10
-3839.508226580465
 20
-871.6574799652031
 30
0.0
 11
-3872.238226580465
 21
-871.6574799652031
 31
0.0
  0
LINE
  5
64C
  8
回07-寸法
  6
CONTINUOUS
 62
     5
 10
-3850.188226590466
 20
-859.6124799652038
 30
0.0
 11
-3872.238226580465
 21
-859.6124799652038
 31
0.0
  0
LINE
  5
64D
  8
回07-寸法
  6
CONTINUOUS
 62
     5
 10
-3871.238226580464
 20
-856.6124799652039
 30
0.0
 11
-3871.238226580464
 21
-831.6164169730768
 31
0.0
  0
LINE
  5
64E
  8
回07-寸法
  6
CONTINUOUS
 62
     5
 10
-3871.238226580464
 20
-871.6574799652031
 30
0.0
 11
-3871.238226580464
 21
-859.6124799652038
 31
0.0
  0
LINE
  5
64F
  8
回07-寸法
  6
CONTINUOUS
 62
     5
 10
-3871.238226580464
 20
-874.657479965203
 30
0.0
 11
-3871.238226580464
 21
-877.657479965203
 31
0.0
  0
INSERT
  5
650
  8
回07-寸法
  6
CONTINUOUS
 62
     5
  2
_OPEN
 10
-3871.238226580464
 20
-871.6574799652031
 30
0.0
 41
3.0
 42
3.0
 43
3.0
 50
90.0
  0
INSERT
  5
651
  8
回07-寸法
  6
CONTINUOUS
 62
     5
  2
_OPEN
 10
-3871.238226580464
 20
-859.6124799652038
 30
0.0
 41
3.0
 42
3.0
 43
3.0
 50
270.0
  0
TEXT
  5
652
  8
回07-寸法
  6
CONTINUOUS
 62
     5
 10
-3871.988226580464
 20
-853.8644484691399
 30
0.0
 40
5.0
  1
(12.045)
 50
90.0
  0
POINT
  5
653
  8
DEFPOINTS
  6
CONTINUOUS
 62
     0
 10
-3839.508226580465
 20
-871.6574799652031
 30
0.0
  0
POINT
  5
654
  8
DEFPOINTS
  6
CONTINUOUS
 62
     0
 10
-3850.188226590466
 20
-859.6124799652038
 30
0.0
  0
POINT
  5
655
  8
DEFPOINTS
  6
CONTINUOUS
 62
     0
 10
-3871.238226580464
 20
-859.6124799652038
 30
0.0
  0
ENDBLK
  5
657
  8
0
  6
CONTINUOUS
 62
     7
  0
BLOCK
  8
0
  2
*D63
 70
     1
 10
0.0
 20
0.0
 30
0.0
  3
*D63
  1

  0
LINE
  5
659
  8
回07-寸法
  6
CONTINUOUS
 62
     5
 10
-3839.508218580464
 20
-1139.767479965203
 30
0.0
 11
-3872.238226580465
 21
-1139.767479965203
 31
0.0
  0
LINE
  5
65A
  8
回07-寸法
  6
CONTINUOUS
 62
     5
 10
-3850.188226590466
 20
-1152.812479965202
 30
0.0
 11
-3872.238226580465
 21
-1152.812479965202
 31
0.0
  0
LINE
  5
65B
  8
回07-寸法
  6
CONTINUOUS
 62
     5
 10
-3871.238226580464
 20
-1155.812479965202
 30
0.0
 11
-3871.238226580464
 21
-1176.916033355795
 31
0.0
  0
LINE
  5
65C
  8
回07-寸法
  6
CONTINUOUS
 62
     5
 10
-3871.238226580464
 20
-1139.767479965203
 30
0.0
 11
-3871.238226580464
 21
-1152.812479965202
 31
0.0
  0
LINE
  5
65D
  8
回07-寸法
  6
CONTINUOUS
 62
     5
 10
-3871.238226580464
 20
-1136.767479965203
 30
0.0
 11
-3871.238226580464
 21
-1133.767479965203
 31
0.0
  0
INSERT
  5
65E
  8
回07-寸法
  6
CONTINUOUS
 62
     5
  2
_OPEN
 10
-3871.238226580464
 20
-1139.767479965203
 30
0.0
 41
3.0
 42
3.0
 43
3.0
 50
270.0
  0
INSERT
  5
65F
  8
回07-寸法
  6
CONTINUOUS
 62
     5
  2
_OPEN
 10
-3871.238226580464
 20
-1152.812479965202
 30
0.0
 41
3.0
 42
3.0
 43
3.0
 50
90.0
  0
TEXT
  5
660
  8
回07-寸法
  6
CONTINUOUS
 62
     5
 10
-3871.738226580465
 20
-1177.166033355795
 30
0.0
 40
5.0
  1
13.045
 50
90.0
  0
POINT
  5
661
  8
DEFPOINTS
  6
CONTINUOUS
 62
     0
 10
-3839.508218580464
 20
-1139.767479965203
 30
0.0
  0
POINT
  5
662
  8
DEFPOINTS
  6
CONTINUOUS
 62
     0
 10
-3850.188226590466
 20
-1152.812479965202
 30
0.0
  0
POINT
  5
663
  8
DEFPOINTS
  6
CONTINUOUS
 62
     0
 10
-3871.238226580464
 20
-1152.812479965202
 30
0.0
  0
ENDBLK
  5
665
  8
0
  6
CONTINUOUS
 62
     7
  0
BLOCK
  8
0
  2
*D64
 70
     1
 10
0.0
 20
0.0
 30
0.0
  3
*D64
  1

  0
LINE
  5
667
  8
回07-寸法
  6
CONTINUOUS
 62
     5
 10
-3841.508226580465
 20
-1141.767479965203
 30
0.0
 11
-3884.238226580464
 21
-1141.767479965203
 31
0.0
  0
LINE
  5
668
  8
回07-寸法
  6
CONTINUOUS
 62
     5
 10
-3850.188226590466
 20
-1152.812479965202
 30
0.0
 11
-3884.238226580464
 21
-1152.812479965202
 31
0.0
  0
LINE
  5
669
  8
回07-寸法
  6
CONTINUOUS
 62
     5
 10
-3883.238226580465
 20
-1155.812479965202
 30
0.0
 11
-3883.238226580465
 21
-1175.916033355795
 31
0.0
  0
LINE
  5
66A
  8
回07-寸法
  6
CONTINUOUS
 62
     5
 10
-3883.238226580465
 20
-1141.767479965203
 30
0.0
 11
-3883.238226580465
 21
-1152.812479965202
 31
0.0
  0
LINE
  5
66B
  8
回07-寸法
  6
CONTINUOUS
 62
     5
 10
-3883.238226580465
 20
-1138.767479965203
 30
0.0
 11
-3883.238226580465
 21
-1135.767479965203
 31
0.0
  0
INSERT
  5
66C
  8
回07-寸法
  6
CONTINUOUS
 62
     5
  2
_OPEN
 10
-3883.238226580465
 20
-1141.767479965203
 30
0.0
 41
3.0
 42
3.0
 43
3.0
 50
270.0
  0
INSERT
  5
66D
  8
回07-寸法
  6
CONTINUOUS
 62
     5
  2
_OPEN
 10
-3883.238226580465
 20
-1152.812479965202
 30
0.0
 41
3.0
 42
3.0
 43
3.0
 50
90.0
  0
TEXT
  5
66E
  8
回07-寸法
  6
CONTINUOUS
 62
     5
 10
-3883.738226580464
 20
-1176.166033355795
 30
0.0
 40
5.0
  1
11.045
 50
90.0
  0
POINT
  5
66F
  8
DEFPOINTS
  6
CONTINUOUS
 62
     0
 10
-3841.508226580465
 20
-1141.767479965203
 30
0.0
  0
POINT
  5
670
  8
DEFPOINTS
  6
CONTINUOUS
 62
     0
 10
-3850.188226590466
 20
-1152.812479965202
 30
0.0
  0
POINT
  5
671
  8
DEFPOINTS
  6
CONTINUOUS
 62
     0
 10
-3883.238226580465
 20
-1152.812479965202
 30
0.0
  0
ENDBLK
  5
673
  8
0
  6
CONTINUOUS
 62
     7
  0
BLOCK
  8
0
  2
*D65
 70
     1
 10
0.0
 20
0.0
 30
0.0
  3
*D65
  1

  0
LINE
  5
675
  8
回07-寸法
  6
CONTINUOUS
 62
     5
 10
-3351.188226590466
 20
-862.612479965203
 30
0.0
 11
-3351.188226590466
 21
-804.5724799652029
 31
0.0
  0
LINE
  5
676
  8
回07-寸法
  6
CONTINUOUS
 62
     5
 10
-3851.188226590466
 20
-860.6124799652038
 30
0.0
 11
-3851.188226590466
 21
-804.5724799652029
 31
0.0
  0
LINE
  5
677
  8
回07-寸法
  6
CONTINUOUS
 62
     5
 10
-3354.188226590466
 20
-805.5724799652029
 30
0.0
 11
-3848.188226590465
 21
-805.5724799652029
 31
0.0
  0
INSERT
  5
678
  8
回07-寸法
  6
CONTINUOUS
 62
     5
  2
_OPEN
 10
-3351.188226590466
 20
-805.5724799652029
 30
0.0
 41
3.0
 42
3.0
 43
3.0
  0
INSERT
  5
679
  8
回07-寸法
  6
CONTINUOUS
 62
     5
  2
_OPEN
 10
-3851.188226590466
 20
-805.5724799652029
 30
0.0
 41
3.0
 42
3.0
 43
3.0
 50
180.0
  0
INSERT
  5
67A
  8
回07-寸法
  6
CONTINUOUS
 62
     5
 66
     1
  2
*X106
 10
0.0
 20
0.0
 30
0.0
  0
SEQEND
  5
8F6
  8
0
  6
CONTINUOUS
 62
     7
  0
POINT
  5
67B
  8
DEFPOINTS
  6
CONTINUOUS
 62
     0
 10
-3351.188226590466
 20
-862.612479965203
 30
0.0
  0
POINT
  5
67C
  8
DEFPOINTS
  6
CONTINUOUS
 62
     0
 10
-3851.188226590466
 20
-860.6124799652038
 30
0.0
  0
POINT
  5
67D
  8
DEFPOINTS
  6
CONTINUOUS
 62
     0
 10
-3851.188226590466
 20
-805.5724799652029
 30
0.0
  0
ENDBLK
  5
67F
  8
0
  6
CONTINUOUS
 62
     7
  0
BLOCK
  8
0
  2
*D66
 70
     1
 10
0.0
 20
0.0
 30
0.0
  3
*D66
  1

  0
LINE
  5
681
  8
回07-寸法
  6
CONTINUOUS
 62
     5
 10
-3841.508226580465
 20
-869.6574799652029
 30
0.0
 11
-3841.508226580465
 21
-828.572479965203
 31
0.0
  0
LINE
  5
682
  8
回07-寸法
  6
CONTINUOUS
 62
     5
 10
-3360.868226590465
 20
-869.6574799652038
 30
0.0
 11
-3360.868226590465
 21
-828.572479965203
 31
0.0
  0
LINE
  5
683
  8
回07-寸法
  6
CONTINUOUS
 62
     5
 10
-3838.508226580465
 20
-829.5724799652029
 30
0.0
 11
-3363.868226590466
 21
-829.5724799652029
 31
0.0
  0
INSERT
  5
684
  8
回07-寸法
  6
CONTINUOUS
 62
     5
  2
_OPEN
 10
-3841.508226580465
 20
-829.5724799652029
 30
0.0
 41
3.0
 42
3.0
 43
3.0
 50
180.0
  0
INSERT
  5
685
  8
回07-寸法
  6
CONTINUOUS
 62
     5
  2
_OPEN
 10
-3360.868226590465
 20
-829.5724799652029
 30
0.0
 41
3.0
 42
3.0
 43
3.0
  0
TEXT
  5
686
  8
回07-寸法
  6
CONTINUOUS
 62
     5
 10
-3633.187242333497
 20
-827.8224799652029
 30
0.0
 40
5.0
  1
480.64(Viewing Area)
  0
POINT
  5
687
  8
DEFPOINTS
  6
CONTINUOUS
 62
     0
 10
-3841.508226580465
 20
-869.6574799652029
 30
0.0
  0
POINT
  5
688
  8
DEFPOINTS
  6
CONTINUOUS
 62
     0
 10
-3360.868226590465
 20
-869.6574799652038
 30
0.0
  0
POINT
  5
689
  8
DEFPOINTS
  6
CONTINUOUS
 62
     0
 10
-3360.868226590465
 20
-829.5724799652029
 30
0.0
  0
ENDBLK
  5
68B
  8
0
  6
CONTINUOUS
 62
     7
  0
BLOCK
  8
0
  2
*D67
 70
     1
 10
0.0
 20
0.0
 30
0.0
  3
*D67
  1

  0
LINE
  5
68D
  8
回07-寸法
  6
CONTINUOUS
 62
     5
 10
-3362.868226600465
 20
-871.6574799652031
 30
0.0
 11
-3362.868226600465
 21
-840.5724799652031
 31
0.0
  0
LINE
  5
68E
  8
回07-寸法
  6
CONTINUOUS
 62
     5
 10
-3839.508218580464
 20
-871.6574799652031
 30
0.0
 11
-3839.508218580464
 21
-840.5724799652031
 31
0.0
  0
LINE
  5
68F
  8
回07-寸法
  6
CONTINUOUS
 62
     5
 10
-3365.868226600465
 20
-841.572479965203
 30
0.0
 11
-3836.508218580464
 21
-841.572479965203
 31
0.0
  0
INSERT
  5
690
  8
回07-寸法
  6
CONTINUOUS
 62
     5
  2
_OPEN
 10
-3362.868226600465
 20
-841.572479965203
 30
0.0
 41
3.0
 42
3.0
 43
3.0
  0
INSERT
  5
691
  8
回07-寸法
  6
CONTINUOUS
 62
     5
  2
_OPEN
 10
-3839.508218580464
 20
-841.572479965203
 30
0.0
 41
3.0
 42
3.0
 43
3.0
 50
180.0
  0
TEXT
  5
692
  8
回07-寸法
  6
CONTINUOUS
 62
     5
 10
-3631.437238338496
 20
-840.822479965203
 30
0.0
 40
5.0
  1
476.64(Active Area)
  0
POINT
  5
693
  8
DEFPOINTS
  6
CONTINUOUS
 62
     0
 10
-3362.868226600465
 20
-871.6574799652031
 30
0.0
  0
POINT
  5
694
  8
DEFPOINTS
  6
CONTINUOUS
 62
     0
 10
-3839.508218580464
 20
-871.6574799652031
 30
0.0
  0
POINT
  5
695
  8
DEFPOINTS
  6
CONTINUOUS
 62
     0
 10
-3839.508218580464
 20
-841.572479965203
 30
0.0
  0
ENDBLK
  5
697
  8
0
  6
CONTINUOUS
 62
     7
  0
BLOCK
  8
0
  2
*D68
 70
     1
 10
0.0
 20
0.0
 30
0.0
  3
*D68
  1

  0
LINE
  5
699
  8
回07-寸法
  6
CONTINUOUS
 62
     5
 10
-3850.188226590466
 20
-859.6124799652038
 30
0.0
 11
-3908.238226580465
 21
-859.6124799652038
 31
0.0
  0
LINE
  5
69A
  8
回07-寸法
  6
CONTINUOUS
 62
     5
 10
-3850.188226590466
 20
-1152.812479965202
 30
0.0
 11
-3908.238226580465
 21
-1152.812479965202
 31
0.0
  0
LINE
  5
69B
  8
回07-寸法
  6
CONTINUOUS
 62
     5
 10
-3907.238226580465
 20
-862.6124799652039
 30
0.0
 11
-3907.238226580465
 21
-1149.812479965202
 31
0.0
  0
INSERT
  5
69C
  8
回07-寸法
  6
CONTINUOUS
 62
     5
  2
_OPEN
 10
-3907.238226580465
 20
-859.6124799652038
 30
0.0
 41
3.0
 42
3.0
 43
3.0
 50
90.0
  0
INSERT
  5
69D
  8
回07-寸法
  6
CONTINUOUS
 62
     5
  2
_OPEN
 10
-3907.238226580465
 20
-1152.812479965202
 30
0.0
 41
3.0
 42
3.0
 43
3.0
 50
270.0
  0
INSERT
  5
69E
  8
回07-寸法
  6
CONTINUOUS
 62
     5
 66
     1
  2
*X107
 10
0.0
 20
0.0
 30
0.0
  0
SEQEND
  5
8FC
  8
0
  6
CONTINUOUS
 62
     7
  0
POINT
  5
69F
  8
DEFPOINTS
  6
CONTINUOUS
 62
     0
 10
-3850.188226590466
 20
-859.6124799652038
 30
0.0
  0
POINT
  5
6A0
  8
DEFPOINTS
  6
CONTINUOUS
 62
     0
 10
-3850.188226590466
 20
-1152.812479965202
 30
0.0
  0
POINT
  5
6A1
  8
DEFPOINTS
  6
CONTINUOUS
 62
     0
 10
-3907.238226580465
 20
-1152.812479965202
 30
0.0
  0
ENDBLK
  5
6A3
  8
0
  6
CONTINUOUS
 62
     7
  0
BLOCK
  8
0
  2
*D69
 70
     1
 10
0.0
 20
0.0
 30
0.0
  3
*D69
  1

  0
LINE
  5
6A5
  8
回07-寸法
  6
CONTINUOUS
 62
     5
 10
-3841.508226580465
 20
-869.6574799652029
 30
0.0
 11
-3884.238226580464
 21
-869.6574799652029
 31
0.0
  0
LINE
  5
6A6
  8
回07-寸法
  6
CONTINUOUS
 62
     5
 10
-3841.508226580465
 20
-1141.767479965203
 30
0.0
 11
-3884.238226580464
 21
-1141.767479965203
 31
0.0
  0
LINE
  5
6A7
  8
回07-寸法
  6
CONTINUOUS
 62
     5
 10
-3883.238226580465
 20
-872.6574799652031
 30
0.0
 11
-3883.238226580465
 21
-1138.767479965203
 31
0.0
  0
INSERT
  5
6A8
  8
回07-寸法
  6
CONTINUOUS
 62
     5
  2
_OPEN
 10
-3883.238226580465
 20
-869.6574799652029
 30
0.0
 41
3.0
 42
3.0
 43
3.0
 50
90.0
  0
INSERT
  5
6A9
  8
回07-寸法
  6
CONTINUOUS
 62
     5
  2
_OPEN
 10
-3883.238226580465
 20
-1141.767479965203
 30
0.0
 41
3.0
 42
3.0
 43
3.0
 50
270.0
  0
TEXT
  5
6AA
  8
回07-寸法
  6
CONTINUOUS
 62
     5
 10
-3884.988226580464
 20
-1036.211495713234
 30
0.0
 40
5.0
  1
272.11(Viewing Area)
 50
90.0
  0
POINT
  5
6AB
  8
DEFPOINTS
  6
CONTINUOUS
 62
     0
 10
-3841.508226580465
 20
-869.6574799652029
 30
0.0
  0
POINT
  5
6AC
  8
DEFPOINTS
  6
CONTINUOUS
 62
     0
 10
-3841.508226580465
 20
-1141.767479965203
 30
0.0
  0
POINT
  5
6AD
  8
DEFPOINTS
  6
CONTINUOUS
 62
     0
 10
-3883.238226580465
 20
-1141.767479965203
 30
0.0
  0
ENDBLK
  5
6AF
  8
0
  6
CONTINUOUS
 62
     7
  0
BLOCK
  8
0
  2
*D70
 70
     1
 10
0.0
 20
0.0
 30
0.0
  3
*D70
  1

  0
LINE
  5
6B1
  8
回07-寸法
  6
CONTINUOUS
 62
     5
 10
-3839.508226590465
 20
-1139.767479965203
 30
0.0
 11
-3872.238226580465
 21
-1139.767479965203
 31
0.0
  0
LINE
  5
6B2
  8
回07-寸法
  6
CONTINUOUS
 62
     5
 10
-3839.508226580465
 20
-871.6574799652031
 30
0.0
 11
-3872.238226580465
 21
-871.6574799652031
 31
0.0
  0
LINE
  5
6B3
  8
回07-寸法
  6
CONTINUOUS
 62
     5
 10
-3871.238226580464
 20
-1136.767479965203
 30
0.0
 11
-3871.238226580464
 21
-874.657479965203
 31
0.0
  0
INSERT
  5
6B4
  8
回07-寸法
  6
CONTINUOUS
 62
     5
  2
_OPEN
 10
-3871.238226580464
 20
-1139.767479965203
 30
0.0
 41
3.0
 42
3.0
 43
3.0
 50
270.0
  0
INSERT
  5
6B5
  8
回07-寸法
  6
CONTINUOUS
 62
     5
  2
_OPEN
 10
-3871.238226580464
 20
-871.6574799652031
 30
0.0
 41
3.0
 42
3.0
 43
3.0
 50
90.0
  0
TEXT
  5
6B6
  8
回07-寸法
  6
CONTINUOUS
 62
     5
 10
-3871.988226580464
 20
-1034.461995713234
 30
0.0
 40
5.0
  1
268.11(Active Area)
 50
90.0
  0
POINT
  5
6B7
  8
DEFPOINTS
  6
CONTINUOUS
 62
     0
 10
-3839.508226590465
 20
-1139.767479965203
 30
0.0
  0
POINT
  5
6B8
  8
DEFPOINTS
  6
CONTINUOUS
 62
     0
 10
-3839.508226580465
 20
-871.6574799652031
 30
0.0
  0
POINT
  5
6B9
  8
DEFPOINTS
  6
CONTINUOUS
 62
     0
 10
-3871.238226580464
 20
-871.6574799652031
 30
0.0
  0
ENDBLK
  5
6BB
  8
0
  6
CONTINUOUS
 62
     7
  0
BLOCK
  8
0
  2
*D71
 70
     1
 10
0.0
 20
0.0
 30
0.0
  3
*D71
  1

  0
LINE
  5
6BD
  8
回08-記事
  6
CONTINUOUS
 62
     5
 10
-3292.454626461302
 20
-1252.808431594391
 30
0.0
 11
-3292.454626461302
 21
-1269.596526032452
 31
0.0
  0
LINE
  5
6BE
  8
回08-記事
  6
CONTINUOUS
 62
     5
 10
-3289.954626461302
 20
-1252.808431594391
 30
0.0
 11
-3289.954626461302
 21
-1269.596526032452
 31
0.0
  0
LINE
  5
6BF
  8
回08-記事
  6
CONTINUOUS
 62
     5
 10
-3286.954626461302
 20
-1268.596526032452
 30
0.0
 11
-3265.366864453429
 21
-1268.596526032452
 31
0.0
  0
LINE
  5
6C0
  8
回08-記事
  6
CONTINUOUS
 62
     5
 10
-3292.454626461302
 20
-1268.596526032452
 30
0.0
 11
-3289.954626461302
 21
-1268.596526032452
 31
0.0
  0
LINE
  5
6C1
  8
回08-記事
  6
CONTINUOUS
 62
     5
 10
-3295.454626461302
 20
-1268.596526032452
 30
0.0
 11
-3298.454626461302
 21
-1268.596526032452
 31
0.0
  0
INSERT
  5
6C2
  8
回08-記事
  6
CONTINUOUS
 62
     5
  2
_OPEN
 10
-3292.454626461302
 20
-1268.596526032452
 30
0.0
 41
3.0
 42
3.0
 43
3.0
  0
INSERT
  5
6C3
  8
回08-記事
  6
CONTINUOUS
 62
     5
  2
_OPEN
 10
-3289.954626461302
 20
-1268.596526032452
 30
0.0
 41
3.0
 42
3.0
 43
3.0
 50
180.0
  0
INSERT
  5
6C4
  8
回08-記事
  6
CONTINUOUS
 62
     5
 66
     1
  2
*X108
 10
0.0
 20
0.0
 30
0.0
  0
SEQEND
  5
902
  8
0
  6
CONTINUOUS
 62
     7
  0
POINT
  5
6C5
  8
DEFPOINTS
  6
CONTINUOUS
 62
     0
 10
-3292.454626461302
 20
-1252.808431594391
 30
0.0
  0
POINT
  5
6C6
  8
DEFPOINTS
  6
CONTINUOUS
 62
     0
 10
-3289.954626461302
 20
-1252.808431594391
 30
0.0
  0
POINT
  5
6C7
  8
DEFPOINTS
  6
CONTINUOUS
 62
     0
 10
-3289.954626461302
 20
-1268.596526032452
 30
0.0
  0
ENDBLK
  5
6C9
  8
0
  6
CONTINUOUS
 62
     7
  0
BLOCK
  8
0
  2
*D72
 70
     1
 10
0.0
 20
0.0
 30
0.0
  3
*D72
  1

  0
LINE
  5
6CB
  8
回08-記事
  6
CONTINUOUS
 62
     5
 10
-3297.347810680272
 20
-1252.808431594391
 30
0.0
 11
-3297.347810680272
 21
-1265.642795995354
 31
0.0
  0
LINE
  5
6CC
  8
回08-記事
  6
CONTINUOUS
 62
     5
 10
-3299.847810680272
 20
-1252.808431594391
 30
0.0
 11
-3299.847810680272
 21
-1265.642795995354
 31
0.0
  0
LINE
  5
6CD
  8
回08-記事
  6
CONTINUOUS
 62
     5
 10
-3302.847810680272
 20
-1264.642795995354
 30
0.0
 11
-3324.435572688146
 21
-1264.642795995354
 31
0.0
  0
LINE
  5
6CE
  8
回08-記事
  6
CONTINUOUS
 62
     5
 10
-3297.347810680272
 20
-1264.642795995354
 30
0.0
 11
-3299.847810680272
 21
-1264.642795995354
 31
0.0
  0
LINE
  5
6CF
  8
回08-記事
  6
CONTINUOUS
 62
     5
 10
-3294.347810680272
 20
-1264.642795995354
 30
0.0
 11
-3291.347810680272
 21
-1264.642795995354
 31
0.0
  0
INSERT
  5
6D0
  8
回08-記事
  6
CONTINUOUS
 62
     5
  2
_OPEN
 10
-3297.347810680272
 20
-1264.642795995354
 30
0.0
 41
3.0
 42
3.0
 43
3.0
 50
180.0
  0
INSERT
  5
6D1
  8
回08-記事
  6
CONTINUOUS
 62
     5
  2
_OPEN
 10
-3299.847810680272
 20
-1264.642795995354
 30
0.0
 41
3.0
 42
3.0
 43
3.0
  0
INSERT
  5
6D2
  8
回08-記事
  6
CONTINUOUS
 62
     5
 66
     1
  2
*X109
 10
0.0
 20
0.0
 30
0.0
  0
SEQEND
  5
908
  8
0
  6
CONTINUOUS
 62
     7
  0
POINT
  5
6D3
  8
DEFPOINTS
  6
CONTINUOUS
 62
     0
 10
-3297.347810680272
 20
-1252.808431594391
 30
0.0
  0
POINT
  5
6D4
  8
DEFPOINTS
  6
CONTINUOUS
 62
     0
 10
-3299.847810680272
 20
-1252.808431594391
 30
0.0
  0
POINT
  5
6D5
  8
DEFPOINTS
  6
CONTINUOUS
 62
     0
 10
-3299.847810680272
 20
-1264.642795995354
 30
0.0
  0
ENDBLK
  5
6D7
  8
0
  6
CONTINUOUS
 62
     7
  0
BLOCK
  8
0
  2
*D73
 70
     1
 10
0.0
 20
0.0
 30
0.0
  3
*D73
  1

  0
LINE
  5
6D9
  8
回08-記事
  6
CONTINUOUS
 62
     5
 10
-3297.347810680272
 20
-1242.808431594391
 30
0.0
 11
-3292.07327781591
 21
-1242.808431594391
 31
0.0
  0
LINE
  5
6DA
  8
回08-記事
  6
CONTINUOUS
 62
     5
 10
-3297.347810680272
 20
-1252.808431594391
 30
0.0
 11
-3292.07327781591
 21
-1252.808431594391
 31
0.0
  0
LINE
  5
6DB
  8
回08-記事
  6
CONTINUOUS
 62
     5
 10
-3293.07327781591
 20
-1245.808431594391
 30
0.0
 11
-3293.07327781591
 21
-1249.808431594391
 31
0.0
  0
INSERT
  5
6DC
  8
回08-記事
  6
CONTINUOUS
 62
     5
  2
_OPEN
 10
-3293.07327781591
 20
-1242.808431594391
 30
0.0
 41
3.0
 42
3.0
 43
3.0
 50
90.0
  0
INSERT
  5
6DD
  8
回08-記事
  6
CONTINUOUS
 62
     5
  2
_OPEN
 10
-3293.07327781591
 20
-1252.808431594391
 30
0.0
 41
3.0
 42
3.0
 43
3.0
 50
270.0
  0
TEXT
  5
6DE
  8
回08-記事
  6
CONTINUOUS
 62
     5
 10
-3293.739945315909
 20
-1251.141781594391
 30
0.0
 40
3.333349999999999
  1
(10)
 50
90.0
  0
POINT
  5
6DF
  8
DEFPOINTS
  6
CONTINUOUS
 62
     0
 10
-3297.347810680272
 20
-1242.808431594391
 30
0.0
  0
POINT
  5
6E0
  8
DEFPOINTS
  6
CONTINUOUS
 62
     0
 10
-3297.347810680272
 20
-1252.808431594391
 30
0.0
  0
POINT
  5
6E1
  8
DEFPOINTS
  6
CONTINUOUS
 62
     0
 10
-3293.07327781591
 20
-1252.808431594391
 30
0.0
  0
ENDBLK
  5
6E3
  8
0
  6
CONTINUOUS
 62
     7
  0
BLOCK
  8
0
  2
*D74
 70
     1
 10
0.0
 20
0.0
 30
0.0
  3
*D74
  1

  0
LINE
  5
6E5
  8
回08-記事
  6
CONTINUOUS
 62
     5
 10
-3289.954626461302
 20
-1252.808431594391
 30
0.0
 11
-3276.680040895386
 21
-1252.808431594391
 31
0.0
  0
LINE
  5
6E6
  8
回08-記事
  6
CONTINUOUS
 62
     5
 10
-3289.254626461301
 20
-1247.808431594391
 30
0.0
 11
-3276.680040895386
 21
-1247.808431594391
 31
0.0
  0
LINE
  5
6E7
  8
回08-記事
  6
CONTINUOUS
 62
     5
 10
-3277.680040895386
 20
-1244.808431594391
 30
0.0
 11
-3277.680040895386
 21
-1238.808431594391
 31
0.0
  0
LINE
  5
6E8
  8
回08-記事
  6
CONTINUOUS
 62
     5
 10
-3277.680040895386
 20
-1252.808431594391
 30
0.0
 11
-3277.680040895386
 21
-1247.808431594391
 31
0.0
  0
LINE
  5
6E9
  8
回08-記事
  6
CONTINUOUS
 62
     5
 10
-3277.680040895386
 20
-1255.808431594391
 30
0.0
 11
-3277.680040895386
 21
-1258.808431594391
 31
0.0
  0
INSERT
  5
6EA
  8
回08-記事
  6
CONTINUOUS
 62
     5
  2
_OPEN
 10
-3277.680040895386
 20
-1252.808431594391
 30
0.0
 41
3.0
 42
3.0
 43
3.0
 50
90.0
  0
INSERT
  5
6EB
  8
回08-記事
  6
CONTINUOUS
 62
     5
  2
_OPEN
 10
-3277.680040895386
 20
-1247.808431594391
 30
0.0
 41
3.0
 42
3.0
 43
3.0
 50
270.0
  0
TEXT
  5
6EC
  8
回08-記事
  6
CONTINUOUS
 62
     5
 10
-3278.180040895386
 20
-1242.058431594391
 30
0.0
 40
5.0
  1
5
 50
90.0
  0
POINT
  5
6ED
  8
DEFPOINTS
  6
CONTINUOUS
 62
     0
 10
-3289.954626461302
 20
-1252.808431594391
 30
0.0
  0
POINT
  5
6EE
  8
DEFPOINTS
  6
CONTINUOUS
 62
     0
 10
-3289.254626461301
 20
-1247.808431594391
 30
0.0
  0
POINT
  5
6EF
  8
DEFPOINTS
  6
CONTINUOUS
 62
     0
 10
-3277.680040895386
 20
-1247.808431594391
 30
0.0
  0
ENDBLK
  5
6F1
  8
0
  6
CONTINUOUS
 62
     7
  0
BLOCK
  8
0
  2
*D75
 70
     1
 10
0.0
 20
0.0
 30
0.0
  3
*D75
  1

  0
LINE
  5
6F3
  8
回08-記事
  6
CONTINUOUS
 62
     5
 10
-3299.847810680272
 20
-1252.808431594391
 30
0.0
 11
-3308.809220849243
 21
-1252.808431594391
 31
0.0
  0
LINE
  5
6F4
  8
回08-記事
  6
CONTINUOUS
 62
     5
 10
-3300.547810680272
 20
-1247.808431594391
 30
0.0
 11
-3308.809220849243
 21
-1247.808431594391
 31
0.0
  0
LINE
  5
6F5
  8
回08-記事
  6
CONTINUOUS
 62
     5
 10
-3307.809220849244
 20
-1252.808431594391
 30
0.0
 11
-3307.809220849244
 21
-1247.808431594391
 31
0.0
  0
LINE
  5
6F6
  8
回08-記事
  6
CONTINUOUS
 62
     5
 10
-3307.809220849244
 20
-1255.808431594391
 30
0.0
 11
-3307.809220849244
 21
-1258.808431594391
 31
0.0
  0
LINE
  5
6F7
  8
回08-記事
  6
CONTINUOUS
 62
     5
 10
-3307.809220849244
 20
-1244.808431594391
 30
0.0
 11
-3307.809220849244
 21
-1241.808431594391
 31
0.0
  0
INSERT
  5
6F8
  8
回08-記事
  6
CONTINUOUS
 62
     5
  2
_OPEN
 10
-3307.809220849244
 20
-1252.808431594391
 30
0.0
 41
3.0
 42
3.0
 43
3.0
 50
90.0
  0
INSERT
  5
6F9
  8
回08-記事
  6
CONTINUOUS
 62
     5
  2
_OPEN
 10
-3307.809220849244
 20
-1247.808431594391
 30
0.0
 41
3.0
 42
3.0
 43
3.0
 50
270.0
  0
TEXT
  5
6FA
  8
回08-記事
  6
CONTINUOUS
 62
     5
 10
-3308.309220849244
 20
-1252.05843159439
 30
0.0
 40
5.0
  1
5
 50
90.0
  0
POINT
  5
6FB
  8
DEFPOINTS
  6
CONTINUOUS
 62
     0
 10
-3299.847810680272
 20
-1252.808431594391
 30
0.0
  0
POINT
  5
6FC
  8
DEFPOINTS
  6
CONTINUOUS
 62
     0
 10
-3300.547810680272
 20
-1247.808431594391
 30
0.0
  0
POINT
  5
6FD
  8
DEFPOINTS
  6
CONTINUOUS
 62
     0
 10
-3307.809220849244
 20
-1247.808431594391
 30
0.0
  0
ENDBLK
  5
6FF
  8
0
  6
CONTINUOUS
 62
     7
  0
BLOCK
  8
0
  2
*D76
 70
     1
 10
0.0
 20
0.0
 30
0.0
  3
*D76
  1

  0
LINE
  5
701
  8
回07-寸法
  6
CONTINUOUS
 62
     5
 10
-3303.847810680272
 20
-860.3682874933658
 30
0.0
 11
-3303.847810680272
 21
-849.5931565017308
 31
0.0
  0
LINE
  5
702
  8
回07-寸法
  6
CONTINUOUS
 62
     5
 10
-3282.954626461302
 20
-859.6124799652029
 30
0.0
 11
-3282.954626461302
 21
-849.5931565017308
 31
0.0
  0
LINE
  5
703
  8
回07-寸法
  6
CONTINUOUS
 62
     5
 10
-3300.847810680272
 20
-850.5931565017307
 30
0.0
 11
-3285.954626461302
 21
-850.5931565017307
 31
0.0
  0
INSERT
  5
704
  8
回07-寸法
  6
CONTINUOUS
 62
     5
  2
_OPEN
 10
-3303.847810680272
 20
-850.5931565017307
 30
0.0
 41
3.0
 42
3.0
 43
3.0
 50
180.0
  0
INSERT
  5
705
  8
回07-寸法
  6
CONTINUOUS
 62
     5
  2
_OPEN
 10
-3282.954626461302
 20
-850.5931565017307
 30
0.0
 41
3.0
 42
3.0
 43
3.0
  0
INSERT
  5
706
  8
回07-寸法
  6
CONTINUOUS
 62
     5
 66
     1
  2
*X110
 10
0.0
 20
0.0
 30
0.0
  0
SEQEND
  5
90E
  8
0
  6
CONTINUOUS
 62
     7
  0
POINT
  5
707
  8
DEFPOINTS
  6
CONTINUOUS
 62
     0
 10
-3303.847810680272
 20
-860.3682874933658
 30
0.0
  0
POINT
  5
708
  8
DEFPOINTS
  6
CONTINUOUS
 62
     0
 10
-3282.954626461302
 20
-859.6124799652029
 30
0.0
  0
POINT
  5
709
  8
DEFPOINTS
  6
CONTINUOUS
 62
     0
 10
-3282.954626461302
 20
-850.5931565017307
 30
0.0
  0
ENDBLK
  5
70B
  8
0
  6
CONTINUOUS
 62
     7
  0
BLOCK
  8
0
  2
*X77
 70
     1
 10
0.0
 20
0.0
 30
0.0
  3
*X77
  1

  0
TEXT
  5
77E
  8
回08-記事
  6
CONTINUOUS
 62
     5
 10
-3661.841191151751
 20
-1203.286229122255
 30
0.0
 40
4.0
  1
･Part No.label
  0
TEXT
  5
77F
  8
回08-記事
  6
CONTINUOUS
 62
     5
 10
-3661.841191151751
 20
-1209.952895788922
 30
0.0
 40
4.0
  1
･Lot label
  0
ENDBLK
  5
781
  8
0
  6
CONTINUOUS
 62
     7
  0
BLOCK
  8
0
  2
*X78
 70
     1
 10
0.0
 20
0.0
 30
0.0
  3
*X78
  1

  0
INSERT
  5
784
  8
回08-記事
  6
CONTINUOUS
 62
     5
  2
_OPEN
 10
-3615.46548379915
 20
-1194.279072315973
 30
0.0
 41
1.5
 42
1.5
 43
1.5
 50
56.16346191535542
  0
LINE
  5
785
  8
回08-記事
  6
CONTINUOUS
 62
     5
 10
-3616.300721943182
 20
-1195.525016633651
 30
0.0
 11
-3626.307857818418
 21
-1210.452895788922
 31
0.0
  0
LINE
  5
786
  8
回08-記事
  6
CONTINUOUS
 62
     5
 10
-3626.307857818418
 20
-1210.452895788922
 30
0.0
 11
-3661.041191151751
 21
-1210.452895788922
 31
0.0
  0
ENDBLK
  5
788
  8
0
  6
CONTINUOUS
 62
     7
  0
BLOCK
  8
0
  2
*X79
 70
     1
 10
0.0
 20
0.0
 30
0.0
  3
*X79
  1

  0
SOLID
  5
78B
  8
回08-記事
  6
CONTINUOUS
 62
     5
 10
-3286.955421440894
 20
-1193.114287848782
 30
0.0
 11
-3288.846129747564
 21
-1193.846635587362
 31
0.0
 12
-3287.295140075389
 22
-1192.540671518975
 32
0.0
 13
-3287.295140075389
 23
-1192.540671518975
 33
0.0
  0
LINE
  5
78C
  8
回08-記事
  6
CONTINUOUS
 62
     5
 10
-3287.125280758142
 20
-1192.827479683878
 30
0.0
 11
-3282.305503109373
 21
-1189.97301373456
 31
0.0
  0
LINE
  5
78D
  8
回08-記事
  6
CONTINUOUS
 62
     5
 10
-3282.305503109373
 20
-1189.97301373456
 30
0.0
 11
-3253.805503109373
 21
-1189.97301373456
 31
0.0
  0
ENDBLK
  5
78F
  8
0
  6
CONTINUOUS
 62
     7
  0
BLOCK
  8
0
  2
*X80
 70
     1
 10
0.0
 20
0.0
 30
0.0
  3
*X80
  1

  0
SOLID
  5
792
  8
回08-記事
  6
CONTINUOUS
 62
     5
 10
-3292.857749250808
 20
-1192.772639134908
 30
0.0
 11
-3291.261096560719
 21
-1194.022363623884
 31
0.0
 12
-3293.17675975047
 22
-1193.358025114881
 32
0.0
 13
-3293.17675975047
 23
-1193.358025114881
 33
0.0
  0
LINE
  5
793
  8
回08-記事
  6
CONTINUOUS
 62
     5
 10
-3293.017254500639
 20
-1193.065332124895
 30
0.0
 11
-3300.14086180498
 21
-1189.183268660266
 31
0.0
  0
LINE
  5
794
  8
回08-記事
  6
CONTINUOUS
 62
     5
 10
-3300.14086180498
 20
-1189.183268660266
 30
0.0
 11
-3344.140861804979
 21
-1189.183268660266
 31
0.0
  0
ENDBLK
  5
796
  8
0
  6
CONTINUOUS
 62
     7
  0
BLOCK
  8
0
  2
*X81
 70
     1
 10
0.0
 20
0.0
 30
0.0
  3
*X81
  1

  0
LINE
  5
7A2
  8
回08-記事
  6
CONTINUOUS
 62
     7
 10
-3617.502311510146
 20
-1172.830601453797
 30
0.0
 11
-3617.064919036965
 21
-1172.393208980617
 31
0.0
1001
GradientColor1ACI
1070
     5
1001
GradientColor2ACI
1070
     2
1001
ACAD
1010
0.0
1020
0.0
1030
0.0
  0
LINE
  5
7A3
  8
回08-記事
  6
CONTINUOUS
 62
     7
 10
-3617.502311510146
 20
-1174.177639871958
 30
0.0
 11
-3615.717880618805
 21
-1172.393208980616
 31
0.0
1001
GradientColor1ACI
1070
     5
1001
GradientColor2ACI
1070
     2
1001
ACAD
1010
0.0
1020
0.0
1030
0.0
  0
LINE
  5
7A4
  8
回08-記事
  6
CONTINUOUS
 62
     7
 10
-3617.502311510146
 20
-1175.524678290118
 30
0.0
 11
-3614.370842200645
 21
-1172.393208980617
 31
0.0
1001
GradientColor1ACI
1070
     5
1001
GradientColor2ACI
1070
     2
1001
ACAD
1010
0.0
1020
0.0
1030
0.0
  0
LINE
  5
7A5
  8
回08-記事
  6
CONTINUOUS
 62
     7
 10
-3617.502311510146
 20
-1176.871716708278
 30
0.0
 11
-3613.502311510146
 21
-1172.871716708278
 31
0.0
1001
GradientColor1ACI
1070
     5
1001
GradientColor2ACI
1070
     2
1001
ACAD
1010
0.0
1020
0.0
1030
0.0
  0
LINE
  5
7A6
  8
回08-記事
  6
CONTINUOUS
 62
     7
 10
-3617.502311510146
 20
-1178.218755126438
 30
0.0
 11
-3613.502311510146
 21
-1174.218755126439
 31
0.0
1001
GradientColor1ACI
1070
     5
1001
GradientColor2ACI
1070
     2
1001
ACAD
1010
0.0
1020
0.0
1030
0.0
  0
LINE
  5
7A7
  8
回08-記事
  6
CONTINUOUS
 62
     7
 10
-3617.502311510146
 20
-1179.565793544599
 30
0.0
 11
-3613.502311510146
 21
-1175.565793544599
 31
0.0
1001
GradientColor1ACI
1070
     5
1001
GradientColor2ACI
1070
     2
1001
ACAD
1010
0.0
1020
0.0
1030
0.0
  0
LINE
  5
7A8
  8
回08-記事
  6
CONTINUOUS
 62
     7
 10
-3617.502311510146
 20
-1180.912831962759
 30
0.0
 11
-3613.502311510146
 21
-1176.912831962759
 31
0.0
1001
GradientColor1ACI
1070
     5
1001
GradientColor2ACI
1070
     2
1001
ACAD
1010
0.0
1020
0.0
1030
0.0
  0
LINE
  5
7A9
  8
回08-記事
  6
CONTINUOUS
 62
     7
 10
-3617.502311510146
 20
-1182.25987038092
 30
0.0
 11
-3613.502311510146
 21
-1178.259870380919
 31
0.0
1001
GradientColor1ACI
1070
     5
1001
GradientColor2ACI
1070
     2
1001
ACAD
1010
0.0
1020
0.0
1030
0.0
  0
LINE
  5
7AA
  8
回08-記事
  6
CONTINUOUS
 62
     7
 10
-3617.502311510146
 20
-1183.606908799079
 30
0.0
 11
-3613.502311510146
 21
-1179.60690879908
 31
0.0
1001
GradientColor1ACI
1070
     5
1001
GradientColor2ACI
1070
     2
1001
ACAD
1010
0.0
1020
0.0
1030
0.0
  0
LINE
  5
7AB
  8
回08-記事
  6
CONTINUOUS
 62
     7
 10
-3617.502311510147
 20
-1184.953947217241
 30
0.0
 11
-3613.502311510146
 21
-1180.95394721724
 31
0.0
1001
GradientColor1ACI
1070
     5
1001
GradientColor2ACI
1070
     2
1001
ACAD
1010
0.0
1020
0.0
1030
0.0
  0
LINE
  5
7AC
  8
回08-記事
  6
CONTINUOUS
 62
     7
 10
-3617.502311510147
 20
-1186.300985635401
 30
0.0
 11
-3613.502311510146
 21
-1182.3009856354
 31
0.0
1001
GradientColor1ACI
1070
     5
1001
GradientColor2ACI
1070
     2
1001
ACAD
1010
0.0
1020
0.0
1030
0.0
  0
LINE
  5
7AD
  8
回08-記事
  6
CONTINUOUS
 62
     7
 10
-3617.502311510146
 20
-1187.648024053561
 30
0.0
 11
-3613.502311510146
 21
-1183.648024053561
 31
0.0
1001
GradientColor1ACI
1070
     5
1001
GradientColor2ACI
1070
     2
1001
ACAD
1010
0.0
1020
0.0
1030
0.0
  0
LINE
  5
7AE
  8
回08-記事
  6
CONTINUOUS
 62
     7
 10
-3617.502311510146
 20
-1188.995062471721
 30
0.0
 11
-3613.502311510146
 21
-1184.995062471721
 31
0.0
1001
GradientColor1ACI
1070
     5
1001
GradientColor2ACI
1070
     2
1001
ACAD
1010
0.0
1020
0.0
1030
0.0
  0
LINE
  5
7AF
  8
回08-記事
  6
CONTINUOUS
 62
     7
 10
-3617.502311510146
 20
-1190.342100889881
 30
0.0
 11
-3613.502311510146
 21
-1186.342100889881
 31
0.0
1001
GradientColor1ACI
1070
     5
1001
GradientColor2ACI
1070
     2
1001
ACAD
1010
0.0
1020
0.0
1030
0.0
  0
LINE
  5
7B0
  8
回08-記事
  6
CONTINUOUS
 62
     7
 10
-3617.502311510146
 20
-1191.689139308042
 30
0.0
 11
-3613.502311510146
 21
-1187.689139308042
 31
0.0
1001
GradientColor1ACI
1070
     5
1001
GradientColor2ACI
1070
     2
1001
ACAD
1010
0.0
1020
0.0
1030
0.0
  0
LINE
  5
7B1
  8
回08-記事
  6
CONTINUOUS
 62
     7
 10
-3617.502311510146
 20
-1193.036177726202
 30
0.0
 11
-3613.502311510146
 21
-1189.036177726202
 31
0.0
1001
GradientColor1ACI
1070
     5
1001
GradientColor2ACI
1070
     2
1001
ACAD
1010
0.0
1020
0.0
1030
0.0
  0
LINE
  5
7B2
  8
回08-記事
  6
CONTINUOUS
 62
     7
 10
-3617.502311510146
 20
-1194.383216144362
 30
0.0
 11
-3613.502311510146
 21
-1190.383216144362
 31
0.0
1001
GradientColor1ACI
1070
     5
1001
GradientColor2ACI
1070
     2
1001
ACAD
1010
0.0
1020
0.0
1030
0.0
  0
LINE
  5
7B3
  8
回08-記事
  6
CONTINUOUS
 62
     7
 10
-3617.502311510146
 20
-1195.730254562522
 30
0.0
 11
-3613.502311510146
 21
-1191.730254562522
 31
0.0
1001
GradientColor1ACI
1070
     5
1001
GradientColor2ACI
1070
     2
1001
ACAD
1010
0.0
1020
0.0
1030
0.0
  0
LINE
  5
7B4
  8
回08-記事
  6
CONTINUOUS
 62
     7
 10
-3617.502311510146
 20
-1197.077292980683
 30
0.0
 11
-3613.502311510146
 21
-1193.077292980683
 31
0.0
1001
GradientColor1ACI
1070
     5
1001
GradientColor2ACI
1070
     2
1001
ACAD
1010
0.0
1020
0.0
1030
0.0
  0
LINE
  5
7B5
  8
回08-記事
  6
CONTINUOUS
 62
     7
 10
-3617.471189091919
 20
-1198.393208980616
 30
0.0
 11
-3613.502311510146
 21
-1194.424331398843
 31
0.0
1001
GradientColor1ACI
1070
     5
1001
GradientColor2ACI
1070
     2
1001
ACAD
1010
0.0
1020
0.0
1030
0.0
  0
LINE
  5
7B6
  8
回08-記事
  6
CONTINUOUS
 62
     7
 10
-3616.124150673758
 20
-1198.393208980616
 30
0.0
 11
-3613.502311510146
 21
-1195.771369817003
 31
0.0
1001
GradientColor1ACI
1070
     5
1001
GradientColor2ACI
1070
     2
1001
ACAD
1010
0.0
1020
0.0
1030
0.0
  0
LINE
  5
7B7
  8
回08-記事
  6
CONTINUOUS
 62
     7
 10
-3614.777112255599
 20
-1198.393208980617
 30
0.0
 11
-3613.502311510146
 21
-1197.118408235163
 31
0.0
1001
GradientColor1ACI
1070
     5
1001
GradientColor2ACI
1070
     2
1001
ACAD
1010
0.0
1020
0.0
1030
0.0
  0
ENDBLK
  5
7B9
  8
0
  6
CONTINUOUS
 62
     7
  0
BLOCK
  8
0
  2
*X82
 70
     1
 10
0.0
 20
0.0
 30
0.0
  3
*X82
  1

  0
LINE
  5
7C6
  8
回08-記事
  6
CONTINUOUS
 62
     7
 10
-3291.654626461301
 20
-1174.880568832106
 30
0.0
 11
-3290.954626461302
 21
-1174.180568832106
 31
0.0
1001
GradientColor1ACI
1070
     5
1001
GradientColor2ACI
1070
     2
1001
ACAD
1010
0.0
1020
0.0
1030
0.0
  0
LINE
  5
7C7
  8
回08-記事
  6
CONTINUOUS
 62
     7
 10
-3291.654626461302
 20
-1176.227607250267
 30
0.0
 11
-3290.954626461302
 21
-1175.527607250267
 31
0.0
1001
GradientColor1ACI
1070
     5
1001
GradientColor2ACI
1070
     2
1001
ACAD
1010
0.0
1020
0.0
1030
0.0
  0
LINE
  5
7C8
  8
回08-記事
  6
CONTINUOUS
 62
     7
 10
-3291.654626461301
 20
-1177.574645668427
 30
0.0
 11
-3290.954626461302
 21
-1176.874645668427
 31
0.0
1001
GradientColor1ACI
1070
     5
1001
GradientColor2ACI
1070
     2
1001
ACAD
1010
0.0
1020
0.0
1030
0.0
  0
LINE
  5
7C9
  8
回08-記事
  6
CONTINUOUS
 62
     7
 10
-3291.654626461302
 20
-1178.921684086587
 30
0.0
 11
-3290.954626461302
 21
-1178.221684086588
 31
0.0
1001
GradientColor1ACI
1070
     5
1001
GradientColor2ACI
1070
     2
1001
ACAD
1010
0.0
1020
0.0
1030
0.0
  0
LINE
  5
7CA
  8
回08-記事
  6
CONTINUOUS
 62
     7
 10
-3291.654626461302
 20
-1180.268722504747
 30
0.0
 11
-3290.954626461302
 21
-1179.568722504747
 31
0.0
1001
GradientColor1ACI
1070
     5
1001
GradientColor2ACI
1070
     2
1001
ACAD
1010
0.0
1020
0.0
1030
0.0
  0
LINE
  5
7CB
  8
回08-記事
  6
CONTINUOUS
 62
     7
 10
-3291.654626461302
 20
-1181.615760922908
 30
0.0
 11
-3290.954626461302
 21
-1180.915760922908
 31
0.0
1001
GradientColor1ACI
1070
     5
1001
GradientColor2ACI
1070
     2
1001
ACAD
1010
0.0
1020
0.0
1030
0.0
  0
LINE
  5
7CC
  8
回08-記事
  6
CONTINUOUS
 62
     7
 10
-3291.654626461302
 20
-1182.962799341068
 30
0.0
 11
-3290.954626461302
 21
-1182.262799341068
 31
0.0
1001
GradientColor1ACI
1070
     5
1001
GradientColor2ACI
1070
     2
1001
ACAD
1010
0.0
1020
0.0
1030
0.0
  0
LINE
  5
7CD
  8
回08-記事
  6
CONTINUOUS
 62
     7
 10
-3291.654626461301
 20
-1184.309837759228
 30
0.0
 11
-3290.954626461302
 21
-1183.609837759228
 31
0.0
1001
GradientColor1ACI
1070
     5
1001
GradientColor2ACI
1070
     2
1001
ACAD
1010
0.0
1020
0.0
1030
0.0
  0
LINE
  5
7CE
  8
回08-記事
  6
CONTINUOUS
 62
     7
 10
-3291.654626461301
 20
-1185.656876177389
 30
0.0
 11
-3290.954626461302
 21
-1184.956876177389
 31
0.0
1001
GradientColor1ACI
1070
     5
1001
GradientColor2ACI
1070
     2
1001
ACAD
1010
0.0
1020
0.0
1030
0.0
  0
LINE
  5
7CF
  8
回08-記事
  6
CONTINUOUS
 62
     7
 10
-3291.654626461302
 20
-1187.003914595549
 30
0.0
 11
-3290.954626461302
 21
-1186.303914595549
 31
0.0
1001
GradientColor1ACI
1070
     5
1001
GradientColor2ACI
1070
     2
1001
ACAD
1010
0.0
1020
0.0
1030
0.0
  0
LINE
  5
7D0
  8
回08-記事
  6
CONTINUOUS
 62
     7
 10
-3291.654626461302
 20
-1188.350953013709
 30
0.0
 11
-3290.954626461302
 21
-1187.65095301371
 31
0.0
1001
GradientColor1ACI
1070
     5
1001
GradientColor2ACI
1070
     2
1001
ACAD
1010
0.0
1020
0.0
1030
0.0
  0
LINE
  5
7D1
  8
回08-記事
  6
CONTINUOUS
 62
     7
 10
-3291.654626461301
 20
-1189.697991431869
 30
0.0
 11
-3290.954626461302
 21
-1188.99799143187
 31
0.0
1001
GradientColor1ACI
1070
     5
1001
GradientColor2ACI
1070
     2
1001
ACAD
1010
0.0
1020
0.0
1030
0.0
  0
LINE
  5
7D2
  8
回08-記事
  6
CONTINUOUS
 62
     7
 10
-3291.654626461301
 20
-1191.045029850029
 30
0.0
 11
-3290.954626461302
 21
-1190.34502985003
 31
0.0
1001
GradientColor1ACI
1070
     5
1001
GradientColor2ACI
1070
     2
1001
ACAD
1010
0.0
1020
0.0
1030
0.0
  0
LINE
  5
7D3
  8
回08-記事
  6
CONTINUOUS
 62
     7
 10
-3291.654626461301
 20
-1192.39206826819
 30
0.0
 11
-3290.954626461302
 21
-1191.69206826819
 31
0.0
1001
GradientColor1ACI
1070
     5
1001
GradientColor2ACI
1070
     2
1001
ACAD
1010
0.0
1020
0.0
1030
0.0
  0
LINE
  5
7D4
  8
回08-記事
  6
CONTINUOUS
 62
     7
 10
-3291.654626461301
 20
-1193.73910668635
 30
0.0
 11
-3290.954626461302
 21
-1193.039106686351
 31
0.0
1001
GradientColor1ACI
1070
     5
1001
GradientColor2ACI
1070
     2
1001
ACAD
1010
0.0
1020
0.0
1030
0.0
  0
LINE
  5
7D5
  8
回08-記事
  6
CONTINUOUS
 62
     7
 10
-3291.654626461302
 20
-1195.086145104511
 30
0.0
 11
-3290.954626461302
 21
-1194.386145104511
 31
0.0
1001
GradientColor1ACI
1070
     5
1001
GradientColor2ACI
1070
     2
1001
ACAD
1010
0.0
1020
0.0
1030
0.0
  0
LINE
  5
7D6
  8
回08-記事
  6
CONTINUOUS
 62
     7
 10
-3291.654626461302
 20
-1196.433183522672
 30
0.0
 11
-3290.954626461302
 21
-1195.733183522671
 31
0.0
1001
GradientColor1ACI
1070
     5
1001
GradientColor2ACI
1070
     2
1001
ACAD
1010
0.0
1020
0.0
1030
0.0
  0
LINE
  5
7D7
  8
回08-記事
  6
CONTINUOUS
 62
     7
 10
-3291.654626461301
 20
-1197.780221940831
 30
0.0
 11
-3290.954626461302
 21
-1197.080221940831
 31
0.0
1001
GradientColor1ACI
1070
     5
1001
GradientColor2ACI
1070
     2
1001
ACAD
1010
0.0
1020
0.0
1030
0.0
  0
LINE
  5
7D8
  8
回08-記事
  6
CONTINUOUS
 62
     7
 10
-3291.654626461302
 20
-1199.127260358992
 30
0.0
 11
-3290.954626461302
 21
-1198.427260358992
 31
0.0
1001
GradientColor1ACI
1070
     5
1001
GradientColor2ACI
1070
     2
1001
ACAD
1010
0.0
1020
0.0
1030
0.0
  0
LINE
  5
7D9
  8
回08-記事
  6
CONTINUOUS
 62
     7
 10
-3290.969439923144
 20
-1199.789112238994
 30
0.0
 11
-3290.954626461302
 21
-1199.774298777152
 31
0.0
1001
GradientColor1ACI
1070
     5
1001
GradientColor2ACI
1070
     2
1001
ACAD
1010
0.0
1020
0.0
1030
0.0
  0
ENDBLK
  5
7DB
  8
0
  6
CONTINUOUS
 62
     7
  0
BLOCK
  8
0
  2
*X83
 70
     1
 10
0.0
 20
0.0
 30
0.0
  3
*X83
  1

  0
LINE
  5
7E3
  8
回08-記事
  6
CONTINUOUS
 62
     7
 10
-3289.2546264613
 20
-1174.880568832105
 30
0.0
 11
-3288.554626461301
 21
-1174.180568832105
 31
0.0
1001
GradientColor1ACI
1070
     5
1001
GradientColor2ACI
1070
     2
1001
ACAD
1010
0.0
1020
0.0
1030
0.0
  0
LINE
  5
7E4
  8
回08-記事
  6
CONTINUOUS
 62
     7
 10
-3289.254626461301
 20
-1176.227607250266
 30
0.0
 11
-3288.554626461301
 21
-1175.527607250266
 31
0.0
1001
GradientColor1ACI
1070
     5
1001
GradientColor2ACI
1070
     2
1001
ACAD
1010
0.0
1020
0.0
1030
0.0
  0
LINE
  5
7E5
  8
回08-記事
  6
CONTINUOUS
 62
     7
 10
-3289.254626461302
 20
-1177.574645668426
 30
0.0
 11
-3288.554626461301
 21
-1176.874645668426
 31
0.0
1001
GradientColor1ACI
1070
     5
1001
GradientColor2ACI
1070
     2
1001
ACAD
1010
0.0
1020
0.0
1030
0.0
  0
LINE
  5
7E6
  8
回08-記事
  6
CONTINUOUS
 62
     7
 10
-3289.254626461301
 20
-1178.921684086586
 30
0.0
 11
-3288.554626461301
 21
-1178.221684086587
 31
0.0
1001
GradientColor1ACI
1070
     5
1001
GradientColor2ACI
1070
     2
1001
ACAD
1010
0.0
1020
0.0
1030
0.0
  0
LINE
  5
7E7
  8
回08-記事
  6
CONTINUOUS
 62
     7
 10
-3289.254626461301
 20
-1180.268722504747
 30
0.0
 11
-3288.554626461301
 21
-1179.568722504747
 31
0.0
1001
GradientColor1ACI
1070
     5
1001
GradientColor2ACI
1070
     2
1001
ACAD
1010
0.0
1020
0.0
1030
0.0
  0
LINE
  5
7E8
  8
回08-記事
  6
CONTINUOUS
 62
     7
 10
-3289.254626461301
 20
-1181.615760922907
 30
0.0
 11
-3288.554626461301
 21
-1180.915760922907
 31
0.0
1001
GradientColor1ACI
1070
     5
1001
GradientColor2ACI
1070
     2
1001
ACAD
1010
0.0
1020
0.0
1030
0.0
  0
LINE
  5
7E9
  8
回08-記事
  6
CONTINUOUS
 62
     7
 10
-3289.254626461301
 20
-1182.962799341067
 30
0.0
 11
-3288.554626461301
 21
-1182.262799341067
 31
0.0
1001
GradientColor1ACI
1070
     5
1001
GradientColor2ACI
1070
     2
1001
ACAD
1010
0.0
1020
0.0
1030
0.0
  0
LINE
  5
7EA
  8
回08-記事
  6
CONTINUOUS
 62
     7
 10
-3289.254626461301
 20
-1184.309837759228
 30
0.0
 11
-3288.554626461301
 21
-1183.609837759228
 31
0.0
1001
GradientColor1ACI
1070
     5
1001
GradientColor2ACI
1070
     2
1001
ACAD
1010
0.0
1020
0.0
1030
0.0
  0
LINE
  5
7EB
  8
回08-記事
  6
CONTINUOUS
 62
     7
 10
-3289.254626461301
 20
-1185.656876177388
 30
0.0
 11
-3288.554626461301
 21
-1184.956876177388
 31
0.0
1001
GradientColor1ACI
1070
     5
1001
GradientColor2ACI
1070
     2
1001
ACAD
1010
0.0
1020
0.0
1030
0.0
  0
LINE
  5
7EC
  8
回08-記事
  6
CONTINUOUS
 62
     7
 10
-3289.254626461301
 20
-1187.003914595548
 30
0.0
 11
-3288.554626461301
 21
-1186.303914595548
 31
0.0
1001
GradientColor1ACI
1070
     5
1001
GradientColor2ACI
1070
     2
1001
ACAD
1010
0.0
1020
0.0
1030
0.0
  0
LINE
  5
7ED
  8
回08-記事
  6
CONTINUOUS
 62
     7
 10
-3289.254626461301
 20
-1188.350953013709
 30
0.0
 11
-3288.554626461302
 21
-1187.650953013709
 31
0.0
1001
GradientColor1ACI
1070
     5
1001
GradientColor2ACI
1070
     2
1001
ACAD
1010
0.0
1020
0.0
1030
0.0
  0
LINE
  5
7EE
  8
回08-記事
  6
CONTINUOUS
 62
     7
 10
-3289.254626461301
 20
-1189.697991431869
 30
0.0
 11
-3288.554626461301
 21
-1188.997991431869
 31
0.0
1001
GradientColor1ACI
1070
     5
1001
GradientColor2ACI
1070
     2
1001
ACAD
1010
0.0
1020
0.0
1030
0.0
  0
LINE
  5
7EF
  8
回08-記事
  6
CONTINUOUS
 62
     7
 10
-3289.254626461301
 20
-1191.045029850029
 30
0.0
 11
-3288.554626461301
 21
-1190.345029850029
 31
0.0
1001
GradientColor1ACI
1070
     5
1001
GradientColor2ACI
1070
     2
1001
ACAD
1010
0.0
1020
0.0
1030
0.0
  0
LINE
  5
7F0
  8
回08-記事
  6
CONTINUOUS
 62
     7
 10
-3289.254626461301
 20
-1192.392068268189
 30
0.0
 11
-3288.554626461301
 21
-1191.692068268189
 31
0.0
1001
GradientColor1ACI
1070
     5
1001
GradientColor2ACI
1070
     2
1001
ACAD
1010
0.0
1020
0.0
1030
0.0
  0
LINE
  5
7F1
  8
回08-記事
  6
CONTINUOUS
 62
     7
 10
-3289.254626461301
 20
-1193.73910668635
 30
0.0
 11
-3288.554626461301
 21
-1193.03910668635
 31
0.0
1001
GradientColor1ACI
1070
     5
1001
GradientColor2ACI
1070
     2
1001
ACAD
1010
0.0
1020
0.0
1030
0.0
  0
LINE
  5
7F2
  8
回08-記事
  6
CONTINUOUS
 62
     7
 10
-3289.254626461301
 20
-1195.08614510451
 30
0.0
 11
-3288.554626461301
 21
-1194.38614510451
 31
0.0
1001
GradientColor1ACI
1070
     5
1001
GradientColor2ACI
1070
     2
1001
ACAD
1010
0.0
1020
0.0
1030
0.0
  0
LINE
  5
7F3
  8
回08-記事
  6
CONTINUOUS
 62
     7
 10
-3289.254626461302
 20
-1196.433183522671
 30
0.0
 11
-3288.554626461301
 21
-1195.733183522671
 31
0.0
1001
GradientColor1ACI
1070
     5
1001
GradientColor2ACI
1070
     2
1001
ACAD
1010
0.0
1020
0.0
1030
0.0
  0
LINE
  5
7F4
  8
回08-記事
  6
CONTINUOUS
 62
     7
 10
-3289.254626461301
 20
-1197.78022194083
 30
0.0
 11
-3288.554626461301
 21
-1197.080221940831
 31
0.0
1001
GradientColor1ACI
1070
     5
1001
GradientColor2ACI
1070
     2
1001
ACAD
1010
0.0
1020
0.0
1030
0.0
  0
LINE
  5
7F5
  8
回08-記事
  6
CONTINUOUS
 62
     7
 10
-3289.254626461301
 20
-1199.127260358991
 30
0.0
 11
-3288.554626461302
 21
-1198.427260358991
 31
0.0
1001
GradientColor1ACI
1070
     5
1001
GradientColor2ACI
1070
     2
1001
ACAD
1010
0.0
1020
0.0
1030
0.0
  0
LINE
  5
7F6
  8
回08-記事
  6
CONTINUOUS
 62
     7
 10
-3288.569439923144
 20
-1199.789112238994
 30
0.0
 11
-3288.554626461301
 21
-1199.774298777152
 31
0.0
1001
GradientColor1ACI
1070
     5
1001
GradientColor2ACI
1070
     2
1001
ACAD
1010
0.0
1020
0.0
1030
0.0
  0
ENDBLK
  5
7F8
  8
0
  6
CONTINUOUS
 62
     7
  0
BLOCK
  8
0
  2
*X84
 70
     1
 10
0.0
 20
0.0
 30
0.0
  3
*X84
  1

  0
LINE
  5
7FB
  8
回08-記事
  6
CONTINUOUS
 62
     7
 10
-3298.847810680273
 20
-1153.491869433388
 30
0.0
 11
-3297.868421212087
 21
-1152.512479965202
 31
0.0
1001
GradientColor1ACI
1070
     5
1001
GradientColor2ACI
1070
     2
1001
ACAD
1010
0.0
1020
0.0
1030
0.0
  0
LINE
  5
7FC
  8
回08-記事
  6
CONTINUOUS
 62
     7
 10
-3298.847810680272
 20
-1154.838907851548
 30
0.0
 11
-3298.147810680272
 21
-1154.138907851547
 31
0.0
1001
GradientColor1ACI
1070
     5
1001
GradientColor2ACI
1070
     2
1001
ACAD
1010
0.0
1020
0.0
1030
0.0
  0
LINE
  5
7FD
  8
回08-記事
  6
CONTINUOUS
 62
     7
 10
-3297.521382793926
 20
-1153.512479965202
 30
0.0
 11
-3296.521382793926
 21
-1152.512479965202
 31
0.0
1001
GradientColor1ACI
1070
     5
1001
GradientColor2ACI
1070
     2
1001
ACAD
1010
0.0
1020
0.0
1030
0.0
  0
LINE
  5
7FE
  8
回08-記事
  6
CONTINUOUS
 62
     7
 10
-3298.606058076158
 20
-1155.944193665594
 30
0.0
 11
-3298.147810680272
 21
-1155.485946269708
 31
0.0
1001
GradientColor1ACI
1070
     5
1001
GradientColor2ACI
1070
     2
1001
ACAD
1010
0.0
1020
0.0
1030
0.0
  0
LINE
  5
7FF
  8
回08-記事
  6
CONTINUOUS
 62
     7
 10
-3296.174344375766
 20
-1153.512479965201
 30
0.0
 11
-3295.174344375766
 21
-1152.512479965201
 31
0.0
1001
GradientColor1ACI
1070
     5
1001
GradientColor2ACI
1070
     2
1001
ACAD
1010
0.0
1020
0.0
1030
0.0
  0
LINE
  5
800
  8
回08-記事
  6
CONTINUOUS
 62
     7
 10
-3294.827305957606
 20
-1153.512479965201
 30
0.0
 11
-3293.827305957606
 21
-1152.512479965202
 31
0.0
1001
GradientColor1ACI
1070
     5
1001
GradientColor2ACI
1070
     2
1001
ACAD
1010
0.0
1020
0.0
1030
0.0
  0
LINE
  5
801
  8
回08-記事
  6
CONTINUOUS
 62
     7
 10
-3293.480267539445
 20
-1153.512479965201
 30
0.0
 11
-3292.480267539445
 21
-1152.512479965202
 31
0.0
1001
GradientColor1ACI
1070
     5
1001
GradientColor2ACI
1070
     2
1001
ACAD
1010
0.0
1020
0.0
1030
0.0
  0
LINE
  5
802
  8
回08-記事
  6
CONTINUOUS
 62
     7
 10
-3292.133229121286
 20
-1153.512479965202
 30
0.0
 11
-3291.133229121285
 21
-1152.512479965202
 31
0.0
1001
GradientColor1ACI
1070
     5
1001
GradientColor2ACI
1070
     2
1001
ACAD
1010
0.0
1020
0.0
1030
0.0
  0
LINE
  5
803
  8
回08-記事
  6
CONTINUOUS
 62
     7
 10
-3289.254626461301
 20
-1153.327954141538
 30
0.0
 11
-3288.739152284964
 21
-1152.812479965201
 31
0.0
1001
GradientColor1ACI
1070
     5
1001
GradientColor2ACI
1070
     2
1001
ACAD
1010
0.0
1020
0.0
1030
0.0
  0
LINE
  5
804
  8
回08-記事
  6
CONTINUOUS
 62
     7
 10
-3289.254626461301
 20
-1154.674992559699
 30
0.0
 11
-3288.554626461301
 21
-1153.974992559699
 31
0.0
1001
GradientColor1ACI
1070
     5
1001
GradientColor2ACI
1070
     2
1001
ACAD
1010
0.0
1020
0.0
1030
0.0
  0
LINE
  5
805
  8
回08-記事
  6
CONTINUOUS
 62
     7
 10
-3288.092113866804
 20
-1153.512479965201
 30
0.0
 11
-3287.392113866804
 21
-1152.812479965202
 31
0.0
1001
GradientColor1ACI
1070
     5
1001
GradientColor2ACI
1070
     2
1001
ACAD
1010
0.0
1020
0.0
1030
0.0
  0
LINE
  5
806
  8
回08-記事
  6
CONTINUOUS
 62
     7
 10
-3289.176789149036
 20
-1155.944193665594
 30
0.0
 11
-3288.554626461301
 21
-1155.32203097786
 31
0.0
1001
GradientColor1ACI
1070
     5
1001
GradientColor2ACI
1070
     2
1001
ACAD
1010
0.0
1020
0.0
1030
0.0
  0
LINE
  5
807
  8
回08-記事
  6
CONTINUOUS
 62
     7
 10
-3286.745075448644
 20
-1153.512479965202
 30
0.0
 11
-3286.045075448644
 21
-1152.812479965202
 31
0.0
1001
GradientColor1ACI
1070
     5
1001
GradientColor2ACI
1070
     2
1001
ACAD
1010
0.0
1020
0.0
1030
0.0
  0
LINE
  5
808
  8
回08-記事
  6
CONTINUOUS
 62
     7
 10
-3282.954626461302
 20
-1149.72203097786
 30
0.0
 11
-3282.254626461301
 21
-1149.022030977859
 31
0.0
1001
GradientColor1ACI
1070
     5
1001
GradientColor2ACI
1070
     2
1001
ACAD
1010
0.0
1020
0.0
1030
0.0
  0
LINE
  5
809
  8
回08-記事
  6
CONTINUOUS
 62
     7
 10
-3285.398037030483
 20
-1153.512479965201
 30
0.0
 11
-3284.698037030484
 21
-1152.812479965202
 31
0.0
1001
GradientColor1ACI
1070
     5
1001
GradientColor2ACI
1070
     2
1001
ACAD
1010
0.0
1020
0.0
1030
0.0
  0
LINE
  5
80A
  8
回08-記事
  6
CONTINUOUS
 62
     7
 10
-3282.954626461302
 20
-1151.06906939602
 30
0.0
 11
-3282.254626461301
 21
-1150.36906939602
 31
0.0
1001
GradientColor1ACI
1070
     5
1001
GradientColor2ACI
1070
     2
1001
ACAD
1010
0.0
1020
0.0
1030
0.0
  0
LINE
  5
80B
  8
回08-記事
  6
CONTINUOUS
 62
     7
 10
-3284.050998612322
 20
-1153.512479965201
 30
0.0
 11
-3283.350998612323
 21
-1152.812479965202
 31
0.0
1001
GradientColor1ACI
1070
     5
1001
GradientColor2ACI
1070
     2
1001
ACAD
1010
0.0
1020
0.0
1030
0.0
  0
LINE
  5
80C
  8
回08-記事
  6
CONTINUOUS
 62
     7
 10
-3282.954626461302
 20
-1152.41610781418
 30
0.0
 11
-3282.254626461301
 21
-1151.71610781418
 31
0.0
1001
GradientColor1ACI
1070
     5
1001
GradientColor2ACI
1070
     2
1001
ACAD
1010
0.0
1020
0.0
1030
0.0
  0
LINE
  5
80D
  8
回08-記事
  6
CONTINUOUS
 62
     7
 10
-3282.703960194162
 20
-1153.512479965201
 30
0.0
 11
-3282.254626461301
 21
-1153.06314623234
 31
0.0
1001
GradientColor1ACI
1070
     5
1001
GradientColor2ACI
1070
     2
1001
ACAD
1010
0.0
1020
0.0
1030
0.0
  0
ENDBLK
  5
80F
  8
0
  6
CONTINUOUS
 62
     7
  0
BLOCK
  8
0
  2
*X85
 70
     1
 10
0.0
 20
0.0
 30
0.0
  3
*X85
  1

  0
LINE
  5
857
  8
回08-記事
  6
PHANTOM2
 62
     7
 10
-3600.038980367241
 20
-1155.944193665594
 30
0.0
 11
-3601.687101275018
 21
-1154.296072757817
 31
0.0
1001
GradientColor1ACI
1070
     5
1001
GradientColor2ACI
1070
     2
1001
ACAD
1010
0.0
1020
0.0
1030
0.0
  0
LINE
  5
858
  8
回08-記事
  6
PHANTOM2
 62
     7
 10
-3597.793916336974
 20
-1155.944193665594
 30
0.0
 11
-3601.687101275018
 21
-1152.05100872755
 31
0.0
1001
GradientColor1ACI
1070
     5
1001
GradientColor2ACI
1070
     2
1001
ACAD
1010
0.0
1020
0.0
1030
0.0
  0
LINE
  5
859
  8
回08-記事
  6
PHANTOM2
 62
     7
 10
-3595.548852306706
 20
-1155.944193665594
 30
0.0
 11
-3601.687101275017
 21
-1149.805944697283
 31
0.0
1001
GradientColor1ACI
1070
     5
1001
GradientColor2ACI
1070
     2
1001
ACAD
1010
0.0
1020
0.0
1030
0.0
  0
LINE
  5
85A
  8
回08-記事
  6
PHANTOM2
 62
     7
 10
-3593.303788276438
 20
-1155.944193665594
 30
0.0
 11
-3600.503788276439
 21
-1148.744193665594
 31
0.0
1001
GradientColor1ACI
1070
     5
1001
GradientColor2ACI
1070
     2
1001
ACAD
1010
0.0
1020
0.0
1030
0.0
  0
LINE
  5
85B
  8
回08-記事
  6
PHANTOM2
 62
     7
 10
-3591.058724246171
 20
-1155.944193665594
 30
0.0
 11
-3598.258724246171
 21
-1148.744193665594
 31
0.0
1001
GradientColor1ACI
1070
     5
1001
GradientColor2ACI
1070
     2
1001
ACAD
1010
0.0
1020
0.0
1030
0.0
  0
LINE
  5
85C
  8
回08-記事
  6
PHANTOM2
 62
     7
 10
-3588.813660215903
 20
-1155.944193665594
 30
0.0
 11
-3596.013660215903
 21
-1148.744193665594
 31
0.0
1001
GradientColor1ACI
1070
     5
1001
GradientColor2ACI
1070
     2
1001
ACAD
1010
0.0
1020
0.0
1030
0.0
  0
LINE
  5
85D
  8
回08-記事
  6
PHANTOM2
 62
     7
 10
-3586.568596185637
 20
-1155.944193665594
 30
0.0
 11
-3593.768596185636
 21
-1148.744193665594
 31
0.0
1001
GradientColor1ACI
1070
     5
1001
GradientColor2ACI
1070
     2
1001
ACAD
1010
0.0
1020
0.0
1030
0.0
  0
LINE
  5
85E
  8
回08-記事
  6
PHANTOM2
 62
     7
 10
-3584.323532155369
 20
-1155.944193665594
 30
0.0
 11
-3591.52353215537
 21
-1148.744193665594
 31
0.0
1001
GradientColor1ACI
1070
     5
1001
GradientColor2ACI
1070
     2
1001
ACAD
1010
0.0
1020
0.0
1030
0.0
  0
LINE
  5
85F
  8
回08-記事
  6
PHANTOM2
 62
     7
 10
-3582.078468125101
 20
-1155.944193665594
 30
0.0
 11
-3589.278468125101
 21
-1148.744193665594
 31
0.0
1001
GradientColor1ACI
1070
     5
1001
GradientColor2ACI
1070
     2
1001
ACAD
1010
0.0
1020
0.0
1030
0.0
  0
LINE
  5
860
  8
回08-記事
  6
PHANTOM2
 62
     7
 10
-3579.833404094833
 20
-1155.944193665595
 30
0.0
 11
-3587.033404094834
 21
-1148.744193665594
 31
0.0
1001
GradientColor1ACI
1070
     5
1001
GradientColor2ACI
1070
     2
1001
ACAD
1010
0.0
1020
0.0
1030
0.0
  0
LINE
  5
861
  8
回08-記事
  6
PHANTOM2
 62
     7
 10
-3577.588340064566
 20
-1155.944193665594
 30
0.0
 11
-3584.788340064566
 21
-1148.744193665594
 31
0.0
1001
GradientColor1ACI
1070
     5
1001
GradientColor2ACI
1070
     2
1001
ACAD
1010
0.0
1020
0.0
1030
0.0
  0
LINE
  5
862
  8
回08-記事
  6
PHANTOM2
 62
     7
 10
-3575.687101275017
 20
-1155.600368424876
 30
0.0
 11
-3582.543276034299
 21
-1148.744193665594
 31
0.0
1001
GradientColor1ACI
1070
     5
1001
GradientColor2ACI
1070
     2
1001
ACAD
1010
0.0
1020
0.0
1030
0.0
  0
LINE
  5
863
  8
回08-記事
  6
PHANTOM2
 62
     7
 10
-3575.687101275017
 20
-1153.355304394608
 30
0.0
 11
-3580.298212004032
 21
-1148.744193665594
 31
0.0
1001
GradientColor1ACI
1070
     5
1001
GradientColor2ACI
1070
     2
1001
ACAD
1010
0.0
1020
0.0
1030
0.0
  0
LINE
  5
864
  8
回08-記事
  6
PHANTOM2
 62
     7
 10
-3575.687101275017
 20
-1151.11024036434
 30
0.0
 11
-3578.053147973764
 21
-1148.744193665594
 31
0.0
1001
GradientColor1ACI
1070
     5
1001
GradientColor2ACI
1070
     2
1001
ACAD
1010
0.0
1020
0.0
1030
0.0
  0
LINE
  5
865
  8
回08-記事
  6
PHANTOM2
 62
     7
 10
-3575.687101275017
 20
-1148.865176334073
 30
0.0
 11
-3575.808083943497
 21
-1148.744193665594
 31
0.0
1001
GradientColor1ACI
1070
     5
1001
GradientColor2ACI
1070
     2
1001
ACAD
1010
0.0
1020
0.0
1030
0.0
  0
ENDBLK
  5
867
  8
0
  6
CONTINUOUS
 62
     7
  0
BLOCK
  8
0
  2
*X86
 70
     1
 10
0.0
 20
0.0
 30
0.0
  3
*X86
  1

  0
LINE
  5
86A
  8
回08-記事
  6
PHANTOM2
 62
     7
 10
-3635.960004851519
 20
-1155.944193665594
 30
0.0
 11
-3637.687101275018
 21
-1154.217097242095
 31
0.0
1001
GradientColor1ACI
1070
     5
1001
GradientColor2ACI
1070
     2
1001
ACAD
1010
0.0
1020
0.0
1030
0.0
  0
LINE
  5
86B
  8
回08-記事
  6
PHANTOM2
 62
     7
 10
-3633.714940821251
 20
-1155.944193665594
 30
0.0
 11
-3637.687101275017
 21
-1151.972033211828
 31
0.0
1001
GradientColor1ACI
1070
     5
1001
GradientColor2ACI
1070
     2
1001
ACAD
1010
0.0
1020
0.0
1030
0.0
  0
LINE
  5
86C
  8
回08-記事
  6
PHANTOM2
 62
     7
 10
-3631.469876790984
 20
-1155.944193665594
 30
0.0
 11
-3637.687101275017
 21
-1149.726969181561
 31
0.0
1001
GradientColor1ACI
1070
     5
1001
GradientColor2ACI
1070
     2
1001
ACAD
1010
0.0
1020
0.0
1030
0.0
  0
LINE
  5
86D
  8
回08-記事
  6
PHANTOM2
 62
     7
 10
-3629.224812760716
 20
-1155.944193665594
 30
0.0
 11
-3636.424812760715
 21
-1148.744193665594
 31
0.0
1001
GradientColor1ACI
1070
     5
1001
GradientColor2ACI
1070
     2
1001
ACAD
1010
0.0
1020
0.0
1030
0.0
  0
LINE
  5
86E
  8
回08-記事
  6
PHANTOM2
 62
     7
 10
-3626.979748730449
 20
-1155.944193665594
 30
0.0
 11
-3634.179748730448
 21
-1148.744193665594
 31
0.0
1001
GradientColor1ACI
1070
     5
1001
GradientColor2ACI
1070
     2
1001
ACAD
1010
0.0
1020
0.0
1030
0.0
  0
LINE
  5
86F
  8
回08-記事
  6
PHANTOM2
 62
     7
 10
-3624.734684700181
 20
-1155.944193665594
 30
0.0
 11
-3631.934684700181
 21
-1148.744193665594
 31
0.0
1001
GradientColor1ACI
1070
     5
1001
GradientColor2ACI
1070
     2
1001
ACAD
1010
0.0
1020
0.0
1030
0.0
  0
LINE
  5
870
  8
回08-記事
  6
PHANTOM2
 62
     7
 10
-3622.489620669913
 20
-1155.944193665594
 30
0.0
 11
-3629.689620669914
 21
-1148.744193665594
 31
0.0
1001
GradientColor1ACI
1070
     5
1001
GradientColor2ACI
1070
     2
1001
ACAD
1010
0.0
1020
0.0
1030
0.0
  0
LINE
  5
871
  8
回08-記事
  6
PHANTOM2
 62
     7
 10
-3620.244556639646
 20
-1155.944193665594
 30
0.0
 11
-3627.444556639647
 21
-1148.744193665594
 31
0.0
1001
GradientColor1ACI
1070
     5
1001
GradientColor2ACI
1070
     2
1001
ACAD
1010
0.0
1020
0.0
1030
0.0
  0
LINE
  5
872
  8
回08-記事
  6
PHANTOM2
 62
     7
 10
-3617.999492609379
 20
-1155.944193665594
 30
0.0
 11
-3625.199492609379
 21
-1148.744193665594
 31
0.0
1001
GradientColor1ACI
1070
     5
1001
GradientColor2ACI
1070
     2
1001
ACAD
1010
0.0
1020
0.0
1030
0.0
  0
LINE
  5
873
  8
回08-記事
  6
PHANTOM2
 62
     7
 10
-3615.754428579111
 20
-1155.944193665594
 30
0.0
 11
-3622.954428579112
 21
-1148.744193665594
 31
0.0
1001
GradientColor1ACI
1070
     5
1001
GradientColor2ACI
1070
     2
1001
ACAD
1010
0.0
1020
0.0
1030
0.0
  0
LINE
  5
874
  8
回08-記事
  6
PHANTOM2
 62
     7
 10
-3613.509364548844
 20
-1155.944193665594
 30
0.0
 11
-3620.709364548844
 21
-1148.744193665594
 31
0.0
1001
GradientColor1ACI
1070
     5
1001
GradientColor2ACI
1070
     2
1001
ACAD
1010
0.0
1020
0.0
1030
0.0
  0
LINE
  5
875
  8
回08-記事
  6
PHANTOM2
 62
     7
 10
-3611.264300518576
 20
-1155.944193665594
 30
0.0
 11
-3618.464300518577
 21
-1148.744193665594
 31
0.0
1001
GradientColor1ACI
1070
     5
1001
GradientColor2ACI
1070
     2
1001
ACAD
1010
0.0
1020
0.0
1030
0.0
  0
LINE
  5
876
  8
回08-記事
  6
PHANTOM2
 62
     7
 10
-3609.019236488308
 20
-1155.944193665594
 30
0.0
 11
-3616.219236488309
 21
-1148.744193665594
 31
0.0
1001
GradientColor1ACI
1070
     5
1001
GradientColor2ACI
1070
     2
1001
ACAD
1010
0.0
1020
0.0
1030
0.0
  0
LINE
  5
877
  8
回08-記事
  6
PHANTOM2
 62
     7
 10
-3606.774172458041
 20
-1155.944193665594
 30
0.0
 11
-3613.974172458041
 21
-1148.744193665595
 31
0.0
1001
GradientColor1ACI
1070
     5
1001
GradientColor2ACI
1070
     2
1001
ACAD
1010
0.0
1020
0.0
1030
0.0
  0
LINE
  5
878
  8
回08-記事
  6
PHANTOM2
 62
     7
 10
-3604.529108427774
 20
-1155.944193665594
 30
0.0
 11
-3611.729108427773
 21
-1148.744193665595
 31
0.0
1001
GradientColor1ACI
1070
     5
1001
GradientColor2ACI
1070
     2
1001
ACAD
1010
0.0
1020
0.0
1030
0.0
  0
LINE
  5
879
  8
回08-記事
  6
PHANTOM2
 62
     7
 10
-3603.687101275017
 20
-1154.541136788083
 30
0.0
 11
-3609.484044397506
 21
-1148.744193665594
 31
0.0
1001
GradientColor1ACI
1070
     5
1001
GradientColor2ACI
1070
     2
1001
ACAD
1010
0.0
1020
0.0
1030
0.0
  0
LINE
  5
87A
  8
回08-記事
  6
PHANTOM2
 62
     7
 10
-3603.687101275017
 20
-1152.296072757816
 30
0.0
 11
-3607.238980367239
 21
-1148.744193665594
 31
0.0
1001
GradientColor1ACI
1070
     5
1001
GradientColor2ACI
1070
     2
1001
ACAD
1010
0.0
1020
0.0
1030
0.0
  0
LINE
  5
87B
  8
回08-記事
  6
PHANTOM2
 62
     7
 10
-3603.687101275017
 20
-1150.051008727549
 30
0.0
 11
-3604.993916336971
 21
-1148.744193665594
 31
0.0
1001
GradientColor1ACI
1070
     5
1001
GradientColor2ACI
1070
     2
1001
ACAD
1010
0.0
1020
0.0
1030
0.0
  0
ENDBLK
  5
87D
  8
0
  6
CONTINUOUS
 62
     7
  0
BLOCK
  8
0
  2
*X87
 70
     1
 10
0.0
 20
0.0
 30
0.0
  3
*X87
  1

  0
TEXT
  5
880
  8
回07-寸法
  6
CONTINUOUS
 62
     5
 10
-3291.549913702219
 20
-780.9418471328378
 30
0.0
 40
5.0
  1
2.1
  0
TEXT
  5
881
  8
回07-寸法
  6
CONTINUOUS
 62
     5
 10
-3284.049913702219
 20
-780.9418471328378
 30
0.0
 40
3.333499999999999
  1
±0.2
  0
ENDBLK
  5
883
  8
0
  6
CONTINUOUS
 62
     7
  0
BLOCK
  8
0
  2
*X88
 70
     1
 10
0.0
 20
0.0
 30
0.0
  3
*X88
  1

  0
TEXT
  5
886
  8
回08-記事
  6
CONTINUOUS
 62
     5
 10
-3314.95477475401
 20
-1194.991486626461
 30
0.0
 40
5.0
  1
0.3
  0
TEXT
  5
887
  8
回08-記事
  6
CONTINUOUS
 62
     5
 10
-3306.454774754011
 20
-1194.991486626461
 30
0.0
 40
3.333499999999999
  1
±0.05
  0
ENDBLK
  5
889
  8
0
  6
CONTINUOUS
 62
     7
  0
BLOCK
  8
0
  2
*X89
 70
     1
 10
0.0
 20
0.0
 30
0.0
  3
*X89
  1

  0
TEXT
  5
88C
  8
回08-記事
  6
CONTINUOUS
 62
     5
 10
-3274.473828527167
 20
-1198.945216663559
 30
0.0
 40
5.0
  1
0.3
  0
TEXT
  5
88D
  8
回08-記事
  6
CONTINUOUS
 62
     5
 10
-3265.973828527167
 20
-1198.945216663559
 30
0.0
 40
3.333499999999999
  1
±0.05
  0
ENDBLK
  5
88F
  8
0
  6
CONTINUOUS
 62
     7
  0
BLOCK
  8
0
  2
*X90
 70
     1
 10
0.0
 20
0.0
 30
0.0
  3
*X90
  1

  0
TEXT
  5
892
  8
回07-寸法
  6
CONTINUOUS
 62
     5
 10
-3898.011365654204
 20
-949.1326965176277
 30
0.0
 40
5.0
  1
293.2
 50
90.0
  0
TEXT
  5
893
  8
回07-寸法
  6
CONTINUOUS
 62
     5
 10
-3898.011365654204
 20
-933.6146446749927
 30
0.0
 40
3.5
  1
±0.3
 50
90.0
  0
ENDBLK
  5
895
  8
0
  6
CONTINUOUS
 62
     7
  0
BLOCK
  8
0
  2
*X91
 70
     1
 10
0.0
 20
0.0
 30
0.0
  3
*X91
  1

  0
TEXT
  5
898
  8
回07-寸法
  6
CONTINUOUS
 62
     5
 10
-3601.023865664205
 20
-735.92117059631
 30
0.0
 40
5.0
  1
500
  0
TEXT
  5
899
  8
回07-寸法
  6
CONTINUOUS
 62
     5
 10
-3590.523865664204
 20
-735.92117059631
 30
0.0
 40
3.5
  1
±0.3
  0
ENDBLK
  5
89B
  8
0
  6
CONTINUOUS
 62
     7
  0
BLOCK
  8
0
  2
*X92
 70
     1
 10
0.0
 20
0.0
 30
0.0
  3
*X92
  1

  0
TEXT
  5
89E
  8
回07-寸法
  6
CONTINUOUS
 62
     5
 10
-3886.178040654204
 20
-1141.169816944734
 30
0.0
 40
5.0
  1
10.545
 50
90.0
  0
TEXT
  5
89F
  8
回07-寸法
  6
CONTINUOUS
 62
     5
 10
-3886.178040654204
 20
-1122.669816944734
 30
0.0
 40
3.333499999999999
  1
(Insulation area)
 50
90.0
  0
ENDBLK
  5
8A1
  8
0
  6
CONTINUOUS
 62
     7
  0
BLOCK
  8
0
  2
*X93
 70
     1
 10
0.0
 20
0.0
 30
0.0
  3
*X93
  1

  0
TEXT
  5
8A4
  8
回07-寸法
  6
CONTINUOUS
 62
     5
 10
-3891.488063855264
 20
-747.7544955963099
 30
0.0
 40
5.0
  1
9.18
  0
TEXT
  5
8A5
  8
回07-寸法
  6
CONTINUOUS
 62
     5
 10
-3880.470012012629
 20
-747.7544955963099
 30
0.0
 40
3.333499999999999
  1
(Insulation area)
  0
ENDBLK
  5
8A7
  8
0
  6
CONTINUOUS
 62
     7
  0
BLOCK
  8
0
  2
*X94
 70
     1
 10
0.0
 20
0.0
 30
0.0
  3
*X94
  1

  0
TEXT
  5
8AA
  8
回07-寸法
  6
CONTINUOUS
 62
     5
 10
-3338.713334168141
 20
-747.6711705963099
 30
0.0
 40
5.0
  1
(9.18)
  0
TEXT
  5
8AB
  8
回07-寸法
  6
CONTINUOUS
 62
     5
 10
-3323.695282325506
 20
-747.6711705963099
 30
0.0
 40
3.333499999999999
  1
(Insulation area)
  0
ENDBLK
  5
8AD
  8
0
  6
CONTINUOUS
 62
     7
  0
BLOCK
  8
0
  2
*X95
 70
     1
 10
0.0
 20
0.0
 30
0.0
  3
*X95
  1

  0
TEXT
  5
8B0
  8
回07-寸法
  6
CONTINUOUS
 62
     5
 10
-3658.150637841357
 20
-1142.171670596309
 30
0.0
 40
5.0
  1
100
 50
90.0
  0
TEXT
  5
8B1
  8
回07-寸法
  6
CONTINUOUS
 62
     5
 10
-3658.150637841357
 20
-1132.671670596309
 30
0.0
 40
3.5
  1
±1.5
 50
90.0
  0
ENDBLK
  5
8B3
  8
0
  6
CONTINUOUS
 62
     7
  0
BLOCK
  8
0
  2
*X96
 70
     1
 10
0.0
 20
0.0
 30
0.0
  3
*X96
  1

  0
TEXT
  5
8B6
  8
回07-寸法
  6
CONTINUOUS
 62
     5
 10
-3566.461365664204
 20
-1207.751890824447
 30
0.0
 40
5.0
  1
13.5
  0
TEXT
  5
8B7
  8
回07-寸法
  6
CONTINUOUS
 62
     5
 10
-3555.461365664204
 20
-1207.751890824447
 30
0.0
 40
3.5
  1
±0.1
  0
ENDBLK
  5
8B9
  8
0
  6
CONTINUOUS
 62
     7
  0
BLOCK
  8
0
  2
*X97
 70
     1
 10
0.0
 20
0.0
 30
0.0
  3
*X97
  1

  0
TEXT
  5
8BC
  8
回07-寸法
  6
CONTINUOUS
 62
     5
 10
-3571.51425154131
 20
-1197.757170596309
 30
0.0
 40
5.0
  1
17.5
  0
TEXT
  5
8BD
  8
回07-寸法
  6
CONTINUOUS
 62
     5
 10
-3560.514251541309
 20
-1197.757170596309
 30
0.0
 40
3.5
  1
±0.1
  0
ENDBLK
  5
8BF
  8
0
  6
CONTINUOUS
 62
     7
  0
BLOCK
  8
0
  2
*X98
 70
     1
 10
0.0
 20
0.0
 30
0.0
  3
*X98
  1

  0
TEXT
  5
8C2
  8
回07-寸法
  6
CONTINUOUS
 62
     5
 10
-3529.398338978221
 20
-1142.17167059631
 30
0.0
 40
5.0
  1
100
 50
90.0
  0
TEXT
  5
8C3
  8
回07-寸法
  6
CONTINUOUS
 62
     5
 10
-3529.398338978221
 20
-1132.67167059631
 30
0.0
 40
3.5
  1
±1.5
 50
90.0
  0
ENDBLK
  5
8C5
  8
0
  6
CONTINUOUS
 62
     7
  0
BLOCK
  8
0
  2
*X99
 70
     1
 10
0.0
 20
0.0
 30
0.0
  3
*X99
  1

  0
TEXT
  5
8C8
  8
回07-寸法
  6
CONTINUOUS
 62
     5
 10
-3539.125199904481
 20
-1211.322979965202
 30
0.0
 40
5.0
  1
100
 50
90.0
  0
TEXT
  5
8C9
  8
回07-寸法
  6
CONTINUOUS
 62
     5
 10
-3539.125199904481
 20
-1201.822979965202
 30
0.0
 40
3.5
  1
±1.5
 50
90.0
  0
ENDBLK
  5
8CB
  8
0
  6
CONTINUOUS
 62
     7
  0
BLOCK
  8
0
  2
*X100
 70
     1
 10
0.0
 20
0.0
 30
0.0
  3
*X100
  1

  0
TEXT
  5
8CE
  8
回07-寸法
  6
CONTINUOUS
 62
     5
 10
-3581.241112467571
 20
-1266.908479965202
 30
0.0
 40
5.0
  1
17.5
  0
TEXT
  5
8CF
  8
回07-寸法
  6
CONTINUOUS
 62
     5
 10
-3570.241112467571
 20
-1266.908479965202
 30
0.0
 40
3.5
  1
±0.1
  0
ENDBLK
  5
8D1
  8
0
  6
CONTINUOUS
 62
     7
  0
BLOCK
  8
0
  2
*X101
 70
     1
 10
0.0
 20
0.0
 30
0.0
  3
*X101
  1

  0
TEXT
  5
8D4
  8
回07-寸法
  6
CONTINUOUS
 62
     5
 10
-3576.188226590466
 20
-1276.90320019334
 30
0.0
 40
5.0
  1
13.5
  0
TEXT
  5
8D5
  8
回07-寸法
  6
CONTINUOUS
 62
     5
 10
-3565.188226590465
 20
-1276.90320019334
 30
0.0
 40
3.5
  1
±0.1
  0
ENDBLK
  5
8D7
  8
0
  6
CONTINUOUS
 62
     7
  0
BLOCK
  8
0
  2
*X102
 70
     1
 10
0.0
 20
0.0
 30
0.0
  3
*X102
  1

  0
TEXT
  5
8DA
  8
回07-寸法
  6
CONTINUOUS
 62
     5
 10
-3667.877498767618
 20
-1211.322979965202
 30
0.0
 40
5.0
  1
100
 50
90.0
  0
TEXT
  5
8DB
  8
回07-寸法
  6
CONTINUOUS
 62
     5
 10
-3667.877498767618
 20
-1201.822979965202
 30
0.0
 40
3.5
  1
±1.5
 50
90.0
  0
ENDBLK
  5
8DD
  8
0
  6
CONTINUOUS
 62
     7
  0
BLOCK
  8
0
  2
*X103
 70
     1
 10
0.0
 20
0.0
 30
0.0
  3
*X103
  1

  0
TEXT
  5
8E0
  8
回07-寸法
  6
CONTINUOUS
 62
     5
 10
-3348.440195094402
 20
-816.822479965203
 30
0.0
 40
5.0
  1
(9.18)
  0
TEXT
  5
8E1
  8
回07-寸法
  6
CONTINUOUS
 62
     5
 10
-3333.422143251767
 20
-816.822479965203
 30
0.0
 40
3.333499999999999
  1
(Insulation area)
  0
ENDBLK
  5
8E3
  8
0
  6
CONTINUOUS
 62
     7
  0
BLOCK
  8
0
  2
*X104
 70
     1
 10
0.0
 20
0.0
 30
0.0
  3
*X104
  1

  0
TEXT
  5
8E6
  8
回07-寸法
  6
CONTINUOUS
 62
     5
 10
-3901.214924781525
 20
-816.9058049652031
 30
0.0
 40
5.0
  1
9.18
  0
TEXT
  5
8E7
  8
回07-寸法
  6
CONTINUOUS
 62
     5
 10
-3890.19687293889
 20
-816.9058049652031
 30
0.0
 40
3.333499999999999
  1
(Insulation area)
  0
ENDBLK
  5
8E9
  8
0
  6
CONTINUOUS
 62
     7
  0
BLOCK
  8
0
  2
*X105
 70
     1
 10
0.0
 20
0.0
 30
0.0
  3
*X105
  1

  0
TEXT
  5
8EC
  8
回07-寸法
  6
CONTINUOUS
 62
     5
 10
-3895.904901580465
 20
-1210.321126313627
 30
0.0
 40
5.0
  1
10.545
 50
90.0
  0
TEXT
  5
8ED
  8
回07-寸法
  6
CONTINUOUS
 62
     5
 10
-3895.904901580465
 20
-1191.821126313627
 30
0.0
 40
3.333499999999999
  1
(Insulation area)
 50
90.0
  0
ENDBLK
  5
8EF
  8
0
  6
CONTINUOUS
 62
     7
  0
BLOCK
  8
0
  2
*X106
 70
     1
 10
0.0
 20
0.0
 30
0.0
  3
*X106
  1

  0
TEXT
  5
8F2
  8
回07-寸法
  6
CONTINUOUS
 62
     5
 10
-3610.750726590465
 20
-805.072479965203
 30
0.0
 40
5.0
  1
500
  0
TEXT
  5
8F3
  8
回07-寸法
  6
CONTINUOUS
 62
     5
 10
-3600.250726590465
 20
-805.072479965203
 30
0.0
 40
3.5
  1
±0.3
  0
ENDBLK
  5
8F5
  8
0
  6
CONTINUOUS
 62
     7
  0
BLOCK
  8
0
  2
*X107
 70
     1
 10
0.0
 20
0.0
 30
0.0
  3
*X107
  1

  0
TEXT
  5
8F8
  8
回07-寸法
  6
CONTINUOUS
 62
     5
 10
-3907.738226580465
 20
-1018.28400588652
 30
0.0
 40
5.0
  1
293.2
 50
90.0
  0
TEXT
  5
8F9
  8
回07-寸法
  6
CONTINUOUS
 62
     5
 10
-3907.738226580465
 20
-1002.765954043885
 30
0.0
 40
3.5
  1
±0.3
 50
90.0
  0
ENDBLK
  5
8FB
  8
0
  6
CONTINUOUS
 62
     7
  0
BLOCK
  8
0
  2
*X108
 70
     1
 10
0.0
 20
0.0
 30
0.0
  3
*X108
  1

  0
TEXT
  5
8FE
  8
回08-記事
  6
CONTINUOUS
 62
     5
 10
-3284.200689453428
 20
-1268.096526032452
 30
0.0
 40
5.0
  1
0.3
  0
TEXT
  5
8FF
  8
回08-記事
  6
CONTINUOUS
 62
     5
 10
-3275.700689453428
 20
-1268.096526032452
 30
0.0
 40
3.333499999999999
  1
±0.05
  0
ENDBLK
  5
901
  8
0
  6
CONTINUOUS
 62
     7
  0
BLOCK
  8
0
  2
*X109
 70
     1
 10
0.0
 20
0.0
 30
0.0
  3
*X109
  1

  0
TEXT
  5
904
  8
回08-記事
  6
CONTINUOUS
 62
     5
 10
-3324.681635680272
 20
-1264.142795995353
 30
0.0
 40
5.0
  1
0.3
  0
TEXT
  5
905
  8
回08-記事
  6
CONTINUOUS
 62
     5
 10
-3316.181635680272
 20
-1264.142795995353
 30
0.0
 40
3.333499999999999
  1
±0.05
  0
ENDBLK
  5
907
  8
0
  6
CONTINUOUS
 62
     7
  0
BLOCK
  8
0
  2
*X110
 70
     1
 10
0.0
 20
0.0
 30
0.0
  3
*X110
  1

  0
TEXT
  5
90A
  8
回07-寸法
  6
CONTINUOUS
 62
     5
 10
-3301.276774628481
 20
-850.0931565017308
 30
0.0
 40
5.0
  1
2.1
  0
TEXT
  5
90B
  8
回07-寸法
  6
CONTINUOUS
 62
     5
 10
-3293.776774628481
 20
-850.0931565017308
 30
0.0
 40
3.333499999999999
  1
±0.2
  0
ENDBLK
  5
90D
  8
0
  6
CONTINUOUS
 62
     7
  0
ENDSEC
  0
SECTION
  2
ENTITIES
  0
TEXT
  5
6A
  8
回03-記事
  6
CONTINUOUS
 62
     5
 10
-3514.942189162331
 20
-1302.381882052984
 30
0.0
 40
6.144000000000001
  1
without affecting product specification.
  0
TEXT
  5
6C
  8
回03-記事
  6
CONTINUOUS
 62
     5
 10
-3514.942189162331
 20
-1291.604658738808
 30
0.0
 40
6.144000000000001
  1
Edges and corners of ITO glass may be chamfered 
  0
TEXT
  5
6D
  8
回03-記事
  6
CONTINUOUS
 62
     5
 10
-3514.942189162331
 20
-1280.827435424633
 30
0.0
 40
6.144000000000001
  1
Unit: mm
  0
TEXT
  5
6E
  8
回03-記事
  6
CONTINUOUS
 62
     5
 10
-3514.942189162331
 20
-1270.050212110457
 30
0.0
 40
6.144000000000001
  1
EXCEPT WHERE INDICATED
  0
TEXT
  5
6F
  8
回03-記事
  6
CONTINUOUS
 62
     5
 10
-3514.942189162331
 20
-1259.272988796281
 30
0.0
 40
6.144000000000001
  1
TOLERANCE=±0.5mm
  0
TEXT
  5
70
  8
回07-寸法
  6
CONTINUOUS
 62
     5
 10
-3903.140265934832
 20
-856.3050858158378
 30
0.0
 40
3.299999999999999
  1
(Insulation area)
 50
90.0
  0
TEXT
  5
74
  8
回08-記事
  6
CONTINUOUS
 62
     5
 10
-3345.124472066224
 20
-1195.128045288621
 30
0.0
 40
4.0
  1
MTR-G215WB100B
  0
TEXT
  5
78
  8
回08-記事
  6
CONTINUOUS
 62
     7
 10
-3580.911988052085
 20
-1259.500796583603
 30
0.0
 40
2.5
  1
(Conductor side near side)
  0
TEXT
  5
79
  8
回08-記事
  6
CONTINUOUS
 62
     7
 10
-3659.477658960654
 20
-1259.617423799319
 30
0.0
 40
2.5
  1
(Conductor side far side)
 41
0.9
  0
TEXT
  5
7A
  8
回08-記事
  6
CONTINUOUS
 62
     7
 10
-3580.095428513297
 20
-1256.301054300975
 30
0.0
 40
2.4
  1
Tail-1
  0
TEXT
  5
7B
  8
回08-記事
  6
CONTINUOUS
 62
     7
 10
-3635.907712562282
 20
-1256.309643759349
 30
0.0
 40
2.4
  1
Tail-2
  0
POLYLINE
  5
7C
  8
回01-上ER
  6
CONTINUOUS
 62
     7
 66
     1
 10
0.0
 20
0.0
 30
0.0
 70
     1
  0
VERTEX
  5
70F
  8
回01-上ER
  6
CONTINUOUS
 62
     7
 10
-3839.508226590465
 20
-871.6564799652031
 30
0.0
  0
VERTEX
  5
711
  8
回01-上ER
  6
CONTINUOUS
 62
     7
 10
-3362.868226590466
 20
-871.6564799652031
 30
0.0
  0
VERTEX
  5
712
  8
回01-上ER
  6
CONTINUOUS
 62
     7
 10
-3362.868226590466
 20
-904.820479965203
 30
0.0
  0
VERTEX
  5
713
  8
回01-上ER
  6
CONTINUOUS
 62
     7
 10
-3839.508226590465
 20
-904.820479965203
 30
0.0
  0
SEQEND
  5
710
  8
0
  6
CONTINUOUS
 62
     7
  0
POLYLINE
  5
80
  8
回01-上ER
  6
CONTINUOUS
 62
     7
 66
     1
 10
0.0
 20
0.0
 30
0.0
 70
     1
  0
VERTEX
  5
714
  8
回01-上ER
  6
CONTINUOUS
 62
     7
 10
-3839.508226590465
 20
-905.2204799652031
 30
0.0
  0
VERTEX
  5
716
  8
回01-上ER
  6
CONTINUOUS
 62
     7
 10
-3362.868226590466
 20
-905.2204799652031
 30
0.0
  0
VERTEX
  5
717
  8
回01-上ER
  6
CONTINUOUS
 62
     7
 10
-3362.868226590466
 20
-938.3844799652031
 30
0.0
  0
VERTEX
  5
718
  8
回01-上ER
  6
CONTINUOUS
 62
     7
 10
-3839.508226590465
 20
-938.3844799652031
 30
0.0
  0
SEQEND
  5
715
  8
0
  6
CONTINUOUS
 62
     7
  0
POLYLINE
  5
81
  8
回01-上ER
  6
CONTINUOUS
 62
     7
 66
     1
 10
0.0
 20
0.0
 30
0.0
 70
     1
  0
VERTEX
  5
719
  8
回01-上ER
  6
CONTINUOUS
 62
     7
 10
-3839.508226590465
 20
-938.7844799652029
 30
0.0
  0
VERTEX
  5
71B
  8
回01-上ER
  6
CONTINUOUS
 62
     7
 10
-3362.868226590466
 20
-938.7844799652029
 30
0.0
  0
VERTEX
  5
71C
  8
回01-上ER
  6
CONTINUOUS
 62
     7
 10
-3362.868226590466
 20
-971.9484799652029
 30
0.0
  0
VERTEX
  5
71D
  8
回01-上ER
  6
CONTINUOUS
 62
     7
 10
-3839.508226590465
 20
-971.9484799652029
 30
0.0
  0
SEQEND
  5
71A
  8
0
  6
CONTINUOUS
 62
     7
  0
POLYLINE
  5
82
  8
回01-上ER
  6
CONTINUOUS
 62
     7
 66
     1
 10
0.0
 20
0.0
 30
0.0
 70
     1
  0
VERTEX
  5
71E
  8
回01-上ER
  6
CONTINUOUS
 62
     7
 10
-3839.508226590465
 20
-972.348479965203
 30
0.0
  0
VERTEX
  5
720
  8
回01-上ER
  6
CONTINUOUS
 62
     7
 10
-3362.868226590466
 20
-972.348479965203
 30
0.0
  0
VERTEX
  5
721
  8
回01-上ER
  6
CONTINUOUS
 62
     7
 10
-3362.868226590466
 20
-1005.512479965203
 30
0.0
  0
VERTEX
  5
722
  8
回01-上ER
  6
CONTINUOUS
 62
     7
 10
-3839.508226590465
 20
-1005.512479965203
 30
0.0
  0
SEQEND
  5
71F
  8
0
  6
CONTINUOUS
 62
     7
  0
POLYLINE
  5
83
  8
回01-上ER
  6
CONTINUOUS
 62
     7
 66
     1
 10
0.0
 20
0.0
 30
0.0
 70
     1
  0
VERTEX
  5
723
  8
回01-上ER
  6
CONTINUOUS
 62
     7
 10
-3839.508226590465
 20
-1005.912479965203
 30
0.0
  0
VERTEX
  5
725
  8
回01-上ER
  6
CONTINUOUS
 62
     7
 10
-3362.868226590466
 20
-1005.912479965203
 30
0.0
  0
VERTEX
  5
726
  8
回01-上ER
  6
CONTINUOUS
 62
     7
 10
-3362.868226590466
 20
-1039.076479965203
 30
0.0
  0
VERTEX
  5
727
  8
回01-上ER
  6
CONTINUOUS
 62
     7
 10
-3839.508226590465
 20
-1039.076479965203
 30
0.0
  0
SEQEND
  5
724
  8
0
  6
CONTINUOUS
 62
     7
  0
POLYLINE
  5
84
  8
回01-上ER
  6
CONTINUOUS
 62
     7
 66
     1
 10
0.0
 20
0.0
 30
0.0
 70
     1
  0
VERTEX
  5
728
  8
回01-上ER
  6
CONTINUOUS
 62
     7
 10
-3839.508226590465
 20
-1039.476479965203
 30
0.0
  0
VERTEX
  5
72A
  8
回01-上ER
  6
CONTINUOUS
 62
     7
 10
-3362.868226590466
 20
-1039.476479965203
 30
0.0
  0
VERTEX
  5
72B
  8
回01-上ER
  6
CONTINUOUS
 62
     7
 10
-3362.868226590466
 20
-1072.640479965203
 30
0.0
  0
VERTEX
  5
72C
  8
回01-上ER
  6
CONTINUOUS
 62
     7
 10
-3839.508226590465
 20
-1072.640479965203
 30
0.0
  0
SEQEND
  5
729
  8
0
  6
CONTINUOUS
 62
     7
  0
POLYLINE
  5
85
  8
回01-上ER
  6
CONTINUOUS
 62
     7
 66
     1
 10
0.0
 20
0.0
 30
0.0
 70
     1
  0
VERTEX
  5
72D
  8
回01-上ER
  6
CONTINUOUS
 62
     7
 10
-3839.508226590465
 20
-1073.040479965203
 30
0.0
  0
VERTEX
  5
72F
  8
回01-上ER
  6
CONTINUOUS
 62
     7
 10
-3362.868226590466
 20
-1073.040479965203
 30
0.0
  0
VERTEX
  5
730
  8
回01-上ER
  6
CONTINUOUS
 62
     7
 10
-3362.868226590466
 20
-1106.204479965203
 30
0.0
  0
VERTEX
  5
731
  8
回01-上ER
  6
CONTINUOUS
 62
     7
 10
-3839.508226590465
 20
-1106.204479965203
 30
0.0
  0
SEQEND
  5
72E
  8
0
  6
CONTINUOUS
 62
     7
  0
POLYLINE
  5
86
  8
回01-上ER
  6
CONTINUOUS
 62
     7
 66
     1
 10
0.0
 20
0.0
 30
0.0
 70
     1
  0
VERTEX
  5
732
  8
回01-上ER
  6
CONTINUOUS
 62
     7
 10
-3839.508226590465
 20
-1106.604479965203
 30
0.0
  0
VERTEX
  5
734
  8
回01-上ER
  6
CONTINUOUS
 62
     7
 10
-3362.868226590466
 20
-1106.604479965203
 30
0.0
  0
VERTEX
  5
735
  8
回01-上ER
  6
CONTINUOUS
 62
     7
 10
-3362.868226590466
 20
-1139.768479965202
 30
0.0
  0
VERTEX
  5
736
  8
回01-上ER
  6
CONTINUOUS
 62
     7
 10
-3839.508226590465
 20
-1139.768479965202
 30
0.0
  0
SEQEND
  5
733
  8
0
  6
CONTINUOUS
 62
     7
  0
POLYLINE
  5
87
  8
回03-下ER
  6
CONTINUOUS
 62
     7
 66
     1
 10
0.0
 20
0.0
 30
0.0
 70
     1
  0
VERTEX
  5
737
  8
回03-下ER
  6
CONTINUOUS
 62
     7
 10
-3396.544226590465
 20
-1139.768479965202
 30
0.0
  0
VERTEX
  5
739
  8
回03-下ER
  6
CONTINUOUS
 62
     7
 10
-3362.870226590465
 20
-1139.768479965202
 30
0.0
  0
VERTEX
  5
73A
  8
回03-下ER
  6
CONTINUOUS
 62
     7
 10
-3362.870226590465
 20
-871.6564799652031
 30
0.0
  0
VERTEX
  5
73B
  8
回03-下ER
  6
CONTINUOUS
 62
     7
 10
-3396.544226590465
 20
-871.6564799652031
 30
0.0
  0
SEQEND
  5
738
  8
0
  6
CONTINUOUS
 62
     7
  0
POLYLINE
  5
8B
  8
回03-下ER
  6
CONTINUOUS
 62
     7
 66
     1
 10
0.0
 20
0.0
 30
0.0
 70
     1
  0
VERTEX
  5
73C
  8
回03-下ER
  6
CONTINUOUS
 62
     7
 10
-3430.618226590465
 20
-1139.768479965202
 30
0.0
  0
VERTEX
  5
73E
  8
回03-下ER
  6
CONTINUOUS
 62
     7
 10
-3396.944226590465
 20
-1139.768479965202
 30
0.0
  0
VERTEX
  5
73F
  8
回03-下ER
  6
CONTINUOUS
 62
     7
 10
-3396.944226590465
 20
-871.6564799652031
 30
0.0
  0
VERTEX
  5
740
  8
回03-下ER
  6
CONTINUOUS
 62
     7
 10
-3430.618226590465
 20
-871.6564799652031
 30
0.0
  0
SEQEND
  5
73D
  8
0
  6
CONTINUOUS
 62
     7
  0
POLYLINE
  5
8C
  8
回03-下ER
  6
CONTINUOUS
 62
     7
 66
     1
 10
0.0
 20
0.0
 30
0.0
 70
     1
  0
VERTEX
  5
741
  8
回03-下ER
  6
CONTINUOUS
 62
     7
 10
-3464.692226590465
 20
-1139.768479965202
 30
0.0
  0
VERTEX
  5
743
  8
回03-下ER
  6
CONTINUOUS
 62
     7
 10
-3431.018226590465
 20
-1139.768479965202
 30
0.0
  0
VERTEX
  5
744
  8
回03-下ER
  6
CONTINUOUS
 62
     7
 10
-3431.018226590465
 20
-871.6564799652031
 30
0.0
  0
VERTEX
  5
745
  8
回03-下ER
  6
CONTINUOUS
 62
     7
 10
-3464.692226590465
 20
-871.6564799652031
 30
0.0
  0
SEQEND
  5
742
  8
0
  6
CONTINUOUS
 62
     7
  0
POLYLINE
  5
8D
  8
回03-下ER
  6
CONTINUOUS
 62
     7
 66
     1
 10
0.0
 20
0.0
 30
0.0
 70
     1
  0
VERTEX
  5
746
  8
回03-下ER
  6
CONTINUOUS
 62
     7
 10
-3498.766226590465
 20
-1139.768479965202
 30
0.0
  0
VERTEX
  5
748
  8
回03-下ER
  6
CONTINUOUS
 62
     7
 10
-3465.092226590465
 20
-1139.768479965202
 30
0.0
  0
VERTEX
  5
749
  8
回03-下ER
  6
CONTINUOUS
 62
     7
 10
-3465.092226590465
 20
-871.6564799652031
 30
0.0
  0
VERTEX
  5
74A
  8
回03-下ER
  6
CONTINUOUS
 62
     7
 10
-3498.766226590465
 20
-871.6564799652031
 30
0.0
  0
SEQEND
  5
747
  8
0
  6
CONTINUOUS
 62
     7
  0
POLYLINE
  5
8E
  8
回03-下ER
  6
CONTINUOUS
 62
     7
 66
     1
 10
0.0
 20
0.0
 30
0.0
 70
     1
  0
VERTEX
  5
74B
  8
回03-下ER
  6
CONTINUOUS
 62
     7
 10
-3532.840226590465
 20
-1139.768479965202
 30
0.0
  0
VERTEX
  5
74D
  8
回03-下ER
  6
CONTINUOUS
 62
     7
 10
-3499.166226590465
 20
-1139.768479965202
 30
0.0
  0
VERTEX
  5
74E
  8
回03-下ER
  6
CONTINUOUS
 62
     7
 10
-3499.166226590465
 20
-871.6564799652031
 30
0.0
  0
VERTEX
  5
74F
  8
回03-下ER
  6
CONTINUOUS
 62
     7
 10
-3532.840226590465
 20
-871.6564799652031
 30
0.0
  0
SEQEND
  5
74C
  8
0
  6
CONTINUOUS
 62
     7
  0
POLYLINE
  5
8F
  8
回03-下ER
  6
CONTINUOUS
 62
     7
 66
     1
 10
0.0
 20
0.0
 30
0.0
 70
     1
  0
VERTEX
  5
750
  8
回03-下ER
  6
CONTINUOUS
 62
     7
 10
-3566.914226590465
 20
-1139.768479965202
 30
0.0
  0
VERTEX
  5
752
  8
回03-下ER
  6
CONTINUOUS
 62
     7
 10
-3533.240226590465
 20
-1139.768479965202
 30
0.0
  0
VERTEX
  5
753
  8
回03-下ER
  6
CONTINUOUS
 62
     7
 10
-3533.240226590465
 20
-871.6564799652031
 30
0.0
  0
VERTEX
  5
754
  8
回03-下ER
  6
CONTINUOUS
 62
     7
 10
-3566.914226590465
 20
-871.6564799652031
 30
0.0
  0
SEQEND
  5
751
  8
0
  6
CONTINUOUS
 62
     7
  0
POLYLINE
  5
90
  8
回03-下ER
  6
CONTINUOUS
 62
     7
 66
     1
 10
0.0
 20
0.0
 30
0.0
 70
     1
  0
VERTEX
  5
755
  8
回03-下ER
  6
CONTINUOUS
 62
     7
 10
-3600.988226590465
 20
-1139.768479965202
 30
0.0
  0
VERTEX
  5
757
  8
回03-下ER
  6
CONTINUOUS
 62
     7
 10
-3567.314226590465
 20
-1139.768479965202
 30
0.0
  0
VERTEX
  5
758
  8
回03-下ER
  6
CONTINUOUS
 62
     7
 10
-3567.314226590465
 20
-871.6564799652031
 30
0.0
  0
VERTEX
  5
759
  8
回03-下ER
  6
CONTINUOUS
 62
     7
 10
-3600.988226590465
 20
-871.6564799652031
 30
0.0
  0
SEQEND
  5
756
  8
0
  6
CONTINUOUS
 62
     7
  0
POLYLINE
  5
91
  8
回03-下ER
  6
CONTINUOUS
 62
     7
 66
     1
 10
0.0
 20
0.0
 30
0.0
 70
     1
  0
VERTEX
  5
75A
  8
回03-下ER
  6
CONTINUOUS
 62
     7
 10
-3635.062226590465
 20
-1139.768479965202
 30
0.0
  0
VERTEX
  5
75C
  8
回03-下ER
  6
CONTINUOUS
 62
     7
 10
-3601.388226590465
 20
-1139.768479965202
 30
0.0
  0
VERTEX
  5
75D
  8
回03-下ER
  6
CONTINUOUS
 62
     7
 10
-3601.388226590465
 20
-871.6564799652031
 30
0.0
  0
VERTEX
  5
75E
  8
回03-下ER
  6
CONTINUOUS
 62
     7
 10
-3635.062226590465
 20
-871.6564799652031
 30
0.0
  0
SEQEND
  5
75B
  8
0
  6
CONTINUOUS
 62
     7
  0
POLYLINE
  5
92
  8
回03-下ER
  6
CONTINUOUS
 62
     7
 66
     1
 10
0.0
 20
0.0
 30
0.0
 70
     1
  0
VERTEX
  5
75F
  8
回03-下ER
  6
CONTINUOUS
 62
     7
 10
-3669.136226590466
 20
-1139.768479965202
 30
0.0
  0
VERTEX
  5
761
  8
回03-下ER
  6
CONTINUOUS
 62
     7
 10
-3635.462226590465
 20
-1139.768479965202
 30
0.0
  0
VERTEX
  5
762
  8
回03-下ER
  6
CONTINUOUS
 62
     7
 10
-3635.462226590465
 20
-871.6564799652031
 30
0.0
  0
VERTEX
  5
763
  8
回03-下ER
  6
CONTINUOUS
 62
     7
 10
-3669.136226590466
 20
-871.6564799652031
 30
0.0
  0
SEQEND
  5
760
  8
0
  6
CONTINUOUS
 62
     7
  0
POLYLINE
  5
93
  8
回03-下ER
  6
CONTINUOUS
 62
     7
 66
     1
 10
0.0
 20
0.0
 30
0.0
 70
     1
  0
VERTEX
  5
764
  8
回03-下ER
  6
CONTINUOUS
 62
     7
 10
-3703.210226590465
 20
-1139.768479965202
 30
0.0
  0
VERTEX
  5
766
  8
回03-下ER
  6
CONTINUOUS
 62
     7
 10
-3669.536226590465
 20
-1139.768479965202
 30
0.0
  0
VERTEX
  5
767
  8
回03-下ER
  6
CONTINUOUS
 62
     7
 10
-3669.536226590465
 20
-871.6564799652031
 30
0.0
  0
VERTEX
  5
768
  8
回03-下ER
  6
CONTINUOUS
 62
     7
 10
-3703.210226590465
 20
-871.6564799652031
 30
0.0
  0
SEQEND
  5
765
  8
0
  6
CONTINUOUS
 62
     7
  0
POLYLINE
  5
94
  8
回03-下ER
  6
CONTINUOUS
 62
     7
 66
     1
 10
0.0
 20
0.0
 30
0.0
 70
     1
  0
VERTEX
  5
769
  8
回03-下ER
  6
CONTINUOUS
 62
     7
 10
-3737.284226590466
 20
-1139.768479965202
 30
0.0
  0
VERTEX
  5
76B
  8
回03-下ER
  6
CONTINUOUS
 62
     7
 10
-3703.610226590466
 20
-1139.768479965202
 30
0.0
  0
VERTEX
  5
76C
  8
回03-下ER
  6
CONTINUOUS
 62
     7
 10
-3703.610226590466
 20
-871.6564799652031
 30
0.0
  0
VERTEX
  5
76D
  8
回03-下ER
  6
CONTINUOUS
 62
     7
 10
-3737.284226590466
 20
-871.6564799652031
 30
0.0
  0
SEQEND
  5
76A
  8
0
  6
CONTINUOUS
 62
     7
  0
POLYLINE
  5
95
  8
回03-下ER
  6
CONTINUOUS
 62
     7
 66
     1
 10
0.0
 20
0.0
 30
0.0
 70
     1
  0
VERTEX
  5
76E
  8
回03-下ER
  6
CONTINUOUS
 62
     7
 10
-3771.358226590466
 20
-1139.768479965202
 30
0.0
  0
VERTEX
  5
770
  8
回03-下ER
  6
CONTINUOUS
 62
     7
 10
-3737.684226590465
 20
-1139.768479965202
 30
0.0
  0
VERTEX
  5
771
  8
回03-下ER
  6
CONTINUOUS
 62
     7
 10
-3737.684226590465
 20
-871.6564799652031
 30
0.0
  0
VERTEX
  5
772
  8
回03-下ER
  6
CONTINUOUS
 62
     7
 10
-3771.358226590466
 20
-871.6564799652031
 30
0.0
  0
SEQEND
  5
76F
  8
0
  6
CONTINUOUS
 62
     7
  0
POLYLINE
  5
96
  8
回03-下ER
  6
CONTINUOUS
 62
     7
 66
     1
 10
0.0
 20
0.0
 30
0.0
 70
     1
  0
VERTEX
  5
773
  8
回03-下ER
  6
CONTINUOUS
 62
     7
 10
-3805.432226590466
 20
-1139.768479965202
 30
0.0
  0
VERTEX
  5
775
  8
回03-下ER
  6
CONTINUOUS
 62
     7
 10
-3771.758226590466
 20
-1139.768479965202
 30
0.0
  0
VERTEX
  5
776
  8
回03-下ER
  6
CONTINUOUS
 62
     7
 10
-3771.758226590466
 20
-871.6564799652031
 30
0.0
  0
VERTEX
  5
777
  8
回03-下ER
  6
CONTINUOUS
 62
     7
 10
-3805.432226590466
 20
-871.6564799652031
 30
0.0
  0
SEQEND
  5
774
  8
0
  6
CONTINUOUS
 62
     7
  0
POLYLINE
  5
97
  8
回03-下ER
  6
CONTINUOUS
 62
     7
 66
     1
 10
0.0
 20
0.0
 30
0.0
 70
     1
  0
VERTEX
  5
778
  8
回03-下ER
  6
CONTINUOUS
 62
     7
 10
-3839.506226590465
 20
-1139.768479965202
 30
0.0
  0
VERTEX
  5
77A
  8
回03-下ER
  6
CONTINUOUS
 62
     7
 10
-3805.832226590466
 20
-1139.768479965202
 30
0.0
  0
VERTEX
  5
77B
  8
回03-下ER
  6
CONTINUOUS
 62
     7
 10
-3805.832226590466
 20
-871.6564799652031
 30
0.0
  0
VERTEX
  5
77C
  8
回03-下ER
  6
CONTINUOUS
 62
     7
 10
-3839.506226590465
 20
-871.6564799652031
 30
0.0
  0
SEQEND
  5
779
  8
0
  6
CONTINUOUS
 62
     7
  0
INSERT
  5
98
  8
回08-記事
  6
CONTINUOUS
 62
     5
 66
     1
  2
*X77
 10
0.0
 20
0.0
 30
0.0
  0
SEQEND
  5
782
  8
0
  6
CONTINUOUS
 62
     7
  0
INSERT
  5
99
  8
回08-記事
  6
CONTINUOUS
 62
     7
 66
     1
  2
*X78
 10
0.0
 20
0.0
 30
0.0
  0
SEQEND
  5
789
  8
0
  6
CONTINUOUS
 62
     7
  0
TEXT
  5
9A
  8
回08-記事
  6
CONTINUOUS
 62
     7
 10
-3629.19757627559
 20
-1251.442501964149
 30
0.0
 40
3.0
  1
60
  0
TEXT
  5
9B
  8
回08-記事
  6
CONTINUOUS
 62
     7
 10
-3606.435558643534
 20
-1251.442501964149
 30
0.0
 40
3.0
  1
27
  0
TEXT
  5
9C
  8
回08-記事
  6
CONTINUOUS
 62
     7
 10
-3600.142699757744
 20
-1251.442501964149
 30
0.0
 40
3.0
  1
26
  0
TEXT
  5
9D
  8
回08-記事
  6
CONTINUOUS
 62
     7
 10
-3580.932937598691
 20
-1251.442501964149
 30
0.0
 40
3.0
  1
1
  0
TEXT
  5
9E
  8
回08-記事
  6
CONTINUOUS
 62
     7
 10
-3210.65754780397
 20
-1277.270178557502
 30
0.0
 40
4.5
  1
PROTECTION TAPE
  0
TEXT
  5
9F
  8
回08-記事
  6
CONTINUOUS
 62
     7
 10
-3218.915094232234
 20
-1277.193249815826
 30
0.0
 40
4.68
  1
6
  0
LINE
  5
A0
  8
回08-記事
  6
CONTINUOUS
 62
     7
 10
-3221.306131599739
 20
-1278.537011377363
 30
0.0
 11
-3127.212318744578
 21
-1278.537011377363
 31
0.0
  0
TEXT
  5
A1
  8
回08-記事
  6
CONTINUOUS
 62
     7
 10
-3210.960057630281
 20
-1269.841169627712
 30
0.0
 40
4.68
  1
STIFFENER
  0
TEXT
  5
A2
  8
回08-記事
  6
CONTINUOUS
 62
     7
 10
-3210.960057630281
 20
-1262.041169627712
 30
0.0
 40
4.68
  1
REINFORCEMENT FILM
  0
LINE
  5
A3
  8
回08-記事
  6
CONTINUOUS
 62
     7
 10
-3127.212318744578
 20
-1278.537011377363
 30
0.0
 11
-3127.212318744578
 21
-1231.737011377362
 31
0.0
  0
TEXT
  5
A4
  8
回08-記事
  6
CONTINUOUS
 62
     7
 10
-3218.915094232234
 20
-1253.793249815825
 30
0.0
 40
4.68
  1
3
  0
TEXT
  5
A5
  8
回08-記事
  6
CONTINUOUS
 62
     7
 10
-3218.915094232234
 20
-1261.593249815825
 30
0.0
 40
4.68
  1
4
  0
TEXT
  5
A6
  8
回08-記事
  6
CONTINUOUS
 62
     7
 10
-3218.915094232234
 20
-1245.993249815826
 30
0.0
 40
4.68
  1
2
  0
TEXT
  5
A7
  8
回08-記事
  6
CONTINUOUS
 62
     7
 10
-3218.915094232234
 20
-1269.393249815826
 30
0.0
 40
4.68
  1
5
  0
LINE
  5
A8
  8
回08-記事
  6
CONTINUOUS
 62
     7
 10
-3213.190537030873
 20
-1231.737011377362
 30
0.0
 11
-3213.190537030873
 21
-1278.537011377363
 31
0.0
  0
LINE
  5
A9
  8
回08-記事
  6
CONTINUOUS
 62
     7
 10
-3221.306131599739
 20
-1231.737011377362
 30
0.0
 11
-3221.306131599739
 21
-1278.537011377363
 31
0.0
  0
TEXT
  5
AA
  8
回08-記事
  6
CONTINUOUS
 62
     7
 10
-3218.915094232234
 20
-1238.193249815826
 30
0.0
 40
4.68
  1
1
  0
LINE
  5
AB
  8
回08-記事
  6
CONTINUOUS
 62
     7
 10
-3221.306131599739
 20
-1270.737011377363
 30
0.0
 11
-3127.212318744578
 21
-1270.737011377363
 31
0.0
  0
LINE
  5
AC
  8
回08-記事
  6
CONTINUOUS
 62
     7
 10
-3221.306131599739
 20
-1239.537011377362
 30
0.0
 11
-3127.212318744578
 21
-1239.537011377362
 31
0.0
  0
LINE
  5
AD
  8
回08-記事
  6
CONTINUOUS
 62
     7
 10
-3221.306131599739
 20
-1231.737011377362
 30
0.0
 11
-3127.212318744578
 21
-1231.737011377362
 31
0.0
  0
LINE
  5
AE
  8
回08-記事
  6
CONTINUOUS
 62
     7
 10
-3221.306131599739
 20
-1262.937011377363
 30
0.0
 11
-3127.212318744578
 21
-1262.937011377363
 31
0.0
  0
LINE
  5
AF
  8
回08-記事
  6
CONTINUOUS
 62
     7
 10
-3221.306131599739
 20
-1255.137011377363
 30
0.0
 11
-3127.212318744578
 21
-1255.137011377363
 31
0.0
  0
LINE
  5
B0
  8
回08-記事
  6
CONTINUOUS
 62
     7
 10
-3221.306131599739
 20
-1247.337011377363
 30
0.0
 11
-3127.212318744578
 21
-1247.337011377363
 31
0.0
  0
TEXT
  5
B1
  8
回08-記事
  6
CONTINUOUS
 62
     7
 10
-3210.960057630281
 20
-1238.641169627712
 30
0.0
 40
4.68
  1
ITO FILM (ANTI-GLARE)
  0
TEXT
  5
B2
  8
回08-記事
  6
CONTINUOUS
 62
     7
 10
-3210.960057630281
 20
-1246.441169627712
 30
0.0
 40
4.68
  1
ITO GLASS
  0
TEXT
  5
B3
  8
回08-記事
  6
CONTINUOUS
 62
     7
 10
-3210.960057630281
 20
-1254.241169627713
 30
0.0
 40
4.68
  1
FPC
  0
TEXT
  5
B4
  8
回90-枠2
 10
-3188.96131197043
 20
-1298.502767799456
 30
0.0
 40
5.877614223360004
  1
Oct/12/2023
  0
TEXT
  5
B7
  8
回90-枠2
 10
-3277.178129929814
 20
-1298.502767799456
 30
0.0
 40
5.877614223360004
  1
MTR-G215WB100B
  0
LINE
  5
B8
  8
回90-枠2
  6
CONTINUOUS
 62
     7
 10
-3286.66941220801
 20
-1284.184270673514
 30
0.0
 11
-3122.09621395393
 21
-1284.184270673514
 31
0.0
  0
TEXT
  5
B9
  8
回90-枠2
 10
-3174.905843227618
 20
-1288.86775605339
 30
0.0
 40
4.114329956352002
  1
DATE
  0
LINE
  5
BA
  8
回90-枠2
  6
CONTINUOUS
 62
     7
 10
-3286.66941220801
 20
-1284.184270673514
 30
0.0
 11
-3122.09621395393
 21
-1284.184270673514
 31
0.0
  0
TEXT
  5
BB
  8
回90-枠2
 10
-3187.679196128093
 20
-1313.728629145781
 30
0.0
 40
5.877614223360004
  1
DMC Co., Ltd.
  0
LINE
  5
BC
  8
回90-枠2
 10
-3210.26042730433
 20
-1284.184270673514
 30
0.0
 11
-3210.26042730433
 21
-1319.449956013674
 31
0.0
  0
TEXT
  5
BD
  8
回90-枠2
 10
-3268.593521669339
 20
-1312.335065139842
 30
0.0
 40
3.526568534016003
  1
Multi Touch Resistive
  0
LINE
  5
BE
  8
回90-枠2
 10
-3286.66941220801
 20
-1284.184270673514
 30
0.0
 11
-3286.66941220801
 21
-1319.449956013674
 31
0.0
  0
TEXT
  5
BF
  8
回90-枠2
 10
-3253.721980793462
 20
-1306.640464711704
 30
0.0
 40
3.526568534016003
  1
TYPE
  0
LINE
  5
C0
  8
回90-枠2
 10
-3283.142843673994
 20
-1313.572341790314
 30
0.0
 11
-3213.786995838346
 21
-1313.572341790314
 31
0.0
  0
TEXT
  5
C1
  8
回90-枠2
 10
-3271.30333719194
 20
-1318.61365382189
 30
0.0
 40
3.526568534016003
  1
DIMENSIONAL DRAWING
  0
TEXT
  5
C2
  8
回90-枠2
 10
-3258.695158346777
 20
-1289.047876975798
 30
0.0
 40
4.114329956352002
  1
PART No.
  0
LINE
  5
C3
  8
回90-枠2
 10
-3286.66941220801
 20
-1301.817113343594
 30
0.0
 11
-3122.09621395393
 21
-1301.817113343594
 31
0.0
  0
LINE
  5
C4
  8
回90-枠2
 10
-3286.66941220801
 20
-1307.694727566954
 30
0.0
 11
-3210.26042730433
 21
-1307.694727566954
 31
0.0
  0
LINE
  5
C5
  8
回90-枠2
 10
-3286.66941220801
 20
-1290.061884896874
 30
0.0
 11
-3122.09621395393
 21
-1290.061884896874
 31
0.0
  0
TEXT
  5
C6
  8
回08-記事
  6
CONTINUOUS
 62
     7
 10
-3185.564363298528
 20
-870.8290863571072
 30
0.0
 40
4.0
  1
PIN ASSIGNMENT
  0
TEXT
  5
C7
  8
回08-記事
  6
CONTINUOUS
 62
     7
 10
-3369.56365661937
 20
-1137.740298533416
 30
0.0
 40
3.0
  1
SDR
  0
TEXT
  5
C8
  8
回08-記事
  6
CONTINUOUS
 62
     7
 10
-3371.088779856246
 20
-873.3926260850996
 30
0.0
 40
3.0
  1
SUR
  0
TEXT
  5
C9
  8
回08-記事
  6
CONTINUOUS
 62
     7
 10
-3369.56365661937
 20
-1125.240667643134
 30
0.0
 40
3.0
  1
R8
  0
TEXT
  5
CA
  8
回08-記事
  6
CONTINUOUS
 62
     7
 10
-3369.56365661937
 20
-1091.584303030145
 30
0.0
 40
3.0
  1
R7
  0
TEXT
  5
CB
  8
回08-記事
  6
CONTINUOUS
 62
     7
 10
-3369.56365661937
 20
-1057.927938417157
 30
0.0
 40
3.0
  1
R6
  0
TEXT
  5
CC
  8
回08-記事
  6
CONTINUOUS
 62
     7
 10
-3369.56365661937
 20
-1024.271573804168
 30
0.0
 40
3.0
  1
R5
  0
TEXT
  5
CD
  8
回08-記事
  6
CONTINUOUS
 62
     7
 10
-3369.56365661937
 20
-990.6152091911799
 30
0.0
 40
3.0
  1
R4
  0
TEXT
  5
CE
  8
回08-記事
  6
CONTINUOUS
 62
     7
 10
-3369.56365661937
 20
-956.9588445781915
 30
0.0
 40
3.0
  1
R3
  0
TEXT
  5
CF
  8
回08-記事
  6
CONTINUOUS
 62
     7
 10
-3369.56365661937
 20
-923.302479965203
 30
0.0
 40
3.0
  1
R2
  0
TEXT
  5
D0
  8
回08-記事
  6
CONTINUOUS
 62
     7
 10
-3369.56365661937
 20
-889.6461153522146
 30
0.0
 40
3.0
  1
R1
  0
TEXT
  5
D1
  8
回08-記事
  6
CONTINUOUS
 62
     7
 10
-3838.578992514334
 20
-1125.240667643134
 30
0.0
 40
3.0
  1
L8
  0
TEXT
  5
D2
  8
回08-記事
  6
CONTINUOUS
 62
     7
 10
-3838.578992514334
 20
-1091.584303030145
 30
0.0
 40
3.0
  1
L7
  0
TEXT
  5
D3
  8
回08-記事
  6
CONTINUOUS
 62
     7
 10
-3838.578992514334
 20
-1057.927938417157
 30
0.0
 40
3.0
  1
L6
  0
TEXT
  5
D4
  8
回08-記事
  6
CONTINUOUS
 62
     7
 10
-3838.578992514334
 20
-1024.271573804168
 30
0.0
 40
3.0
  1
L5
  0
TEXT
  5
D5
  8
回08-記事
  6
CONTINUOUS
 62
     7
 10
-3838.578992514334
 20
-990.6152091911799
 30
0.0
 40
3.0
  1
L4
  0
TEXT
  5
D6
  8
回08-記事
  6
CONTINUOUS
 62
     7
 10
-3838.578992514334
 20
-956.9588445781915
 30
0.0
 40
3.0
  1
L3
  0
TEXT
  5
D7
  8
回08-記事
  6
CONTINUOUS
 62
     7
 10
-3838.578992514334
 20
-923.302479965203
 30
0.0
 40
3.0
  1
L2
  0
TEXT
  5
D8
  8
回08-記事
  6
CONTINUOUS
 62
     7
 10
-3838.578992514334
 20
-889.6461153522146
 30
0.0
 40
3.0
  1
L1
  0
TEXT
  5
D9
  8
回08-記事
  6
CONTINUOUS
 62
     7
 10
-3839.455768202996
 20
-873.8827436412806
 30
0.0
 40
1.6
  1
SUL
  0
TEXT
  5
DA
  8
回08-記事
  6
CONTINUOUS
 62
     5
 10
-3280.555503109372
 20
-1189.47301373456
 30
0.0
 40
5.0
  1
Lot label
1001
ACAD
1000
MTEXTBEGIN
1070
    73
1070
     1
1070
    44
1040
1.0
1070
    74
1070
     0
1000
MTEXTEND
  0
INSERT
  5
DB
  8
回08-記事
  6
CONTINUOUS
 62
     7
 66
     1
  2
*X79
 10
0.0
 20
0.0
 30
0.0
  0
SEQEND
  5
790
  8
0
  6
CONTINUOUS
 62
     7
  0
TEXT
  5
DE
  8
回08-記事
  6
CONTINUOUS
 62
     5
 10
-3344.890861804979
 20
-1188.683268660266
 30
0.0
 40
5.0
  1
Part No. label
1001
ACAD
1000
MTEXTBEGIN
1070
    73
1070
     1
1070
    44
1040
1.0
1070
    74
1070
     0
1000
MTEXTEND
  0
INSERT
  5
DF
  8
回08-記事
  6
CONTINUOUS
 62
     7
 66
     1
  2
*X80
 10
0.0
 20
0.0
 30
0.0
  0
SEQEND
  5
797
  8
0
  6
CONTINUOUS
 62
     7
  0
ARC
  5
E0
  8
回08-記事
  6
CONTINUOUS
 62
     7
 10
-3289.954626461302
 20
-872.597479965202
 30
0.0
 40
0.4161773402836389
 50
90.0
 51
270.0
  0
ARC
  5
E1
  8
回08-記事
  6
CONTINUOUS
 62
     7
 10
-3289.954626461302
 20
-876.097479965202
 30
0.0
 40
0.4161773402836389
 50
90.0
 51
270.0
  0
ARC
  5
E2
  8
回08-記事
  6
CONTINUOUS
 62
     7
 10
-3289.954626461302
 20
-879.597479965202
 30
0.0
 40
0.4161773402836389
 50
90.0
 51
270.0
  0
ARC
  5
E3
  8
回08-記事
  6
CONTINUOUS
 62
     7
 10
-3289.954626461302
 20
-883.097479965202
 30
0.0
 40
0.4161773402836389
 50
90.0
 51
270.0
  0
ARC
  5
E4
  8
回08-記事
  6
CONTINUOUS
 62
     7
 10
-3289.954626461302
 20
-886.597479965202
 30
0.0
 40
0.4161773402836389
 50
90.0
 51
270.0
  0
ARC
  5
E5
  8
回08-記事
  6
CONTINUOUS
 62
     7
 10
-3289.954626461302
 20
-890.0974799652018
 30
0.0
 40
0.4161773402836389
 50
90.0
 51
270.0
  0
ARC
  5
E6
  8
回08-記事
  6
CONTINUOUS
 62
     7
 10
-3289.954626461302
 20
-893.5974799652019
 30
0.0
 40
0.4161773402836389
 50
90.0
 51
270.0
  0
ARC
  5
E7
  8
回08-記事
  6
CONTINUOUS
 62
     7
 10
-3289.954626461302
 20
-897.0974799652019
 30
0.0
 40
0.4161773402836389
 50
90.0
 51
270.0
  0
ARC
  5
E8
  8
回08-記事
  6
CONTINUOUS
 62
     7
 10
-3289.954626461302
 20
-900.5974799652019
 30
0.0
 40
0.4161773402836389
 50
90.0
 51
270.0
  0
ARC
  5
E9
  8
回08-記事
  6
CONTINUOUS
 62
     7
 10
-3289.954626461302
 20
-904.0974799652019
 30
0.0
 40
0.4161773402836389
 50
90.0
 51
270.0
  0
ARC
  5
EA
  8
回08-記事
  6
CONTINUOUS
 62
     7
 10
-3289.954626461302
 20
-907.5974799652019
 30
0.0
 40
0.4161773402836389
 50
90.0
 51
270.0
  0
ARC
  5
EB
  8
回08-記事
  6
CONTINUOUS
 62
     7
 10
-3289.954626461302
 20
-911.0974799652019
 30
0.0
 40
0.4161773402836389
 50
90.0
 51
270.0
  0
ARC
  5
EC
  8
回08-記事
  6
CONTINUOUS
 62
     7
 10
-3289.954626461302
 20
-914.5974799652019
 30
0.0
 40
0.4161773402836389
 50
90.0
 51
270.0
  0
ARC
  5
ED
  8
回08-記事
  6
CONTINUOUS
 62
     7
 10
-3289.954626461302
 20
-918.097479965202
 30
0.0
 40
0.4161773402836389
 50
90.0
 51
270.0
  0
ARC
  5
EE
  8
回08-記事
  6
CONTINUOUS
 62
     7
 10
-3289.954626461302
 20
-921.597479965202
 30
0.0
 40
0.4161773402836389
 50
90.0
 51
270.0
  0
ARC
  5
EF
  8
回08-記事
  6
CONTINUOUS
 62
     7
 10
-3289.954626461302
 20
-925.097479965202
 30
0.0
 40
0.4161773402836389
 50
90.0
 51
270.0
  0
ARC
  5
F0
  8
回08-記事
  6
CONTINUOUS
 62
     7
 10
-3289.954626461302
 20
-928.597479965202
 30
0.0
 40
0.4161773402836389
 50
90.0
 51
270.0
  0
ARC
  5
F1
  8
回08-記事
  6
CONTINUOUS
 62
     7
 10
-3289.954626461302
 20
-932.0974799652018
 30
0.0
 40
0.4161773402836389
 50
90.0
 51
270.0
  0
ARC
  5
F2
  8
回08-記事
  6
CONTINUOUS
 62
     7
 10
-3289.954626461302
 20
-935.5974799652019
 30
0.0
 40
0.4161773402836389
 50
90.0
 51
270.0
  0
ARC
  5
F3
  8
回08-記事
  6
CONTINUOUS
 62
     7
 10
-3289.954626461302
 20
-939.0974799652019
 30
0.0
 40
0.4161773402836389
 50
90.0
 51
270.0
  0
ARC
  5
F4
  8
回08-記事
  6
CONTINUOUS
 62
     7
 10
-3289.954626461302
 20
-942.5974799652019
 30
0.0
 40
0.4161773402836389
 50
90.0
 51
270.0
  0
POLYLINE
  5
F5
  8
回08-記事
  6
CONTINUOUS
 62
     7
 66
     1
 10
0.0
 20
0.0
 30
0.0
 70
     1
  0
VERTEX
  5
798
  8
回08-記事
  6
CONTINUOUS
 62
     7
 10
-3617.002311510146
 20
-1172.393208980616
 30
0.0
  0
VERTEX
  5
79A
  8
回08-記事
  6
CONTINUOUS
 62
     7
 10
-3614.002311510146
 20
-1172.393208980616
 30
0.0
 42
-0.4142135623730951
  0
VERTEX
  5
79B
  8
回08-記事
  6
CONTINUOUS
 62
     7
 10
-3613.502311510146
 20
-1172.893208980616
 30
0.0
  0
VERTEX
  5
79C
  8
回08-記事
  6
CONTINUOUS
 62
     7
 10
-3613.502311510146
 20
-1197.893208980616
 30
0.0
 42
-0.4142135623730951
  0
VERTEX
  5
79D
  8
回08-記事
  6
CONTINUOUS
 62
     7
 10
-3614.002311510146
 20
-1198.393208980616
 30
0.0
  0
VERTEX
  5
79E
  8
回08-記事
  6
CONTINUOUS
 62
     7
 10
-3617.002311510146
 20
-1198.393208980616
 30
0.0
 42
-0.4142135623730951
  0
VERTEX
  5
79F
  8
回08-記事
  6
CONTINUOUS
 62
     7
 10
-3617.502311510146
 20
-1197.893208980616
 30
0.0
  0
VERTEX
  5
7A0
  8
回08-記事
  6
CONTINUOUS
 62
     7
 10
-3617.502311510146
 20
-1172.893208980616
 30
0.0
 42
-0.4142135623730951
  0
SEQEND
  5
799
  8
0
  6
CONTINUOUS
 62
     7
  0
INSERT
  5
F6
  8
回08-記事
  6
CONTINUOUS
 62
     7
 66
     1
  2
*X81
 10
0.0
 20
0.0
 30
0.0
1001
GRADIENTCOLOR1ACI
1070
     5
1001
GRADIENTCOLOR2ACI
1070
     2
1001
ACAD
1010
0.0
1020
0.0
1030
0.0
  0
SEQEND
  5
7BA
  8
0
  6
CONTINUOUS
 62
     7
  0
DIMENSION
  5
F9
  8
回07-寸法
  6
CONTINUOUS
 62
    18
  2
*D39
 10
-3595.438226590465
 20
-1277.40320019334
 30
0.0
 11
-3723.313226590465
 21
-1274.15320019334
 31
0.0
 70
    32
  1
(<>)
  3
DMC
 13
-3851.188226590466
 23
-1151.812479965202
 33
0.0
 14
-3595.438226590465
 24
-1251.908479965202
 34
0.0
1001
ACAD
1000
DSTYLE
1002
{
1070
    41
1040
3.0
1070
    47
1040
0.2
1070
    48
1040
0.2
1070
   141
1040
1.5
1070
   271
1070
     3
1070
   272
1070
     3
1070
   371
1070
    13
1070
   372
1070
    13
1002
}
  0
DIMENSION
  5
109
  8
回07-寸法
  6
CONTINUOUS
 62
    18
  2
*D40
 10
-3538.625199904482
 20
-1152.812479965202
 30
0.0
 11
-3541.625199904482
 21
-1202.610479965202
 31
0.0
 70
    32
  3
DMC
 13
-3582.438226590465
 23
-1252.408479965203
 33
0.0
 14
-3575.187101275017
 24
-1152.812479965202
 34
0.0
 50
90.0
1001
ACAD
1000
DSTYLE
1002
{
1070
    41
1040
3.0
1070
    47
1040
1.5
1070
    48
1040
1.5
1070
    71
1070
     1
1070
   141
1040
1.5
1070
   271
1070
     0
1070
   272
1070
     3
1070
   371
1070
    13
1070
   372
1070
    13
1002
}
  0
DIMENSION
  5
118
  8
回07-寸法
  6
CONTINUOUS
 62
     1
  2
*D41
 10
-3575.187101275017
 20
-1185.712896287189
 30
0.0
 11
-3565.873617023049
 21
-1185.712896287189
 31
0.0
 70
   160
  3
DMC
 13
-3602.187101275017
 23
-1155.553949692251
 33
0.0
 14
-3575.187101275017
 24
-1155.553949692251
 34
0.0
1001
ACAD
1000
DSTYLE
1002
{
1070
    41
1040
3.0
1070
    47
1040
0.2
1070
    48
1040
0.2
1070
   141
1040
1.5
1070
   271
1070
     3
1070
   272
1070
     3
1070
   371
1070
    13
1070
   372
1070
    13
1002
}
  0
DIMENSION
  5
129
  8
回07-寸法
  6
CONTINUOUS
 62
     1
  2
*D42
 10
-3638.187101275017
 20
-1192.005866447717
 30
0.0
 11
-3649.3458221638
 21
-1192.005866447717
 31
0.0
 70
   160
  3
DMC
 13
-3603.187101275017
 23
-1155.625955736796
 33
0.0
 14
-3638.187101275017
 24
-1155.625955736796
 34
0.0
1001
ACAD
1000
DSTYLE
1002
{
1070
    41
1040
3.0
1070
    47
1040
0.2
1070
    48
1040
0.2
1070
   141
1040
1.5
1070
   271
1070
     3
1070
   272
1070
     3
1070
   371
1070
    13
1070
   372
1070
    13
1002
}
  0
DIMENSION
  5
13A
  8
回07-寸法
  6
CONTINUOUS
 62
     1
  2
*D43
 10
-3561.594800087337
 20
-1162.719288570072
 30
0.0
 11
-3561.594800087337
 21
-1173.331577786902
 31
0.0
 70
   160
  3
DMC
 13
-3575.187101275017
 23
-1152.812479965202
 33
0.0
 14
-3581.938226590465
 24
-1162.719288570072
 34
0.0
 50
90.0
1001
ACAD
1000
DSTYLE
1002
{
1070
    41
1040
3.0
1070
    47
1040
0.2
1070
    48
1040
0.2
1070
   141
1040
1.5
1070
   271
1070
     1
1070
   272
1070
     3
1070
   371
1070
    13
1070
   372
1070
    13
1002
}
  0
DIMENSION
  5
14B
  8
回07-寸法
  6
CONTINUOUS
 62
     1
  2
*D44
 10
-3568.930905277934
 20
-1155.968163254624
 30
0.0
 11
-3568.930905277934
 21
-1167.958876444217
 31
0.0
 70
   160
  3
DMC
 13
-3575.187101275017
 23
-1152.812479965202
 33
0.0
 14
-3575.187101275017
 24
-1155.968163254624
 34
0.0
 50
90.0
1001
ACAD
1000
DSTYLE
1002
{
1070
    41
1040
3.0
1070
    47
1040
0.2
1070
    48
1040
0.2
1070
   141
1040
1.5
1070
   271
1070
     1
1070
   272
1070
     3
1070
   371
1070
    13
1070
   372
1070
    13
1002
}
  0
DIMENSION
  5
15C
  8
回07-寸法
  6
CONTINUOUS
 62
     1
  2
*D45
 10
-3654.89474741598
 20
-1169.789043983721
 30
0.0
 11
-3654.89474741598
 21
-1178.539043983721
 31
0.0
 70
   160
  3
DMC
 13
-3638.187101275017
 23
-1152.812479965202
 33
0.0
 14
-3624.438226590465
 24
-1169.789043983721
 34
0.0
 50
90.0
1001
ACAD
1000
DSTYLE
1002
{
1070
    41
1040
3.0
1070
    47
1040
0.2
1070
    48
1040
0.2
1070
   141
1040
1.5
1070
   271
1070
     1
1070
   272
1070
     3
1070
   371
1070
    13
1070
   372
1070
    13
1002
}
  0
DIMENSION
  5
16D
  8
回07-寸法
  6
CONTINUOUS
 62
     1
  2
*D46
 10
-3645.431020738781
 20
-1156.040169299169
 30
0.0
 11
-3645.431020738781
 21
-1174.783402000597
 31
0.0
 70
   160
  3
DMC
 13
-3638.187101275017
 23
-1152.812479965202
 33
0.0
 14
-3638.187101275017
 24
-1156.040169299169
 34
0.0
 50
90.0
1001
ACAD
1000
DSTYLE
1002
{
1070
    41
1040
3.0
1070
    47
1040
0.2
1070
    48
1040
0.2
1070
   141
1040
1.5
1070
   271
1070
     1
1070
   272
1070
     3
1070
   371
1070
    13
1070
   372
1070
    13
1002
}
  0
DIMENSION
  5
17E
  8
回07-寸法
  6
CONTINUOUS
 62
     6
  2
*D47
 10
-3851.188226590466
 20
-1267.408479965202
 30
0.0
 11
-3737.813226590465
 21
-1264.158479965202
 31
0.0
 70
    32
  1
(<>)
  3
DMC
 13
-3624.438226590466
 23
-1252.312479965201
 33
0.0
 14
-3851.188226590466
 24
-1151.812479965202
 34
0.0
 50
180.0
1001
ACAD
1000
DSTYLE
1002
{
1070
    41
1040
3.0
1070
    47
1040
0.2
1070
    48
1040
0.2
1070
   141
1040
1.5
1070
   271
1070
     3
1070
   272
1070
     3
1070
   371
1070
    13
1070
   372
1070
    13
1002
}
  0
DIMENSION
  5
18D
  8
回07-寸法
  6
CONTINUOUS
 62
     6
  2
*D48
 10
-3624.438226590465
 20
-1267.408479965202
 30
0.0
 11
-3571.778612467571
 21
-1267.408479965202
 31
0.0
 70
   160
  3
DMC
 13
-3606.938226590465
 23
-1251.908479965202
 33
0.0
 14
-3624.438226590465
 24
-1251.908479965202
 34
0.0
 50
180.0
1001
ACAD
1000
DSTYLE
1002
{
1070
    41
1040
3.0
1070
    47
1040
0.1
1070
    48
1040
0.1
1070
    71
1070
     1
1070
   141
1040
1.5
1070
   271
1070
     3
1070
   272
1070
     3
1070
   371
1070
    13
1070
   372
1070
    13
1002
}
  0
DIMENSION
  5
19E
  8
回07-寸法
  6
CONTINUOUS
 62
     6
  2
*D49
 10
-3595.438226590465
 20
-1277.40320019334
 30
0.0
 11
-3566.725726590465
 21
-1277.40320019334
 31
0.0
 70
   160
  3
DMC
 13
-3581.938226590465
 23
-1251.908479965203
 33
0.0
 14
-3595.438226590465
 24
-1251.908479965202
 34
0.0
 50
180.0
1001
ACAD
1000
DSTYLE
1002
{
1070
    41
1040
3.0
1070
    47
1040
0.1
1070
    48
1040
0.1
1070
    71
1070
     1
1070
   141
1040
1.5
1070
   271
1070
     3
1070
   272
1070
     3
1070
   371
1070
    13
1070
   372
1070
    13
1002
}
  0
DIMENSION
  5
1AF
  8
回07-寸法
  6
CONTINUOUS
 62
     5
  2
*D50
 10
-3667.377498767618
 20
-1252.408479965202
 30
0.0
 11
-3667.377498767618
 21
-1202.610479965202
 31
0.0
 70
   160
  3
DMC
 13
-3638.187101275017
 23
-1152.812479965202
 33
0.0
 14
-3623.938226590465
 24
-1252.408479965202
 34
0.0
 50
270.0
1001
ACAD
1000
DSTYLE
1002
{
1070
    41
1040
3.0
1070
    47
1040
1.5
1070
    48
1040
1.5
1070
    71
1070
     1
1070
   141
1040
1.5
1070
   271
1070
     0
1070
   272
1070
     3
1070
   371
1070
    13
1070
   372
1070
    13
1002
}
  0
LINE
  5
1BE
  8
回07-寸法
  6
CENTER2
 62
     5
 10
-3601.188226590466
 20
-1142.767479965203
 30
0.0
 11
-3601.188226590466
 21
-868.657479965203
 31
0.0
  0
LINE
  5
1C0
  8
回07-寸法
  6
CENTER2
 62
     5
 10
-3842.508226590465
 20
-1005.712479965203
 30
0.0
 11
-3359.868226590466
 21
-1005.712479965203
 31
0.0
  0
POLYLINE
  5
1C1
  8
回08-記事
  6
PHANTOM2
 62
     7
 66
     1
 10
0.0
 20
0.0
 30
0.0
 70
     1
  0
VERTEX
  5
7BB
  8
回08-記事
  6
PHANTOM2
 62
     7
 10
-3842.008226590465
 20
-869.157479965203
 30
0.0
  0
VERTEX
  5
7BD
  8
回08-記事
  6
PHANTOM2
 62
     7
 10
-3360.368226590465
 20
-869.157479965203
 30
0.0
  0
VERTEX
  5
7BE
  8
回08-記事
  6
PHANTOM2
 62
     7
 10
-3360.368226590465
 20
-1142.267479965203
 30
0.0
  0
VERTEX
  5
7BF
  8
回08-記事
  6
PHANTOM2
 62
     7
 10
-3842.008226590465
 20
-1142.267479965203
 30
0.0
  0
SEQEND
  5
7BC
  8
0
  6
CONTINUOUS
 62
     7
  0
DIMENSION
  5
1C3
  8
回07-寸法
  6
CONTINUOUS
 62
     7
  2
*D51
 10
-3351.188226590466
 20
-817.572479965203
 30
0.0
 11
-3324.300861746904
 21
-814.3224799652029
 31
0.0
 70
    32
  1
(<>){\H0.6667x;(Insulation area)}
  3
DMC
 13
-3360.368226590465
 23
-869.157479965203
 33
0.0
 14
-3351.188226590466
 24
-862.612479965203
 34
0.0
 50
180.0
1001
ACADSTRINGINFO
1000
MIFCodePage
1070
     1
1001
ACAD
1000
DSTYLE
1002
{
1070
    41
1040
1.5
1070
    47
1040
0.2
1070
    48
1040
0.2
1070
   141
1040
1.5
1070
   271
1070
     3
1070
   272
1070
     3
1070
   371
1070
    13
1070
   372
1070
    13
1002
}
  0
DIMENSION
  5
1D4
  8
回07-寸法
  6
CONTINUOUS
 62
     7
  2
*D52
 10
-3842.008226590465
 20
-817.572479965203
 30
0.0
 11
-3601.188226590466
 21
-814.5724799652029
 31
0.0
 70
    32
  3
DMC
 13
-3360.368226590465
 23
-869.157479965203
 33
0.0
 14
-3842.008226590465
 24
-869.157479965203
 34
0.0
 50
180.0
1001
ACAD
1000
DSTYLE
1002
{
1070
    41
1040
3.0
1070
    47
1040
0.2
1070
    48
1040
0.2
1070
   141
1040
1.5
1070
   271
1070
     3
1070
   272
1070
     3
1070
   371
1070
    13
1070
   372
1070
    13
1002
}
  0
DIMENSION
  5
1E3
  8
回07-寸法
  6
CONTINUOUS
 62
     7
  2
*D53
 10
-3851.188226590466
 20
-817.572479965203
 30
0.0
 11
-3879.067549764677
 21
-814.489142465203
 31
0.0
 70
    32
  1
<>{\H0.6667x;(Insulation area)}
  3
DMC
 13
-3842.008226590465
 23
-869.157479965203
 33
0.0
 14
-3851.188226590466
 24
-860.6124799652029
 34
0.0
 50
180.0
1001
ACADSTRINGINFO
1000
MIFCodePage
1070
     1
1001
ACAD
1000
DSTYLE
1002
{
1070
    41
1040
3.0
1070
    47
1040
0.2
1070
    48
1040
0.2
1070
   141
1040
1.5
1070
   271
1070
     3
1070
   272
1070
     3
1070
   371
1070
    13
1070
   372
1070
    13
1002
}
  0
DIMENSION
  5
1F4
  8
回07-寸法
  6
CONTINUOUS
 62
     7
  2
*D54
 10
-3895.23822658047
 20
-859.6124799652038
 30
0.0
 11
-3898.48822658047
 21
-843.8554225478233
 31
0.0
 70
    32
  1
(<>)
  3
DMC
 13
-3842.008226590465
 23
-869.157479965203
 33
0.0
 14
-3850.188226590466
 24
-859.6124799652038
 34
0.0
 50
270.0
1001
ACADSTRINGINFO
1000
MIFCodePage
1070
     1
1001
ACAD
1000
DSTYLE
1002
{
1070
    41
1040
3.0
1070
    47
1040
0.2
1070
    48
1040
0.2
1070
   141
1040
1.5
1070
   271
1070
     3
1070
   272
1070
     3
1070
   371
1070
    13
1070
   372
1070
    13
1002
}
  0
DIMENSION
  5
205
  8
回07-寸法
  6
CONTINUOUS
 62
     7
  2
*D55
 10
-3895.238226580465
 20
-1152.812479965202
 30
0.0
 11
-3895.238226580465
 21
-1184.441803139414
 31
0.0
 70
   160
  1
<>{\H0.6667x;(Insulation area)}
  3
DMC
 13
-3842.008226590465
 23
-1142.267479965203
 33
0.0
 14
-3850.188226590466
 24
-1152.812479965202
 34
0.0
 50
270.0
1001
ACADSTRINGINFO
1000
MIFCodePage
1070
     1
1001
ACAD
1000
DSTYLE
1002
{
1070
    41
1040
3.0
1070
    47
1040
0.2
1070
    48
1040
0.2
1070
   141
1040
1.5
1070
   271
1070
     3
1070
   272
1070
     3
1070
   371
1070
    13
1070
   372
1070
    13
1002
}
  0
DIMENSION
  5
216
  8
回07-寸法
  6
CONTINUOUS
 62
     7
  2
*D56
 10
-3895.238226580467
 20
-869.157479965203
 30
0.0
 11
-3898.238226580467
 21
-1005.712479965203
 31
0.0
 70
    32
  3
DMC
 13
-3842.008226590465
 23
-1142.267479965203
 33
0.0
 14
-3842.008226590465
 24
-869.157479965203
 34
0.0
 50
270.0
1001
ACAD
1000
DSTYLE
1002
{
1070
    41
1040
3.0
1070
    47
1040
0.2
1070
    48
1040
0.2
1070
   141
1040
1.5
1070
   271
1070
     3
1070
   272
1070
     3
1070
   371
1070
    13
1070
   372
1070
    13
1002
}
  0
DIMENSION
  5
225
  8
回07-寸法
  6
CONTINUOUS
 62
     5
  2
*D57
 10
-3851.188226590466
 20
-829.5724799652029
 30
0.0
 11
-3863.041779981059
 21
-829.5724799652029
 31
0.0
 70
   160
  3
DMC
 13
-3841.508226580465
 23
-869.6574799652029
 33
0.0
 14
-3851.188226590466
 24
-860.6124799652038
 34
0.0
 50
180.0
1001
ACAD
1000
DSTYLE
1002
{
1070
    41
1040
3.0
1070
    47
1040
0.2
1070
    48
1040
0.2
1070
   141
1040
1.5
1070
   271
1070
     3
1070
   272
1070
     3
1070
   371
1070
    13
1070
   372
1070
    13
1002
}
  0
DIMENSION
  5
236
  8
回07-寸法
  6
CONTINUOUS
 62
     5
  2
*D58
 10
-3851.188226590466
 20
-841.5724786318694
 30
0.0
 11
-3863.688226590465
 21
-841.5724786318694
 31
0.0
 70
   160
  3
DMC
 13
-3839.508226580465
 23
-871.6574799652031
 33
0.0
 14
-3851.188226590466
 24
-860.6124799652038
 34
0.0
 50
180.0
1001
ACAD
1000
DSTYLE
1002
{
1070
    41
1040
3.0
1070
    47
1040
0.2
1070
    48
1040
0.2
1070
   141
1040
1.5
1070
   271
1070
     3
1070
   272
1070
     3
1070
   371
1070
    13
1070
   372
1070
    13
1002
}
  0
DIMENSION
  5
247
  8
回07-寸法
  6
CONTINUOUS
 62
     5
  2
*D59
 10
-3351.188226590466
 20
-841.5724799668696
 30
0.0
 11
-3339.690195094402
 21
-841.5724799668696
 31
0.0
 70
   160
  1
(<>)
  3
DMC
 13
-3362.868226590466
 23
-871.6574799652031
 33
0.0
 14
-3351.188226590466
 24
-862.612479965203
 34
0.0
 50
180.0
1001
ACAD
1000
DSTYLE
1002
{
1070
    41
1040
1.5
1070
    47
1040
0.2
1070
    48
1040
0.2
1070
   141
1040
1.5
1070
   271
1070
     3
1070
   272
1070
     3
1070
   371
1070
    13
1070
   372
1070
    13
1002
}
  0
DIMENSION
  5
258
  8
回07-寸法
  6
CONTINUOUS
 62
     5
  2
*D60
 10
-3351.188226590466
 20
-829.5724799652029
 30
0.0
 11
-3340.431169173085
 21
-826.322479965203
 31
0.0
 70
    32
  1
(<>)
  3
DMC
 13
-3360.868226590465
 23
-869.6574799652038
 33
0.0
 14
-3351.188226590466
 24
-862.612479965203
 34
0.0
 50
180.0
1001
ACAD
1000
DSTYLE
1002
{
1070
    41
1040
1.5
1070
    47
1040
0.2
1070
    48
1040
0.2
1070
   141
1040
1.5
1070
   271
1070
     3
1070
   272
1070
     3
1070
   371
1070
    13
1070
   372
1070
    13
1002
}
  0
DIMENSION
  5
269
  8
回07-寸法
  6
CONTINUOUS
 62
     5
  2
*D61
 10
-3883.238226580465
 20
-859.6124799652029
 30
0.0
 11
-3883.238226580465
 21
-842.6144484691389
 31
0.0
 70
   160
  1
(<>)
  3
DMC
 13
-3841.508226580465
 23
-869.6574799652029
 33
0.0
 14
-3850.188226590466
 24
-859.6124799652029
 34
0.0
 50
270.0
1001
ACAD
1000
DSTYLE
1002
{
1070
    41
1040
3.0
1070
    47
1040
0.2
1070
    48
1040
0.2
1070
   141
1040
1.5
1070
   271
1070
     3
1070
   272
1070
     3
1070
   371
1070
    13
1070
   372
1070
    13
1002
}
  0
DIMENSION
  5
27A
  8
回07-寸法
  6
CONTINUOUS
 62
     5
  2
*D62
 10
-3871.238226580464
 20
-859.6124799652038
 30
0.0
 11
-3871.238226580464
 21
-842.6144484691398
 31
0.0
 70
   160
  1
(<>)
  3
DMC
 13
-3839.508226580465
 23
-871.6574799652031
 33
0.0
 14
-3850.188226590466
 24
-859.6124799652038
 34
0.0
 50
270.0
1001
ACAD
1000
DSTYLE
1002
{
1070
    41
1040
3.0
1070
    47
1040
0.2
1070
    48
1040
0.2
1070
   141
1040
1.5
1070
   271
1070
     3
1070
   272
1070
     3
1070
   371
1070
    13
1070
   372
1070
    13
1002
}
  0
DIMENSION
  5
28B
  8
回07-寸法
  6
CONTINUOUS
 62
     5
  2
*D63
 10
-3871.238226580464
 20
-1152.812479965202
 30
0.0
 11
-3871.238226580464
 21
-1167.916033355795
 31
0.0
 70
   160
  3
DMC
 13
-3839.508218580464
 23
-1139.767479965203
 33
0.0
 14
-3850.188226590466
 24
-1152.812479965202
 34
0.0
 50
270.0
1001
ACAD
1000
DSTYLE
1002
{
1070
    41
1040
3.0
1070
    47
1040
0.2
1070
    48
1040
0.2
1070
   141
1040
1.5
1070
   271
1070
     3
1070
   272
1070
     3
1070
   371
1070
    13
1070
   372
1070
    13
1002
}
  0
DIMENSION
  5
29C
  8
回07-寸法
  6
CONTINUOUS
 62
     5
  2
*D64
 10
-3883.238226580465
 20
-1152.812479965202
 30
0.0
 11
-3883.238226580465
 21
-1167.416033355795
 31
0.0
 70
   160
  3
DMC
 13
-3841.508226580465
 23
-1141.767479965203
 33
0.0
 14
-3850.188226590466
 24
-1152.812479965202
 34
0.0
 50
270.0
1001
ACAD
1000
DSTYLE
1002
{
1070
    41
1040
3.0
1070
    47
1040
0.2
1070
    48
1040
0.2
1070
   141
1040
1.5
1070
   271
1070
     3
1070
   272
1070
     3
1070
   371
1070
    13
1070
   372
1070
    13
1002
}
  0
DIMENSION
  5
2AD
  8
回07-寸法
  6
CONTINUOUS
 62
     5
  2
*D65
 10
-3851.188226590466
 20
-805.5724799652029
 30
0.0
 11
-3601.188226590466
 21
-805.5724799652029
 31
0.0
 70
   160
  3
DMC
 13
-3351.188226590466
 23
-862.612479965203
 33
0.0
 14
-3851.188226590466
 24
-860.6124799652038
 34
0.0
 50
180.0
1001
ACAD
1000
DSTYLE
1002
{
1070
   147
1040
0.5
1070
    72
1070
     0
1070
    71
1070
     1
1070
    41
1040
3.0
1070
    47
1040
0.3
1070
    48
1040
0.3
1070
   141
1040
1.5
1070
   271
1070
     3
1070
   272
1070
     3
1070
   371
1070
    13
1070
   372
1070
    13
1002
}
  0
DIMENSION
  5
2BC
  8
回07-寸法
  6
CONTINUOUS
 62
     5
  2
*D66
 10
-3360.868226590465
 20
-829.5724799652029
 30
0.0
 11
-3601.188226585465
 21
-829.5724799652029
 31
0.0
 70
   160
  1
<>(Viewing Area)
  3
DMC
 13
-3841.508226580465
 23
-869.6574799652029
 33
0.0
 14
-3360.868226590465
 24
-869.6574799652038
 34
0.0
 50
180.0
1001
ACAD
1000
DSTYLE
1002
{
1070
    41
1040
3.0
1070
    47
1040
0.2
1070
    48
1040
0.2
1070
   141
1040
1.5
1070
   271
1070
     3
1070
   272
1070
     3
1070
   371
1070
    13
1070
   372
1070
    13
1002
}
  0
DIMENSION
  5
2CB
  8
回07-寸法
  6
CONTINUOUS
 62
     5
  2
*D67
 10
-3839.508218580464
 20
-841.572479965203
 30
0.0
 11
-3601.188222590465
 21
-838.322479965203
 31
0.0
 70
    32
  1
<>(Active Area)
  3
DMC
 13
-3362.868226600465
 23
-871.6574799652031
 33
0.0
 14
-3839.508218580464
 24
-871.6574799652031
 34
0.0
 50
180.0
1001
ACAD
1000
DSTYLE
1002
{
1070
    41
1040
3.0
1070
    47
1040
0.2
1070
    48
1040
0.2
1070
   141
1040
1.5
1070
   271
1070
     3
1070
   272
1070
     3
1070
   371
1070
    13
1070
   372
1070
    13
1002
}
  0
DIMENSION
  5
2DA
  8
回07-寸法
  6
CONTINUOUS
 62
     5
  2
*D68
 10
-3907.238226580465
 20
-1152.812479965202
 30
0.0
 11
-3907.238226580465
 21
-1006.212479965203
 31
0.0
 70
   160
  3
DMC
 13
-3850.188226590466
 23
-859.6124799652038
 33
0.0
 14
-3850.188226590466
 24
-1152.812479965202
 34
0.0
 50
270.0
1001
ACAD
1000
DSTYLE
1002
{
1070
    41
1040
3.0
1070
    47
1040
0.3
1070
    48
1040
0.3
1070
    71
1070
     1
1070
   141
1040
1.5
1070
   271
1070
     3
1070
   272
1070
     3
1070
   371
1070
    13
1070
   372
1070
    13
1002
}
  0
DIMENSION
  5
2E9
  8
回07-寸法
  6
CONTINUOUS
 62
     5
  2
*D69
 10
-3883.238226580465
 20
-1141.767479965203
 30
0.0
 11
-3883.238226580465
 21
-1005.712479965203
 31
0.0
 70
   160
  1
<>(Viewing Area)
  3
DMC
 13
-3841.508226580465
 23
-869.6574799652029
 33
0.0
 14
-3841.508226580465
 24
-1141.767479965203
 34
0.0
 50
270.0
1001
ACAD
1000
DSTYLE
1002
{
1070
    41
1040
3.0
1070
    47
1040
0.2
1070
    48
1040
0.2
1070
   141
1040
1.5
1070
   271
1070
     3
1070
   272
1070
     3
1070
   371
1070
    13
1070
   372
1070
    13
1002
}
  0
DIMENSION
  5
2F8
  8
回07-寸法
  6
CONTINUOUS
 62
     5
  2
*D70
 10
-3871.238226580464
 20
-871.6574799652031
 30
0.0
 11
-3871.238226580464
 21
-1005.712979965203
 31
0.0
 70
   160
  1
<>(Active Area)
  3
DMC
 13
-3839.508226590465
 23
-1139.767479965203
 33
0.0
 14
-3839.508226580465
 24
-871.6574799652031
 34
0.0
 50
270.0
1001
ACAD
1000
DSTYLE
1002
{
1070
    41
1040
3.0
1070
    47
1040
0.2
1070
    48
1040
0.2
1070
   141
1040
1.5
1070
   271
1070
     3
1070
   272
1070
     3
1070
   371
1070
    13
1070
   372
1070
    13
1002
}
  0
TEXT
  5
307
  8
回90-枠1
 10
-3163.366828648277
 20
-779.0775328876227
 30
0.0
 40
4.0
  1
J
  0
LINE
  5
309
  8
回90-枠1
 10
-3202.09621395393
 20
-774.4499560136739
 30
0.0
 11
-3202.09621395393
 21
-779.4499560136739
 31
0.0
  0
TEXT
  5
30A
  8
回90-枠1
 10
-3243.366828648277
 20
-779.0775328876227
 30
0.0
 40
4.0
  1
I
  0
LINE
  5
30B
  8
回90-枠1
 10
-3282.09621395393
 20
-774.4499560136739
 30
0.0
 11
-3282.09621395393
 21
-779.4499560136739
 31
0.0
  0
TEXT
  5
30C
  8
回90-枠1
 10
-3120.691792950271
 20
-826.6612687178147
 30
0.0
 40
4.0
  1
1
  0
LINE
  5
30D
  8
回90-枠1
 10
-3117.09621395393
 20
-869.4499560136739
 30
0.0
 11
-3122.09621395393
 21
-869.4499560136739
 31
0.0
  0
TEXT
  5
30E
  8
回90-枠1
 10
-3120.993291653573
 20
-916.6612687178146
 30
0.0
 40
4.0
  1
2
  0
LINE
  5
30F
  8
回90-枠1
 10
-3117.09621395393
 20
-959.4499560136739
 30
0.0
 11
-3122.09621395393
 21
-959.4499560136739
 31
0.0
  0
TEXT
  5
310
  8
回90-枠1
 10
-3120.998772497773
 20
-1006.661268717814
 30
0.0
 40
4.0
  1
3
  0
LINE
  5
311
  8
回90-枠1
 10
-3117.09621395393
 20
-1049.449956013674
 30
0.0
 11
-3122.09621395393
 21
-1049.449956013674
 31
0.0
  0
TEXT
  5
312
  8
回90-枠1
 10
-3121.071864617854
 20
-1096.661268717815
 30
0.0
 40
4.0
  1
4
  0
LINE
  5
313
  8
回90-枠1
 10
-3117.09621395393
 20
-1139.449956013674
 30
0.0
 11
-3122.09621395393
 21
-1139.449956013674
 31
0.0
  0
TEXT
  5
314
  8
回90-枠1
 10
-3121.071864617854
 20
-1186.661268717815
 30
0.0
 40
4.0
  1
5
  0
LINE
  5
315
  8
回90-枠1
 10
-3117.09621395393
 20
-1229.449956013674
 30
0.0
 11
-3122.09621395393
 21
-1229.449956013674
 31
0.0
  0
TEXT
  5
316
  8
回90-枠1
 10
-3121.071864617854
 20
-1276.661268717815
 30
0.0
 40
4.0
  1
6
  0
TEXT
  5
317
  8
回90-枠1
 10
-3163.366828648277
 20
-1324.077532887623
 30
0.0
 40
4.0
  1
J
  0
LINE
  5
318
  8
回90-枠1
 10
-3202.09621395393
 20
-1319.449956013674
 30
0.0
 11
-3202.09621395393
 21
-1324.449956013674
 31
0.0
  0
TEXT
  5
319
  8
回90-枠1
 10
-3243.366828648277
 20
-1324.077532887623
 30
0.0
 40
4.0
  1
I
  0
LINE
  5
31A
  8
回90-枠1
 10
-3282.09621395393
 20
-1319.449956013674
 30
0.0
 11
-3282.09621395393
 21
-1324.449956013674
 31
0.0
  0
LINE
  5
31B
  8
回90-枠1
 10
-3122.09621395393
 20
-779.4499560136739
 30
0.0
 11
-3122.09621395393
 21
-1319.449956013674
 31
0.0
  0
LINE
  5
31C
  8
回90-枠1
 10
-3117.09621395393
 20
-1324.449956013674
 30
0.0
 11
-3117.09621395393
 21
-774.4499560136739
 31
0.0
  0
TEXT
  5
31D
  8
回90-枠1
 10
-3323.366828648277
 20
-779.0775328876227
 30
0.0
 40
4.0
  1
H
  0
LINE
  5
31E
  8
回90-枠1
 10
-3362.096213953929
 20
-774.4499560136739
 30
0.0
 11
-3362.096213953929
 21
-779.4499560136739
 31
0.0
  0
TEXT
  5
31F
  8
回90-枠1
 10
-3403.366828648277
 20
-779.0775328876227
 30
0.0
 40
4.0
  1
G
  0
LINE
  5
320
  8
回90-枠1
 10
-3442.09621395393
 20
-774.4499560136739
 30
0.0
 11
-3442.09621395393
 21
-779.4499560136739
 31
0.0
  0
TEXT
  5
321
  8
回90-枠1
 10
-3483.366828648277
 20
-779.0775328876227
 30
0.0
 40
4.0
  1
F
  0
LINE
  5
322
  8
回90-枠1
 10
-3522.09621395393
 20
-774.4499560136739
 30
0.0
 11
-3522.09621395393
 21
-779.4499560136739
 31
0.0
  0
TEXT
  5
323
  8
回90-枠1
 10
-3563.366828648277
 20
-779.0775328876227
 30
0.0
 40
4.0
  1
E
  0
LINE
  5
324
  8
回90-枠1
 10
-3602.09621395393
 20
-774.4499560136739
 30
0.0
 11
-3602.09621395393
 21
-779.4499560136739
 31
0.0
  0
TEXT
  5
325
  8
回90-枠1
 10
-3643.366828648277
 20
-779.0775328876227
 30
0.0
 40
4.0
  1
D
  0
LINE
  5
326
  8
回90-枠1
 10
-3682.09621395393
 20
-774.4499560136739
 30
0.0
 11
-3682.09621395393
 21
-779.4499560136739
 31
0.0
  0
TEXT
  5
327
  8
回90-枠1
 10
-3723.366828648277
 20
-779.0775328876227
 30
0.0
 40
4.0
  1
C
  0
LINE
  5
328
  8
回90-枠1
 10
-3762.09621395393
 20
-774.4499560136739
 30
0.0
 11
-3762.09621395393
 21
-779.4499560136739
 31
0.0
  0
TEXT
  5
329
  8
回90-枠1
 10
-3803.366828648277
 20
-779.0775328876227
 30
0.0
 40
4.0
  1
B
  0
LINE
  5
32A
  8
回90-枠1
 10
-3842.09621395393
 20
-774.4499560136739
 30
0.0
 11
-3842.09621395393
 21
-779.4499560136739
 31
0.0
  0
TEXT
  5
32B
  8
回90-枠1
 10
-3883.366828648277
 20
-779.0775328876227
 30
0.0
 40
4.0
  1
A
  0
TEXT
  5
32C
  8
回90-枠1
 10
-3925.691792950271
 20
-826.6612687178147
 30
0.0
 40
4.0
  1
1
  0
LINE
  5
32D
  8
回90-枠1
 10
-3922.09621395393
 20
-869.4499560136739
 30
0.0
 11
-3927.09621395393
 21
-869.4499560136739
 31
0.0
  0
TEXT
  5
32E
  8
回90-枠1
 10
-3925.993291653572
 20
-916.6612687178146
 30
0.0
 40
4.0
  1
2
  0
LINE
  5
32F
  8
回90-枠1
 10
-3922.09621395393
 20
-959.4499560136739
 30
0.0
 11
-3927.09621395393
 21
-959.4499560136739
 31
0.0
  0
TEXT
  5
330
  8
回90-枠1
 10
-3925.998772497773
 20
-1006.661268717814
 30
0.0
 40
4.0
  1
3
  0
LINE
  5
331
  8
回90-枠1
 10
-3922.09621395393
 20
-1049.449956013674
 30
0.0
 11
-3927.09621395393
 21
-1049.449956013674
 31
0.0
  0
TEXT
  5
332
  8
回90-枠1
 10
-3926.071864617854
 20
-1096.661268717815
 30
0.0
 40
4.0
  1
4
  0
LINE
  5
333
  8
回90-枠1
 10
-3922.09621395393
 20
-1139.449956013674
 30
0.0
 11
-3927.09621395393
 21
-1139.449956013674
 31
0.0
  0
TEXT
  5
334
  8
回90-枠1
 10
-3926.071864617854
 20
-1186.661268717815
 30
0.0
 40
4.0
  1
5
  0
TEXT
  5
335
  8
回90-枠1
 10
-3323.366828648277
 20
-1324.077532887623
 30
0.0
 40
4.0
  1
H
  0
LINE
  5
336
  8
回90-枠1
 10
-3362.096213953929
 20
-1319.449956013674
 30
0.0
 11
-3362.096213953929
 21
-1324.449956013674
 31
0.0
  0
TEXT
  5
337
  8
回90-枠1
 10
-3403.366828648277
 20
-1324.077532887623
 30
0.0
 40
4.0
  1
G
  0
LINE
  5
338
  8
回90-枠1
 10
-3442.09621395393
 20
-1319.449956013674
 30
0.0
 11
-3442.09621395393
 21
-1324.449956013674
 31
0.0
  0
TEXT
  5
339
  8
回90-枠1
 10
-3483.366828648277
 20
-1324.077532887623
 30
0.0
 40
4.0
  1
F
  0
LINE
  5
33A
  8
回90-枠1
 10
-3522.09621395393
 20
-1319.449956013674
 30
0.0
 11
-3522.09621395393
 21
-1324.449956013674
 31
0.0
  0
TEXT
  5
33B
  8
回90-枠1
 10
-3563.366828648277
 20
-1324.077532887623
 30
0.0
 40
4.0
  1
E
  0
LINE
  5
33C
  8
回90-枠1
 10
-3602.09621395393
 20
-1319.449956013674
 30
0.0
 11
-3602.09621395393
 21
-1324.449956013674
 31
0.0
  0
TEXT
  5
33D
  8
回90-枠1
 10
-3643.366828648277
 20
-1324.077532887623
 30
0.0
 40
4.0
  1
D
  0
LINE
  5
33E
  8
回90-枠1
 10
-3682.09621395393
 20
-1319.449956013674
 30
0.0
 11
-3682.09621395393
 21
-1324.449956013674
 31
0.0
  0
TEXT
  5
33F
  8
回90-枠1
 10
-3723.366828648277
 20
-1324.077532887623
 30
0.0
 40
4.0
  1
C
  0
LINE
  5
340
  8
回90-枠1
 10
-3762.09621395393
 20
-1319.449956013674
 30
0.0
 11
-3762.09621395393
 21
-1324.449956013674
 31
0.0
  0
LINE
  5
341
  8
回90-枠1
 10
-3922.09621395393
 20
-1229.449956013674
 30
0.0
 11
-3927.09621395393
 21
-1229.449956013674
 31
0.0
  0
TEXT
  5
342
  8
回90-枠1
 10
-3926.071864617854
 20
-1276.661268717815
 30
0.0
 40
4.0
  1
6
  0
TEXT
  5
343
  8
回90-枠1
 10
-3803.366828648277
 20
-1324.077532887623
 30
0.0
 40
4.0
  1
B
  0
LINE
  5
344
  8
回90-枠1
 10
-3842.09621395393
 20
-1319.449956013674
 30
0.0
 11
-3842.09621395393
 21
-1324.449956013674
 31
0.0
  0
TEXT
  5
345
  8
回90-枠1
 10
-3883.366828648277
 20
-1324.077532887623
 30
0.0
 40
4.0
  1
A
  0
LINE
  5
346
  8
回90-枠1
 10
-3922.09621395393
 20
-779.4499560136739
 30
0.0
 11
-3922.09621395393
 21
-1319.449956013674
 31
0.0
  0
LINE
  5
347
  8
回90-枠1
 10
-3927.09621395393
 20
-1324.449956013674
 30
0.0
 11
-3927.09621395393
 21
-774.4499560136739
 31
0.0
  0
LINE
  5
348
  8
回90-枠1
 10
-3922.09621395393
 20
-1319.449956013674
 30
0.0
 11
-3122.09621395393
 21
-1319.449956013674
 31
0.0
  0
LINE
  5
349
  8
回90-枠1
 10
-3117.09621395393
 20
-1324.449956013674
 30
0.0
 11
-3927.09621395393
 21
-1324.449956013674
 31
0.0
  0
LINE
  5
34A
  8
回90-枠1
 10
-3922.09621395393
 20
-779.4499560136739
 30
0.0
 11
-3122.09621395393
 21
-779.4499560136739
 31
0.0
  0
LINE
  5
34B
  8
回90-枠1
 10
-3117.09621395393
 20
-774.4499560136739
 30
0.0
 11
-3927.09621395393
 21
-774.4499560136739
 31
0.0
  0
POLYLINE
  5
34C
  8
回08-記事
  6
CONTINUOUS
 62
     7
 66
     1
 10
0.0
 20
0.0
 30
0.0
 70
     1
  0
VERTEX
  5
7C0
  8
回08-記事
  6
CONTINUOUS
 62
     7
 10
-3291.654626461302
 20
-1173.789112238994
 30
0.0
  0
VERTEX
  5
7C2
  8
回08-記事
  6
CONTINUOUS
 62
     7
 10
-3290.954626461302
 20
-1173.789112238994
 30
0.0
  0
VERTEX
  5
7C3
  8
回08-記事
  6
CONTINUOUS
 62
     7
 10
-3290.954626461302
 20
-1199.789112238994
 30
0.0
  0
VERTEX
  5
7C4
  8
回08-記事
  6
CONTINUOUS
 62
     7
 10
-3291.654626461302
 20
-1199.789112238994
 30
0.0
  0
SEQEND
  5
7C1
  8
0
  6
CONTINUOUS
 62
     7
  0
INSERT
  5
34D
  8
回08-記事
  6
CONTINUOUS
 62
     7
 66
     1
  2
*X82
 10
0.0
 20
0.0
 30
0.0
1001
GRADIENTCOLOR1ACI
1070
     5
1001
GRADIENTCOLOR2ACI
1070
     2
1001
ACAD
1010
0.0
1020
0.0
1030
0.0
  0
SEQEND
  5
7DC
  8
0
  6
CONTINUOUS
 62
     7
  0
TEXT
  5
34E
  8
回08-記事
  6
CONTINUOUS
 62
     7
 10
-3140.506399390649
 20
-1079.315193032198
 30
0.0
 40
4.0
  1
NC
  0
TEXT
  5
34F
  8
回08-記事
  6
CONTINUOUS
 62
     7
 10
-3140.506399390649
 20
-922.5510330321986
 30
0.0
 40
4.0
  1
NC
  0
TEXT
  5
350
  8
回08-記事
  6
CONTINUOUS
 62
     7
 10
-3140.506399390649
 20
-934.1631930321982
 30
0.0
 40
4.0
  1
NC
  0
TEXT
  5
351
  8
回08-記事
  6
CONTINUOUS
 62
     7
 10
-3140.506399390649
 20
-980.6118330321988
 30
0.0
 40
4.0
  1
NC
  0
TEXT
  5
352
  8
回08-記事
  6
CONTINUOUS
 62
     7
 10
-3177.074275762928
 20
-980.6118330321988
 30
0.0
 40
4.0
  1
NC
  0
TEXT
  5
353
  8
回08-記事
  6
CONTINUOUS
 62
     7
 10
-3177.074275762928
 20
-974.8057530321984
 30
0.0
 40
4.0
  1
NC
  0
TEXT
  5
354
  8
回08-記事
  6
CONTINUOUS
 62
     7
 10
-3177.074275762928
 20
-968.9996730321981
 30
0.0
 40
4.0
  1
NC
  0
TEXT
  5
355
  8
回08-記事
  6
CONTINUOUS
 62
     7
 10
-3177.074275762928
 20
-963.1935930321988
 30
0.0
 40
4.0
  1
NC
  0
TEXT
  5
356
  8
回08-記事
  6
CONTINUOUS
 62
     7
 10
-3177.074275762928
 20
-951.5814330321981
 30
0.0
 40
4.0
  1
NC
  0
TEXT
  5
357
  8
回08-記事
  6
CONTINUOUS
 62
     7
 10
-3177.074275762928
 20
-945.7753530321978
 30
0.0
 40
4.0
  1
NC
  0
TEXT
  5
358
  8
回08-記事
  6
CONTINUOUS
 62
     7
 10
-3177.074275762928
 20
-939.9692730321985
 30
0.0
 40
4.0
  1
NC
  0
TEXT
  5
359
  8
回08-記事
  6
CONTINUOUS
 62
     7
 10
-3177.074275762928
 20
-934.1631930321982
 30
0.0
 40
4.0
  1
NC
  0
TEXT
  5
35A
  8
回08-記事
  6
CONTINUOUS
 62
     7
 10
-3313.568372651459
 20
-1002.587624075576
 30
0.0
 40
4.0
  1
1
  0
TEXT
  5
35B
  8
回08-記事
  6
CONTINUOUS
 62
     7
 10
-3274.436845373005
 20
-1012.586255348422
 30
0.0
 40
4.0
  1
2
  0
TEXT
  5
35C
  8
回08-記事
  6
CONTINUOUS
 62
     7
 10
-3276.465671670699
 20
-1161.158365362651
 30
0.0
 40
4.0
  1
6
  0
TEXT
  5
35D
  8
回08-記事
  6
CONTINUOUS
 62
     7
 10
-3177.416339647381
 20
-887.7145530321977
 30
0.0
 40
4.0
  1
R1
  0
TEXT
  5
35E
  8
回08-記事
  6
CONTINUOUS
 62
     7
 10
-3140.425876649544
 20
-986.8027213607573
 30
0.0
 40
4.0
  1
D7
  0
TEXT
  5
35F
  8
回08-記事
  6
CONTINUOUS
 62
     7
 10
-3140.506399390649
 20
-974.8057530321975
 30
0.0
 40
4.0
  1
D8
  0
LINE
  5
360
  8
回08-記事
  6
CONTINUOUS
 62
     7
 10
-3154.73816558597
 20
-1077.748131277147
 30
0.0
 11
-3142.128896265725
 21
-1077.748131277147
 31
0.0
  0
LINE
  5
361
  8
回08-記事
  6
CONTINUOUS
 62
     7
 10
-3154.73816558597
 20
-1071.942051277147
 30
0.0
 11
-3142.128896265725
 21
-1071.942051277147
 31
0.0
  0
TEXT
  5
362
  8
回08-記事
  6
CONTINUOUS
 62
     7
 10
-3161.658276072615
 20
-1079.315193032198
 30
0.0
 40
4.0
  1
60
  0
TEXT
  5
363
  8
回08-記事
  6
CONTINUOUS
 62
     7
 10
-3161.658276072615
 20
-1073.509113032198
 30
0.0
 40
4.0
  1
59
  0
TEXT
  5
364
  8
回08-記事
  6
CONTINUOUS
 62
     7
 10
-3140.848463275102
 20
-945.7753530321978
 30
0.0
 40
4.0
  1
D13
  0
TEXT
  5
365
  8
回08-記事
  6
CONTINUOUS
 62
     7
 10
-3140.506399390649
 20
-968.9996730321981
 30
0.0
 40
4.0
  1
D9
  0
TEXT
  5
366
  8
回08-記事
  6
CONTINUOUS
 62
     7
 10
-3140.506399390649
 20
-963.1935930321979
 30
0.0
 40
4.0
  1
D10
  0
TEXT
  5
367
  8
回08-記事
  6
CONTINUOUS
 62
     7
 10
-3140.506399390649
 20
-957.3875130321976
 30
0.0
 40
4.0
  1
D11
  0
TEXT
  5
368
  8
回08-記事
  6
CONTINUOUS
 62
     7
 10
-3140.506399390649
 20
-951.5814330321981
 30
0.0
 40
4.0
  1
D12
  0
LINE
  5
369
  8
回08-記事
  6
CONTINUOUS
 62
     7
 10
-3154.73816558597
 20
-1066.135971277147
 30
0.0
 11
-3142.128896265725
 21
-1066.135971277147
 31
0.0
  0
LINE
  5
36A
  8
回08-記事
  6
CONTINUOUS
 62
     7
 10
-3154.73816558597
 20
-1060.329891277147
 30
0.0
 11
-3142.128896265725
 21
-1060.329891277147
 31
0.0
  0
LINE
  5
36B
  8
回08-記事
  6
CONTINUOUS
 62
     7
 10
-3154.73816558597
 20
-1054.523811277147
 30
0.0
 11
-3142.128896265725
 21
-1054.523811277147
 31
0.0
  0
LINE
  5
36C
  8
回08-記事
  6
CONTINUOUS
 62
     7
 10
-3154.73816558597
 20
-1048.717731277147
 30
0.0
 11
-3142.128896265725
 21
-1048.717731277147
 31
0.0
  0
LINE
  5
36D
  8
回08-記事
  6
CONTINUOUS
 62
     7
 10
-3154.73816558597
 20
-1042.911651277147
 30
0.0
 11
-3142.128896265725
 21
-1042.911651277147
 31
0.0
  0
LINE
  5
36E
  8
回08-記事
  6
CONTINUOUS
 62
     7
 10
-3154.73816558597
 20
-1037.105571277147
 30
0.0
 11
-3142.128896265725
 21
-1037.105571277147
 31
0.0
  0
TEXT
  5
36F
  8
回08-記事
  6
CONTINUOUS
 62
     7
 10
-3161.658276072615
 20
-1067.703033032198
 30
0.0
 40
4.0
  1
58
  0
TEXT
  5
370
  8
回08-記事
  6
CONTINUOUS
 62
     7
 10
-3161.658276072615
 20
-1061.896953032198
 30
0.0
 40
4.0
  1
57
  0
TEXT
  5
371
  8
回08-記事
  6
CONTINUOUS
 62
     7
 10
-3161.658276072615
 20
-1056.090873032198
 30
0.0
 40
4.0
  1
56
  0
TEXT
  5
372
  8
回08-記事
  6
CONTINUOUS
 62
     7
 10
-3161.658276072615
 20
-1050.284793032198
 30
0.0
 40
4.0
  1
55
  0
TEXT
  5
373
  8
回08-記事
  6
CONTINUOUS
 62
     7
 10
-3161.658276072615
 20
-1044.478713032198
 30
0.0
 40
4.0
  1
54
  0
TEXT
  5
374
  8
回08-記事
  6
CONTINUOUS
 62
     7
 10
-3161.658276072615
 20
-1038.672633032198
 30
0.0
 40
4.0
  1
53
  0
TEXT
  5
375
  8
回08-記事
  6
CONTINUOUS
 62
     7
 10
-3140.506399390649
 20
-939.9692730321977
 30
0.0
 40
4.0
  1
D14
  0
TEXT
  5
376
  8
回08-記事
  6
CONTINUOUS
 62
     7
 10
-3140.506399390648
 20
-928.3571130321979
 30
0.0
 40
4.0
  1
SUR
  0
TEXT
  5
377
  8
回08-記事
  6
CONTINUOUS
 62
     7
 10
-3140.425876649544
 20
-998.4148813607571
 30
0.0
 40
4.0
  1
D5
  0
TEXT
  5
378
  8
回08-記事
  6
CONTINUOUS
 62
     7
 10
-3140.995406436717
 20
-916.7555359784218
 30
0.0
 40
4.0
  1
U14
  0
LINE
  5
379
  8
回08-記事
  6
CONTINUOUS
 62
     7
 10
-3154.73816558597
 20
-1031.299491277147
 30
0.0
 11
-3142.128896265725
 21
-1031.299491277147
 31
0.0
  0
LINE
  5
37A
  8
回08-記事
  6
CONTINUOUS
 62
     7
 10
-3154.73816558597
 20
-1025.493411277147
 30
0.0
 11
-3142.128896265725
 21
-1025.493411277147
 31
0.0
  0
TEXT
  5
37B
  8
回08-記事
  6
CONTINUOUS
 62
     7
 10
-3161.658276072615
 20
-1032.866553032198
 30
0.0
 40
4.0
  1
52
  0
TEXT
  5
37C
  8
回08-記事
  6
CONTINUOUS
 62
     7
 10
-3161.658276072615
 20
-1027.060473032198
 30
0.0
 40
4.0
  1
51
  0
TEXT
  5
37D
  8
回08-記事
  6
CONTINUOUS
 62
     7
 10
-3140.972704054086
 20
-1044.886671341407
 30
0.0
 40
4.0
  1
U3
  0
TEXT
  5
37E
  8
回08-記事
  6
CONTINUOUS
 62
     7
 10
-3140.425876649544
 20
-992.6088013607568
 30
0.0
 40
4.0
  1
D6
  0
TEXT
  5
37F
  8
回08-記事
  6
CONTINUOUS
 62
     7
 10
-3140.848463275102
 20
-887.7145530321985
 30
0.0
 40
4.0
  1
U9
  0
TEXT
  5
380
  8
回08-記事
  6
CONTINUOUS
 62
     7
 10
-3140.493738021939
 20
-1073.54853832029
 30
0.0
 40
4.0
  1
U8
  0
TEXT
  5
381
  8
回08-記事
  6
CONTINUOUS
 62
     7
 10
-3140.537326323266
 20
-1068.022326815974
 30
0.0
 40
4.0
  1
U7
  0
TEXT
  5
382
  8
回08-記事
  6
CONTINUOUS
 62
     7
 10
-3140.972704054086
 20
-1033.274511341407
 30
0.0
 40
4.0
  1
U1
  0
TEXT
  5
383
  8
回08-記事
  6
CONTINUOUS
 62
     7
 10
-3140.615867347051
 20
-1021.346353352665
 30
0.0
 40
4.0
  1
D1
  0
TEXT
  5
384
  8
回08-記事
  6
CONTINUOUS
 62
     7
 10
-3141.073049741756
 20
-1027.348259778739
 30
0.0
 40
4.0
  1
SDL
  0
TEXT
  5
385
  8
回08-記事
  6
CONTINUOUS
 62
     7
 10
-3140.425876649544
 20
-1015.833121360757
 30
0.0
 40
4.0
  1
D2
  0
TEXT
  5
386
  8
回08-記事
  6
CONTINUOUS
 62
     7
 10
-3140.425876649544
 20
-1010.027041360757
 30
0.0
 40
4.0
  1
D3
  0
TEXT
  5
387
  8
回08-記事
  6
CONTINUOUS
 62
     7
 10
-3140.425876649544
 20
-1004.220961360757
 30
0.0
 40
4.0
  1
D4
  0
LINE
  5
388
  8
回08-記事
  6
CONTINUOUS
 62
     7
 10
-3154.73816558597
 20
-886.1474912771473
 30
0.0
 11
-3142.128896265725
 21
-886.1474912771473
 31
0.0
  0
TEXT
  5
389
  8
回08-記事
  6
CONTINUOUS
 62
     7
 10
-3161.377063892707
 20
-887.7145530321977
 30
0.0
 40
4.0
  1
27
  0
LINE
  5
38A
  8
回08-記事
  6
CONTINUOUS
 62
     7
 10
-3154.73816558597
 20
-891.9535712771466
 30
0.0
 11
-3142.128896265725
 21
-891.9535712771466
 31
0.0
  0
TEXT
  5
38B
  8
回08-記事
  6
CONTINUOUS
 62
     7
 10
-3161.377063892707
 20
-893.520633032198
 30
0.0
 40
4.0
  1
28
  0
LINE
  5
38C
  8
回08-記事
  6
CONTINUOUS
 62
     7
 10
-3154.73816558597
 20
-897.7596512771469
 30
0.0
 11
-3142.128896265725
 21
-897.7596512771469
 31
0.0
  0
TEXT
  5
38D
  8
回08-記事
  6
CONTINUOUS
 62
     7
 10
-3161.377063892707
 20
-899.3267130321983
 30
0.0
 40
4.0
  1
29
  0
LINE
  5
38E
  8
回08-記事
  6
CONTINUOUS
 62
     7
 10
-3154.73816558597
 20
-903.5657312771473
 30
0.0
 11
-3142.128896265725
 21
-903.5657312771473
 31
0.0
  0
TEXT
  5
38F
  8
回08-記事
  6
CONTINUOUS
 62
     7
 10
-3161.373373819444
 20
-905.1327930321976
 30
0.0
 40
4.0
  1
30
  0
LINE
  5
390
  8
回08-記事
  6
CONTINUOUS
 62
     7
 10
-3154.73816558597
 20
-909.3718112771467
 30
0.0
 11
-3142.128896265725
 21
-909.3718112771467
 31
0.0
  0
TEXT
  5
391
  8
回08-記事
  6
CONTINUOUS
 62
     7
 10
-3161.373373819444
 20
-910.9388730321979
 30
0.0
 40
4.0
  1
31
  0
LINE
  5
392
  8
回08-記事
  6
CONTINUOUS
 62
     7
 10
-3154.73816558597
 20
-915.1778912771469
 30
0.0
 11
-3142.128896265725
 21
-915.1778912771469
 31
0.0
  0
TEXT
  5
393
  8
回08-記事
  6
CONTINUOUS
 62
     7
 10
-3161.373373819444
 20
-916.7449530321983
 30
0.0
 40
4.0
  1
32
  0
LINE
  5
394
  8
回08-記事
  6
CONTINUOUS
 62
     7
 10
-3154.73816558597
 20
-920.9839712771472
 30
0.0
 11
-3142.128896265725
 21
-920.9839712771472
 31
0.0
  0
TEXT
  5
395
  8
回08-記事
  6
CONTINUOUS
 62
     7
 10
-3161.348329507778
 20
-922.5510330321977
 30
0.0
 40
4.0
  1
33
  0
LINE
  5
396
  8
回08-記事
  6
CONTINUOUS
 62
     7
 10
-3154.73816558597
 20
-926.7900512771467
 30
0.0
 11
-3142.128896265725
 21
-926.7900512771467
 31
0.0
  0
TEXT
  5
397
  8
回08-記事
  6
CONTINUOUS
 62
     7
 10
-3161.348329507778
 20
-928.3571130321979
 30
0.0
 40
4.0
  1
34
  0
TEXT
  5
398
  8
回08-記事
  6
CONTINUOUS
 62
     7
 10
-3140.506399390649
 20
-910.9388730321979
 30
0.0
 40
4.0
  1
U13
  0
TEXT
  5
399
  8
回08-記事
  6
CONTINUOUS
 62
     7
 10
-3140.506399390649
 20
-905.1327930321976
 30
0.0
 40
4.0
  1
U12
  0
TEXT
  5
39A
  8
回08-記事
  6
CONTINUOUS
 62
     7
 10
-3140.506399390649
 20
-899.3267130321983
 30
0.0
 40
4.0
  1
U11
  0
TEXT
  5
39B
  8
回08-記事
  6
CONTINUOUS
 62
     7
 10
-3140.506399390649
 20
-893.520633032198
 30
0.0
 40
4.0
  1
U10
  0
TEXT
  5
39C
  8
回08-記事
  6
CONTINUOUS
 62
     7
 10
-3140.972704054086
 20
-1062.304911341407
 30
0.0
 40
4.0
  1
U6
  0
TEXT
  5
39D
  8
回08-記事
  6
CONTINUOUS
 62
     7
 10
-3140.972704054086
 20
-1056.498831341406
 30
0.0
 40
4.0
  1
U5
  0
TEXT
  5
39E
  8
回08-記事
  6
CONTINUOUS
 62
     7
 10
-3140.972704054086
 20
-1050.692751341407
 30
0.0
 40
4.0
  1
U4
  0
TEXT
  5
39F
  8
回08-記事
  6
CONTINUOUS
 62
     7
 10
-3140.972704054086
 20
-1039.080591341407
 30
0.0
 40
4.0
  1
U2
  0
LINE
  5
3A0
  8
回08-記事
  6
CONTINUOUS
 62
     7
 10
-3154.73816558597
 20
-1019.687331277147
 30
0.0
 11
-3142.128896265725
 21
-1019.687331277147
 31
0.0
  0
LINE
  5
3A1
  8
回08-記事
  6
CONTINUOUS
 62
     7
 10
-3154.73816558597
 20
-1013.881251277147
 30
0.0
 11
-3142.128896265725
 21
-1013.881251277147
 31
0.0
  0
LINE
  5
3A2
  8
回08-記事
  6
CONTINUOUS
 62
     7
 10
-3154.73816558597
 20
-1008.075171277147
 30
0.0
 11
-3142.128896265725
 21
-1008.075171277147
 31
0.0
  0
LINE
  5
3A3
  8
回08-記事
  6
CONTINUOUS
 62
     7
 10
-3154.73816558597
 20
-1002.269091277147
 30
0.0
 11
-3142.128896265725
 21
-1002.269091277147
 31
0.0
  0
LINE
  5
3A4
  8
回08-記事
  6
CONTINUOUS
 62
     7
 10
-3154.73816558597
 20
-996.4630112771473
 30
0.0
 11
-3142.128896265725
 21
-996.4630112771473
 31
0.0
  0
LINE
  5
3A5
  8
回08-記事
  6
CONTINUOUS
 62
     7
 10
-3154.73816558597
 20
-990.6569312771472
 30
0.0
 11
-3142.128896265725
 21
-990.6569312771472
 31
0.0
  0
LINE
  5
3A6
  8
回08-記事
  6
CONTINUOUS
 62
     7
 10
-3154.73816558597
 20
-984.8508512771468
 30
0.0
 11
-3142.128896265725
 21
-984.8508512771468
 31
0.0
  0
LINE
  5
3A7
  8
回08-記事
  6
CONTINUOUS
 62
     7
 10
-3154.73816558597
 20
-979.0447712771474
 30
0.0
 11
-3142.128896265725
 21
-979.0447712771474
 31
0.0
  0
LINE
  5
3A8
  8
回08-記事
  6
CONTINUOUS
 62
     7
 10
-3154.73816558597
 20
-973.2386912771472
 30
0.0
 11
-3142.128896265725
 21
-973.2386912771472
 31
0.0
  0
LINE
  5
3A9
  8
回08-記事
  6
CONTINUOUS
 62
     7
 10
-3154.73816558597
 20
-967.4326112771469
 30
0.0
 11
-3142.128896265725
 21
-967.4326112771469
 31
0.0
  0
LINE
  5
3AA
  8
回08-記事
  6
CONTINUOUS
 62
     7
 10
-3154.73816558597
 20
-961.6265312771474
 30
0.0
 11
-3142.128896265725
 21
-961.6265312771474
 31
0.0
  0
LINE
  5
3AB
  8
回08-記事
  6
CONTINUOUS
 62
     7
 10
-3154.73816558597
 20
-955.8204512771471
 30
0.0
 11
-3142.128896265725
 21
-955.8204512771471
 31
0.0
  0
LINE
  5
3AC
  8
回08-記事
  6
CONTINUOUS
 62
     7
 10
-3154.73816558597
 20
-950.0143712771469
 30
0.0
 11
-3142.128896265725
 21
-950.0143712771469
 31
0.0
  0
LINE
  5
3AD
  8
回08-記事
  6
CONTINUOUS
 62
     7
 10
-3154.73816558597
 20
-944.2082912771466
 30
0.0
 11
-3142.128896265725
 21
-944.2082912771466
 31
0.0
  0
LINE
  5
3AE
  8
回08-記事
  6
CONTINUOUS
 62
     7
 10
-3154.73816558597
 20
-938.4022112771472
 30
0.0
 11
-3142.128896265725
 21
-938.4022112771472
 31
0.0
  0
LINE
  5
3AF
  8
回08-記事
  6
CONTINUOUS
 62
     7
 10
-3154.73816558597
 20
-932.5961312771468
 30
0.0
 11
-3142.128896265725
 21
-932.5961312771468
 31
0.0
  0
TEXT
  5
3B0
  8
回08-記事
  6
CONTINUOUS
 62
     7
 10
-3161.658276072615
 20
-1021.254393032198
 30
0.0
 40
4.0
  1
50
  0
TEXT
  5
3B1
  8
回08-記事
  6
CONTINUOUS
 62
     7
 10
-3161.960488000628
 20
-1015.448313032198
 30
0.0
 40
4.0
  1
49
  0
TEXT
  5
3B2
  8
回08-記事
  6
CONTINUOUS
 62
     7
 10
-3161.925698598571
 20
-1009.642233032198
 30
0.0
 40
4.0
  1
48
  0
TEXT
  5
3B3
  8
回08-記事
  6
CONTINUOUS
 62
     7
 10
-3161.963601103673
 20
-1003.836153032198
 30
0.0
 40
4.0
  1
47
  0
TEXT
  5
3B4
  8
回08-記事
  6
CONTINUOUS
 62
     7
 10
-3161.963601103673
 20
-998.0300730321978
 30
0.0
 40
4.0
  1
46
  0
TEXT
  5
3B5
  8
回08-記事
  6
CONTINUOUS
 62
     7
 10
-3161.995993860208
 20
-992.2239930321984
 30
0.0
 40
4.0
  1
45
  0
TEXT
  5
3B6
  8
回08-記事
  6
CONTINUOUS
 62
     7
 10
-3161.995993860208
 20
-986.4179130321982
 30
0.0
 40
4.0
  1
44
  0
TEXT
  5
3B7
  8
回08-記事
  6
CONTINUOUS
 62
     7
 10
-3162.005307808015
 20
-980.6118330321979
 30
0.0
 40
4.0
  1
43
  0
TEXT
  5
3B8
  8
回08-記事
  6
CONTINUOUS
 62
     7
 10
-3162.005307808015
 20
-974.8057530321984
 30
0.0
 40
4.0
  1
42
  0
TEXT
  5
3B9
  8
回08-記事
  6
CONTINUOUS
 62
     7
 10
-3161.867892882775
 20
-968.9996730321981
 30
0.0
 40
4.0
  1
41
  0
TEXT
  5
3BA
  8
回08-記事
  6
CONTINUOUS
 62
     7
 10
-3161.867892882775
 20
-963.1935930321979
 30
0.0
 40
4.0
  1
40
  0
TEXT
  5
3BB
  8
回08-記事
  6
CONTINUOUS
 62
     7
 10
-3161.525394484803
 20
-957.3875130321985
 30
0.0
 40
4.0
  1
39
  0
TEXT
  5
3BC
  8
回08-記事
  6
CONTINUOUS
 62
     7
 10
-3161.525394484803
 20
-951.5814330321981
 30
0.0
 40
4.0
  1
38
  0
TEXT
  5
3BD
  8
回08-記事
  6
CONTINUOUS
 62
     7
 10
-3161.525610056093
 20
-945.7753530321978
 30
0.0
 40
4.0
  1
37
  0
TEXT
  5
3BE
  8
回08-記事
  6
CONTINUOUS
 62
     7
 10
-3161.525610056093
 20
-939.9692730321985
 30
0.0
 40
4.0
  1
36
  0
TEXT
  5
3BF
  8
回08-記事
  6
CONTINUOUS
 62
     7
 10
-3161.348329507778
 20
-934.1631930321982
 30
0.0
 40
4.0
  1
35
  0
TEXT
  5
3C0
  8
回08-記事
  6
CONTINUOUS
 62
     7
 10
-3177.074275762928
 20
-957.3875130321976
 30
0.0
 40
4.0
  1
SDR
  0
TEXT
  5
3C1
  8
回08-記事
  6
CONTINUOUS
 62
     7
 10
-3177.074275762928
 20
-922.5510330321977
 30
0.0
 40
4.0
  1
R7
  0
TEXT
  5
3C2
  8
回08-記事
  6
CONTINUOUS
 62
     7
 10
-3177.525445837529
 20
-998.3725328225755
 30
0.0
 40
4.0
  1
L6
  0
TEXT
  5
3C3
  8
回08-記事
  6
CONTINUOUS
 62
     7
 10
-3177.074275762928
 20
-928.3571130321979
 30
0.0
 40
4.0
  1
R8
  0
LINE
  5
3C4
  8
回08-記事
  6
CONTINUOUS
 62
     7
 10
-3191.306041958249
 20
-1031.299491277147
 30
0.0
 11
-3178.696772638004
 21
-1031.299491277147
 31
0.0
  0
LINE
  5
3C5
  8
回08-記事
  6
CONTINUOUS
 62
     7
 10
-3191.306041958249
 20
-1025.493411277147
 30
0.0
 11
-3178.696772638004
 21
-1025.493411277147
 31
0.0
  0
TEXT
  5
3C6
  8
回08-記事
  6
CONTINUOUS
 62
     7
 10
-3197.681361875995
 20
-1032.866553032198
 30
0.0
 40
4.0
  1
26
  0
TEXT
  5
3C7
  8
回08-記事
  6
CONTINUOUS
 62
     7
 10
-3197.681361875995
 20
-1027.060473032198
 30
0.0
 40
4.0
  1
25
  0
TEXT
  5
3C8
  8
回08-記事
  6
CONTINUOUS
 62
     7
 10
-3177.494437674922
 20
-1032.875515105647
 30
0.0
 40
4.0
  1
SUL
  0
TEXT
  5
3C9
  8
回08-記事
  6
CONTINUOUS
 62
     7
 10
-3177.525445837529
 20
-992.5664528225752
 30
0.0
 40
4.0
  1
L7
  0
TEXT
  5
3CA
  8
回08-記事
  6
CONTINUOUS
 62
     7
 10
-3177.416339647381
 20
-893.520633032198
 30
0.0
 40
4.0
  1
R2
  0
TEXT
  5
3CB
  8
回08-記事
  6
CONTINUOUS
 62
     7
 10
-3177.675876425024
 20
-1027.402932822575
 30
0.0
 40
4.0
  1
L1
  0
TEXT
  5
3CC
  8
回08-記事
  6
CONTINUOUS
 62
     7
 10
-3177.675876425024
 20
-1021.596852822576
 30
0.0
 40
4.0
  1
L2
  0
TEXT
  5
3CD
  8
回08-記事
  6
CONTINUOUS
 62
     7
 10
-3177.525445837529
 20
-1015.790772822575
 30
0.0
 40
4.0
  1
L3
  0
TEXT
  5
3CE
  8
回08-記事
  6
CONTINUOUS
 62
     7
 10
-3177.525445837529
 20
-1009.984692822575
 30
0.0
 40
4.0
  1
L4
  0
TEXT
  5
3CF
  8
回08-記事
  6
CONTINUOUS
 62
     7
 10
-3177.525445837529
 20
-1004.178612822576
 30
0.0
 40
4.0
  1
L5
  0
TEXT
  5
3D0
  8
回08-記事
  6
CONTINUOUS
 62
     7
 10
-3177.525445837529
 20
-986.7603728225757
 30
0.0
 40
4.0
  1
L8
  0
TEXT
  5
3D1
  8
回08-記事
  6
CONTINUOUS
 62
     7
 10
-3195.173774436836
 20
-879.6770408302336
 30
0.0
 40
4.0
  1
Tail-1
  0
TEXT
  5
3D2
  8
回08-記事
  6
CONTINUOUS
 62
     7
 10
-3157.836326774429
 20
-879.6770408302336
 30
0.0
 40
4.0
  1
Tail-2
  0
LINE
  5
3D3
  8
回08-記事
  6
CONTINUOUS
 62
     7
 10
-3191.306041958249
 20
-886.1474912771473
 30
0.0
 11
-3178.696772638004
 21
-886.1474912771473
 31
0.0
  0
TEXT
  5
3D4
  8
回08-記事
  6
CONTINUOUS
 62
     7
 10
-3196.248986325188
 20
-887.7145530321977
 30
0.0
 40
4.0
  1
1
  0
LINE
  5
3D5
  8
回08-記事
  6
CONTINUOUS
 62
     7
 10
-3191.306041958249
 20
-891.9535712771466
 30
0.0
 11
-3178.696772638004
 21
-891.9535712771466
 31
0.0
  0
TEXT
  5
3D6
  8
回08-記事
  6
CONTINUOUS
 62
     7
 10
-3196.248986325188
 20
-893.520633032198
 30
0.0
 40
4.0
  1
2
  0
LINE
  5
3D7
  8
回08-記事
  6
CONTINUOUS
 62
     7
 10
-3191.306041958249
 20
-897.7596512771469
 30
0.0
 11
-3178.696772638004
 21
-897.7596512771469
 31
0.0
  0
TEXT
  5
3D8
  8
回08-記事
  6
CONTINUOUS
 62
     7
 10
-3196.248986325188
 20
-899.3267130321983
 30
0.0
 40
4.0
  1
3
  0
LINE
  5
3D9
  8
回08-記事
  6
CONTINUOUS
 62
     7
 10
-3191.306041958249
 20
-903.5657312771473
 30
0.0
 11
-3178.696772638004
 21
-903.5657312771473
 31
0.0
  0
TEXT
  5
3DA
  8
回08-記事
  6
CONTINUOUS
 62
     7
 10
-3196.248986325188
 20
-905.1327930321976
 30
0.0
 40
4.0
  1
4
  0
LINE
  5
3DB
  8
回08-記事
  6
CONTINUOUS
 62
     7
 10
-3191.306041958249
 20
-909.3718112771467
 30
0.0
 11
-3178.696772638004
 21
-909.3718112771467
 31
0.0
  0
TEXT
  5
3DC
  8
回08-記事
  6
CONTINUOUS
 62
     7
 10
-3196.248986325188
 20
-910.9388730321979
 30
0.0
 40
4.0
  1
5
  0
LINE
  5
3DD
  8
回08-記事
  6
CONTINUOUS
 62
     7
 10
-3191.306041958249
 20
-915.1778912771469
 30
0.0
 11
-3178.696772638004
 21
-915.1778912771469
 31
0.0
  0
TEXT
  5
3DE
  8
回08-記事
  6
CONTINUOUS
 62
     7
 10
-3196.248986325188
 20
-916.7449530321983
 30
0.0
 40
4.0
  1
6
  0
LINE
  5
3DF
  8
回08-記事
  6
CONTINUOUS
 62
     7
 10
-3191.306041958249
 20
-920.9839712771472
 30
0.0
 11
-3178.696772638004
 21
-920.9839712771472
 31
0.0
  0
TEXT
  5
3E0
  8
回08-記事
  6
CONTINUOUS
 62
     7
 10
-3196.248986325188
 20
-922.5510330321977
 30
0.0
 40
4.0
  1
7
  0
LINE
  5
3E1
  8
回08-記事
  6
CONTINUOUS
 62
     7
 10
-3191.306041958249
 20
-926.7900512771467
 30
0.0
 11
-3178.696772638004
 21
-926.7900512771467
 31
0.0
  0
TEXT
  5
3E2
  8
回08-記事
  6
CONTINUOUS
 62
     7
 10
-3196.248986325188
 20
-928.3571130321979
 30
0.0
 40
4.0
  1
8
  0
TEXT
  5
3E3
  8
回08-記事
  6
CONTINUOUS
 62
     7
 10
-3177.074275762928
 20
-916.7449530321974
 30
0.0
 40
4.0
  1
R6
  0
TEXT
  5
3E4
  8
回08-記事
  6
CONTINUOUS
 62
     7
 10
-3177.074275762928
 20
-910.9388730321979
 30
0.0
 40
4.0
  1
R5
  0
TEXT
  5
3E5
  8
回08-記事
  6
CONTINUOUS
 62
     7
 10
-3177.074275762928
 20
-905.1327930321976
 30
0.0
 40
4.0
  1
R4
  0
TEXT
  5
3E6
  8
回08-記事
  6
CONTINUOUS
 62
     7
 10
-3177.074275762928
 20
-899.3267130321983
 30
0.0
 40
4.0
  1
R3
  0
LINE
  5
3E7
  8
回08-記事
  6
CONTINUOUS
 62
     7
 10
-3191.306041958249
 20
-1019.687331277147
 30
0.0
 11
-3178.696772638004
 21
-1019.687331277147
 31
0.0
  0
LINE
  5
3E8
  8
回08-記事
  6
CONTINUOUS
 62
     7
 10
-3191.306041958249
 20
-1013.881251277147
 30
0.0
 11
-3178.696772638004
 21
-1013.881251277147
 31
0.0
  0
LINE
  5
3E9
  8
回08-記事
  6
CONTINUOUS
 62
     7
 10
-3191.306041958249
 20
-1008.075171277147
 30
0.0
 11
-3178.696772638004
 21
-1008.075171277147
 31
0.0
  0
LINE
  5
3EA
  8
回08-記事
  6
CONTINUOUS
 62
     7
 10
-3191.306041958249
 20
-1002.269091277147
 30
0.0
 11
-3178.696772638004
 21
-1002.269091277147
 31
0.0
  0
LINE
  5
3EB
  8
回08-記事
  6
CONTINUOUS
 62
     7
 10
-3191.306041958249
 20
-996.4630112771473
 30
0.0
 11
-3178.696772638004
 21
-996.4630112771473
 31
0.0
  0
LINE
  5
3EC
  8
回08-記事
  6
CONTINUOUS
 62
     7
 10
-3191.306041958249
 20
-990.6569312771472
 30
0.0
 11
-3178.696772638004
 21
-990.6569312771472
 31
0.0
  0
LINE
  5
3ED
  8
回08-記事
  6
CONTINUOUS
 62
     7
 10
-3191.306041958249
 20
-984.8508512771468
 30
0.0
 11
-3178.696772638004
 21
-984.8508512771468
 31
0.0
  0
LINE
  5
3EE
  8
回08-記事
  6
CONTINUOUS
 62
     7
 10
-3191.306041958249
 20
-979.0447712771474
 30
0.0
 11
-3178.696772638004
 21
-979.0447712771474
 31
0.0
  0
LINE
  5
3EF
  8
回08-記事
  6
CONTINUOUS
 62
     7
 10
-3191.306041958249
 20
-973.2386912771472
 30
0.0
 11
-3178.696772638004
 21
-973.2386912771472
 31
0.0
  0
LINE
  5
3F0
  8
回08-記事
  6
CONTINUOUS
 62
     7
 10
-3191.306041958249
 20
-967.4326112771469
 30
0.0
 11
-3178.696772638004
 21
-967.4326112771469
 31
0.0
  0
LINE
  5
3F1
  8
回08-記事
  6
CONTINUOUS
 62
     7
 10
-3191.306041958249
 20
-961.6265312771474
 30
0.0
 11
-3178.696772638004
 21
-961.6265312771474
 31
0.0
  0
LINE
  5
3F2
  8
回08-記事
  6
CONTINUOUS
 62
     7
 10
-3191.306041958249
 20
-955.8204512771471
 30
0.0
 11
-3178.696772638004
 21
-955.8204512771471
 31
0.0
  0
LINE
  5
3F3
  8
回08-記事
  6
CONTINUOUS
 62
     7
 10
-3191.306041958249
 20
-950.0143712771469
 30
0.0
 11
-3178.696772638004
 21
-950.0143712771469
 31
0.0
  0
LINE
  5
3F4
  8
回08-記事
  6
CONTINUOUS
 62
     7
 10
-3191.306041958249
 20
-944.2082912771466
 30
0.0
 11
-3178.696772638004
 21
-944.2082912771466
 31
0.0
  0
LINE
  5
3F5
  8
回08-記事
  6
CONTINUOUS
 62
     7
 10
-3191.306041958249
 20
-938.4022112771472
 30
0.0
 11
-3178.696772638004
 21
-938.4022112771472
 31
0.0
  0
LINE
  5
3F6
  8
回08-記事
  6
CONTINUOUS
 62
     7
 10
-3191.306041958249
 20
-932.5961312771468
 30
0.0
 11
-3178.696772638004
 21
-932.5961312771468
 31
0.0
  0
TEXT
  5
3F7
  8
回08-記事
  6
CONTINUOUS
 62
     7
 10
-3197.681361875995
 20
-1021.254393032198
 30
0.0
 40
4.0
  1
24
  0
TEXT
  5
3F8
  8
回08-記事
  6
CONTINUOUS
 62
     7
 10
-3197.681361875995
 20
-1015.448313032198
 30
0.0
 40
4.0
  1
23
  0
TEXT
  5
3F9
  8
回08-記事
  6
CONTINUOUS
 62
     7
 10
-3197.681361875995
 20
-1009.642233032198
 30
0.0
 40
4.0
  1
22
  0
TEXT
  5
3FA
  8
回08-記事
  6
CONTINUOUS
 62
     7
 10
-3197.681361875995
 20
-1003.836153032198
 30
0.0
 40
4.0
  1
21
  0
TEXT
  5
3FB
  8
回08-記事
  6
CONTINUOUS
 62
     7
 10
-3197.681361875995
 20
-998.0300730321978
 30
0.0
 40
4.0
  1
20
  0
TEXT
  5
3FC
  8
回08-記事
  6
CONTINUOUS
 62
     7
 10
-3197.681361875995
 20
-992.2239930321984
 30
0.0
 40
4.0
  1
19
  0
TEXT
  5
3FD
  8
回08-記事
  6
CONTINUOUS
 62
     7
 10
-3197.681361875995
 20
-986.4179130321982
 30
0.0
 40
4.0
  1
18
  0
TEXT
  5
3FE
  8
回08-記事
  6
CONTINUOUS
 62
     7
 10
-3197.681361875995
 20
-980.6118330321979
 30
0.0
 40
4.0
  1
17
  0
TEXT
  5
3FF
  8
回08-記事
  6
CONTINUOUS
 62
     7
 10
-3197.681361875995
 20
-974.8057530321984
 30
0.0
 40
4.0
  1
16
  0
TEXT
  5
400
  8
回08-記事
  6
CONTINUOUS
 62
     7
 10
-3197.890978686156
 20
-968.9996730321981
 30
0.0
 40
4.0
  1
15
  0
TEXT
  5
401
  8
回08-記事
  6
CONTINUOUS
 62
     7
 10
-3197.890978686156
 20
-963.1935930321979
 30
0.0
 40
4.0
  1
14
  0
TEXT
  5
402
  8
回08-記事
  6
CONTINUOUS
 62
     7
 10
-3197.890978686156
 20
-957.3875130321985
 30
0.0
 40
4.0
  1
13
  0
TEXT
  5
403
  8
回08-記事
  6
CONTINUOUS
 62
     7
 10
-3197.890978686156
 20
-951.5814330321981
 30
0.0
 40
4.0
  1
12
  0
TEXT
  5
404
  8
回08-記事
  6
CONTINUOUS
 62
     7
 10
-3197.890978686156
 20
-945.7753530321978
 30
0.0
 40
4.0
  1
11
  0
TEXT
  5
405
  8
回08-記事
  6
CONTINUOUS
 62
     7
 10
-3197.890978686156
 20
-939.9692730321985
 30
0.0
 40
4.0
  1
10
  0
TEXT
  5
406
  8
回08-記事
  6
CONTINUOUS
 62
     7
 10
-3196.248986325188
 20
-934.1631930321982
 30
0.0
 40
4.0
  1
9
  0
LINE
  5
407
  8
回08-記事
  6
CONTINUOUS
 62
     7
 10
-3276.068933174944
 20
-1010.303599327151
 30
0.0
 11
-3284.868385724158
 21
-1007.525907523081
 31
0.0
  0
LINE
  5
408
  8
回08-記事
  6
CONTINUOUS
 62
     7
 10
-3309.657468047343
 20
-1000.293848469391
 30
0.0
 11
-3301.693082582954
 21
-1003.228240870353
 31
0.0
  0
LINE
  5
409
  8
回08-記事
  6
CONTINUOUS
 62
     7
 10
-3294.51148281643
 20
-1236.543641279895
 30
0.0
 11
-3298.097810680272
 21
-1243.265236457988
 31
0.0
  0
LINE
  5
40A
  8
回08-記事
  6
CONTINUOUS
 62
     7
 10
-3291.413310745579
 20
-1243.365136320589
 30
0.0
 11
-3294.51148281643
 21
-1236.543641279895
 31
0.0
  0
TEXT
  5
40B
  8
回08-記事
  6
CONTINUOUS
 62
     7
 10
-3295.698818797123
 20
-1236.448328719508
 30
0.0
 40
3.0
  1
5
  0
LINE
  5
40C
  8
回08-記事
  6
CONTINUOUS
 62
     7
 10
-3307.338691012983
 20
-1170.765460286483
 30
0.0
 11
-3290.482016825643
 21
-1162.37960692355
 31
0.0
  0
LINE
  5
40D
  8
回08-記事
  6
CONTINUOUS
 62
     7
 10
-3299.295706942017
 20
-1172.832234907684
 30
0.0
 11
-3307.338691012983
 21
-1170.765460286483
 31
0.0
  0
TEXT
  5
40E
  8
回08-記事
  6
CONTINUOUS
 62
     7
 10
-3311.956320786047
 20
-1172.733104995052
 30
0.0
 40
4.0
  1
3
  0
LINE
  5
40F
  8
回08-記事
  6
CONTINUOUS
 62
     7
 10
-3278.731038021757
 20
-1213.519621360337
 30
0.0
 11
-3289.687518131621
 21
-1207.168799554578
 31
0.0
  0
LINE
  5
410
  8
回08-記事
  6
CONTINUOUS
 62
     7
 10
-3300.228419618326
 20
-1214.09817854737
 30
0.0
 11
-3278.731038021757
 21
-1213.519621360337
 31
0.0
  0
TEXT
  5
411
  8
回08-記事
  6
CONTINUOUS
 62
     7
 10
-3278.683307953028
 20
-1215.386543493026
 30
0.0
 40
4.0
  1
4
  0
LINE
  5
412
  8
回08-記事
  6
CONTINUOUS
 62
     7
 10
-3276.248939027797
 20
-1158.908179045778
 30
0.0
 11
-3295.121906946275
 21
-1153.132598774288
 31
0.0
  0
LINE
  5
413
  8
回08-記事
  6
CONTINUOUS
 62
     7
 10
-3282.546889635919
 20
-1152.416245613399
 30
0.0
 11
-3276.248939027797
 21
-1158.908179045778
 31
0.0
  0
ARC
  5
414
  8
回08-記事
  6
CONTINUOUS
 62
     7
 10
-3289.954626461302
 20
-1124.597479965201
 30
0.0
 40
0.4161773402836389
 50
90.0
 51
270.0
  0
ARC
  5
415
  8
回08-記事
  6
CONTINUOUS
 62
     7
 10
-3289.954626461302
 20
-1128.097479965201
 30
0.0
 40
0.4161773402836389
 50
90.0
 51
270.0
  0
ARC
  5
416
  8
回08-記事
  6
CONTINUOUS
 62
     7
 10
-3289.954626461302
 20
-1131.597479965201
 30
0.0
 40
0.4161773402836389
 50
90.0
 51
270.0
  0
ARC
  5
417
  8
回08-記事
  6
CONTINUOUS
 62
     7
 10
-3289.954626461302
 20
-1135.097479965201
 30
0.0
 40
0.4161773402836389
 50
90.0
 51
270.0
  0
ARC
  5
418
  8
回08-記事
  6
CONTINUOUS
 62
     7
 10
-3289.954626461302
 20
-1138.597479965201
 30
0.0
 40
0.4161773402836389
 50
90.0
 51
270.0
  0
ARC
  5
419
  8
回08-記事
  6
CONTINUOUS
 62
     7
 10
-3289.954626461302
 20
-1114.097479965201
 30
0.0
 40
0.4161773402836389
 50
90.0
 51
270.0
  0
ARC
  5
41A
  8
回08-記事
  6
CONTINUOUS
 62
     7
 10
-3289.954626461302
 20
-1117.597479965201
 30
0.0
 40
0.4161773402836389
 50
90.0
 51
270.0
  0
ARC
  5
41B
  8
回08-記事
  6
CONTINUOUS
 62
     7
 10
-3289.954626461302
 20
-1121.097479965201
 30
0.0
 40
0.4161773402836389
 50
90.0
 51
270.0
  0
ARC
  5
41C
  8
回08-記事
  6
CONTINUOUS
 62
     7
 10
-3289.954626461302
 20
-946.0974799652019
 30
0.0
 40
0.4161773402836389
 50
90.0
 51
270.0
  0
ARC
  5
41D
  8
回08-記事
  6
CONTINUOUS
 62
     7
 10
-3289.954626461302
 20
-949.5974799652019
 30
0.0
 40
0.4161773402836389
 50
90.0
 51
270.0
  0
ARC
  5
41E
  8
回08-記事
  6
CONTINUOUS
 62
     7
 10
-3289.954626461302
 20
-953.0974799652019
 30
0.0
 40
0.4161773402836389
 50
90.0
 51
270.0
  0
ARC
  5
41F
  8
回08-記事
  6
CONTINUOUS
 62
     7
 10
-3289.954626461302
 20
-956.5974799652019
 30
0.0
 40
0.4161773402836389
 50
90.0
 51
270.0
  0
ARC
  5
420
  8
回08-記事
  6
CONTINUOUS
 62
     7
 10
-3289.954626461302
 20
-960.097479965202
 30
0.0
 40
0.4161773402836389
 50
90.0
 51
270.0
  0
ARC
  5
421
  8
回08-記事
  6
CONTINUOUS
 62
     7
 10
-3289.954626461302
 20
-963.597479965202
 30
0.0
 40
0.4161773402836389
 50
90.0
 51
270.0
  0
ARC
  5
422
  8
回08-記事
  6
CONTINUOUS
 62
     7
 10
-3289.954626461302
 20
-967.097479965202
 30
0.0
 40
0.4161773402836389
 50
90.0
 51
270.0
  0
ARC
  5
423
  8
回08-記事
  6
CONTINUOUS
 62
     7
 10
-3289.954626461302
 20
-1093.097479965202
 30
0.0
 40
0.4161773402836389
 50
90.0
 51
270.0
  0
ARC
  5
424
  8
回08-記事
  6
CONTINUOUS
 62
     7
 10
-3289.954626461302
 20
-1096.597479965201
 30
0.0
 40
0.4161773402836389
 50
90.0
 51
270.0
  0
ARC
  5
425
  8
回08-記事
  6
CONTINUOUS
 62
     7
 10
-3289.954626461302
 20
-1100.097479965201
 30
0.0
 40
0.4161773402836389
 50
90.0
 51
270.0
  0
ARC
  5
426
  8
回08-記事
  6
CONTINUOUS
 62
     7
 10
-3289.954626461302
 20
-1103.597479965201
 30
0.0
 40
0.4161773402836389
 50
90.0
 51
270.0
  0
ARC
  5
427
  8
回08-記事
  6
CONTINUOUS
 62
     7
 10
-3289.954626461302
 20
-1107.097479965201
 30
0.0
 40
0.4161773402836389
 50
90.0
 51
270.0
  0
ARC
  5
428
  8
回08-記事
  6
CONTINUOUS
 62
     7
 10
-3289.954626461302
 20
-1110.597479965201
 30
0.0
 40
0.4161773402836389
 50
90.0
 51
270.0
  0
ARC
  5
429
  8
回08-記事
  6
CONTINUOUS
 62
     7
 10
-3289.954626461302
 20
-1114.097479965201
 30
0.0
 40
0.4161773402836389
 50
90.0
 51
270.0
  0
ARC
  5
42A
  8
回08-記事
  6
CONTINUOUS
 62
     7
 10
-3289.954626461302
 20
-1047.597479965202
 30
0.0
 40
0.4161773402836389
 50
90.0
 51
270.0
  0
ARC
  5
42B
  8
回08-記事
  6
CONTINUOUS
 62
     7
 10
-3289.954626461302
 20
-1051.097479965201
 30
0.0
 40
0.4161773402836389
 50
90.0
 51
270.0
  0
ARC
  5
42C
  8
回08-記事
  6
CONTINUOUS
 62
     7
 10
-3289.954626461302
 20
-1054.597479965202
 30
0.0
 40
0.4161773402836389
 50
90.0
 51
270.0
  0
ARC
  5
42D
  8
回08-記事
  6
CONTINUOUS
 62
     7
 10
-3289.954626461302
 20
-1058.097479965201
 30
0.0
 40
0.4161773402836389
 50
90.0
 51
270.0
  0
ARC
  5
42E
  8
回08-記事
  6
CONTINUOUS
 62
     7
 10
-3289.954626461302
 20
-1061.597479965201
 30
0.0
 40
0.4161773402836389
 50
90.0
 51
270.0
  0
ARC
  5
42F
  8
回08-記事
  6
CONTINUOUS
 62
     7
 10
-3289.954626461302
 20
-1065.097479965201
 30
0.0
 40
0.4161773402836389
 50
90.0
 51
270.0
  0
ARC
  5
430
  8
回08-記事
  6
CONTINUOUS
 62
     7
 10
-3289.954626461302
 20
-1068.597479965202
 30
0.0
 40
0.4161773402836389
 50
90.0
 51
270.0
  0
ARC
  5
431
  8
回08-記事
  6
CONTINUOUS
 62
     7
 10
-3289.954626461302
 20
-1072.097479965202
 30
0.0
 40
0.4161773402836389
 50
90.0
 51
270.0
  0
ARC
  5
432
  8
回08-記事
  6
CONTINUOUS
 62
     7
 10
-3289.954626461302
 20
-1075.597479965201
 30
0.0
 40
0.4161773402836389
 50
90.0
 51
270.0
  0
ARC
  5
433
  8
回08-記事
  6
CONTINUOUS
 62
     7
 10
-3289.954626461302
 20
-1079.097479965201
 30
0.0
 40
0.4161773402836389
 50
90.0
 51
270.0
  0
ARC
  5
434
  8
回08-記事
  6
CONTINUOUS
 62
     7
 10
-3289.954626461302
 20
-1082.597479965202
 30
0.0
 40
0.4161773402836389
 50
90.0
 51
270.0
  0
ARC
  5
435
  8
回08-記事
  6
CONTINUOUS
 62
     7
 10
-3289.954626461302
 20
-1086.097479965202
 30
0.0
 40
0.4161773402836389
 50
90.0
 51
270.0
  0
ARC
  5
436
  8
回08-記事
  6
CONTINUOUS
 62
     7
 10
-3289.954626461302
 20
-1089.597479965202
 30
0.0
 40
0.4161773402836389
 50
90.0
 51
270.0
  0
ARC
  5
437
  8
回08-記事
  6
CONTINUOUS
 62
     7
 10
-3289.954626461302
 20
-970.597479965202
 30
0.0
 40
0.4161773402836389
 50
90.0
 51
270.0
  0
ARC
  5
438
  8
回08-記事
  6
CONTINUOUS
 62
     7
 10
-3289.954626461302
 20
-974.097479965202
 30
0.0
 40
0.4161773402836389
 50
90.0
 51
270.0
  0
ARC
  5
439
  8
回08-記事
  6
CONTINUOUS
 62
     7
 10
-3289.954626461302
 20
-977.5974799652018
 30
0.0
 40
0.4161773402836389
 50
90.0
 51
270.0
  0
ARC
  5
43A
  8
回08-記事
  6
CONTINUOUS
 62
     7
 10
-3289.954626461302
 20
-981.0974799652019
 30
0.0
 40
0.4161773402836389
 50
90.0
 51
270.0
  0
ARC
  5
43B
  8
回08-記事
  6
CONTINUOUS
 62
     7
 10
-3289.954626461302
 20
-984.5974799652019
 30
0.0
 40
0.4161773402836389
 50
90.0
 51
270.0
  0
ARC
  5
43C
  8
回08-記事
  6
CONTINUOUS
 62
     7
 10
-3289.954626461302
 20
-988.0974799652019
 30
0.0
 40
0.4161773402836389
 50
90.0
 51
270.0
  0
ARC
  5
43D
  8
回08-記事
  6
CONTINUOUS
 62
     7
 10
-3289.954626461302
 20
-991.5974799652019
 30
0.0
 40
0.4161773402836389
 50
90.0
 51
270.0
  0
ARC
  5
43E
  8
回08-記事
  6
CONTINUOUS
 62
     7
 10
-3289.954626461302
 20
-995.0974799652019
 30
0.0
 40
0.4161773402836389
 50
90.0
 51
270.0
  0
ARC
  5
43F
  8
回08-記事
  6
CONTINUOUS
 62
     7
 10
-3289.954626461302
 20
-998.5974799652019
 30
0.0
 40
0.4161773402836389
 50
90.0
 51
270.0
  0
ARC
  5
440
  8
回08-記事
  6
CONTINUOUS
 62
     7
 10
-3289.954626461302
 20
-1002.097479965202
 30
0.0
 40
0.4161773402836389
 50
90.0
 51
270.0
  0
ARC
  5
441
  8
回08-記事
  6
CONTINUOUS
 62
     7
 10
-3289.954626461302
 20
-1005.597479965202
 30
0.0
 40
0.4161773402836389
 50
90.0
 51
270.0
  0
ARC
  5
442
  8
回08-記事
  6
CONTINUOUS
 62
     7
 10
-3289.954626461302
 20
-1009.097479965202
 30
0.0
 40
0.4161773402836389
 50
90.0
 51
270.0
  0
ARC
  5
443
  8
回08-記事
  6
CONTINUOUS
 62
     7
 10
-3289.954626461302
 20
-1012.597479965202
 30
0.0
 40
0.4161773402836389
 50
90.0
 51
270.0
  0
ARC
  5
444
  8
回08-記事
  6
CONTINUOUS
 62
     7
 10
-3289.954626461302
 20
-1016.097479965202
 30
0.0
 40
0.4161773402836389
 50
90.0
 51
270.0
  0
ARC
  5
445
  8
回08-記事
  6
CONTINUOUS
 62
     7
 10
-3289.954626461302
 20
-1019.597479965202
 30
0.0
 40
0.4161773402836389
 50
90.0
 51
270.0
  0
ARC
  5
446
  8
回08-記事
  6
CONTINUOUS
 62
     7
 10
-3289.954626461302
 20
-1023.097479965202
 30
0.0
 40
0.4161773402836389
 50
90.0
 51
270.0
  0
ARC
  5
447
  8
回08-記事
  6
CONTINUOUS
 62
     7
 10
-3289.954626461302
 20
-1026.597479965202
 30
0.0
 40
0.4161773402836389
 50
90.0
 51
270.0
  0
ARC
  5
448
  8
回08-記事
  6
CONTINUOUS
 62
     7
 10
-3289.954626461302
 20
-1030.097479965202
 30
0.0
 40
0.4161773402836389
 50
90.0
 51
270.0
  0
ARC
  5
449
  8
回08-記事
  6
CONTINUOUS
 62
     7
 10
-3289.954626461302
 20
-1033.597479965202
 30
0.0
 40
0.4161773402836389
 50
90.0
 51
270.0
  0
ARC
  5
44A
  8
回08-記事
  6
CONTINUOUS
 62
     7
 10
-3289.954626461302
 20
-1037.097479965202
 30
0.0
 40
0.4161773402836389
 50
90.0
 51
270.0
  0
ARC
  5
44B
  8
回08-記事
  6
CONTINUOUS
 62
     7
 10
-3289.954626461302
 20
-1040.597479965202
 30
0.0
 40
0.4161773402836389
 50
90.0
 51
270.0
  0
ARC
  5
44C
  8
回08-記事
  6
CONTINUOUS
 62
     7
 10
-3289.954626461302
 20
-1044.097479965202
 30
0.0
 40
0.4161773402836389
 50
90.0
 51
270.0
  0
POLYLINE
  5
44D
  8
回08-記事
  6
CONTINUOUS
 62
     7
 66
     1
 10
0.0
 20
0.0
 30
0.0
 70
     1
  0
VERTEX
  5
7DD
  8
回08-記事
  6
CONTINUOUS
 62
     7
 10
-3289.254626461301
 20
-1173.789112238994
 30
0.0
  0
VERTEX
  5
7DF
  8
回08-記事
  6
CONTINUOUS
 62
     7
 10
-3288.554626461301
 20
-1173.789112238994
 30
0.0
  0
VERTEX
  5
7E0
  8
回08-記事
  6
CONTINUOUS
 62
     7
 10
-3288.554626461301
 20
-1199.789112238994
 30
0.0
  0
VERTEX
  5
7E1
  8
回08-記事
  6
CONTINUOUS
 62
     7
 10
-3289.254626461301
 20
-1199.789112238994
 30
0.0
  0
SEQEND
  5
7DE
  8
0
  6
CONTINUOUS
 62
     7
  0
INSERT
  5
44E
  8
回08-記事
  6
CONTINUOUS
 62
     7
 66
     1
  2
*X83
 10
0.0
 20
0.0
 30
0.0
1001
GRADIENTCOLOR1ACI
1070
     5
1001
GRADIENTCOLOR2ACI
1070
     2
1001
ACAD
1010
0.0
1020
0.0
1030
0.0
  0
SEQEND
  5
7F9
  8
0
  6
CONTINUOUS
 62
     7
  0
LINE
  5
44F
  8
回08-記事
  6
CONTINUOUS
 62
     7
 10
-3289.254626461301
 20
-1152.812479965202
 30
0.0
 11
-3289.254626461301
 21
-1155.944193665594
 31
0.0
1001
ACAD
1000
ASC_BOUNDS
1002
{
1070
    19
1005
45D
1002
}
  0
LINE
  5
450
  8
回08-記事
  6
CONTINUOUS
 62
     7
 10
-3282.954626461302
 20
-1152.812479965202
 30
0.0
 11
-3289.254626461301
 21
-1152.812479965202
 31
0.0
1001
ACAD
1000
ASC_BOUNDS
1002
{
1070
    19
1005
45D
1002
}
  0
LINE
  5
451
  8
回08-記事
  6
CONTINUOUS
 62
     7
 10
-3282.954626461302
 20
-1148.744193665594
 30
0.0
 11
-3282.954626461302
 21
-1152.812479965202
 31
0.0
1001
ACAD
1000
ASC_BOUNDS
1002
{
1070
    19
1005
45D
1002
}
  0
LINE
  5
452
  8
回08-記事
  6
CONTINUOUS
 62
     7
 10
-3282.254626461301
 20
-1148.744193665594
 30
0.0
 11
-3282.954626461302
 21
-1148.744193665594
 31
0.0
1001
ACAD
1000
ASC_BOUNDS
1002
{
1070
    19
1005
45D
1002
}
  0
LINE
  5
453
  8
回08-記事
  6
CONTINUOUS
 62
     7
 10
-3282.254626461301
 20
-1153.512479965202
 30
0.0
 11
-3282.254626461301
 21
-1148.744193665594
 31
0.0
1001
ACAD
1000
ASC_BOUNDS
1002
{
1070
    19
1005
45D
1002
}
  0
LINE
  5
454
  8
回08-記事
  6
CONTINUOUS
 62
     7
 10
-3288.554626461301
 20
-1153.512479965202
 30
0.0
 11
-3282.254626461301
 21
-1153.512479965202
 31
0.0
1001
ACAD
1000
ASC_BOUNDS
1002
{
1070
    19
1005
45D
1002
}
  0
LINE
  5
455
  8
回08-記事
  6
CONTINUOUS
 62
     7
 10
-3288.554626461301
 20
-1155.944193665594
 30
0.0
 11
-3288.554626461301
 21
-1153.512479965202
 31
0.0
1001
ACAD
1000
ASC_BOUNDS
1002
{
1070
    19
1005
45D
1002
}
  0
LINE
  5
456
  8
回08-記事
  6
CONTINUOUS
 62
     7
 10
-3289.254626461301
 20
-1155.944193665594
 30
0.0
 11
-3288.554626461301
 21
-1155.944193665594
 31
0.0
1001
ACAD
1000
ASC_BOUNDS
1002
{
1070
    19
1005
45D
1002
}
  0
LINE
  5
457
  8
回08-記事
  6
CONTINUOUS
 62
     7
 10
-3298.147810680272
 20
-1155.944193665594
 30
0.0
 11
-3298.847810680272
 21
-1155.944193665594
 31
0.0
1001
ACAD
1000
ASC_BOUNDS
1002
{
1070
    19
1005
45D
1002
}
  0
LINE
  5
458
  8
回08-記事
  6
CONTINUOUS
 62
     7
 10
-3298.147810680272
 20
-1153.512479965202
 30
0.0
 11
-3298.147810680272
 21
-1155.944193665594
 31
0.0
1001
ACAD
1000
ASC_BOUNDS
1002
{
1070
    19
1005
45D
1002
}
  0
LINE
  5
459
  8
回08-記事
  6
CONTINUOUS
 62
     7
 10
-3290.954626461302
 20
-1153.512479965202
 30
0.0
 11
-3298.147810680272
 21
-1153.512479965202
 31
0.0
1001
ACAD
1000
ASC_BOUNDS
1002
{
1070
    19
1005
45D
1002
}
  0
LINE
  5
45A
  8
回08-記事
  6
CONTINUOUS
 62
     7
 10
-3290.954626461302
 20
-1152.512479965202
 30
0.0
 11
-3290.954626461302
 21
-1153.512479965202
 31
0.0
1001
ACAD
1000
ASC_BOUNDS
1002
{
1070
    19
1005
45D
1002
}
  0
LINE
  5
45B
  8
回08-記事
  6
CONTINUOUS
 62
     7
 10
-3298.847810680272
 20
-1152.512479965202
 30
0.0
 11
-3290.954626461302
 21
-1152.512479965202
 31
0.0
1001
ACAD
1000
ASC_BOUNDS
1002
{
1070
    19
1005
45D
1002
}
  0
LINE
  5
45C
  8
回08-記事
  6
CONTINUOUS
 62
     7
 10
-3298.847810680272
 20
-1155.944193665594
 30
0.0
 11
-3298.847810680272
 21
-1152.512479965202
 31
0.0
1001
ACAD
1000
ASC_BOUNDS
1002
{
1070
    19
1005
45D
1002
}
  0
INSERT
  5
45D
  8
回08-記事
  6
CONTINUOUS
 62
     7
 66
     1
  2
*X84
 10
0.0
 20
0.0
 30
0.0
1001
GRADIENTCOLOR1ACI
1070
     5
1001
GRADIENTCOLOR2ACI
1070
     2
1001
ACAD
1010
0.0
1020
0.0
1030
0.0
  0
SEQEND
  5
810
  8
0
  6
CONTINUOUS
 62
     7
  0
DIMENSION
  5
45E
  8
回08-記事
  6
CONTINUOUS
 62
     7
  2
*D71
 10
-3289.954626461302
 20
-1268.596526032452
 30
0.0
 11
-3274.660745457365
 21
-1265.596526032452
 31
0.0
 70
    32
  1
0.3{\H0.6667x;±0.05}
  3
DMC
 13
-3292.454626461302
 23
-1252.808431594391
 33
0.0
 14
-3289.954626461302
 24
-1252.808431594391
 34
0.0
1001
ACADSTRINGINFO
1000
MIFCodePage
1070
     1
1001
ACAD
1000
DSTYLE
1002
{
1070
    41
1040
3.0
1070
    47
1040
0.2
1070
    48
1040
0.2
1070
   141
1040
1.5
1070
   371
1070
    13
1070
   372
1070
    13
1002
}
  0
DIMENSION
  5
46F
  8
回08-記事
  6
CONTINUOUS
 62
     7
  2
*D72
 10
-3299.847810680272
 20
-1264.642795995354
 30
0.0
 11
-3315.141691684209
 21
-1261.642795995354
 31
0.0
 70
    32
  1
0.3{\H0.6667x;±0.05}
  3
DMC
 13
-3297.347810680272
 23
-1252.808431594391
 33
0.0
 14
-3299.847810680272
 24
-1252.808431594391
 34
0.0
1001
ACADSTRINGINFO
1000
MIFCodePage
1070
     1
1001
ACAD
1000
DSTYLE
1002
{
1070
    41
1040
3.0
1070
    47
1040
0.2
1070
    48
1040
0.2
1070
   141
1040
1.5
1070
   371
1070
    13
1070
   372
1070
    13
1002
}
  0
DIMENSION
  5
480
  8
回08-記事
  6
CONTINUOUS
 62
     7
  2
*D73
 10
-3293.07327781591
 20
-1252.808431594391
 30
0.0
 11
-3293.07327781591
 21
-1247.808431594391
 31
0.0
 70
   160
  1
{\H0.66667x;(<>)}
  3
DMC
 13
-3297.347810680272
 23
-1242.808431594391
 33
0.0
 14
-3297.347810680272
 24
-1252.808431594391
 34
0.0
 50
90.0
1001
ACAD
1000
DSTYLE
1002
{
1070
    41
1040
3.0
1070
    47
1040
0.2
1070
    48
1040
0.2
1070
   141
1040
1.5
1070
   371
1070
    13
1070
   372
1070
    13
1002
}
  0
DIMENSION
  5
48F
  8
回08-記事
  6
CONTINUOUS
 62
     7
  2
*D74
 10
-3277.680040895386
 20
-1247.808431594391
 30
0.0
 11
-3280.680040895386
 21
-1240.308431594391
 31
0.0
 70
    32
  3
DMC
 13
-3289.954626461302
 23
-1252.808431594391
 33
0.0
 14
-3289.254626461301
 24
-1247.808431594391
 34
0.0
 50
90.0
1001
ACAD
1000
DSTYLE
1002
{
1070
    41
1040
3.0
1070
    47
1040
0.2
1070
    48
1040
0.2
1070
   141
1040
1.5
1070
   371
1070
    13
1070
   372
1070
    13
1002
}
  0
DIMENSION
  5
4A0
  8
回08-記事
  6
CONTINUOUS
 62
     7
  2
*D75
 10
-3307.809220849244
 20
-1247.808431594391
 30
0.0
 11
-3307.809220849244
 21
-1250.30843159439
 31
0.0
 70
   160
  3
DMC
 13
-3299.847810680272
 23
-1252.808431594391
 33
0.0
 14
-3300.547810680272
 24
-1247.808431594391
 34
0.0
 50
90.0
1001
ACAD
1000
DSTYLE
1002
{
1070
    41
1040
3.0
1070
    47
1040
0.2
1070
    48
1040
0.2
1070
   141
1040
1.5
1070
   371
1070
    13
1070
   372
1070
    13
1002
}
  0
DIMENSION
  5
4B1
  8
回07-寸法
  6
CONTINUOUS
 62
     7
  2
*D76
 10
-3282.954626461302
 20
-850.5931565017307
 30
0.0
 11
-3293.401218570787
 21
-850.5931565017307
 31
0.0
 70
   160
  1
2.1{\H0.6667x;±0.2}
  3
DMC
 13
-3303.847810680272
 23
-860.3682874933658
 33
0.0
 14
-3282.954626461302
 24
-859.6124799652029
 34
0.0
1001
ACADSTRINGINFO
1000
MIFCodePage
1070
     1
1001
ACAD
1000
DSTYLE
1002
{
1070
    41
1040
3.0
1070
    47
1040
0.2
1070
    48
1040
0.2
1070
   141
1040
1.5
1070
   371
1070
    13
1070
   372
1070
    13
1002
}
  0
LINE
  5
4C0
  8
回08-記事
  6
CONTINUOUS
 62
     7
 10
-3299.847810680272
 20
-869.157479965203
 30
0.0
 11
-3289.954626461302
 21
-869.157479965203
 31
0.0
  0
LINE
  5
4C1
  8
回08-記事
  6
CONTINUOUS
 62
     7
 10
-3299.847810680272
 20
-1142.267479965203
 30
0.0
 11
-3289.954626461302
 21
-1142.267479965203
 31
0.0
  0
LINE
  5
4C2
  8
回08-記事
  6
CONTINUOUS
 62
     7
 10
-3298.847810680272
 20
-1152.512479965202
 30
0.0
 11
-3290.954626461302
 21
-1152.512479965202
 31
0.0
  0
LINE
  5
4C3
  8
回08-記事
  6
CONTINUOUS
 62
     7
 10
-3299.847810680271
 20
-860.112479965203
 30
0.0
 11
-3289.954626461301
 21
-860.112479965203
 31
0.0
  0
POLYLINE
  5
4C4
  8
回08-記事
  6
CONTINUOUS
 62
     7
 66
     1
 10
0.0
 20
0.0
 30
0.0
 70
     1
  0
VERTEX
  5
811
  8
回08-記事
  6
CONTINUOUS
 62
     7
 10
-3289.254626461301
 20
-1247.808431594391
 30
0.0
  0
VERTEX
  5
813
  8
回08-記事
  6
CONTINUOUS
 62
     7
 10
-3289.954626461302
 20
-1247.808431594391
 30
0.0
  0
VERTEX
  5
814
  8
回08-記事
  6
CONTINUOUS
 62
     7
 10
-3289.954626461302
 20
-1152.812479965202
 30
0.0
  0
VERTEX
  5
815
  8
回08-記事
  6
CONTINUOUS
 62
     7
 10
-3289.254626461301
 20
-1152.812479965202
 30
0.0
  0
SEQEND
  5
812
  8
0
  6
CONTINUOUS
 62
     7
  0
POLYLINE
  5
4C5
  8
回08-記事
  6
CONTINUOUS
 62
     7
 66
     1
 10
0.0
 20
0.0
 30
0.0
 70
     1
  0
VERTEX
  5
816
  8
回08-記事
  6
CONTINUOUS
 62
     7
 10
-3300.547810680272
 20
-1152.312479965202
 30
0.0
  0
VERTEX
  5
818
  8
回08-記事
  6
CONTINUOUS
 62
     7
 10
-3299.847810680272
 20
-1152.312479965202
 30
0.0
  0
VERTEX
  5
819
  8
回08-記事
  6
CONTINUOUS
 62
     7
 10
-3299.847810680272
 20
-1247.808431594391
 30
0.0
  0
VERTEX
  5
81A
  8
回08-記事
  6
CONTINUOUS
 62
     7
 10
-3300.547810680272
 20
-1247.808431594391
 30
0.0
  0
SEQEND
  5
817
  8
0
  6
CONTINUOUS
 62
     7
  0
POLYLINE
  5
4C6
  8
回08-記事
  6
CONTINUOUS
 62
     7
 66
     1
 10
0.0
 20
0.0
 30
0.0
 70
     1
  0
VERTEX
  5
81B
  8
回08-記事
  6
CONTINUOUS
 62
     7
 10
-3292.454626461302
 20
-1242.808431594391
 30
0.0
  0
VERTEX
  5
81D
  8
回08-記事
  6
CONTINUOUS
 62
     7
 10
-3290.954626461302
 20
-1242.808431594391
 30
0.0
  0
VERTEX
  5
81E
  8
回08-記事
  6
CONTINUOUS
 62
     7
 10
-3290.954626461302
 20
-1252.808431594391
 30
0.0
  0
VERTEX
  5
81F
  8
回08-記事
  6
CONTINUOUS
 62
     7
 10
-3292.454626461302
 20
-1252.808431594391
 30
0.0
  0
SEQEND
  5
81C
  8
0
  6
CONTINUOUS
 62
     7
  0
POLYLINE
  5
4C7
  8
回08-記事
  6
CONTINUOUS
 62
     7
 66
     1
 10
0.0
 20
0.0
 30
0.0
 70
     1
  0
VERTEX
  5
820
  8
回08-記事
  6
CONTINUOUS
 62
     7
 10
-3298.847810680272
 20
-1242.808431594391
 30
0.0
  0
VERTEX
  5
822
  8
回08-記事
  6
CONTINUOUS
 62
     7
 10
-3297.347810680272
 20
-1242.808431594391
 30
0.0
  0
VERTEX
  5
823
  8
回08-記事
  6
CONTINUOUS
 62
     7
 10
-3297.347810680272
 20
-1252.808431594391
 30
0.0
  0
VERTEX
  5
824
  8
回08-記事
  6
CONTINUOUS
 62
     7
 10
-3298.847810680272
 20
-1252.808431594391
 30
0.0
  0
SEQEND
  5
821
  8
0
  6
CONTINUOUS
 62
     7
  0
POLYLINE
  5
4C8
  8
回08-記事
  6
CONTINUOUS
 62
     7
 66
     1
 10
0.0
 20
0.0
 30
0.0
 70
     1
  0
VERTEX
  5
825
  8
回08-記事
  6
CONTINUOUS
 62
     7
 10
-3290.954626461302
 20
-1149.662479965202
 30
0.0
  0
VERTEX
  5
827
  8
回08-記事
  6
CONTINUOUS
 62
     7
 10
-3289.954626461302
 20
-1149.662479965202
 30
0.0
  0
VERTEX
  5
828
  8
回08-記事
  6
CONTINUOUS
 62
     7
 10
-3289.954626461302
 20
-1252.808431594391
 30
0.0
  0
VERTEX
  5
829
  8
回08-記事
  6
CONTINUOUS
 62
     7
 10
-3290.954626461302
 20
-1252.808431594391
 30
0.0
  0
SEQEND
  5
826
  8
0
  6
CONTINUOUS
 62
     7
  0
POLYLINE
  5
4C9
  8
回08-記事
  6
CONTINUOUS
 62
     7
 66
     1
 10
0.0
 20
0.0
 30
0.0
 70
     1
  0
VERTEX
  5
82A
  8
回08-記事
  6
CONTINUOUS
 62
     7
 10
-3299.847810680272
 20
-1149.662479965202
 30
0.0
  0
VERTEX
  5
82C
  8
回08-記事
  6
CONTINUOUS
 62
     7
 10
-3298.847810680272
 20
-1149.662479965202
 30
0.0
  0
VERTEX
  5
82D
  8
回08-記事
  6
CONTINUOUS
 62
     7
 10
-3298.847810680272
 20
-1252.808431594391
 30
0.0
  0
VERTEX
  5
82E
  8
回08-記事
  6
CONTINUOUS
 62
     7
 10
-3299.847810680272
 20
-1252.808431594391
 30
0.0
  0
SEQEND
  5
82B
  8
0
  6
CONTINUOUS
 62
     7
  0
POLYLINE
  5
4CA
  8
回08-記事
  6
CONTINUOUS
 62
     7
 66
     1
 10
0.0
 20
0.0
 30
0.0
 70
     1
  0
VERTEX
  5
82F
  8
回08-記事
  6
CONTINUOUS
 62
     7
 10
-3303.847810680272
 20
-860.112479965203
 30
0.0
  0
VERTEX
  5
831
  8
回08-記事
  6
CONTINUOUS
 62
     7
 10
-3299.847810680271
 20
-860.112479965203
 30
0.0
  0
VERTEX
  5
832
  8
回08-記事
  6
CONTINUOUS
 62
     7
 10
-3299.847810680271
 20
-1152.312479965202
 30
0.0
  0
VERTEX
  5
833
  8
回08-記事
  6
CONTINUOUS
 62
     7
 10
-3303.847810680272
 20
-1152.312479965202
 30
0.0
  0
SEQEND
  5
830
  8
0
  6
CONTINUOUS
 62
     7
  0
POLYLINE
  5
4CB
  8
回08-記事
  6
CONTINUOUS
 62
     7
 66
     1
 10
0.0
 20
0.0
 30
0.0
 70
     1
  0
VERTEX
  5
834
  8
回08-記事
  6
CONTINUOUS
 62
     7
 10
-3289.954626461302
 20
-859.6124799652029
 30
0.0
  0
VERTEX
  5
836
  8
回08-記事
  6
CONTINUOUS
 62
     7
 10
-3282.954626461302
 20
-859.6124799652029
 30
0.0
  0
VERTEX
  5
837
  8
回08-記事
  6
CONTINUOUS
 62
     7
 10
-3282.954626461302
 20
-1152.812479965202
 30
0.0
  0
VERTEX
  5
838
  8
回08-記事
  6
CONTINUOUS
 62
     7
 10
-3289.954626461302
 20
-1152.812479965202
 30
0.0
  0
SEQEND
  5
835
  8
0
  6
CONTINUOUS
 62
     7
  0
TEXT
  5
4CC
  8
回08-記事
  6
CONTINUOUS
 62
     7
 10
-3382.520619777454
 20
-875.9220297878657
 30
0.0
 40
3.0
  1
U14
  0
TEXT
  5
4CD
  8
回08-記事
  6
CONTINUOUS
 62
     7
 10
-3416.272875386426
 20
-875.9220297878657
 30
0.0
 40
3.0
  1
U13
  0
TEXT
  5
4CE
  8
回08-記事
  6
CONTINUOUS
 62
     7
 10
-3450.410512486776
 20
-875.9220297878657
 30
0.0
 40
3.0
  1
U12
  0
TEXT
  5
4CF
  8
回08-記事
  6
CONTINUOUS
 62
     7
 10
-3484.16276809575
 20
-875.9220297878657
 30
0.0
 40
3.0
  1
U11
  0
TEXT
  5
4D0
  8
回08-記事
  6
CONTINUOUS
 62
     7
 10
-3518.58944131463
 20
-875.9220297878657
 30
0.0
 40
3.0
  1
U10
  0
TEXT
  5
4D1
  8
回08-記事
  6
CONTINUOUS
 62
     7
 10
-3552.309160999961
 20
-875.9220297878657
 30
0.0
 40
3.0
  1
U9
  0
TEXT
  5
4D2
  8
回08-記事
  6
CONTINUOUS
 62
     7
 10
-3586.423205047104
 20
-875.9220297878657
 30
0.0
 40
3.0
  1
U8
  0
TEXT
  5
4D3
  8
回08-記事
  6
CONTINUOUS
 62
     7
 10
-3620.53789620587
 20
-875.9220297878657
 30
0.0
 40
3.0
  1
U7
  0
TEXT
  5
4D4
  8
回08-記事
  6
CONTINUOUS
 62
     7
 10
-3654.409093052492
 20
-875.9220297878657
 30
0.0
 40
3.0
  1
U6
  0
TEXT
  5
4D5
  8
回08-記事
  6
CONTINUOUS
 62
     7
 10
-3688.523073449314
 20
-875.9220297878657
 30
0.0
 40
3.0
  1
U5
  0
TEXT
  5
4D6
  8
回08-記事
  6
CONTINUOUS
 62
     7
 10
-3722.757512083158
 20
-875.9220297878657
 30
0.0
 40
3.0
  1
U4
  0
TEXT
  5
4D7
  8
回08-記事
  6
CONTINUOUS
 62
     7
 10
-3756.204065797255
 20
-875.9220297878657
 30
0.0
 40
3.0
  1
U3
  0
TEXT
  5
4D8
  8
回08-記事
  6
CONTINUOUS
 62
     7
 10
-3790.438048270448
 20
-875.9220297878657
 30
0.0
 40
3.0
  1
U2
  0
TEXT
  5
4D9
  8
回08-記事
  6
CONTINUOUS
 62
     7
 10
-3824.672030743642
 20
-875.9220297878657
 30
0.0
 40
3.0
  1
U1
  0
TEXT
  5
4DA
  8
回08-記事
  6
CONTINUOUS
 62
     7
 10
-3382.520619777454
 20
-1139.088596147179
 30
0.0
 40
3.0
  1
D14
  0
TEXT
  5
4DB
  8
回08-記事
  6
CONTINUOUS
 62
     7
 10
-3416.272875386426
 20
-1139.088596147179
 30
0.0
 40
3.0
  1
D13
  0
TEXT
  5
4DC
  8
回08-記事
  6
CONTINUOUS
 62
     7
 10
-3450.410512486776
 20
-1139.088596147179
 30
0.0
 40
3.0
  1
D12
  0
TEXT
  5
4DD
  8
回08-記事
  6
CONTINUOUS
 62
     7
 10
-3484.16276809575
 20
-1139.088596147179
 30
0.0
 40
3.0
  1
D11
  0
TEXT
  5
4DE
  8
回08-記事
  6
CONTINUOUS
 62
     7
 10
-3518.58944131463
 20
-1139.088596147179
 30
0.0
 40
3.0
  1
D10
  0
TEXT
  5
4DF
  8
回08-記事
  6
CONTINUOUS
 62
     7
 10
-3552.309160999961
 20
-1139.088596147179
 30
0.0
 40
3.0
  1
D9
  0
TEXT
  5
4E0
  8
回08-記事
  6
CONTINUOUS
 62
     7
 10
-3586.423205047104
 20
-1139.088596147179
 30
0.0
 40
3.0
  1
D8
  0
TEXT
  5
4E1
  8
回08-記事
  6
CONTINUOUS
 62
     7
 10
-3620.53789620587
 20
-1139.088596147179
 30
0.0
 40
3.0
  1
D7
  0
TEXT
  5
4E2
  8
回08-記事
  6
CONTINUOUS
 62
     7
 10
-3654.409093052492
 20
-1139.088596147179
 30
0.0
 40
3.0
  1
D6
  0
TEXT
  5
4E3
  8
回08-記事
  6
CONTINUOUS
 62
     7
 10
-3688.523073449314
 20
-1139.088596147179
 30
0.0
 40
3.0
  1
D5
  0
TEXT
  5
4E4
  8
回08-記事
  6
CONTINUOUS
 62
     7
 10
-3722.757512083158
 20
-1139.088596147179
 30
0.0
 40
3.0
  1
D4
  0
TEXT
  5
4E5
  8
回08-記事
  6
CONTINUOUS
 62
     7
 10
-3756.204065797255
 20
-1139.088596147179
 30
0.0
 40
3.0
  1
D3
  0
TEXT
  5
4E6
  8
回08-記事
  6
CONTINUOUS
 62
     7
 10
-3790.438048270448
 20
-1139.088596147179
 30
0.0
 40
3.0
  1
D2
  0
TEXT
  5
4E7
  8
回08-記事
  6
CONTINUOUS
 62
     7
 10
-3824.672030743642
 20
-1139.088596147179
 30
0.0
 40
3.0
  1
D1
  0
TEXT
  5
4E8
  8
回08-記事
  6
CONTINUOUS
 62
     7
 10
-3838.412350498983
 20
-1139.101759225877
 30
0.0
 40
3.0
  1
SDL
  0
POLYLINE
  5
4E9
  8
回04-下接
  6
CONTINUOUS
 62
     7
 66
     1
 10
0.0
 20
0.0
 30
0.0
 70
     1
  0
VERTEX
  5
839
  8
回04-下接
  6
CONTINUOUS
 62
     7
 10
-3851.188226590466
 20
-859.6124799652029
 30
0.0
  0
VERTEX
  5
83B
  8
回04-下接
  6
CONTINUOUS
 62
     7
 10
-3351.188226590466
 20
-859.6124799652029
 30
0.0
  0
VERTEX
  5
83C
  8
回04-下接
  6
CONTINUOUS
 62
     7
 10
-3351.188226590466
 20
-859.6124799652029
 30
0.0
  0
VERTEX
  5
83D
  8
回04-下接
  6
CONTINUOUS
 62
     7
 10
-3351.188226590466
 20
-1152.812479965202
 30
0.0
  0
VERTEX
  5
83E
  8
回04-下接
  6
CONTINUOUS
 62
     7
 10
-3351.188226590466
 20
-1152.812479965202
 30
0.0
  0
VERTEX
  5
83F
  8
回04-下接
  6
CONTINUOUS
 62
     7
 10
-3851.188226590466
 20
-1152.812479965202
 30
0.0
  0
VERTEX
  5
840
  8
回04-下接
  6
CONTINUOUS
 62
     7
 10
-3851.188226590466
 20
-1152.812479965202
 30
0.0
  0
VERTEX
  5
841
  8
回04-下接
  6
CONTINUOUS
 62
     7
 10
-3851.188226590466
 20
-859.6124799652038
 30
0.0
  0
SEQEND
  5
83A
  8
0
  6
CONTINUOUS
 62
     7
  0
POLYLINE
  5
4ED
  8
回08-記事
  6
CONTINUOUS
 62
     7
 66
     1
 10
0.0
 20
0.0
 30
0.0
 70
     1
  0
VERTEX
  5
842
  8
回08-記事
  6
CONTINUOUS
 62
     7
 10
-3841.508226590465
 20
-869.6574799652029
 30
0.0
  0
VERTEX
  5
844
  8
回08-記事
  6
CONTINUOUS
 62
     7
 10
-3360.868226590465
 20
-869.6574799652029
 30
0.0
  0
VERTEX
  5
845
  8
回08-記事
  6
CONTINUOUS
 62
     7
 10
-3360.868226590465
 20
-1141.767479965203
 30
0.0
  0
VERTEX
  5
846
  8
回08-記事
  6
CONTINUOUS
 62
     7
 10
-3841.508226590465
 20
-1141.767479965203
 30
0.0
  0
SEQEND
  5
843
  8
0
  6
CONTINUOUS
 62
     7
  0
POLYLINE
  5
4EE
  8
回08-記事
  6
CONTINUOUS
 62
     7
 66
     1
 10
0.0
 20
0.0
 30
0.0
 70
     1
  0
VERTEX
  5
847
  8
回08-記事
  6
CONTINUOUS
 62
     7
 10
-3839.508226590465
 20
-871.6574799652031
 30
0.0
  0
VERTEX
  5
849
  8
回08-記事
  6
CONTINUOUS
 62
     7
 10
-3362.868226590466
 20
-871.6574799652031
 30
0.0
  0
VERTEX
  5
84A
  8
回08-記事
  6
CONTINUOUS
 62
     7
 10
-3362.868226590466
 20
-1139.767479965203
 30
0.0
  0
VERTEX
  5
84B
  8
回08-記事
  6
CONTINUOUS
 62
     7
 10
-3839.508226590465
 20
-1139.767479965203
 30
0.0
  0
SEQEND
  5
848
  8
0
  6
CONTINUOUS
 62
     7
  0
LINE
  5
4EF
  8
回05-ﾃｰﾙ
  6
CONTINUOUS
 62
     7
 10
-3603.479994493831
 20
-1156.333062517982
 30
0.0
 11
-3606.645333371652
 21
-1159.498401395804
 31
0.0
  0
ARC
  5
4F1
  8
回05-ﾃｰﾙ
  6
CONTINUOUS
 62
     7
 10
-3625.438226590465
 20
-1170.203257546093
 30
0.0
 40
1.0
 50
0.0
 51
45.00000000001864
  0
LINE
  5
4F2
  8
回05-ﾃｰﾙ
  6
CONTINUOUS
 62
     7
 10
-3637.894208056204
 20
-1156.333062517982
 30
0.0
 11
-3624.731119809279
 21
-1169.496150764907
 31
0.0
  0
ARC
  5
4F3
  8
回05-ﾃｰﾙ
  6
CONTINUOUS
 62
     7
 10
-3637.187101275017
 20
-1155.625955736796
 30
0.0
 40
1.0
 50
180.0
 51
225.0000000000186
  0
LINE
  5
4F4
  8
回05-ﾃｰﾙ
  6
CONTINUOUS
 62
     7
 10
-3638.187101275017
 20
-1152.812479965202
 30
0.0
 11
-3638.187101275017
 21
-1155.625955736796
 31
0.0
  0
ARC
  5
4F5
  8
回05-ﾃｰﾙ
  6
CONTINUOUS
 62
     7
 10
-3604.187101275017
 20
-1155.625955736796
 30
0.0
 40
1.0
 50
314.9999999999814
 51
0.0
  0
LINE
  5
4F6
  8
回05-ﾃｰﾙ
  6
CONTINUOUS
 62
     7
 10
-3603.187101275017
 20
-1155.625955736796
 30
0.0
 11
-3603.187101275017
 21
-1152.812479965202
 31
0.0
  0
ARC
  5
4F7
  8
回05-ﾃｰﾙ
  6
CONTINUOUS
 62
     7
 10
-3623.938226590465
 20
-1251.908479965202
 30
0.0
 40
0.5
 50
180.0
 51
270.0
  0
LINE
  5
4F8
  8
回05-ﾃｰﾙ
  6
CONTINUOUS
 62
     7
 10
-3624.438226590465
 20
-1170.203257546093
 30
0.0
 11
-3624.438226590465
 21
-1251.908479965202
 31
0.0
  0
LINE
  5
4F9
  8
回05-ﾃｰﾙ
  6
CONTINUOUS
 62
     7
 10
-3623.938226590465
 20
-1252.408479965202
 30
0.0
 11
-3607.438226590466
 21
-1252.408479965202
 31
0.0
  0
ARC
  5
4FA
  8
回05-ﾃｰﾙ
  6
CONTINUOUS
 62
     7
 10
-3607.438226590466
 20
-1251.908479965202
 30
0.0
 40
0.5
 50
270.0
 51
0.0
  0
ARC
  5
4FB
  8
回05-ﾃｰﾙ
  6
CONTINUOUS
 62
     7
 10
-3605.938226590466
 20
-1160.20550817699
 30
0.0
 40
1.0
 50
134.9999999999814
 51
180.0
  0
LINE
  5
4FC
  8
回05-ﾃｰﾙ
  6
CONTINUOUS
 62
     7
 10
-3606.938226590465
 20
-1251.908479965202
 30
0.0
 11
-3606.938226590465
 21
-1160.20550817699
 31
0.0
  0
ARC
  5
4FD
  8
回05-ﾃｰﾙ
  6
CONTINUOUS
 62
     7
 10
-3580.938226590465
 20
-1163.133502132446
 30
0.0
 40
1.0
 50
134.9999999999814
 51
180.0
  0
LINE
  5
4FE
  8
回05-ﾃｰﾙ
  6
CONTINUOUS
 62
     7
 10
-3581.645333371652
 20
-1162.426395351259
 30
0.0
 11
-3575.479994493831
 21
-1156.261056473438
 31
0.0
  0
ARC
  5
4FF
  8
回05-ﾃｰﾙ
  6
CONTINUOUS
 62
     7
 10
-3596.438226590465
 20
-1163.131251501548
 30
0.0
 40
1.0
 50
0.0
 51
45.00000000001864
  0
LINE
  5
500
  8
回05-ﾃｰﾙ
  6
CONTINUOUS
 62
     7
 10
-3595.73111980928
 20
-1162.424144720362
 30
0.0
 11
-3601.894208056204
 21
-1156.261056473437
 31
0.0
  0
ARC
  5
501
  8
回05-ﾃｰﾙ
  6
CONTINUOUS
 62
     7
 10
-3601.187101275017
 20
-1155.553949692251
 30
0.0
 40
1.0
 50
180.0
 51
225.0000000000186
  0
LINE
  5
502
  8
回05-ﾃｰﾙ
  6
CONTINUOUS
 62
     7
 10
-3602.187101275017
 20
-1155.553949692251
 30
0.0
 11
-3602.187101275017
 21
-1152.812479965202
 31
0.0
  0
ARC
  5
503
  8
回05-ﾃｰﾙ
  6
CONTINUOUS
 62
     7
 10
-3576.187101275017
 20
-1155.553949692251
 30
0.0
 40
1.0
 50
314.9999999999814
 51
0.0
  0
LINE
  5
504
  8
回05-ﾃｰﾙ
  6
CONTINUOUS
 62
     7
 10
-3575.187101275017
 20
-1155.553949692251
 30
0.0
 11
-3575.187101275017
 21
-1152.812479965202
 31
0.0
  0
ARC
  5
505
  8
回05-ﾃｰﾙ
  6
CONTINUOUS
 62
     7
 10
-3594.938226590465
 20
-1251.908479965202
 30
0.0
 40
0.5
 50
180.0
 51
270.0
  0
LINE
  5
506
  8
回05-ﾃｰﾙ
  6
CONTINUOUS
 62
     7
 10
-3595.438226590465
 20
-1251.908479965202
 30
0.0
 11
-3595.438226590465
 21
-1163.131251501548
 31
0.0
  0
LINE
  5
507
  8
回05-ﾃｰﾙ
  6
CONTINUOUS
 62
     7
 10
-3594.938226590465
 20
-1252.408479965202
 30
0.0
 11
-3582.438226590465
 21
-1252.408479965202
 31
0.0
  0
ARC
  5
508
  8
回05-ﾃｰﾙ
  6
CONTINUOUS
 62
     7
 10
-3582.438226590465
 20
-1251.908479965203
 30
0.0
 40
0.5
 50
270.0
 51
0.0
  0
LINE
  5
509
  8
回05-ﾃｰﾙ
  6
CONTINUOUS
 62
     7
 10
-3581.938226590465
 20
-1251.908479965203
 30
0.0
 11
-3581.938226590465
 21
-1163.133502132446
 31
0.0
  0
POLYLINE
  5
50A
  8
回08-記事
  6
DASHED2
 62
     7
 66
     1
 10
0.0
 20
0.0
 30
0.0
 70
     1
1001
ACAD
1000
ASC_BOUNDS
1002
{
1070
    19
1005
50D
1002
}
  0
VERTEX
  5
84C
  8
回08-記事
  6
DASHED2
 62
     7
 10
-3601.687101275017
 20
-1155.944193665594
 30
0.0
  0
VERTEX
  5
84E
  8
回08-記事
  6
DASHED2
 62
     7
 10
-3575.687101275017
 20
-1155.944193665594
 30
0.0
  0
VERTEX
  5
84F
  8
回08-記事
  6
DASHED2
 62
     7
 10
-3575.687101275017
 20
-1148.744193665594
 30
0.0
  0
VERTEX
  5
850
  8
回08-記事
  6
DASHED2
 62
     7
 10
-3601.687101275017
 20
-1148.744193665594
 30
0.0
  0
SEQEND
  5
84D
  8
0
  6
CONTINUOUS
 62
     7
  0
POLYLINE
  5
50C
  8
回08-記事
  6
DASHED2
 62
     7
 66
     1
 10
0.0
 20
0.0
 30
0.0
 70
     1
1001
ACAD
1000
ASC_BOUNDS
1002
{
1070
    19
1005
50E
1002
}
  0
VERTEX
  5
851
  8
回08-記事
  6
DASHED2
 62
     7
 10
-3637.687101275017
 20
-1155.944193665594
 30
0.0
  0
VERTEX
  5
853
  8
回08-記事
  6
DASHED2
 62
     7
 10
-3603.687101275017
 20
-1155.944193665594
 30
0.0
  0
VERTEX
  5
854
  8
回08-記事
  6
DASHED2
 62
     7
 10
-3603.687101275017
 20
-1148.744193665594
 30
0.0
  0
VERTEX
  5
855
  8
回08-記事
  6
DASHED2
 62
     7
 10
-3637.687101275017
 20
-1148.744193665594
 30
0.0
  0
SEQEND
  5
852
  8
0
  6
CONTINUOUS
 62
     7
  0
INSERT
  5
50D
  8
回08-記事
  6
PHANTOM2
 62
     7
 66
     1
  2
*X85
 10
0.0
 20
0.0
 30
0.0
1001
GRADIENTCOLOR1ACI
1070
     5
1001
GRADIENTCOLOR2ACI
1070
     2
1001
ACAD
1010
0.0
1020
0.0
1030
0.0
  0
SEQEND
  5
868
  8
0
  6
CONTINUOUS
 62
     7
  0
INSERT
  5
50E
  8
回08-記事
  6
PHANTOM2
 62
     7
 66
     1
  2
*X86
 10
0.0
 20
0.0
 30
0.0
1001
GRADIENTCOLOR1ACI
1070
     5
1001
GRADIENTCOLOR2ACI
1070
     2
1001
ACAD
1010
0.0
1020
0.0
1030
0.0
  0
SEQEND
  5
87E
  8
0
  6
CONTINUOUS
 62
     7
  0
ENDSEC
  0
EOF
