  0
SECTION
  2
HEADER
  9
$ACADVER
  1
AC1009
  9
$INSBASE
 10
0.0
 20
0.0
 30
0.0
  9
$EXTMIN
 10
-529.4762593821124
 20
146.7905060490966
 30
0.0
  9
$EXTMAX
 10
553.5417733593804
 20
518.3557718234169
 30
0.0
  9
$LIMMIN
 10
0.0
 20
0.0
  9
$LIMMAX
 10
3000.0
 20
2500.0
  9
$ORTHOMODE
 70
     0
  9
$REGENMODE
 70
     1
  9
$FILLMODE
 70
     1
  9
$QTEXTMODE
 70
     0
  9
$MIRRTEXT
 70
     1
  9
$DRAGMODE
 70
     2
  9
$LTSCALE
 40
0.5
  9
$OSMODE
 70
    37
  9
$ATTMODE
 70
     1
  9
$TEXTSIZE
 40
3.0
  9
$TRACEWID
 40
1.0
  9
$TEXTSTYLE
  7
STANDARD
  9
$CLAYER
  8
回08-記事
  9
$CELTYPE
  6
CONTINUOUS
  9
$CECOLOR
 62
     7
  9
$DIMSCALE
 40
1.0
  9
$DIMASZ
 40
2.0
  9
$DIMEXO
 40
0.0
  9
$DIMDLI
 40
0.0
  9
$DIMRND
 40
0.0
  9
$DIMDLE
 40
0.0
  9
$DIMEXE
 40
1.0
  9
$DIMTP
 40
0.0
  9
$DIMTM
 40
0.0
  9
$DIMTXT
 40
3.0
  9
$DIMCEN
 40
2.0
  9
$DIMTSZ
 40
0.0
  9
$DIMTOL
 70
     0
  9
$DIMLIM
 70
     0
  9
$DIMTIH
 70
     0
  9
$DIMTOH
 70
     0
  9
$DIMSE1
 70
     0
  9
$DIMSE2
 70
     0
  9
$DIMTAD
 70
     3
  9
$DIMZIN
 70
     8
  9
$DIMBLK
  1
OPEN
  9
$DIMASO
 70
     1
  9
$DIMSHO
 70
     1
  9
$DIMPOST
  1

  9
$DIMAPOST
  1

  9
$DIMALT
 70
     1
  9
$DIMALTD
 70
     3
  9
$DIMALTF
 40
0.03937007874016
  9
$DIMLFAC
 40
1.0
  9
$DIMTOFL
 70
     1
  9
$DIMTVP
 40
0.0
  9
$DIMTIX
 70
     0
  9
$DIMSOXD
 70
     0
  9
$DIMSAH
 70
     0
  9
$DIMBLK1
  1

  9
$DIMBLK2
  1

  9
$DIMSTYLE
  2
DMC
  9
$DIMCLRD
 70
     5
  9
$DIMCLRE
 70
     5
  9
$DIMCLRT
 70
     5
  9
$DIMTFAC
 40
0.7
  9
$DIMGAP
 40
0.5
  9
$LUNITS
 70
     2
  9
$LUPREC
 70
     4
  9
$SKETCHINC
 40
1.0
  9
$FILLETRAD
 40
0.0
  9
$AUNITS
 70
     0
  9
$AUPREC
 70
     0
  9
$MENU
  1
.
  9
$ELEVATION
 40
0.0
  9
$PELEVATION
 40
0.0
  9
$THICKNESS
 40
0.0
  9
$LIMCHECK
 70
     0
  9
$BLIPMODE
 70
     0
  9
$CHAMFERA
 40
1.0
  9
$CHAMFERB
 40
1.0
  9
$SKPOLY
 70
     0
  9
$TDCREATE
 40
2451810.404221065
  9
$TDUPDATE
 40
2460224.583817593
  9
$TDINDWG
 40
3.807760868
  9
$TDUSRTIMER
 40
3.807760174
  9
$USRTIMER
 70
     1
  9
$ANGBASE
 50
0.0
  9
$ANGDIR
 70
     0
  9
$PDMODE
 70
     0
  9
$PDSIZE
 40
0.0
  9
$PLINEWID
 40
0.2
  9
$COORDS
 70
     0
  9
$SPLFRAME
 70
     0
  9
$SPLINETYPE
 70
     6
  9
$SPLINESEGS
 70
     8
  9
$ATTDIA
 70
     1
  9
$ATTREQ
 70
     1
  9
$HANDLING
 70
     1
  9
$HANDSEED
  5
484
  9
$SURFTAB1
 70
     6
  9
$SURFTAB2
 70
     6
  9
$SURFTYPE
 70
     6
  9
$SURFU
 70
     6
  9
$SURFV
 70
     6
  9
$UCSNAME
  2

  9
$UCSORG
 10
0.0
 20
0.0
 30
0.0
  9
$UCSXDIR
 10
1.0
 20
0.0
 30
0.0
  9
$UCSYDIR
 10
0.0
 20
1.0
 30
0.0
  9
$PUCSNAME
  2

  9
$PUCSORG
 10
0.0
 20
0.0
 30
0.0
  9
$PUCSXDIR
 10
1.0
 20
0.0
 30
0.0
  9
$PUCSYDIR
 10
0.0
 20
1.0
 30
0.0
  9
$USERI1
 70
     0
  9
$USERI2
 70
     0
  9
$USERI3
 70
     0
  9
$USERI4
 70
     0
  9
$USERI5
 70
     0
  9
$USERR1
 40
0.0
  9
$USERR2
 40
0.0
  9
$USERR3
 40
0.0
  9
$USERR4
 40
0.0
  9
$USERR5
 40
0.0
  9
$WORLDVIEW
 70
     1
  9
$SHADEDGE
 70
     3
  9
$SHADEDIF
 70
    70
  9
$TILEMODE
 70
     1
  9
$MAXACTVP
 70
    64
  9
$PLIMCHECK
 70
     0
  9
$PEXTMIN
 10
1.000000000000000E+20
 20
1.000000000000000E+20
 30
1.000000000000000E+20
  9
$PEXTMAX
 10
-1.000000000000000E+20
 20
-1.000000000000000E+20
 30
-1.000000000000000E+20
  9
$PLIMMIN
 10
0.0
 20
0.0
  9
$PLIMMAX
 10
420.0
 20
297.0
  9
$UNITMODE
 70
     0
  9
$VISRETAIN
 70
     1
  9
$PLINEGEN
 70
     0
  9
$PSLTSCALE
 70
     1
  0
ENDSEC
  0
SECTION
  2
TABLES
  0
TABLE
  2
VPORT
 70
     1
  0
VPORT
  2
*ACTIVE
 70
     0
 10
0.0
 20
0.0
 11
1.0
 21
1.0
 12
346.6903689380575
 22
307.0551004692639
 13
0.0
 23
0.0
 14
10.0
 24
10.0
 15
10.0
 25
10.0
 16
0.0
 26
0.0
 36
1.0
 17
0.0
 27
0.0
 37
0.0
 40
363.2727785338043
 41
2.216284987277353
 42
50.0
 43
0.0
 44
0.0
 50
0.0
 51
0.0
 71
     0
 72
   500
 73
     1
 74
     1
 75
     0
 76
     0
 77
     0
 78
     0
  0
ENDTAB
  0
TABLE
  2
LTYPE
 70
     3
  0
LTYPE
  2
CONTINUOUS
 70
     0
  3
Solid line
 72
    65
 73
     0
 40
0.0
  0
LTYPE
  2
DASHED2
 70
     0
  3
Dashed (.5x) _ _ _ _ _ _ _ _ _ _ _ _ _ _ _ _ _
 72
    65
 73
     2
 40
9.524999999999998
 49
6.349999999999999
 49
-3.174999999999999
  0
LTYPE
  2
CENTER2
 70
     0
  3
Center (.5x) ___ _ ___ _ ___ _ ___ _ ___ _ ___
 72
    65
 73
     4
 40
28.575
 49
19.05
 49
-3.174999999999999
 49
3.174999999999999
 49
-3.174999999999999
  0
ENDTAB
  0
TABLE
  2
LAYER
 70
    12
  0
LAYER
  2
0
 70
     0
 62
     7
  6
CONTINUOUS
  0
LAYER
  2
DEFPOINTS
 70
     0
 62
     7
  6
CONTINUOUS
  0
LAYER
  2
回04-下接
 70
     0
 62
     7
  6
CONTINUOUS
  0
LAYER
  2
回08-記事
 70
     0
 62
     7
  6
CONTINUOUS
  0
LAYER
  2
回90-枠3
 70
     0
 62
     7
  6
CONTINUOUS
  0
LAYER
  2
AV_AREA
 70
     0
 62
     7
  6
CONTINUOUS
  0
LAYER
  2
ACC
 70
     0
 62
     7
  6
CONTINUOUS
  0
LAYER
  2
GLASS
 70
     0
 62
     7
  6
CONTINUOUS
  0
LAYER
  2
FPC
 70
     0
 62
     7
  6
CONTINUOUS
  0
LAYER
  2
回07-寸法
 70
     0
 62
     7
  6
CONTINUOUS
  0
LAYER
  2
回91-枠英3
 70
     0
 62
     7
  6
CONTINUOUS
  0
LAYER
  2
回03-記事
 70
     0
 62
     7
  6
CONTINUOUS
  0
ENDTAB
  0
TABLE
  2
STYLE
 70
     1
  0
STYLE
  2
STANDARD
 70
     0
 40
3.0
 41
1.0
 50
0.0
 71
     0
 42
3.0
  3
isocp.shx
  4
bigfont.shx
  0
ENDTAB
  0
TABLE
  2
VIEW
 70
     0
  0
ENDTAB
  0
TABLE
  2
UCS
 70
     0
  0
ENDTAB
  0
TABLE
  2
APPID
 70
     3
  0
APPID
  2
ACAD
 70
     0
  0
APPID
  2
ACAECLAYERSTANDARD
 70
     0
  0
APPID
  2
ACAD_NAV_VCDISPLAY
 70
     0
  0
ENDTAB
  0
TABLE
  2
DIMSTYLE
 70
     1
  0
DIMSTYLE
  2
DMC
 70
     0
  3

  4

  5
OPEN
  6

  7

 40
1.0
 41
2.0
 42
0.0
 43
0.0
 44
1.0
 45
0.0
 46
0.0
 47
0.0
 48
0.0
140
3.0
141
2.0
142
0.0
143
0.03937007874016
144
1.0
145
0.0
146
0.7
147
0.5
 71
     0
 72
     0
 73
     0
 74
     0
 75
     0
 76
     0
 77
     3
 78
     8
170
     0
171
     3
172
     1
173
     0
174
     0
175
     0
176
     5
177
     5
178
     5
  0
ENDTAB
  0
ENDSEC
  0
SECTION
  2
BLOCKS
  0
BLOCK
  8
0
  2
$MODEL_SPACE
 70
     0
 10
0.0
 20
0.0
 30
0.0
  3
$MODEL_SPACE
  1

  0
ENDBLK
  8
0
  5
20
  0
BLOCK
 67
     1
  8
0
  2
$PAPER_SPACE
 70
     0
 10
0.0
 20
0.0
 30
0.0
  3
$PAPER_SPACE
  1

  0
ENDBLK
  5
25
 67
     1
  8
0
  0
BLOCK
  8
0
  2
_OPEN
 70
     0
 10
0.0
 20
0.0
 30
0.0
  3
_OPEN
  1

  0
LINE
  5
14
  8
0
  6
CONTINUOUS
 62
     0
 10
-1.0
 20
0.1666666666666666
 30
0.0
 11
0.0
 21
0.0
 31
0.0
  0
LINE
  5
15
  8
0
  6
CONTINUOUS
 62
     0
 10
-1.0
 20
-0.1666666666666666
 30
0.0
 11
0.0
 21
0.0
 31
0.0
  0
LINE
  5
16
  8
0
  6
CONTINUOUS
 62
     0
 10
0.0
 20
0.0
 30
0.0
 11
-1.0
 21
0.0
 31
0.0
  0
ENDBLK
  5
17
  8
0
  0
BLOCK
  8
0
  2
*D1
 70
     1
 10
0.0
 20
0.0
 30
0.0
  3
*D1
  1

  0
LINE
  5
A5
  8
回07-寸法
  6
CONTINUOUS
 62
     5
 10
509.0277383844352
 20
271.0445860977126
 30
0.0
 11
486.4314396954434
 21
271.0445860977126
 31
0.0
  0
LINE
  5
A6
  8
回07-寸法
  6
CONTINUOUS
 62
     5
 10
509.0277383844352
 20
251.0445860977119
 30
0.0
 11
486.4314396954434
 21
251.0445860977119
 31
0.0
  0
LINE
  5
A7
  8
回07-寸法
  6
CONTINUOUS
 62
     5
 10
487.4314396954434
 20
273.0445860977126
 30
0.0
 11
487.4314396954434
 21
275.0445860977126
 31
0.0
  0
LINE
  5
A8
  8
回07-寸法
  6
CONTINUOUS
 62
     5
 10
487.4314396954434
 20
249.0445860977119
 30
0.0
 11
487.4314396954434
 21
221.5334931062291
 31
0.0
  0
LINE
  5
A9
  8
回07-寸法
  6
CONTINUOUS
 62
     5
 10
487.4314396954434
 20
271.0445860977126
 30
0.0
 11
487.4314396954434
 21
251.0445860977119
 31
0.0
  0
INSERT
  5
AA
  8
回07-寸法
  6
CONTINUOUS
 62
     5
 66
     1
  2
_OPEN
 10
487.4314396954434
 20
271.0445860977126
 30
0.0
 41
2.0
 42
2.0
 43
2.0
 50
270.0
  0
SEQEND
  5
AB
  8
回08-記事
  6
CONTINUOUS
 62
     7
  0
INSERT
  5
AC
  8
回07-寸法
  6
CONTINUOUS
 62
     5
 66
     1
  2
_OPEN
 10
487.4314396954434
 20
251.0445860977119
 30
0.0
 41
2.0
 42
2.0
 43
2.0
 50
90.0
  0
SEQEND
  5
AD
  8
回08-記事
  6
CONTINUOUS
 62
     7
  0
INSERT
  5
AE
  8
回07-寸法
  6
CONTINUOUS
 62
     5
 66
     1
  2
*X46
 10
0.0
 20
0.0
 30
0.0
  0
SEQEND
  5
425
  8
回08-記事
  6
CONTINUOUS
 62
     7
  0
POINT
  5
AF
  8
DEFPOINTS
  6
CONTINUOUS
 62
     0
 10
509.0277383844352
 20
271.0445860977126
 30
0.0
  0
POINT
  5
B0
  8
DEFPOINTS
  6
CONTINUOUS
 62
     0
 10
509.0277383844352
 20
251.0445860977119
 30
0.0
  0
POINT
  5
B1
  8
DEFPOINTS
  6
CONTINUOUS
 62
     0
 10
487.4314396954434
 20
251.0445860977119
 30
0.0
  0
ENDBLK
  5
B2
  8
0
 62
     7
  0
BLOCK
  8
0
  2
*D2
 70
     1
 10
0.0
 20
0.0
 30
0.0
  3
*D2
  1

  0
LINE
  5
94
  8
回07-寸法
  6
CONTINUOUS
 62
     5
 10
507.0277383844352
 20
267.0445860977125
 30
0.0
 11
492.6449257976196
 21
267.0445860977125
 31
0.0
  0
LINE
  5
95
  8
回07-寸法
  6
CONTINUOUS
 62
     5
 10
507.0277383844352
 20
255.0445860977126
 30
0.0
 11
492.6449257976196
 21
255.0445860977126
 31
0.0
  0
LINE
  5
96
  8
回07-寸法
  6
CONTINUOUS
 62
     5
 10
493.6449257976197
 20
269.0445860977126
 30
0.0
 11
493.6449257976197
 21
271.0445860977126
 31
0.0
  0
LINE
  5
97
  8
回07-寸法
  6
CONTINUOUS
 62
     5
 10
493.6449257976197
 20
253.0445860977126
 30
0.0
 11
493.6449257976197
 21
236.1945860977126
 31
0.0
  0
LINE
  5
98
  8
回07-寸法
  6
CONTINUOUS
 62
     5
 10
493.6449257976197
 20
267.0445860977125
 30
0.0
 11
493.6449257976197
 21
255.0445860977126
 31
0.0
  0
INSERT
  5
99
  8
回07-寸法
  6
CONTINUOUS
 62
     5
 66
     1
  2
_OPEN
 10
493.6449257976197
 20
267.0445860977125
 30
0.0
 41
2.0
 42
2.0
 43
2.0
 50
270.0
  0
SEQEND
  5
9A
  8
回08-記事
  6
CONTINUOUS
 62
     7
  0
INSERT
  5
9B
  8
回07-寸法
  6
CONTINUOUS
 62
     5
 66
     1
  2
_OPEN
 10
493.6449257976197
 20
255.0445860977126
 30
0.0
 41
2.0
 42
2.0
 43
2.0
 50
90.0
  0
SEQEND
  5
9C
  8
回08-記事
  6
CONTINUOUS
 62
     7
  0
TEXT
  5
9D
  8
回07-寸法
  6
CONTINUOUS
 62
     5
 10
492.9949257976196
 20
236.2445860977124
 30
0.0
 40
3.0
  1
3[0.118]
 50
90.0
1001
ACAD
1000
MTEXTBEGIN
1070
    73
1070
     1
1070
    44
1040
1.0
1070
    74
1070
     0
1000
MTEXTEND
  0
POINT
  5
9E
  8
DEFPOINTS
  6
CONTINUOUS
 62
     0
 10
507.0277383844352
 20
267.0445860977125
 30
0.0
  0
POINT
  5
9F
  8
DEFPOINTS
  6
CONTINUOUS
 62
     0
 10
507.0277383844352
 20
255.0445860977126
 30
0.0
  0
POINT
  5
A0
  8
DEFPOINTS
  6
CONTINUOUS
 62
     0
 10
493.6449257976197
 20
255.0445860977126
 30
0.0
  0
ENDBLK
  5
A1
  8
0
 62
     7
  0
BLOCK
  8
0
  2
*D3
 70
     1
 10
0.0
 20
0.0
 30
0.0
  3
*D3
  1

  0
LINE
  5
83
  8
回07-寸法
  6
CONTINUOUS
 62
     5
 10
507.0277383844352
 20
255.0445860977126
 30
0.0
 11
498.7966454292965
 21
255.0445860977126
 31
0.0
  0
LINE
  5
84
  8
回07-寸法
  6
CONTINUOUS
 62
     5
 10
507.0277383844352
 20
259.0445860977126
 30
0.0
 11
498.7966454292965
 21
259.0445860977126
 31
0.0
  0
LINE
  5
85
  8
回07-寸法
  6
CONTINUOUS
 62
     5
 10
499.7966454292964
 20
261.0445860977126
 30
0.0
 11
499.7966454292964
 21
263.0445860977125
 31
0.0
  0
LINE
  5
86
  8
回07-寸法
  6
CONTINUOUS
 62
     5
 10
499.7966454292964
 20
253.0445860977126
 30
0.0
 11
499.7966454292964
 21
235.870043015878
 31
0.0
  0
LINE
  5
87
  8
回07-寸法
  6
CONTINUOUS
 62
     5
 10
499.7966454292964
 20
259.0445860977126
 30
0.0
 11
499.7966454292964
 21
255.0445860977126
 31
0.0
  0
INSERT
  5
88
  8
回07-寸法
  6
CONTINUOUS
 62
     5
 66
     1
  2
_OPEN
 10
499.7966454292964
 20
259.0445860977126
 30
0.0
 41
2.0
 42
2.0
 43
2.0
 50
270.0
  0
SEQEND
  5
89
  8
回08-記事
  6
CONTINUOUS
 62
     7
  0
INSERT
  5
8A
  8
回07-寸法
  6
CONTINUOUS
 62
     5
 66
     1
  2
_OPEN
 10
499.7966454292964
 20
255.0445860977126
 30
0.0
 41
2.0
 42
2.0
 43
2.0
 50
90.0
  0
SEQEND
  5
8B
  8
回08-記事
  6
CONTINUOUS
 62
     7
  0
TEXT
  5
8C
  8
回07-寸法
  6
CONTINUOUS
 62
     5
 10
499.1467053353987
 20
235.9198689588288
 30
0.0
 40
3.0
  1
1[0.039]
 50
90.0
1001
ACAD
1000
MTEXTBEGIN
1070
    73
1070
     1
1070
    44
1040
1.0
1070
    74
1070
     0
1000
MTEXTEND
  0
POINT
  5
8D
  8
DEFPOINTS
  6
CONTINUOUS
 62
     0
 10
507.0277383844352
 20
255.0445860977126
 30
0.0
  0
POINT
  5
8E
  8
DEFPOINTS
  6
CONTINUOUS
 62
     0
 10
507.0277383844352
 20
259.0445860977126
 30
0.0
  0
POINT
  5
8F
  8
DEFPOINTS
  6
CONTINUOUS
 62
     0
 10
499.7966454292964
 20
259.0445860977126
 30
0.0
  0
ENDBLK
  5
90
  8
0
 62
     7
  0
BLOCK
  8
0
  2
*D4
 70
     1
 10
0.0
 20
0.0
 30
0.0
  3
*D4
  1

  0
LINE
  5
68
  8
回08-記事
  6
CONTINUOUS
 62
     5
 10
507.0277383844352
 20
256.2445860977125
 30
0.0
 11
503.7702670874534
 21
256.2445860977125
 31
0.0
  0
LINE
  5
69
  8
回08-記事
  6
CONTINUOUS
 62
     5
 10
507.0277383844352
 20
253.8445860977125
 30
0.0
 11
503.7702670874534
 21
253.8445860977125
 31
0.0
  0
LINE
  5
6A
  8
回08-記事
  6
CONTINUOUS
 62
     5
 10
504.7702670874534
 20
258.2445860977125
 30
0.0
 11
504.7702670874534
 21
260.2445860977125
 31
0.0
  0
LINE
  5
6B
  8
回08-記事
  6
CONTINUOUS
 62
     5
 10
504.7702670874534
 20
251.8445860977125
 30
0.0
 11
504.7702670874534
 21
232.6422238929882
 31
0.0
  0
LINE
  5
6C
  8
回08-記事
  6
CONTINUOUS
 62
     5
 10
504.7702670874534
 20
256.2445860977125
 30
0.0
 11
504.7702670874534
 21
253.8445860977125
 31
0.0
  0
INSERT
  5
6D
  8
回08-記事
  6
CONTINUOUS
 62
     5
 66
     1
  2
_OPEN
 10
504.7702670874534
 20
256.2445860977125
 30
0.0
 41
2.0
 42
2.0
 43
2.0
 50
270.0
  0
SEQEND
  5
6E
  8
回08-記事
  6
CONTINUOUS
 62
     7
  0
INSERT
  5
6F
  8
回08-記事
  6
CONTINUOUS
 62
     5
 66
     1
  2
_OPEN
 10
504.7702670874534
 20
253.8445860977125
 30
0.0
 41
2.0
 42
2.0
 43
2.0
 50
90.0
  0
SEQEND
  5
70
  8
回08-記事
  6
CONTINUOUS
 62
     7
  0
TEXT
  5
71
  8
回08-記事
  6
CONTINUOUS
 62
     5
 10
504.1202670874533
 20
232.6945860977124
 30
0.0
 40
3.0
  1
0.6[0.024]
 50
90.0
1001
ACAD
1000
MTEXTBEGIN
1070
    73
1070
     1
1070
    44
1040
1.0
1070
    74
1070
     0
1000
MTEXTEND
  0
POINT
  5
72
  8
DEFPOINTS
  6
CONTINUOUS
 62
     0
 10
507.0277383844352
 20
256.2445860977125
 30
0.0
  0
POINT
  5
74
  8
DEFPOINTS
  6
CONTINUOUS
 62
     0
 10
507.0277383844352
 20
253.8445860977125
 30
0.0
  0
POINT
  5
75
  8
DEFPOINTS
  6
CONTINUOUS
 62
     0
 10
504.7702670874534
 20
253.8445860977125
 30
0.0
  0
ENDBLK
  5
76
  8
0
 62
     7
  0
BLOCK
  8
0
  2
*D5
 70
     1
 10
0.0
 20
0.0
 30
0.0
  3
*D5
  1

  0
LINE
  5
302
  8
回07-寸法
  6
CONTINUOUS
 62
     5
 10
209.7081066334487
 20
261.7121464127324
 30
0.0
 11
200.2803714592601
 21
261.7121464127324
 31
0.0
  0
LINE
  5
303
  8
回07-寸法
  6
CONTINUOUS
 62
     5
 10
209.7081066334487
 20
258.8121464127324
 30
0.0
 11
200.2803714592601
 21
258.8121464127324
 31
0.0
  0
LINE
  5
304
  8
回07-寸法
  6
CONTINUOUS
 62
     5
 10
201.28037145926
 20
256.8121464127324
 30
0.0
 11
201.28037145926
 21
254.8121464127324
 31
0.0
  0
LINE
  5
305
  8
回07-寸法
  6
CONTINUOUS
 62
     5
 10
201.28037145926
 20
263.7121464127324
 30
0.0
 11
201.28037145926
 21
296.8152486174568
 31
0.0
  0
LINE
  5
306
  8
回07-寸法
  6
CONTINUOUS
 62
     5
 10
201.28037145926
 20
258.8121464127324
 30
0.0
 11
201.28037145926
 21
261.7121464127324
 31
0.0
  0
INSERT
  5
307
  8
回07-寸法
  6
CONTINUOUS
 62
     5
  2
_OPEN
 10
201.28037145926
 20
258.8121464127324
 30
0.0
 41
2.0
 42
2.0
 43
2.0
 50
90.0
  0
INSERT
  5
308
  8
回07-寸法
  6
CONTINUOUS
 62
     5
  2
_OPEN
 10
201.28037145926
 20
261.7121464127324
 30
0.0
 41
2.0
 42
2.0
 43
2.0
 50
270.0
  0
INSERT
  5
309
  8
回07-寸法
  6
CONTINUOUS
 62
     5
 66
     1
  2
*X47
 10
0.0
 20
0.0
 30
0.0
  0
SEQEND
  5
42E
  8
回08-記事
  6
CONTINUOUS
 62
     7
  0
POINT
  5
30A
  8
DEFPOINTS
  6
CONTINUOUS
 62
     0
 10
209.7081066334487
 20
261.7121464127324
 30
0.0
  0
POINT
  5
30B
  8
DEFPOINTS
  6
CONTINUOUS
 62
     0
 10
209.7081066334487
 20
258.8121464127324
 30
0.0
  0
POINT
  5
30C
  8
DEFPOINTS
  6
CONTINUOUS
 62
     0
 10
201.28037145926
 20
258.8121464127324
 30
0.0
  0
ENDBLK
  5
30D
  8
0
 62
     7
  0
BLOCK
  8
0
  2
*D6
 70
     1
 10
0.0
 20
0.0
 30
0.0
  3
*D6
  1

  0
LINE
  5
2F3
  8
回07-寸法
  6
CONTINUOUS
 62
     5
 10
209.7081066334486
 20
258.8121464127323
 30
0.0
 11
209.7081066334486
 21
245.6993931264411
 31
0.0
  0
LINE
  5
2F4
  8
回07-寸法
  6
CONTINUOUS
 62
     5
 10
214.7081066334486
 20
258.3121464127323
 30
0.0
 11
214.7081066334486
 21
245.6993931264411
 31
0.0
  0
LINE
  5
2F5
  8
回07-寸法
  6
CONTINUOUS
 62
     5
 10
207.7081066334486
 20
246.6993931264411
 30
0.0
 11
205.7081066334486
 21
246.6993931264411
 31
0.0
  0
LINE
  5
2F6
  8
回07-寸法
  6
CONTINUOUS
 62
     5
 10
216.7081066334486
 20
246.6993931264411
 30
0.0
 11
233.8185896249314
 21
246.6993931264411
 31
0.0
  0
LINE
  5
2F7
  8
回07-寸法
  6
CONTINUOUS
 62
     5
 10
209.7081066334486
 20
246.6993931264411
 30
0.0
 11
214.7081066334486
 21
246.6993931264411
 31
0.0
  0
INSERT
  5
2F8
  8
回07-寸法
  6
CONTINUOUS
 62
     5
  2
_OPEN
 10
209.7081066334486
 20
246.6993931264411
 30
0.0
 41
2.0
 42
2.0
 43
2.0
  0
INSERT
  5
2F9
  8
回07-寸法
  6
CONTINUOUS
 62
     5
  2
_OPEN
 10
214.7081066334486
 20
246.6993931264411
 30
0.0
 41
2.0
 42
2.0
 43
2.0
 50
180.0
  0
TEXT
  5
2FA
  8
回07-寸法
  6
CONTINUOUS
 62
     5
 10
218.7579325763996
 20
247.3493332203388
 30
0.0
 40
3.0
  1
5 [0.197]
1001
ACAD
1000
MTEXTBEGIN
1070
    73
1070
     1
1070
    44
1040
1.0
1070
    74
1070
     0
1000
MTEXTEND
  0
POINT
  5
2FB
  8
DEFPOINTS
  6
CONTINUOUS
 62
     0
 10
209.7081066334486
 20
258.8121464127323
 30
0.0
  0
POINT
  5
2FC
  8
DEFPOINTS
  6
CONTINUOUS
 62
     0
 10
214.7081066334486
 20
258.3121464127323
 30
0.0
  0
POINT
  5
2FD
  8
DEFPOINTS
  6
CONTINUOUS
 62
     0
 10
214.7081066334486
 20
246.6993931264411
 30
0.0
  0
ENDBLK
  5
2FE
  8
0
 62
     7
  0
BLOCK
  8
0
  2
*D7
 70
     1
 10
0.0
 20
0.0
 30
0.0
  3
*D7
  1

  0
LINE
  5
2E4
  8
回07-寸法
  6
CONTINUOUS
 62
     5
 10
209.7081066334486
 20
261.7121464127323
 30
0.0
 11
209.7081066334486
 21
276.6921285194985
 31
0.0
  0
LINE
  5
2E5
  8
回07-寸法
  6
CONTINUOUS
 62
     5
 10
219.7081066334486
 20
261.7121464127323
 30
0.0
 11
219.7081066334486
 21
276.6921285194985
 31
0.0
  0
LINE
  5
2E6
  8
回07-寸法
  6
CONTINUOUS
 62
     5
 10
207.7081066334486
 20
275.6921285194985
 30
0.0
 11
205.7081066334486
 21
275.6921285194985
 31
0.0
  0
LINE
  5
2E7
  8
回07-寸法
  6
CONTINUOUS
 62
     5
 10
221.7081066334486
 20
275.6921285194985
 30
0.0
 11
243.616227420207
 21
275.6921285194985
 31
0.0
  0
LINE
  5
2E8
  8
回07-寸法
  6
CONTINUOUS
 62
     5
 10
209.7081066334486
 20
275.6921285194985
 30
0.0
 11
219.7081066334486
 21
275.6921285194985
 31
0.0
  0
INSERT
  5
2E9
  8
回07-寸法
  6
CONTINUOUS
 62
     5
  2
_OPEN
 10
209.7081066334486
 20
275.6921285194985
 30
0.0
 41
2.0
 42
2.0
 43
2.0
  0
INSERT
  5
2EA
  8
回07-寸法
  6
CONTINUOUS
 62
     5
  2
_OPEN
 10
219.7081066334486
 20
275.6921285194985
 30
0.0
 41
2.0
 42
2.0
 43
2.0
 50
180.0
  0
TEXT
  5
2EB
  8
回07-寸法
  6
CONTINUOUS
 62
     5
 10
223.7567514740374
 20
276.3420686133962
 30
0.0
 40
3.0
  1
(10 [0.394])
1001
ACAD
1000
MTEXTBEGIN
1070
    73
1070
     1
1070
    44
1040
1.0
1070
    74
1070
     0
1000
MTEXTEND
  0
POINT
  5
2EC
  8
DEFPOINTS
  6
CONTINUOUS
 62
     0
 10
209.7081066334486
 20
261.7121464127323
 30
0.0
  0
POINT
  5
2ED
  8
DEFPOINTS
  6
CONTINUOUS
 62
     0
 10
219.7081066334486
 20
261.7121464127323
 30
0.0
  0
POINT
  5
2EE
  8
DEFPOINTS
  6
CONTINUOUS
 62
     0
 10
219.7081066334486
 20
275.6921285194985
 30
0.0
  0
ENDBLK
  5
2EF
  8
0
 62
     7
  0
BLOCK
  8
0
  2
*D8
 70
     1
 10
0.0
 20
0.0
 30
0.0
  3
*D8
  1

  0
LINE
  5
2D5
  8
回07-寸法
  6
CONTINUOUS
 62
     5
 10
420.6081066334486
 20
262.6121464127324
 30
0.0
 11
429.8393631676179
 21
262.6121464127324
 31
0.0
  0
LINE
  5
2D6
  8
回07-寸法
  6
CONTINUOUS
 62
     5
 10
421.1081066334485
 20
255.8121464127324
 30
0.0
 11
429.8393631676179
 21
255.8121464127324
 31
0.0
  0
LINE
  5
2D7
  8
回07-寸法
  6
CONTINUOUS
 62
     5
 10
428.8393631676179
 20
264.6121464127324
 30
0.0
 11
428.8393631676179
 21
266.6121464127324
 31
0.0
  0
LINE
  5
2D8
  8
回07-寸法
  6
CONTINUOUS
 62
     5
 10
428.8393631676179
 20
253.8121464127324
 30
0.0
 11
428.8393631676179
 21
221.8114764127324
 31
0.0
  0
LINE
  5
2D9
  8
回07-寸法
  6
CONTINUOUS
 62
     5
 10
428.8393631676179
 20
262.6121464127324
 30
0.0
 11
428.8393631676179
 21
255.8121464127324
 31
0.0
  0
INSERT
  5
2DA
  8
回07-寸法
  6
CONTINUOUS
 62
     5
  2
_OPEN
 10
428.8393631676179
 20
262.6121464127324
 30
0.0
 41
2.0
 42
2.0
 43
2.0
 50
270.0
  0
INSERT
  5
2DB
  8
回07-寸法
  6
CONTINUOUS
 62
     5
  2
_OPEN
 10
428.8393631676179
 20
255.8121464127324
 30
0.0
 41
2.0
 42
2.0
 43
2.0
 50
90.0
  0
INSERT
  5
2DC
  8
回07-寸法
  6
CONTINUOUS
 62
     5
 66
     1
  2
*X48
 10
0.0
 20
0.0
 30
0.0
  0
SEQEND
  5
437
  8
回08-記事
  6
CONTINUOUS
 62
     7
  0
POINT
  5
2DD
  8
DEFPOINTS
  6
CONTINUOUS
 62
     0
 10
420.6081066334486
 20
262.6121464127324
 30
0.0
  0
POINT
  5
2DE
  8
DEFPOINTS
  6
CONTINUOUS
 62
     0
 10
421.1081066334485
 20
255.8121464127324
 30
0.0
  0
POINT
  5
2DF
  8
DEFPOINTS
  6
CONTINUOUS
 62
     0
 10
428.8393631676179
 20
255.8121464127324
 30
0.0
  0
ENDBLK
  5
2E0
  8
0
 62
     7
  0
BLOCK
  8
0
  2
*D9
 70
     1
 10
0.0
 20
0.0
 30
0.0
  3
*D9
  1

  0
LINE
  5
2C6
  8
回07-寸法
  6
CONTINUOUS
 62
     5
 10
421.1081066334483
 20
258.8121464127323
 30
0.0
 11
421.1081066334483
 21
275.7520573602196
 31
0.0
  0
LINE
  5
2C7
  8
回07-寸法
  6
CONTINUOUS
 62
     5
 10
420.6081066334483
 20
262.6121464127323
 30
0.0
 11
420.6081066334483
 21
275.7520573602196
 31
0.0
  0
LINE
  5
2C8
  8
回07-寸法
  6
CONTINUOUS
 62
     5
 10
423.1081066334483
 20
274.7520573602196
 30
0.0
 11
425.1081066334483
 21
274.7520573602196
 31
0.0
  0
LINE
  5
2C9
  8
回07-寸法
  6
CONTINUOUS
 62
     5
 10
418.6081066334484
 20
274.7520573602196
 30
0.0
 11
395.5104688381728
 21
274.7520573602196
 31
0.0
  0
LINE
  5
2CA
  8
回07-寸法
  6
CONTINUOUS
 62
     5
 10
421.1081066334483
 20
274.7520573602196
 30
0.0
 11
420.6081066334483
 21
274.7520573602196
 31
0.0
  0
INSERT
  5
2CB
  8
回07-寸法
  6
CONTINUOUS
 62
     5
  2
_OPEN
 10
421.1081066334483
 20
274.7520573602196
 30
0.0
 41
2.0
 42
2.0
 43
2.0
 50
180.0
  0
INSERT
  5
2CC
  8
回07-寸法
  6
CONTINUOUS
 62
     5
  2
_OPEN
 10
420.6081066334483
 20
274.7520573602196
 30
0.0
 41
2.0
 42
2.0
 43
2.0
  0
TEXT
  5
2CD
  8
回07-寸法
  6
CONTINUOUS
 62
     5
 10
395.5592877358106
 20
275.4020573602196
 30
0.0
 40
3.0
  1
(0.5 [0.020])
1001
ACAD
1000
MTEXTBEGIN
1070
    73
1070
     1
1070
    44
1040
1.0
1070
    74
1070
     0
1000
MTEXTEND
  0
POINT
  5
2CE
  8
DEFPOINTS
  6
CONTINUOUS
 62
     0
 10
421.1081066334483
 20
258.8121464127323
 30
0.0
  0
POINT
  5
2CF
  8
DEFPOINTS
  6
CONTINUOUS
 62
     0
 10
420.6081066334483
 20
262.6121464127323
 30
0.0
  0
POINT
  5
2D0
  8
DEFPOINTS
  6
CONTINUOUS
 62
     0
 10
420.6081066334483
 20
274.7520573602196
 30
0.0
  0
ENDBLK
  5
2D1
  8
0
 62
     7
  0
BLOCK
  8
0
  2
*D10
 70
     1
 10
0.0
 20
0.0
 30
0.0
  3
*D10
  1

  0
LINE
  5
117
  8
回07-寸法
  6
CONTINUOUS
 62
     5
 10
214.7081066334483
 20
346.7058790307165
 30
0.0
 11
214.7081066334483
 21
376.4325938480183
 31
0.0
  0
LINE
  5
118
  8
回07-寸法
  6
CONTINUOUS
 62
     5
 10
289.7081066334483
 20
355.3830033751841
 30
0.0
 11
289.7081066334483
 21
376.4325938480183
 31
0.0
  0
LINE
  5
119
  8
回07-寸法
  6
CONTINUOUS
 62
     5
 10
216.7081066334483
 20
375.4325938480183
 30
0.0
 11
287.7081066334483
 21
375.4325938480183
 31
0.0
  0
INSERT
  5
11A
  8
回07-寸法
  6
CONTINUOUS
 62
     5
  2
_OPEN
 10
214.7081066334483
 20
375.4325938480183
 30
0.0
 41
2.0
 42
2.0
 43
2.0
 50
180.0
  0
INSERT
  5
11B
  8
回07-寸法
  6
CONTINUOUS
 62
     5
  2
_OPEN
 10
289.7081066334483
 20
375.4325938480183
 30
0.0
 41
2.0
 42
2.0
 43
2.0
  0
INSERT
  5
11C
  8
回07-寸法
  6
CONTINUOUS
 62
     5
 66
     1
  2
*X49
 10
0.0
 20
0.0
 30
0.0
  0
SEQEND
  5
440
  8
回08-記事
  6
CONTINUOUS
 62
     7
  0
POINT
  5
11D
  8
DEFPOINTS
  6
CONTINUOUS
 62
     0
 10
214.7081066334483
 20
346.7058790307165
 30
0.0
  0
POINT
  5
11E
  8
DEFPOINTS
  6
CONTINUOUS
 62
     0
 10
289.7081066334483
 20
355.3830033751841
 30
0.0
  0
POINT
  5
11F
  8
DEFPOINTS
  6
CONTINUOUS
 62
     0
 10
289.7081066334483
 20
375.4325938480183
 30
0.0
  0
ENDBLK
  5
120
  8
0
 62
     7
  0
BLOCK
  8
0
  2
*D11
 70
     1
 10
0.0
 20
0.0
 30
0.0
  3
*D11
  1

  0
LINE
  5
108
  8
回07-寸法
  6
CONTINUOUS
 62
     5
 10
285.1388249199418
 20
354.6302373898709
 30
0.0
 11
285.1388249199418
 21
363.1058067270362
 31
0.0
  0
LINE
  5
109
  8
回07-寸法
  6
CONTINUOUS
 62
     5
 10
289.7081066334483
 20
355.3830033751841
 30
0.0
 11
289.7081066334483
 21
363.1058067270362
 31
0.0
  0
LINE
  5
10A
  8
回07-寸法
  6
CONTINUOUS
 62
     5
 10
291.7081066334483
 20
362.1058067270362
 30
0.0
 11
293.7081066334483
 21
362.1058067270362
 31
0.0
  0
LINE
  5
10B
  8
回07-寸法
  6
CONTINUOUS
 62
     5
 10
283.1388249199418
 20
362.1058067270362
 30
0.0
 11
256.8388249199418
 21
362.1058067270362
 31
0.0
  0
LINE
  5
10C
  8
回07-寸法
  6
CONTINUOUS
 62
     5
 10
289.7081066334483
 20
362.1058067270362
 30
0.0
 11
285.1388249199418
 21
362.1058067270362
 31
0.0
  0
INSERT
  5
10D
  8
回07-寸法
  6
CONTINUOUS
 62
     5
  2
_OPEN
 10
289.7081066334483
 20
362.1058067270362
 30
0.0
 41
2.0
 42
2.0
 43
2.0
 50
180.0
  0
INSERT
  5
10E
  8
回07-寸法
  6
CONTINUOUS
 62
     5
  2
_OPEN
 10
285.1388249199418
 20
362.1058067270362
 30
0.0
 41
2.0
 42
2.0
 43
2.0
  0
TEXT
  5
10F
  8
回07-寸法
  6
CONTINUOUS
 62
     5
 10
256.8888249199418
 20
362.7558067270362
 30
0.0
 40
3.0
  1
4.57 [0.180]
1001
ACAD
1000
MTEXTBEGIN
1070
    73
1070
     1
1070
    44
1040
1.0
1070
    74
1070
     0
1000
MTEXTEND
  0
POINT
  5
110
  8
DEFPOINTS
  6
CONTINUOUS
 62
     0
 10
285.1388249199418
 20
354.6302373898709
 30
0.0
  0
POINT
  5
111
  8
DEFPOINTS
  6
CONTINUOUS
 62
     0
 10
289.7081066334483
 20
355.3830033751841
 30
0.0
  0
POINT
  5
112
  8
DEFPOINTS
  6
CONTINUOUS
 62
     0
 10
289.7081066334483
 20
362.1058067270362
 30
0.0
  0
ENDBLK
  5
113
  8
0
 62
     7
  0
BLOCK
  8
0
  2
*D12
 70
     1
 10
0.0
 20
0.0
 30
0.0
  3
*D12
  1

  0
LINE
  5
F9
  8
回07-寸法
  6
CONTINUOUS
 62
     5
 10
279.553595526228
 20
349.2816101626932
 30
0.0
 11
279.553595526228
 21
369.4986734225979
 31
0.0
  0
LINE
  5
FA
  8
回07-寸法
  6
CONTINUOUS
 62
     5
 10
289.7081066334483
 20
355.3830033751841
 30
0.0
 11
289.7081066334483
 21
369.4986734225979
 31
0.0
  0
LINE
  5
FB
  8
回07-寸法
  6
CONTINUOUS
 62
     5
 10
291.7081066334483
 20
368.4986734225979
 30
0.0
 11
293.7081066334483
 21
368.4986734225979
 31
0.0
  0
LINE
  5
FC
  8
回07-寸法
  6
CONTINUOUS
 62
     5
 10
277.553595526228
 20
368.4986734225979
 30
0.0
 11
253.553595526228
 21
368.4986734225979
 31
0.0
  0
LINE
  5
FD
  8
回07-寸法
  6
CONTINUOUS
 62
     5
 10
289.7081066334483
 20
368.4986734225979
 30
0.0
 11
279.553595526228
 21
368.4986734225979
 31
0.0
  0
INSERT
  5
FE
  8
回07-寸法
  6
CONTINUOUS
 62
     5
  2
_OPEN
 10
289.7081066334483
 20
368.4986734225979
 30
0.0
 41
2.0
 42
2.0
 43
2.0
 50
180.0
  0
INSERT
  5
FF
  8
回07-寸法
  6
CONTINUOUS
 62
     5
  2
_OPEN
 10
279.553595526228
 20
368.4986734225979
 30
0.0
 41
2.0
 42
2.0
 43
2.0
  0
TEXT
  5
100
  8
回07-寸法
  6
CONTINUOUS
 62
     5
 10
253.603595526228
 20
369.1486734225979
 30
0.0
 40
3.0
  1
10.15 [0.400]
1001
ACAD
1000
MTEXTBEGIN
1070
    73
1070
     1
1070
    44
1040
1.0
1070
    74
1070
     0
1000
MTEXTEND
  0
POINT
  5
101
  8
DEFPOINTS
  6
CONTINUOUS
 62
     0
 10
279.553595526228
 20
349.2816101626932
 30
0.0
  0
POINT
  5
102
  8
DEFPOINTS
  6
CONTINUOUS
 62
     0
 10
289.7081066334483
 20
355.3830033751841
 30
0.0
  0
POINT
  5
103
  8
DEFPOINTS
  6
CONTINUOUS
 62
     0
 10
289.7081066334483
 20
368.4986734225979
 30
0.0
  0
ENDBLK
  5
104
  8
0
 62
     7
  0
BLOCK
  8
0
  2
*D13
 70
     1
 10
0.0
 20
0.0
 30
0.0
  3
*D13
  1

  0
LINE
  5
EA
  8
回07-寸法
  6
CONTINUOUS
 62
     5
 10
285.5203503107888
 20
354.7058790307167
 30
0.0
 11
265.0722831058173
 21
354.7058790307167
 31
0.0
  0
LINE
  5
EB
  8
回07-寸法
  6
CONTINUOUS
 62
     5
 10
285.5203503107888
 20
338.705879030716
 30
0.0
 11
265.0722831058173
 21
338.705879030716
 31
0.0
  0
LINE
  5
EC
  8
回07-寸法
  6
CONTINUOUS
 62
     5
 10
266.0722831058174
 20
356.7058790307167
 30
0.0
 11
266.0722831058174
 21
358.7058790307167
 31
0.0
  0
LINE
  5
ED
  8
回07-寸法
  6
CONTINUOUS
 62
     5
 10
266.0722831058174
 20
336.705879030716
 30
0.0
 11
266.0722831058174
 21
317.5058790307159
 31
0.0
  0
LINE
  5
EE
  8
回07-寸法
  6
CONTINUOUS
 62
     5
 10
266.0722831058174
 20
354.7058790307167
 30
0.0
 11
266.0722831058174
 21
338.705879030716
 31
0.0
  0
INSERT
  5
EF
  8
回07-寸法
  6
CONTINUOUS
 62
     5
  2
_OPEN
 10
266.0722831058174
 20
354.7058790307167
 30
0.0
 41
2.0
 42
2.0
 43
2.0
 50
270.0
  0
INSERT
  5
F0
  8
回07-寸法
  6
CONTINUOUS
 62
     5
  2
_OPEN
 10
266.0722831058174
 20
338.705879030716
 30
0.0
 41
2.0
 42
2.0
 43
2.0
 50
90.0
  0
TEXT
  5
F1
  8
回07-寸法
  6
CONTINUOUS
 62
     5
 10
265.4222831058174
 20
317.5558790307158
 30
0.0
 40
3.0
  1
16 [0.630]
 50
90.0
1001
ACAD
1000
MTEXTBEGIN
1070
    73
1070
     1
1070
    44
1040
1.0
1070
    74
1070
     0
1000
MTEXTEND
  0
POINT
  5
F2
  8
DEFPOINTS
  6
CONTINUOUS
 62
     0
 10
285.5203503107888
 20
354.7058790307167
 30
0.0
  0
POINT
  5
F3
  8
DEFPOINTS
  6
CONTINUOUS
 62
     0
 10
285.5203503107888
 20
338.705879030716
 30
0.0
  0
POINT
  5
F4
  8
DEFPOINTS
  6
CONTINUOUS
 62
     0
 10
266.0722831058174
 20
338.705879030716
 30
0.0
  0
ENDBLK
  5
F5
  8
0
 62
     7
  0
BLOCK
  8
0
  2
*D14
 70
     1
 10
0.0
 20
0.0
 30
0.0
  3
*D14
  1

  0
LINE
  5
DD
  8
回07-寸法
  6
CONTINUOUS
 62
     5
 10
289.7081066334484
 20
297.6558790307162
 30
0.0
 11
203.9225538388108
 21
297.6558790307162
 31
0.0
  0
LINE
  5
DE
  8
回07-寸法
  6
CONTINUOUS
 62
     5
 10
212.7081066334485
 20
346.7058790307166
 30
0.0
 11
203.9225538388107
 21
346.7058790307166
 31
0.0
  0
LINE
  5
DF
  8
回07-寸法
  6
CONTINUOUS
 62
     5
 10
204.9225538388108
 20
299.6558790307162
 30
0.0
 11
204.9225538388108
 21
344.7058790307166
 31
0.0
  0
INSERT
  5
E0
  8
回07-寸法
  6
CONTINUOUS
 62
     5
  2
_OPEN
 10
204.9225538388108
 20
297.6558790307162
 30
0.0
 41
2.0
 42
2.0
 43
2.0
 50
270.0
  0
INSERT
  5
E1
  8
回07-寸法
  6
CONTINUOUS
 62
     5
  2
_OPEN
 10
204.9225538388108
 20
346.7058790307166
 30
0.0
 41
2.0
 42
2.0
 43
2.0
 50
90.0
  0
TEXT
  5
E2
  8
回07-寸法
  6
CONTINUOUS
 62
     5
 10
204.2718887063836
 20
310.0200479251353
 30
0.0
 40
3.0
  1
(49.05 [1.931])
 50
90.0
1001
ACAD
1000
MTEXTBEGIN
1070
    73
1070
     1
1070
    44
1040
1.0
1070
    74
1070
     0
1000
MTEXTEND
  0
POINT
  5
E3
  8
DEFPOINTS
  6
CONTINUOUS
 62
     0
 10
289.7081066334484
 20
297.6558790307162
 30
0.0
  0
POINT
  5
E4
  8
DEFPOINTS
  6
CONTINUOUS
 62
     0
 10
212.7081066334485
 20
346.7058790307166
 30
0.0
  0
POINT
  5
E5
  8
DEFPOINTS
  6
CONTINUOUS
 62
     0
 10
204.9225538388108
 20
346.7058790307166
 30
0.0
  0
ENDBLK
  5
E6
  8
0
 62
     7
  0
BLOCK
  8
0
  2
*D15
 70
     1
 10
0.0
 20
0.0
 30
0.0
  3
*D15
  1

  0
LINE
  5
C8
  8
回07-寸法
  6
CONTINUOUS
 62
     5
 10
215.2081066334484
 20
349.2058790307166
 30
0.0
 11
196.7205544391998
 21
349.2058790307166
 31
0.0
  0
LINE
  5
C9
  8
回07-寸法
  6
CONTINUOUS
 62
     5
 10
215.2081066334485
 20
344.2058790307165
 30
0.0
 11
196.7205544391998
 21
344.2058790307165
 31
0.0
  0
LINE
  5
CA
  8
回07-寸法
  6
CONTINUOUS
 62
     5
 10
197.7205544391998
 20
342.2058790307165
 30
0.0
 11
197.7205544391998
 21
340.2058790307165
 31
0.0
  0
LINE
  5
CB
  8
回07-寸法
  6
CONTINUOUS
 62
     5
 10
197.7205544391998
 20
351.2058790307166
 30
0.0
 11
197.7205544391998
 21
382.1763620221993
 31
0.0
  0
LINE
  5
CC
  8
回07-寸法
  6
CONTINUOUS
 62
     5
 10
197.7205544391998
 20
344.2058790307165
 30
0.0
 11
197.7205544391998
 21
349.2058790307166
 31
0.0
  0
INSERT
  5
CD
  8
回07-寸法
  6
CONTINUOUS
 62
     5
  2
_OPEN
 10
197.7205544391998
 20
344.2058790307165
 30
0.0
 41
2.0
 42
2.0
 43
2.0
 50
90.0
  0
INSERT
  5
CE
  8
回07-寸法
  6
CONTINUOUS
 62
     5
  2
_OPEN
 10
197.7205544391998
 20
349.2058790307166
 30
0.0
 41
2.0
 42
2.0
 43
2.0
 50
270.0
  0
INSERT
  5
CF
  8
回07-寸法
  6
CONTINUOUS
 62
     5
 66
     1
  2
*X50
 10
0.0
 20
0.0
 30
0.0
  0
SEQEND
  5
449
  8
回08-記事
  6
CONTINUOUS
 62
     7
  0
POINT
  5
D0
  8
DEFPOINTS
  6
CONTINUOUS
 62
     0
 10
215.2081066334484
 20
349.2058790307166
 30
0.0
  0
POINT
  5
D1
  8
DEFPOINTS
  6
CONTINUOUS
 62
     0
 10
215.2081066334485
 20
344.2058790307165
 30
0.0
  0
POINT
  5
D2
  8
DEFPOINTS
  6
CONTINUOUS
 62
     0
 10
197.7205544391998
 20
344.2058790307165
 30
0.0
  0
ENDBLK
  5
D3
  8
0
 62
     7
  0
BLOCK
  8
0
  2
*D16
 70
     1
 10
0.0
 20
0.0
 30
0.0
  3
*D16
  1

  0
LINE
  5
276
  8
回07-寸法
  6
CONTINUOUS
 62
     5
 10
289.7081066334484
 20
258.8121464127323
 30
0.0
 11
289.7081066334484
 21
270.7165443047072
 31
0.0
  0
LINE
  5
277
  8
回07-寸法
  6
CONTINUOUS
 62
     5
 10
290.2081066334485
 20
262.6121464127323
 30
0.0
 11
290.2081066334485
 21
270.7165443047072
 31
0.0
  0
LINE
  5
278
  8
回07-寸法
  6
CONTINUOUS
 62
     5
 10
287.7081066334484
 20
269.7165443047072
 30
0.0
 11
285.7081066334484
 21
269.7165443047072
 31
0.0
  0
LINE
  5
279
  8
回07-寸法
  6
CONTINUOUS
 62
     5
 10
292.2081066334484
 20
269.7165443047072
 30
0.0
 11
315.305744428724
 21
269.7165443047072
 31
0.0
  0
LINE
  5
27A
  8
回07-寸法
  6
CONTINUOUS
 62
     5
 10
289.7081066334484
 20
269.7165443047072
 30
0.0
 11
290.2081066334485
 21
269.7165443047072
 31
0.0
  0
INSERT
  5
27B
  8
回07-寸法
  6
CONTINUOUS
 62
     5
  2
_OPEN
 10
289.7081066334484
 20
269.7165443047072
 30
0.0
 41
2.0
 42
2.0
 43
2.0
  0
INSERT
  5
27C
  8
回07-寸法
  6
CONTINUOUS
 62
     5
  2
_OPEN
 10
290.2081066334485
 20
269.7165443047072
 30
0.0
 41
2.0
 42
2.0
 43
2.0
 50
180.0
  0
TEXT
  5
27D
  8
回07-寸法
  6
CONTINUOUS
 62
     5
 10
294.2569255310862
 20
270.3665443047072
 30
0.0
 40
3.0
  1
(0.5 [0.020])
1001
ACAD
1000
MTEXTBEGIN
1070
    73
1070
     1
1070
    44
1040
1.0
1070
    74
1070
     0
1000
MTEXTEND
  0
POINT
  5
27E
  8
DEFPOINTS
  6
CONTINUOUS
 62
     0
 10
289.7081066334484
 20
258.8121464127323
 30
0.0
  0
POINT
  5
27F
  8
DEFPOINTS
  6
CONTINUOUS
 62
     0
 10
290.2081066334485
 20
262.6121464127323
 30
0.0
  0
POINT
  5
280
  8
DEFPOINTS
  6
CONTINUOUS
 62
     0
 10
290.2081066334485
 20
269.7165443047072
 30
0.0
  0
ENDBLK
  5
281
  8
0
 62
     7
  0
BLOCK
  8
0
  2
*D17
 70
     1
 10
0.0
 20
0.0
 30
0.0
  3
*D17
  1

  0
LINE
  5
25C
  8
回07-寸法
  6
CONTINUOUS
 62
     5
 10
289.7081066334483
 20
400.655879030716
 30
0.0
 11
289.7081066334483
 21
441.1190729529161
 31
0.0
  0
LINE
  5
25D
  8
回07-寸法
  6
CONTINUOUS
 62
     5
 10
421.1081066334482
 20
400.655879030716
 30
0.0
 11
421.1081066334482
 21
441.1190729529161
 31
0.0
  0
LINE
  5
25E
  8
回07-寸法
  6
CONTINUOUS
 62
     5
 10
291.7081066334483
 20
440.1190729529162
 30
0.0
 11
419.1081066334483
 21
440.1190729529162
 31
0.0
  0
INSERT
  5
25F
  8
回07-寸法
  6
CONTINUOUS
 62
     5
  2
_OPEN
 10
289.7081066334483
 20
440.1190729529162
 30
0.0
 41
2.0
 42
2.0
 43
2.0
 50
180.0
  0
INSERT
  5
260
  8
回07-寸法
  6
CONTINUOUS
 62
     5
  2
_OPEN
 10
421.1081066334482
 20
440.1190729529162
 30
0.0
 41
2.0
 42
2.0
 43
2.0
  0
INSERT
  5
261
  8
回07-寸法
  6
CONTINUOUS
 62
     5
 66
     1
  2
*X51
 10
0.0
 20
0.0
 30
0.0
  0
SEQEND
  5
452
  8
回08-記事
  6
CONTINUOUS
 62
     7
  0
POINT
  5
262
  8
DEFPOINTS
  6
CONTINUOUS
 62
     0
 10
289.7081066334483
 20
400.655879030716
 30
0.0
  0
POINT
  5
263
  8
DEFPOINTS
  6
CONTINUOUS
 62
     0
 10
421.1081066334482
 20
400.655879030716
 30
0.0
  0
POINT
  5
264
  8
DEFPOINTS
  6
CONTINUOUS
 62
     0
 10
421.1081066334482
 20
440.1190729529162
 30
0.0
  0
ENDBLK
  5
265
  8
0
 62
     7
  0
BLOCK
  8
0
  2
*D18
 70
     1
 10
0.0
 20
0.0
 30
0.0
  3
*D18
  1

  0
LINE
  5
24D
  8
回07-寸法
  6
CONTINUOUS
 62
     5
 10
298.1081066334483
 20
392.455879030716
 30
0.0
 11
298.1081066334483
 21
434.4602517138391
 31
0.0
  0
LINE
  5
24E
  8
回07-寸法
  6
CONTINUOUS
 62
     5
 10
289.7081066334483
 20
400.655879030716
 30
0.0
 11
289.7081066334483
 21
434.4602517138391
 31
0.0
  0
LINE
  5
24F
  8
回07-寸法
  6
CONTINUOUS
 62
     5
 10
300.1081066334483
 20
433.4602517138391
 30
0.0
 11
302.1081066334483
 21
433.4602517138391
 31
0.0
  0
LINE
  5
250
  8
回07-寸法
  6
CONTINUOUS
 62
     5
 10
287.7081066334483
 20
433.4602517138391
 30
0.0
 11
243.7577390743932
 21
433.4602517138391
 31
0.0
  0
LINE
  5
251
  8
回07-寸法
  6
CONTINUOUS
 62
     5
 10
298.1081066334483
 20
433.4602517138391
 30
0.0
 11
289.7081066334483
 21
433.4602517138391
 31
0.0
  0
INSERT
  5
252
  8
回07-寸法
  6
CONTINUOUS
 62
     5
  2
_OPEN
 10
298.1081066334483
 20
433.4602517138391
 30
0.0
 41
2.0
 42
2.0
 43
2.0
 50
180.0
  0
INSERT
  5
253
  8
回07-寸法
  6
CONTINUOUS
 62
     5
  2
_OPEN
 10
289.7081066334483
 20
433.4602517138391
 30
0.0
 41
2.0
 42
2.0
 43
2.0
  0
INSERT
  5
254
  8
回07-寸法
  6
CONTINUOUS
 62
     5
 66
     1
  2
*X52
 10
0.0
 20
0.0
 30
0.0
  0
SEQEND
  5
458
  8
回08-記事
  6
CONTINUOUS
 62
     7
  0
POINT
  5
255
  8
DEFPOINTS
  6
CONTINUOUS
 62
     0
 10
298.1081066334483
 20
392.455879030716
 30
0.0
  0
POINT
  5
256
  8
DEFPOINTS
  6
CONTINUOUS
 62
     0
 10
289.7081066334483
 20
400.655879030716
 30
0.0
  0
POINT
  5
257
  8
DEFPOINTS
  6
CONTINUOUS
 62
     0
 10
289.7081066334483
 20
433.4602517138391
 30
0.0
  0
ENDBLK
  5
258
  8
0
 62
     7
  0
BLOCK
  8
0
  2
*D19
 70
     1
 10
0.0
 20
0.0
 30
0.0
  3
*D19
  1

  0
LINE
  5
240
  8
回07-寸法
  6
CONTINUOUS
 62
     5
 10
298.1081066334483
 20
392.455879030716
 30
0.0
 11
298.1081066334483
 21
434.4602517138391
 31
0.0
  0
LINE
  5
241
  8
回07-寸法
  6
CONTINUOUS
 62
     5
 10
417.5081066334483
 20
392.455879030716
 30
0.0
 11
417.5081066334483
 21
434.4602517138391
 31
0.0
  0
LINE
  5
242
  8
回07-寸法
  6
CONTINUOUS
 62
     5
 10
300.1081066334483
 20
433.4602517138391
 30
0.0
 11
415.5081066334482
 21
433.4602517138391
 31
0.0
  0
INSERT
  5
243
  8
回07-寸法
  6
CONTINUOUS
 62
     5
  2
_OPEN
 10
298.1081066334483
 20
433.4602517138391
 30
0.0
 41
2.0
 42
2.0
 43
2.0
 50
180.0
  0
INSERT
  5
244
  8
回07-寸法
  6
CONTINUOUS
 62
     5
  2
_OPEN
 10
417.5081066334483
 20
433.4602517138391
 30
0.0
 41
2.0
 42
2.0
 43
2.0
  0
TEXT
  5
245
  8
回07-寸法
  6
CONTINUOUS
 62
     5
 10
347.0026910806578
 20
434.1102517138391
 30
0.0
 40
3.0
  1
119.4 [4.701]
1001
ACAD
1000
MTEXTBEGIN
1070
    73
1070
     1
1070
    44
1040
1.0
1070
    74
1070
     0
1000
MTEXTEND
  0
POINT
  5
246
  8
DEFPOINTS
  6
CONTINUOUS
 62
     0
 10
298.1081066334483
 20
392.455879030716
 30
0.0
  0
POINT
  5
247
  8
DEFPOINTS
  6
CONTINUOUS
 62
     0
 10
417.5081066334483
 20
392.455879030716
 30
0.0
  0
POINT
  5
248
  8
DEFPOINTS
  6
CONTINUOUS
 62
     0
 10
417.5081066334483
 20
433.4602517138391
 30
0.0
  0
ENDBLK
  5
249
  8
0
 62
     7
  0
BLOCK
  8
0
  2
*D20
 70
     1
 10
0.0
 20
0.0
 30
0.0
  3
*D20
  1

  0
LINE
  5
231
  8
回07-寸法
  6
CONTINUOUS
 62
     5
 10
298.6081066334483
 20
391.6558790307161
 30
0.0
 11
298.6081066334483
 21
423.1960618022663
 31
0.0
  0
LINE
  5
232
  8
回07-寸法
  6
CONTINUOUS
 62
     5
 10
289.7081066334483
 20
400.655879030716
 30
0.0
 11
289.7081066334483
 21
423.1960618022663
 31
0.0
  0
LINE
  5
233
  8
回07-寸法
  6
CONTINUOUS
 62
     5
 10
300.6081066334483
 20
422.1960618022662
 30
0.0
 11
302.6081066334483
 21
422.1960618022662
 31
0.0
  0
LINE
  5
234
  8
回07-寸法
  6
CONTINUOUS
 62
     5
 10
287.7081066334483
 20
422.1960618022662
 30
0.0
 11
266.9976236419655
 21
422.1960618022662
 31
0.0
  0
LINE
  5
235
  8
回07-寸法
  6
CONTINUOUS
 62
     5
 10
298.6081066334483
 20
422.1960618022662
 30
0.0
 11
289.7081066334483
 21
422.1960618022662
 31
0.0
  0
INSERT
  5
236
  8
回07-寸法
  6
CONTINUOUS
 62
     5
  2
_OPEN
 10
298.6081066334483
 20
422.1960618022662
 30
0.0
 41
2.0
 42
2.0
 43
2.0
 50
180.0
  0
INSERT
  5
237
  8
回07-寸法
  6
CONTINUOUS
 62
     5
  2
_OPEN
 10
289.7081066334483
 20
422.1960618022662
 30
0.0
 41
2.0
 42
2.0
 43
2.0
  0
TEXT
  5
238
  8
回07-寸法
  6
CONTINUOUS
 62
     5
 10
267.0474495849164
 20
422.8460618022662
 30
0.0
 40
3.0
  1
8.9 [0.350]
1001
ACAD
1000
MTEXTBEGIN
1070
    73
1070
     1
1070
    44
1040
1.0
1070
    74
1070
     0
1000
MTEXTEND
  0
POINT
  5
239
  8
DEFPOINTS
  6
CONTINUOUS
 62
     0
 10
298.6081066334483
 20
391.6558790307161
 30
0.0
  0
POINT
  5
23A
  8
DEFPOINTS
  6
CONTINUOUS
 62
     0
 10
289.7081066334483
 20
400.655879030716
 30
0.0
  0
POINT
  5
23B
  8
DEFPOINTS
  6
CONTINUOUS
 62
     0
 10
289.7081066334483
 20
422.1960618022662
 30
0.0
  0
ENDBLK
  5
23C
  8
0
 62
     7
  0
BLOCK
  8
0
  2
*D21
 70
     1
 10
0.0
 20
0.0
 30
0.0
  3
*D21
  1

  0
LINE
  5
224
  8
回07-寸法
  6
CONTINUOUS
 62
     5
 10
298.6081066334483
 20
391.6558790307161
 30
0.0
 11
298.6081066334483
 21
423.1960618022663
 31
0.0
  0
LINE
  5
225
  8
回07-寸法
  6
CONTINUOUS
 62
     5
 10
417.0081066334482
 20
391.6558790307161
 30
0.0
 11
417.0081066334482
 21
423.1960618022663
 31
0.0
  0
LINE
  5
226
  8
回07-寸法
  6
CONTINUOUS
 62
     5
 10
300.6081066334483
 20
422.1960618022662
 30
0.0
 11
415.0081066334482
 21
422.1960618022662
 31
0.0
  0
INSERT
  5
227
  8
回07-寸法
  6
CONTINUOUS
 62
     5
  2
_OPEN
 10
298.6081066334483
 20
422.1960618022662
 30
0.0
 41
2.0
 42
2.0
 43
2.0
 50
180.0
  0
INSERT
  5
228
  8
回07-寸法
  6
CONTINUOUS
 62
     5
  2
_OPEN
 10
417.0081066334482
 20
422.1960618022662
 30
0.0
 41
2.0
 42
2.0
 43
2.0
  0
TEXT
  5
229
  8
回07-寸法
  6
CONTINUOUS
 62
     5
 10
332.6086971846294
 20
422.8460618022662
 30
0.0
 40
3.0
  1
118.4 [4.661](VIEWING AREA)
1001
ACAD
1000
MTEXTBEGIN
1070
    73
1070
     1
1070
    44
1040
1.0
1070
    74
1070
     0
1000
MTEXTEND
  0
POINT
  5
22A
  8
DEFPOINTS
  6
CONTINUOUS
 62
     0
 10
298.6081066334483
 20
391.6558790307161
 30
0.0
  0
POINT
  5
22B
  8
DEFPOINTS
  6
CONTINUOUS
 62
     0
 10
417.0081066334482
 20
391.6558790307161
 30
0.0
  0
POINT
  5
22C
  8
DEFPOINTS
  6
CONTINUOUS
 62
     0
 10
417.0081066334482
 20
422.1960618022662
 30
0.0
  0
ENDBLK
  5
22D
  8
0
 62
     7
  0
BLOCK
  8
0
  2
*D22
 70
     1
 10
0.0
 20
0.0
 30
0.0
  3
*D22
  1

  0
LINE
  5
215
  8
回07-寸法
  6
CONTINUOUS
 62
     5
 10
299.6081066334483
 20
390.655879030716
 30
0.0
 11
299.6081066334483
 21
414.3296038944786
 31
0.0
  0
LINE
  5
216
  8
回07-寸法
  6
CONTINUOUS
 62
     5
 10
289.7081066334483
 20
400.655879030716
 30
0.0
 11
289.7081066334483
 21
414.3296038944786
 31
0.0
  0
LINE
  5
217
  8
回07-寸法
  6
CONTINUOUS
 62
     5
 10
301.6081066334483
 20
413.3296038944786
 30
0.0
 11
303.6081066334483
 21
413.3296038944786
 31
0.0
  0
LINE
  5
218
  8
回07-寸法
  6
CONTINUOUS
 62
     5
 10
287.7081066334483
 20
413.3296038944786
 30
0.0
 11
266.8628765817707
 21
413.3296038944786
 31
0.0
  0
LINE
  5
219
  8
回07-寸法
  6
CONTINUOUS
 62
     5
 10
299.6081066334483
 20
413.3296038944786
 30
0.0
 11
289.7081066334483
 21
413.3296038944786
 31
0.0
  0
INSERT
  5
21A
  8
回07-寸法
  6
CONTINUOUS
 62
     5
  2
_OPEN
 10
299.6081066334483
 20
413.3296038944786
 30
0.0
 41
2.0
 42
2.0
 43
2.0
 50
180.0
  0
INSERT
  5
21B
  8
回07-寸法
  6
CONTINUOUS
 62
     5
  2
_OPEN
 10
289.7081066334483
 20
413.3296038944786
 30
0.0
 41
2.0
 42
2.0
 43
2.0
  0
TEXT
  5
21C
  8
回07-寸法
  6
CONTINUOUS
 62
     5
 10
266.9638293964476
 20
413.9795439883762
 30
0.0
 40
3.0
  1
9.9 [0.390]
1001
ACAD
1000
MTEXTBEGIN
1070
    73
1070
     1
1070
    44
1040
1.0
1070
    74
1070
     0
1000
MTEXTEND
  0
POINT
  5
21D
  8
DEFPOINTS
  6
CONTINUOUS
 62
     0
 10
299.6081066334483
 20
390.655879030716
 30
0.0
  0
POINT
  5
21E
  8
DEFPOINTS
  6
CONTINUOUS
 62
     0
 10
289.7081066334483
 20
400.655879030716
 30
0.0
  0
POINT
  5
21F
  8
DEFPOINTS
  6
CONTINUOUS
 62
     0
 10
289.7081066334483
 20
413.3296038944786
 30
0.0
  0
ENDBLK
  5
220
  8
0
 62
     7
  0
BLOCK
  8
0
  2
*D23
 70
     1
 10
0.0
 20
0.0
 30
0.0
  3
*D23
  1

  0
LINE
  5
208
  8
回07-寸法
  6
CONTINUOUS
 62
     5
 10
299.6081066334483
 20
390.655879030716
 30
0.0
 11
299.6081066334483
 21
414.3296038944786
 31
0.0
  0
LINE
  5
209
  8
回07-寸法
  6
CONTINUOUS
 62
     5
 10
416.0081066334482
 20
390.655879030716
 30
0.0
 11
416.0081066334482
 21
414.3296038944786
 31
0.0
  0
LINE
  5
20A
  8
回07-寸法
  6
CONTINUOUS
 62
     5
 10
301.6081066334483
 20
413.3296038944786
 30
0.0
 11
414.0081066334483
 21
413.3296038944786
 31
0.0
  0
INSERT
  5
20B
  8
回07-寸法
  6
CONTINUOUS
 62
     5
  2
_OPEN
 10
299.6081066334483
 20
413.3296038944786
 30
0.0
 41
2.0
 42
2.0
 43
2.0
 50
180.0
  0
INSERT
  5
20C
  8
回07-寸法
  6
CONTINUOUS
 62
     5
  2
_OPEN
 10
416.0081066334482
 20
413.3296038944786
 30
0.0
 41
2.0
 42
2.0
 43
2.0
  0
TEXT
  5
20D
  8
回07-寸法
  6
CONTINUOUS
 62
     5
 10
333.2086971846294
 20
413.9796038944785
 30
0.0
 40
3.0
  1
116.4 [4.583](ACTIVE AREA)
1001
ACAD
1000
MTEXTBEGIN
1070
    73
1070
     1
1070
    44
1040
1.0
1070
    74
1070
     0
1000
MTEXTEND
  0
POINT
  5
20E
  8
DEFPOINTS
  6
CONTINUOUS
 62
     0
 10
299.6081066334483
 20
390.655879030716
 30
0.0
  0
POINT
  5
20F
  8
DEFPOINTS
  6
CONTINUOUS
 62
     0
 10
416.0081066334482
 20
390.655879030716
 30
0.0
  0
POINT
  5
210
  8
DEFPOINTS
  6
CONTINUOUS
 62
     0
 10
416.0081066334482
 20
413.3296038944786
 30
0.0
  0
ENDBLK
  5
211
  8
0
 62
     7
  0
BLOCK
  8
0
  2
*D24
 70
     1
 10
0.0
 20
0.0
 30
0.0
  3
*D24
  1

  0
LINE
  5
1F9
  8
回07-寸法
  6
CONTINUOUS
 62
     5
 10
416.0081066334482
 20
390.655879030716
 30
0.0
 11
416.0081066334482
 21
414.3296038944786
 31
0.0
  0
LINE
  5
1FA
  8
回07-寸法
  6
CONTINUOUS
 62
     5
 10
421.1081066334482
 20
400.655879030716
 30
0.0
 11
421.1081066334482
 21
414.3296038944786
 31
0.0
  0
LINE
  5
1FB
  8
回07-寸法
  6
CONTINUOUS
 62
     5
 10
414.0081066334483
 20
413.3296038944786
 30
0.0
 11
412.0081066334482
 21
413.3296038944786
 31
0.0
  0
LINE
  5
1FC
  8
回07-寸法
  6
CONTINUOUS
 62
     5
 10
423.1081066334483
 20
413.3296038944786
 30
0.0
 11
445.0057444287238
 21
413.3296038944786
 31
0.0
  0
LINE
  5
1FD
  8
回07-寸法
  6
CONTINUOUS
 62
     5
 10
416.0081066334482
 20
413.3296038944786
 30
0.0
 11
421.1081066334482
 21
413.3296038944786
 31
0.0
  0
INSERT
  5
1FE
  8
回07-寸法
  6
CONTINUOUS
 62
     5
  2
_OPEN
 10
416.0081066334482
 20
413.3296038944786
 30
0.0
 41
2.0
 42
2.0
 43
2.0
  0
INSERT
  5
1FF
  8
回07-寸法
  6
CONTINUOUS
 62
     5
  2
_OPEN
 10
421.1081066334482
 20
413.3296038944786
 30
0.0
 41
2.0
 42
2.0
 43
2.0
 50
180.0
  0
TEXT
  5
200
  8
回07-寸法
  6
CONTINUOUS
 62
     5
 10
425.156925531086
 20
413.9796038944785
 30
0.0
 40
3.0
  1
(5.1 [0.201])
1001
ACAD
1000
MTEXTBEGIN
1070
    73
1070
     1
1070
    44
1040
1.0
1070
    74
1070
     0
1000
MTEXTEND
  0
POINT
  5
201
  8
DEFPOINTS
  6
CONTINUOUS
 62
     0
 10
416.0081066334482
 20
390.655879030716
 30
0.0
  0
POINT
  5
202
  8
DEFPOINTS
  6
CONTINUOUS
 62
     0
 10
421.1081066334482
 20
400.655879030716
 30
0.0
  0
POINT
  5
203
  8
DEFPOINTS
  6
CONTINUOUS
 62
     0
 10
421.1081066334482
 20
413.3296038944786
 30
0.0
  0
ENDBLK
  5
204
  8
0
 62
     7
  0
BLOCK
  8
0
  2
*D25
 70
     1
 10
0.0
 20
0.0
 30
0.0
  3
*D25
  1

  0
LINE
  5
1EA
  8
回07-寸法
  6
CONTINUOUS
 62
     5
 10
417.0081066334482
 20
391.6558790307161
 30
0.0
 11
417.0081066334482
 21
423.1960618022663
 31
0.0
  0
LINE
  5
1EB
  8
回07-寸法
  6
CONTINUOUS
 62
     5
 10
421.1081066334482
 20
400.655879030716
 30
0.0
 11
421.1081066334482
 21
423.1960618022663
 31
0.0
  0
LINE
  5
1EC
  8
回07-寸法
  6
CONTINUOUS
 62
     5
 10
415.0081066334482
 20
422.1960618022662
 30
0.0
 11
413.0081066334482
 21
422.1960618022662
 31
0.0
  0
LINE
  5
1ED
  8
回07-寸法
  6
CONTINUOUS
 62
     5
 10
423.1081066334483
 20
422.1960618022662
 30
0.0
 11
444.7057444287239
 21
422.1960618022662
 31
0.0
  0
LINE
  5
1EE
  8
回07-寸法
  6
CONTINUOUS
 62
     5
 10
417.0081066334482
 20
422.1960618022662
 30
0.0
 11
421.1081066334482
 21
422.1960618022662
 31
0.0
  0
INSERT
  5
1EF
  8
回07-寸法
  6
CONTINUOUS
 62
     5
  2
_OPEN
 10
417.0081066334482
 20
422.1960618022662
 30
0.0
 41
2.0
 42
2.0
 43
2.0
  0
INSERT
  5
1F0
  8
回07-寸法
  6
CONTINUOUS
 62
     5
  2
_OPEN
 10
421.1081066334482
 20
422.1960618022662
 30
0.0
 41
2.0
 42
2.0
 43
2.0
 50
180.0
  0
TEXT
  5
1F1
  8
回07-寸法
  6
CONTINUOUS
 62
     5
 10
425.156925531086
 20
422.8460618022662
 30
0.0
 40
3.0
  1
(4.1 [0.161])
1001
ACAD
1000
MTEXTBEGIN
1070
    73
1070
     1
1070
    44
1040
1.0
1070
    74
1070
     0
1000
MTEXTEND
  0
POINT
  5
1F2
  8
DEFPOINTS
  6
CONTINUOUS
 62
     0
 10
417.0081066334482
 20
391.6558790307161
 30
0.0
  0
POINT
  5
1F3
  8
DEFPOINTS
  6
CONTINUOUS
 62
     0
 10
421.1081066334482
 20
400.655879030716
 30
0.0
  0
POINT
  5
1F4
  8
DEFPOINTS
  6
CONTINUOUS
 62
     0
 10
421.1081066334482
 20
422.1960618022662
 30
0.0
  0
ENDBLK
  5
1F5
  8
0
 62
     7
  0
BLOCK
  8
0
  2
*D26
 70
     1
 10
0.0
 20
0.0
 30
0.0
  3
*D26
  1

  0
LINE
  5
1DB
  8
回07-寸法
  6
CONTINUOUS
 62
     5
 10
417.5081066334483
 20
392.455879030716
 30
0.0
 11
417.5081066334483
 21
434.4602517138391
 31
0.0
  0
LINE
  5
1DC
  8
回07-寸法
  6
CONTINUOUS
 62
     5
 10
421.1081066334482
 20
400.655879030716
 30
0.0
 11
421.1081066334482
 21
434.4602517138391
 31
0.0
  0
LINE
  5
1DD
  8
回07-寸法
  6
CONTINUOUS
 62
     5
 10
415.5081066334482
 20
433.4602517138391
 30
0.0
 11
413.5081066334483
 21
433.4602517138391
 31
0.0
  0
LINE
  5
1DE
  8
回07-寸法
  6
CONTINUOUS
 62
     5
 10
423.1081066334483
 20
433.4602517138391
 30
0.0
 11
467.0584741925034
 21
433.4602517138391
 31
0.0
  0
LINE
  5
1DF
  8
回07-寸法
  6
CONTINUOUS
 62
     5
 10
417.5081066334483
 20
433.4602517138391
 30
0.0
 11
421.1081066334482
 21
433.4602517138391
 31
0.0
  0
INSERT
  5
1E0
  8
回07-寸法
  6
CONTINUOUS
 62
     5
  2
_OPEN
 10
417.5081066334483
 20
433.4602517138391
 30
0.0
 41
2.0
 42
2.0
 43
2.0
  0
INSERT
  5
1E1
  8
回07-寸法
  6
CONTINUOUS
 62
     5
  2
_OPEN
 10
421.1081066334482
 20
433.4602517138391
 30
0.0
 41
2.0
 42
2.0
 43
2.0
 50
180.0
  0
INSERT
  5
1E2
  8
回07-寸法
  6
CONTINUOUS
 62
     5
 66
     1
  2
*X53
 10
0.0
 20
0.0
 30
0.0
  0
SEQEND
  5
45E
  8
回08-記事
  6
CONTINUOUS
 62
     7
  0
POINT
  5
1E3
  8
DEFPOINTS
  6
CONTINUOUS
 62
     0
 10
417.5081066334483
 20
392.455879030716
 30
0.0
  0
POINT
  5
1E4
  8
DEFPOINTS
  6
CONTINUOUS
 62
     0
 10
421.1081066334482
 20
400.655879030716
 30
0.0
  0
POINT
  5
1E5
  8
DEFPOINTS
  6
CONTINUOUS
 62
     0
 10
421.1081066334482
 20
433.4602517138391
 30
0.0
  0
ENDBLK
  5
1E6
  8
0
 62
     7
  0
BLOCK
  8
0
  2
*D27
 70
     1
 10
0.0
 20
0.0
 30
0.0
  3
*D27
  1

  0
LINE
  5
1CE
  8
回07-寸法
  6
CONTINUOUS
 62
     5
 10
421.1081066334485
 20
400.6558790307162
 30
0.0
 11
481.0479822323269
 21
400.6558790307162
 31
0.0
  0
LINE
  5
1CF
  8
回07-寸法
  6
CONTINUOUS
 62
     5
 10
421.1081066334485
 20
297.6558790307162
 30
0.0
 11
481.0479822323269
 21
297.6558790307162
 31
0.0
  0
LINE
  5
1D0
  8
回07-寸法
  6
CONTINUOUS
 62
     5
 10
480.0479822323269
 20
398.6558790307163
 30
0.0
 11
480.0479822323269
 21
299.6558790307162
 31
0.0
  0
INSERT
  5
1D1
  8
回07-寸法
  6
CONTINUOUS
 62
     5
  2
_OPEN
 10
480.0479822323269
 20
400.6558790307162
 30
0.0
 41
2.0
 42
2.0
 43
2.0
 50
90.0
  0
INSERT
  5
1D2
  8
回07-寸法
  6
CONTINUOUS
 62
     5
  2
_OPEN
 10
480.047982232327
 20
297.6558790307162
 30
0.0
 41
2.0
 42
2.0
 43
2.0
 50
270.0
  0
INSERT
  5
1D3
  8
回07-寸法
  6
CONTINUOUS
 62
     5
 66
     1
  2
*X54
 10
0.0
 20
0.0
 30
0.0
  0
SEQEND
  5
467
  8
回08-記事
  6
CONTINUOUS
 62
     7
  0
POINT
  5
1D4
  8
DEFPOINTS
  6
CONTINUOUS
 62
     0
 10
421.1081066334485
 20
400.6558790307162
 30
0.0
  0
POINT
  5
1D5
  8
DEFPOINTS
  6
CONTINUOUS
 62
     0
 10
421.1081066334485
 20
297.6558790307162
 30
0.0
  0
POINT
  5
1D6
  8
DEFPOINTS
  6
CONTINUOUS
 62
     0
 10
480.047982232327
 20
297.6558790307162
 30
0.0
  0
ENDBLK
  5
1D7
  8
0
 62
     7
  0
BLOCK
  8
0
  2
*D28
 70
     1
 10
0.0
 20
0.0
 30
0.0
  3
*D28
  1

  0
LINE
  5
1C1
  8
回07-寸法
  6
CONTINUOUS
 62
     5
 10
417.5081066334485
 20
392.4558790307163
 30
0.0
 11
472.6776786937207
 21
392.4558790307163
 31
0.0
  0
LINE
  5
1C2
  8
回07-寸法
  6
CONTINUOUS
 62
     5
 10
417.5081066334485
 20
300.9558790307163
 30
0.0
 11
472.6776786937208
 21
300.9558790307163
 31
0.0
  0
LINE
  5
1C3
  8
回07-寸法
  6
CONTINUOUS
 62
     5
 10
471.6776786937208
 20
390.4558790307163
 30
0.0
 11
471.6776786937208
 21
302.9558790307163
 31
0.0
  0
INSERT
  5
1C4
  8
回07-寸法
  6
CONTINUOUS
 62
     5
  2
_OPEN
 10
471.6776786937208
 20
392.4558790307163
 30
0.0
 41
2.0
 42
2.0
 43
2.0
 50
90.0
  0
INSERT
  5
1C5
  8
回07-寸法
  6
CONTINUOUS
 62
     5
  2
_OPEN
 10
471.6776786937209
 20
300.9558790307163
 30
0.0
 41
2.0
 42
2.0
 43
2.0
 50
270.0
  0
TEXT
  5
1C6
  8
回07-寸法
  6
CONTINUOUS
 62
     5
 10
471.0276786937207
 20
336.645047925135
 30
0.0
 40
3.0
  1
91.5 [3.602]
 50
90.0
1001
ACAD
1000
MTEXTBEGIN
1070
    73
1070
     1
1070
    44
1040
1.0
1070
    74
1070
     0
1000
MTEXTEND
  0
POINT
  5
1C7
  8
DEFPOINTS
  6
CONTINUOUS
 62
     0
 10
417.5081066334485
 20
392.4558790307163
 30
0.0
  0
POINT
  5
1C8
  8
DEFPOINTS
  6
CONTINUOUS
 62
     0
 10
417.5081066334485
 20
300.9558790307163
 30
0.0
  0
POINT
  5
1C9
  8
DEFPOINTS
  6
CONTINUOUS
 62
     0
 10
471.6776786937209
 20
300.9558790307163
 30
0.0
  0
ENDBLK
  5
1CA
  8
0
 62
     7
  0
BLOCK
  8
0
  2
*D29
 70
     1
 10
0.0
 20
0.0
 30
0.0
  3
*D29
  1

  0
LINE
  5
1B4
  8
回07-寸法
  6
CONTINUOUS
 62
     5
 10
417.0081066334485
 20
391.6558790307163
 30
0.0
 11
463.5226346516302
 21
391.6558790307163
 31
0.0
  0
LINE
  5
1B5
  8
回07-寸法
  6
CONTINUOUS
 62
     5
 10
417.0081066334485
 20
301.7558790307162
 30
0.0
 11
463.5226346516303
 21
301.7558790307162
 31
0.0
  0
LINE
  5
1B6
  8
回07-寸法
  6
CONTINUOUS
 62
     5
 10
462.5226346516302
 20
389.6558790307163
 30
0.0
 11
462.5226346516302
 21
303.7558790307162
 31
0.0
  0
INSERT
  5
1B7
  8
回07-寸法
  6
CONTINUOUS
 62
     5
  2
_OPEN
 10
462.5226346516302
 20
391.6558790307163
 30
0.0
 41
2.0
 42
2.0
 43
2.0
 50
90.0
  0
INSERT
  5
1B8
  8
回07-寸法
  6
CONTINUOUS
 62
     5
  2
_OPEN
 10
462.5226346516302
 20
301.7558790307162
 30
0.0
 41
2.0
 42
2.0
 43
2.0
 50
270.0
  0
TEXT
  5
1B9
  8
回07-寸法
  6
CONTINUOUS
 62
     5
 10
461.8726945577325
 20
321.9402229235257
 30
0.0
 40
3.0
  1
89.9 [3.539](VIEWING AREA)
 50
90.0
1001
ACAD
1000
MTEXTBEGIN
1070
    73
1070
     1
1070
    44
1040
1.0
1070
    74
1070
     0
1000
MTEXTEND
  0
POINT
  5
1BA
  8
DEFPOINTS
  6
CONTINUOUS
 62
     0
 10
417.0081066334485
 20
391.6558790307163
 30
0.0
  0
POINT
  5
1BB
  8
DEFPOINTS
  6
CONTINUOUS
 62
     0
 10
417.0081066334485
 20
301.7558790307162
 30
0.0
  0
POINT
  5
1BC
  8
DEFPOINTS
  6
CONTINUOUS
 62
     0
 10
462.5226346516302
 20
301.7558790307162
 30
0.0
  0
ENDBLK
  5
1BD
  8
0
 62
     7
  0
BLOCK
  8
0
  2
*D30
 70
     1
 10
0.0
 20
0.0
 30
0.0
  3
*D30
  1

  0
LINE
  5
1A7
  8
回07-寸法
  6
CONTINUOUS
 62
     5
 10
416.0081066334485
 20
390.6558790307163
 30
0.0
 11
454.1060507235433
 21
390.6558790307163
 31
0.0
  0
LINE
  5
1A8
  8
回07-寸法
  6
CONTINUOUS
 62
     5
 10
416.0081066334485
 20
302.7558790307162
 30
0.0
 11
454.1060507235433
 21
302.7558790307162
 31
0.0
  0
LINE
  5
1A9
  8
回07-寸法
  6
CONTINUOUS
 62
     5
 10
453.1060507235433
 20
388.6558790307163
 30
0.0
 11
453.1060507235433
 21
304.7558790307162
 31
0.0
  0
INSERT
  5
1AA
  8
回07-寸法
  6
CONTINUOUS
 62
     5
  2
_OPEN
 10
453.1060507235433
 20
390.6558790307163
 30
0.0
 41
2.0
 42
2.0
 43
2.0
 50
90.0
  0
INSERT
  5
1AB
  8
回07-寸法
  6
CONTINUOUS
 62
     5
  2
_OPEN
 10
453.1060507235434
 20
302.7558790307162
 30
0.0
 41
2.0
 42
2.0
 43
2.0
 50
270.0
  0
TEXT
  5
1AC
  8
回07-寸法
  6
CONTINUOUS
 62
     5
 10
452.4560507235433
 20
323.0010540291066
 30
0.0
 40
3.0
  1
87.9 [3.461](ACTIVE AREA)
 50
90.0
1001
ACAD
1000
MTEXTBEGIN
1070
    73
1070
     1
1070
    44
1040
1.0
1070
    74
1070
     0
1000
MTEXTEND
  0
POINT
  5
1AD
  8
DEFPOINTS
  6
CONTINUOUS
 62
     0
 10
416.0081066334485
 20
390.6558790307163
 30
0.0
  0
POINT
  5
1AE
  8
DEFPOINTS
  6
CONTINUOUS
 62
     0
 10
416.0081066334485
 20
302.7558790307162
 30
0.0
  0
POINT
  5
1AF
  8
DEFPOINTS
  6
CONTINUOUS
 62
     0
 10
453.1060507235434
 20
302.7558790307162
 30
0.0
  0
ENDBLK
  5
1B0
  8
0
 62
     7
  0
BLOCK
  8
0
  2
*D31
 70
     1
 10
0.0
 20
0.0
 30
0.0
  3
*D31
  1

  0
LINE
  5
198
  8
回07-寸法
  6
CONTINUOUS
 62
     5
 10
417.0081066334485
 20
391.6558790307163
 30
0.0
 11
463.5226346516301
 21
391.6558790307163
 31
0.0
  0
LINE
  5
199
  8
回07-寸法
  6
CONTINUOUS
 62
     5
 10
421.1081066334485
 20
400.6558790307162
 30
0.0
 11
463.5226346516301
 21
400.6558790307162
 31
0.0
  0
LINE
  5
19A
  8
回07-寸法
  6
CONTINUOUS
 62
     5
 10
462.52263465163
 20
389.6558790307163
 30
0.0
 11
462.52263465163
 21
387.6558790307163
 31
0.0
  0
LINE
  5
19B
  8
回07-寸法
  6
CONTINUOUS
 62
     5
 10
462.52263465163
 20
402.6558790307162
 30
0.0
 11
462.52263465163
 21
423.0639998174748
 31
0.0
  0
LINE
  5
19C
  8
回07-寸法
  6
CONTINUOUS
 62
     5
 10
462.52263465163
 20
391.6558790307163
 30
0.0
 11
462.52263465163
 21
400.6558790307162
 31
0.0
  0
INSERT
  5
19D
  8
回07-寸法
  6
CONTINUOUS
 62
     5
  2
_OPEN
 10
462.52263465163
 20
391.6558790307163
 30
0.0
 41
2.0
 42
2.0
 43
2.0
 50
90.0
  0
INSERT
  5
19E
  8
回07-寸法
  6
CONTINUOUS
 62
     5
  2
_OPEN
 10
462.52263465163
 20
400.6558790307162
 30
0.0
 41
2.0
 42
2.0
 43
2.0
 50
270.0
  0
TEXT
  5
19F
  8
回07-寸法
  6
CONTINUOUS
 62
     5
 10
461.8719096131006
 20
404.7045238713049
 30
0.0
 40
3.0
  1
(9 [0.354])
 50
90.0
1001
ACAD
1000
MTEXTBEGIN
1070
    73
1070
     1
1070
    44
1040
1.0
1070
    74
1070
     0
1000
MTEXTEND
  0
POINT
  5
1A0
  8
DEFPOINTS
  6
CONTINUOUS
 62
     0
 10
417.0081066334485
 20
391.6558790307163
 30
0.0
  0
POINT
  5
1A1
  8
DEFPOINTS
  6
CONTINUOUS
 62
     0
 10
421.1081066334485
 20
400.6558790307162
 30
0.0
  0
POINT
  5
1A2
  8
DEFPOINTS
  6
CONTINUOUS
 62
     0
 10
462.52263465163
 20
400.6558790307162
 30
0.0
  0
ENDBLK
  5
1A3
  8
0
 62
     7
  0
BLOCK
  8
0
  2
*D32
 70
     1
 10
0.0
 20
0.0
 30
0.0
  3
*D32
  1

  0
LINE
  5
189
  8
回07-寸法
  6
CONTINUOUS
 62
     5
 10
417.5081066334485
 20
392.4558790307163
 30
0.0
 11
472.6776786937208
 21
392.4558790307163
 31
0.0
  0
LINE
  5
18A
  8
回07-寸法
  6
CONTINUOUS
 62
     5
 10
421.1081066334485
 20
400.6558790307162
 30
0.0
 11
472.6776786937208
 21
400.6558790307162
 31
0.0
  0
LINE
  5
18B
  8
回07-寸法
  6
CONTINUOUS
 62
     5
 10
471.6776786937209
 20
390.4558790307163
 30
0.0
 11
471.6776786937209
 21
388.4558790307163
 31
0.0
  0
LINE
  5
18C
  8
回07-寸法
  6
CONTINUOUS
 62
     5
 10
471.6776786937209
 20
402.6558790307162
 30
0.0
 11
471.6776786937209
 21
446.9062465897714
 31
0.0
  0
LINE
  5
18D
  8
回07-寸法
  6
CONTINUOUS
 62
     5
 10
471.6776786937209
 20
392.4558790307163
 30
0.0
 11
471.6776786937209
 21
400.6558790307162
 31
0.0
  0
INSERT
  5
18E
  8
回07-寸法
  6
CONTINUOUS
 62
     5
  2
_OPEN
 10
471.6776786937209
 20
392.4558790307163
 30
0.0
 41
2.0
 42
2.0
 43
2.0
 50
90.0
  0
INSERT
  5
18F
  8
回07-寸法
  6
CONTINUOUS
 62
     5
  2
_OPEN
 10
471.6776786937209
 20
400.6558790307162
 30
0.0
 41
2.0
 42
2.0
 43
2.0
 50
270.0
  0
INSERT
  5
190
  8
回07-寸法
  6
CONTINUOUS
 62
     5
 66
     1
  2
*X55
 10
0.0
 20
0.0
 30
0.0
  0
SEQEND
  5
46D
  8
回08-記事
  6
CONTINUOUS
 62
     7
  0
POINT
  5
191
  8
DEFPOINTS
  6
CONTINUOUS
 62
     0
 10
417.5081066334485
 20
392.4558790307163
 30
0.0
  0
POINT
  5
192
  8
DEFPOINTS
  6
CONTINUOUS
 62
     0
 10
421.1081066334485
 20
400.6558790307162
 30
0.0
  0
POINT
  5
193
  8
DEFPOINTS
  6
CONTINUOUS
 62
     0
 10
471.6776786937209
 20
400.6558790307162
 30
0.0
  0
ENDBLK
  5
194
  8
0
 62
     7
  0
BLOCK
  8
0
  2
*D33
 70
     1
 10
0.0
 20
0.0
 30
0.0
  3
*D33
  1

  0
LINE
  5
17A
  8
回07-寸法
  6
CONTINUOUS
 62
     5
 10
416.0081066334485
 20
390.6558790307163
 30
0.0
 11
454.1060507235433
 21
390.6558790307163
 31
0.0
  0
LINE
  5
17B
  8
回07-寸法
  6
CONTINUOUS
 62
     5
 10
421.1081066334485
 20
400.6558790307162
 30
0.0
 11
454.1060507235433
 21
400.6558790307162
 31
0.0
  0
LINE
  5
17C
  8
回07-寸法
  6
CONTINUOUS
 62
     5
 10
453.1060507235433
 20
388.6558790307163
 30
0.0
 11
453.1060507235433
 21
386.6558790307163
 31
0.0
  0
LINE
  5
17D
  8
回07-寸法
  6
CONTINUOUS
 62
     5
 10
453.1060507235433
 20
402.6558790307162
 30
0.0
 11
453.1060507235433
 21
424.5639998174748
 31
0.0
  0
LINE
  5
17E
  8
回07-寸法
  6
CONTINUOUS
 62
     5
 10
453.1060507235433
 20
390.6558790307163
 30
0.0
 11
453.1060507235433
 21
400.6558790307162
 31
0.0
  0
INSERT
  5
17F
  8
回07-寸法
  6
CONTINUOUS
 62
     5
  2
_OPEN
 10
453.1060507235433
 20
390.6558790307163
 30
0.0
 41
2.0
 42
2.0
 43
2.0
 50
90.0
  0
INSERT
  5
180
  8
回07-寸法
  6
CONTINUOUS
 62
     5
  2
_OPEN
 10
453.1060507235433
 20
400.6558790307162
 30
0.0
 41
2.0
 42
2.0
 43
2.0
 50
270.0
  0
TEXT
  5
181
  8
回07-寸法
  6
CONTINUOUS
 62
     5
 10
452.4561106296457
 20
404.7045238713049
 30
0.0
 40
3.0
  1
(10 [0.394])
 50
90.0
1001
ACAD
1000
MTEXTBEGIN
1070
    73
1070
     1
1070
    44
1040
1.0
1070
    74
1070
     0
1000
MTEXTEND
  0
POINT
  5
182
  8
DEFPOINTS
  6
CONTINUOUS
 62
     0
 10
416.0081066334485
 20
390.6558790307163
 30
0.0
  0
POINT
  5
183
  8
DEFPOINTS
  6
CONTINUOUS
 62
     0
 10
421.1081066334485
 20
400.6558790307162
 30
0.0
  0
POINT
  5
184
  8
DEFPOINTS
  6
CONTINUOUS
 62
     0
 10
453.1060507235433
 20
400.6558790307162
 30
0.0
  0
ENDBLK
  5
185
  8
0
 62
     7
  0
BLOCK
  8
0
  2
*D34
 70
     1
 10
0.0
 20
0.0
 30
0.0
  3
*D34
  1

  0
LINE
  5
16B
  8
回07-寸法
  6
CONTINUOUS
 62
     5
 10
416.0081066334485
 20
302.7558790307162
 30
0.0
 11
454.1060507235432
 21
302.7558790307162
 31
0.0
  0
LINE
  5
16C
  8
回07-寸法
  6
CONTINUOUS
 62
     5
 10
421.1081066334485
 20
297.6558790307162
 30
0.0
 11
454.1060507235432
 21
297.6558790307162
 31
0.0
  0
LINE
  5
16D
  8
回07-寸法
  6
CONTINUOUS
 62
     5
 10
453.1060507235432
 20
304.7558790307162
 30
0.0
 11
453.1060507235432
 21
306.7558790307162
 31
0.0
  0
LINE
  5
16E
  8
回07-寸法
  6
CONTINUOUS
 62
     5
 10
453.1060507235432
 20
295.6558790307162
 30
0.0
 11
453.1060507235432
 21
276.1558790307162
 31
0.0
  0
LINE
  5
16F
  8
回07-寸法
  6
CONTINUOUS
 62
     5
 10
453.1060507235432
 20
302.7558790307162
 30
0.0
 11
453.1060507235432
 21
297.6558790307162
 31
0.0
  0
INSERT
  5
170
  8
回07-寸法
  6
CONTINUOUS
 62
     5
  2
_OPEN
 10
453.1060507235432
 20
302.7558790307162
 30
0.0
 41
2.0
 42
2.0
 43
2.0
 50
270.0
  0
INSERT
  5
171
  8
回07-寸法
  6
CONTINUOUS
 62
     5
  2
_OPEN
 10
453.1060507235432
 20
297.6558790307162
 30
0.0
 41
2.0
 42
2.0
 43
2.0
 50
90.0
  0
TEXT
  5
172
  8
回07-寸法
  6
CONTINUOUS
 62
     5
 10
452.4560507235431
 20
276.205879030716
 30
0.0
 40
3.0
  1
5.1 [0.201]
 50
90.0
1001
ACAD
1000
MTEXTBEGIN
1070
    73
1070
     1
1070
    44
1040
1.0
1070
    74
1070
     0
1000
MTEXTEND
  0
POINT
  5
173
  8
DEFPOINTS
  6
CONTINUOUS
 62
     0
 10
416.0081066334485
 20
302.7558790307162
 30
0.0
  0
POINT
  5
174
  8
DEFPOINTS
  6
CONTINUOUS
 62
     0
 10
421.1081066334485
 20
297.6558790307162
 30
0.0
  0
POINT
  5
175
  8
DEFPOINTS
  6
CONTINUOUS
 62
     0
 10
453.1060507235432
 20
297.6558790307162
 30
0.0
  0
ENDBLK
  5
176
  8
0
 62
     7
  0
BLOCK
  8
0
  2
*D35
 70
     1
 10
0.0
 20
0.0
 30
0.0
  3
*D35
  1

  0
LINE
  5
15C
  8
回07-寸法
  6
CONTINUOUS
 62
     5
 10
417.0081066334485
 20
301.7558790307162
 30
0.0
 11
463.5226346516303
 21
301.7558790307162
 31
0.0
  0
LINE
  5
15D
  8
回07-寸法
  6
CONTINUOUS
 62
     5
 10
421.1081066334485
 20
297.6558790307162
 30
0.0
 11
463.5226346516303
 21
297.6558790307162
 31
0.0
  0
LINE
  5
15E
  8
回07-寸法
  6
CONTINUOUS
 62
     5
 10
462.5226346516302
 20
303.7558790307162
 30
0.0
 11
462.5226346516302
 21
305.7558790307162
 31
0.0
  0
LINE
  5
15F
  8
回07-寸法
  6
CONTINUOUS
 62
     5
 10
462.5226346516302
 20
295.6558790307162
 30
0.0
 11
462.5226346516302
 21
276.4558790307162
 31
0.0
  0
LINE
  5
160
  8
回07-寸法
  6
CONTINUOUS
 62
     5
 10
462.5226346516302
 20
301.7558790307162
 30
0.0
 11
462.5226346516302
 21
297.6558790307162
 31
0.0
  0
INSERT
  5
161
  8
回07-寸法
  6
CONTINUOUS
 62
     5
  2
_OPEN
 10
462.5226346516302
 20
301.7558790307162
 30
0.0
 41
2.0
 42
2.0
 43
2.0
 50
270.0
  0
INSERT
  5
162
  8
回07-寸法
  6
CONTINUOUS
 62
     5
  2
_OPEN
 10
462.5226346516302
 20
297.6558790307162
 30
0.0
 41
2.0
 42
2.0
 43
2.0
 50
90.0
  0
TEXT
  5
163
  8
回07-寸法
  6
CONTINUOUS
 62
     5
 10
461.8726346516302
 20
276.5058790307159
 30
0.0
 40
3.0
  1
4.1 [0.161]
 50
90.0
1001
ACAD
1000
MTEXTBEGIN
1070
    73
1070
     1
1070
    44
1040
1.0
1070
    74
1070
     0
1000
MTEXTEND
  0
POINT
  5
164
  8
DEFPOINTS
  6
CONTINUOUS
 62
     0
 10
417.0081066334485
 20
301.7558790307162
 30
0.0
  0
POINT
  5
165
  8
DEFPOINTS
  6
CONTINUOUS
 62
     0
 10
421.1081066334485
 20
297.6558790307162
 30
0.0
  0
POINT
  5
166
  8
DEFPOINTS
  6
CONTINUOUS
 62
     0
 10
462.5226346516302
 20
297.6558790307162
 30
0.0
  0
ENDBLK
  5
167
  8
0
 62
     7
  0
BLOCK
  8
0
  2
*D36
 70
     1
 10
0.0
 20
0.0
 30
0.0
  3
*D36
  1

  0
LINE
  5
14D
  8
回07-寸法
  6
CONTINUOUS
 62
     5
 10
417.5081066334485
 20
300.9558790307163
 30
0.0
 11
472.6776786937208
 21
300.9558790307163
 31
0.0
  0
LINE
  5
14E
  8
回07-寸法
  6
CONTINUOUS
 62
     5
 10
421.1081066334485
 20
297.6558790307162
 30
0.0
 11
472.6776786937208
 21
297.6558790307162
 31
0.0
  0
LINE
  5
14F
  8
回07-寸法
  6
CONTINUOUS
 62
     5
 10
471.6776786937209
 20
302.9558790307163
 30
0.0
 11
471.6776786937209
 21
304.9558790307163
 31
0.0
  0
LINE
  5
150
  8
回07-寸法
  6
CONTINUOUS
 62
     5
 10
471.6776786937209
 20
295.6558790307162
 30
0.0
 11
471.6776786937209
 21
252.0055114716611
 31
0.0
  0
LINE
  5
151
  8
回07-寸法
  6
CONTINUOUS
 62
     5
 10
471.6776786937209
 20
300.9558790307163
 30
0.0
 11
471.6776786937209
 21
297.6558790307162
 31
0.0
  0
INSERT
  5
152
  8
回07-寸法
  6
CONTINUOUS
 62
     5
  2
_OPEN
 10
471.6776786937209
 20
300.9558790307163
 30
0.0
 41
2.0
 42
2.0
 43
2.0
 50
270.0
  0
INSERT
  5
153
  8
回07-寸法
  6
CONTINUOUS
 62
     5
  2
_OPEN
 10
471.6776786937209
 20
297.6558790307162
 30
0.0
 41
2.0
 42
2.0
 43
2.0
 50
90.0
  0
INSERT
  5
154
  8
回07-寸法
  6
CONTINUOUS
 62
     5
 66
     1
  2
*X56
 10
0.0
 20
0.0
 30
0.0
  0
SEQEND
  5
473
  8
回08-記事
  6
CONTINUOUS
 62
     7
  0
POINT
  5
155
  8
DEFPOINTS
  6
CONTINUOUS
 62
     0
 10
417.5081066334485
 20
300.9558790307163
 30
0.0
  0
POINT
  5
156
  8
DEFPOINTS
  6
CONTINUOUS
 62
     0
 10
421.1081066334485
 20
297.6558790307162
 30
0.0
  0
POINT
  5
157
  8
DEFPOINTS
  6
CONTINUOUS
 62
     0
 10
471.6776786937209
 20
297.6558790307162
 30
0.0
  0
ENDBLK
  5
158
  8
0
 62
     7
  0
BLOCK
  8
回08-記事
  2
*X37
 70
     1
 10
0.0
 20
0.0
 30
0.0
  3
*X37
  1

  0
INSERT
  5
383
  8
回08-記事
  6
CONTINUOUS
 62
     5
  2
_OPEN
 10
216.4753539848407
 20
340.6509405245452
 30
0.0
 41
2.0
 42
2.0
 43
2.0
 50
108.2905378143797
  0
LINE
  5
384
  8
回08-記事
  6
CONTINUOUS
 62
     5
 10
217.1030253000161
 20
338.7519858857752
 30
0.0
 11
218.804825499481
 21
333.6033654137209
 31
0.0
  0
LINE
  5
385
  8
回08-記事
  6
CONTINUOUS
 62
     5
 10
218.804825499481
 20
333.6033654137209
 30
0.0
 11
223.104825499481
 21
333.6033654137209
 31
0.0
  0
ENDBLK
  5
387
  8
回08-記事
  6
CONTINUOUS
 62
     7
  0
BLOCK
  8
回08-記事
  2
*X38
 70
     1
 10
0.0
 20
0.0
 30
0.0
  3
*X38
  1

  0
INSERT
  5
396
  8
回08-記事
  6
CONTINUOUS
 62
     5
  2
_OPEN
 10
212.2271510728696
 20
258.8121464127323
 30
0.0
 41
2.0
 42
2.0
 43
2.0
 50
58.26656700579928
  0
LINE
  5
397
  8
回08-記事
  6
CONTINUOUS
 62
     5
 10
211.1752150262023
 20
257.1111377255935
 30
0.0
 11
205.8755752149004
 21
248.5414785849146
 31
0.0
  0
LINE
  5
398
  8
回08-記事
  6
CONTINUOUS
 62
     5
 10
205.8755752149004
 20
248.5414785849146
 30
0.0
 11
179.6680752149004
 21
248.5414785849146
 31
0.0
  0
ENDBLK
  5
39A
  8
回08-記事
  6
CONTINUOUS
 62
     7
  0
BLOCK
  8
回08-記事
  2
*X39
 70
     1
 10
0.0
 20
0.0
 30
0.0
  3
*X39
  1

  0
LINE
  5
3A2
  8
回08-記事
  6
CONTINUOUS
 62
     8
 10
285.3973201958218
 20
343.722482911076
 30
0.0
 11
287.1307163154622
 21
345.4558790307165
 31
0.0
1001
ACAD
1010
0.0
1020
0.0
1030
0.0
  0
LINE
  5
3A3
  8
回08-記事
  6
CONTINUOUS
 62
     8
 10
285.3973201958217
 20
341.0284060747552
 30
0.0
 11
289.8247931517829
 21
345.4558790307165
 31
0.0
1001
ACAD
1010
0.0
1020
0.0
1030
0.0
  0
LINE
  5
3A4
  8
回08-記事
  6
CONTINUOUS
 62
     8
 10
286.5188699881032
 20
339.455879030716
 30
0.0
 11
292.5188699881037
 21
345.4558790307165
 31
0.0
1001
ACAD
1010
0.0
1020
0.0
1030
0.0
  0
LINE
  5
3A5
  8
回08-記事
  6
CONTINUOUS
 62
     8
 10
289.212946824424
 20
339.455879030716
 30
0.0
 11
293.2973201958217
 21
343.5402524021138
 31
0.0
1001
ACAD
1010
0.0
1020
0.0
1030
0.0
  0
LINE
  5
3A6
  8
回08-記事
  6
CONTINUOUS
 62
     8
 10
291.9070236607448
 20
339.4558790307161
 30
0.0
 11
293.2973201958217
 21
340.846175565793
 31
0.0
1001
ACAD
1010
0.0
1020
0.0
1030
0.0
  0
ENDBLK
  5
3A8
  8
回08-記事
  6
CONTINUOUS
 62
     7
  0
BLOCK
  8
回08-記事
  2
*X40
 70
     1
 10
0.0
 20
0.0
 30
0.0
  3
*X40
  1

  0
INSERT
  5
3AB
  8
回07-寸法
  6
CONTINUOUS
 62
     5
  2
_OPEN
 10
285.1388249199418
 20
338.7815206715612
 30
0.0
 41
2.0
 42
2.0
 43
2.0
 50
43.8059168521559
  0
LINE
  5
3AC
  8
回07-寸法
  6
CONTINUOUS
 62
     5
 10
283.6954474246878
 20
337.3970852609355
 30
0.0
 11
280.8357783797728
 21
334.6541942975741
 31
0.0
  0
LINE
  5
3AD
  8
回07-寸法
  6
CONTINUOUS
 62
     5
 10
280.8357783797728
 20
334.6541942975741
 30
0.0
 11
273.3064274099797
 21
334.6541942975741
 31
0.0
  0
ENDBLK
  5
3AF
  8
回08-記事
  6
CONTINUOUS
 62
     7
  0
BLOCK
  8
回08-記事
  2
*X41
 70
     1
 10
0.0
 20
0.0
 30
0.0
  3
*X41
  1

  0
INSERT
  5
3B2
  8
回07-寸法
  6
CONTINUOUS
 62
     5
  2
_OPEN
 10
289.6223201958212
 20
338.1200925930892
 30
0.0
 41
2.0
 42
2.0
 43
2.0
 50
61.41280646164744
  0
LINE
  5
3B3
  8
回07-寸法
  6
CONTINUOUS
 62
     5
 10
288.6653289884429
 20
336.3639126965523
 30
0.0
 11
285.370672225511
 21
330.3178697147136
 31
0.0
  0
LINE
  5
3B4
  8
回07-寸法
  6
CONTINUOUS
 62
     5
 10
285.370672225511
 20
330.3178697147136
 30
0.0
 11
278.4144257817588
 21
330.3178697147136
 31
0.0
  0
ENDBLK
  5
3B6
  8
回08-記事
  6
CONTINUOUS
 62
     7
  0
BLOCK
  8
回08-記事
  2
*X42
 70
     1
 10
0.0
 20
0.0
 30
0.0
  3
*X42
  1

  0
LINE
  5
3C2
  8
回08-記事
  6
CONTINUOUS
 62
     8
 10
239.1810700707567
 20
348.6936926761052
 30
0.0
 11
239.3830798786614
 21
348.8957024840098
 31
0.0
1001
ACAD
1010
0.0
1020
0.0
1030
0.0
  0
LINE
  5
3C3
  8
回08-記事
  6
CONTINUOUS
 62
     8
 10
239.4599839172193
 20
344.4824784620333
 30
0.0
 11
243.9333844859026
 21
348.9558790307165
 31
0.0
1001
ACAD
1010
0.0
1020
0.0
1030
0.0
  0
LINE
  5
3C4
  8
回08-記事
  6
CONTINUOUS
 62
     8
 10
243.9235125464371
 20
344.4558790307165
 30
0.0
 11
248.4235125464371
 21
348.9558790307165
 31
0.0
1001
ACAD
1010
0.0
1020
0.0
1030
0.0
  0
LINE
  5
3C5
  8
回08-記事
  6
CONTINUOUS
 62
     8
 10
248.4136406069717
 20
344.4558790307165
 30
0.0
 11
252.9136406069716
 21
348.9558790307164
 31
0.0
1001
ACAD
1010
0.0
1020
0.0
1030
0.0
  0
LINE
  5
3C6
  8
回08-記事
  6
CONTINUOUS
 62
     8
 10
252.9037686675063
 20
344.4558790307165
 30
0.0
 11
257.4037686675061
 21
348.9558790307163
 31
0.0
1001
ACAD
1010
0.0
1020
0.0
1030
0.0
  0
LINE
  5
3C7
  8
回08-記事
  6
CONTINUOUS
 62
     8
 10
257.3938967280409
 20
344.4558790307165
 30
0.0
 11
261.8938967280408
 21
348.9558790307163
 31
0.0
1001
ACAD
1010
0.0
1020
0.0
1030
0.0
  0
LINE
  5
3C8
  8
回08-記事
  6
CONTINUOUS
 62
     8
 10
261.8840247885754
 20
344.4558790307165
 30
0.0
 11
265.1208935240501
 21
347.6927477661911
 31
0.0
1001
ACAD
1010
0.0
1020
0.0
1030
0.0
  0
ENDBLK
  5
3CA
  8
回08-記事
  6
CONTINUOUS
 62
     7
  0
BLOCK
  8
回08-記事
  2
*X43
 70
     1
 10
0.0
 20
0.0
 30
0.0
  3
*X43
  1

  0
INSERT
  5
3CD
  8
ACC
  6
CONTINUOUS
 62
     5
  2
_OPEN
 10
243.1945370150006
 20
261.035683074444
 30
0.0
 41
2.0
 42
2.0
 43
2.0
 50
252.3993448750028
  0
LINE
  5
3CE
  8
ACC
  6
CONTINUOUS
 62
     5
 10
243.7992985941943
 20
262.9420574952573
 30
0.0
 11
248.393654498541
 21
277.4247278193809
 31
0.0
  0
LINE
  5
3CF
  8
ACC
  6
CONTINUOUS
 62
     5
 10
248.393654498541
 20
277.4247278193809
 30
0.0
 11
284.9435719091961
 21
277.4247278193809
 31
0.0
  0
ENDBLK
  5
3D1
  8
回08-記事
  6
CONTINUOUS
 62
     7
  0
BLOCK
  8
回08-記事
  2
*X44
 70
     1
 10
0.0
 20
0.0
 30
0.0
  3
*X44
  1

  0
INSERT
  5
3D4
  8
ACC
  6
CONTINUOUS
 62
     5
  2
_OPEN
 10
246.7054231891217
 20
257.7810277904518
 30
0.0
 41
2.0
 42
2.0
 43
2.0
 50
97.47824176864064
  0
LINE
  5
3D5
  8
ACC
  6
CONTINUOUS
 62
     5
 10
246.9657225468785
 20
255.7980390753172
 30
0.0
 11
247.6601571475723
 21
250.5077610337494
 31
0.0
  0
LINE
  5
3D6
  8
ACC
  6
CONTINUOUS
 62
     5
 10
247.6601571475723
 20
250.5077610337494
 30
0.0
 11
269.3601571475723
 21
250.5077610337494
 31
0.0
  0
ENDBLK
  5
3D8
  8
回08-記事
  6
CONTINUOUS
 62
     7
  0
BLOCK
  8
回08-記事
  2
*X45
 70
     1
 10
0.0
 20
0.0
 30
0.0
  3
*X45
  1

  0
INSERT
  5
3DB
  8
ACC
  6
CONTINUOUS
 62
     5
  2
_OPEN
 10
403.331194711015
 20
399.5062726884239
 30
0.0
 41
2.0
 42
2.0
 43
2.0
 50
296.3018208903159
  0
LINE
  5
3DC
  8
ACC
  6
CONTINUOUS
 62
     5
 10
402.4449953481839
 20
401.2992173862095
 30
0.0
 11
399.6663989502076
 21
406.9208301834964
 31
0.0
  0
LINE
  5
3DD
  8
ACC
  6
CONTINUOUS
 62
     5
 10
399.6663989502076
 20
406.9208301834964
 30
0.0
 11
382.0278474618207
 21
406.9208301834964
 31
0.0
  0
ENDBLK
  5
3DF
  8
回08-記事
  6
CONTINUOUS
 62
     7
  0
BLOCK
  8
回08-記事
  2
*X46
 70
     1
 10
0.0
 20
0.0
 30
0.0
  3
*X46
  1

  0
TEXT
  5
41E
  8
回07-寸法
  6
CONTINUOUS
 62
     5
 10
486.7814396954433
 20
221.5833190491798
 30
0.0
 40
3.0
  1
5
 50
90.0
  0
TEXT
  5
41F
  8
回07-寸法
  6
CONTINUOUS
 62
     5
 10
486.7814396954433
 20
223.6833190491798
 30
0.0
 40
2.000099999999999
  1
±0.1
 50
90.0
  0
TEXT
  5
420
  8
回07-寸法
  6
CONTINUOUS
 62
     5
 10
486.7814396954433
 20
228.0835390491798
 30
0.0
 40
3.0
  1
[0.197
 50
90.0
  0
TEXT
  5
421
  8
回07-寸法
  6
CONTINUOUS
 62
     5
 10
486.7814396954433
 20
237.9943701547607
 30
0.0
 40
2.000099999999999
  1
±0.004
 50
90.0
  0
TEXT
  5
422
  8
回07-寸法
  6
CONTINUOUS
 62
     5
 10
486.7814396954433
 20
245.7947601547608
 30
0.0
 40
3.0
  1
]
 50
90.0
  0
ENDBLK
  5
424
  8
回08-記事
  6
CONTINUOUS
 62
     7
  0
BLOCK
  8
回08-記事
  2
*X47
 70
     1
 10
0.0
 20
0.0
 30
0.0
  3
*X47
  1

  0
TEXT
  5
427
  8
回07-寸法
  6
CONTINUOUS
 62
     5
 10
200.6303714592601
 20
266.7645586174566
 30
0.0
 40
3.0
  1
0.3
 50
90.0
  0
TEXT
  5
428
  8
回07-寸法
  6
CONTINUOUS
 62
     5
 10
200.6303714592601
 20
271.8645586174566
 30
0.0
 40
2.000099999999999
  1
±0.05
 50
90.0
  0
TEXT
  5
429
  8
回07-寸法
  6
CONTINUOUS
 62
     5
 10
200.6303714592601
 20
278.0648686174566
 30
0.0
 40
3.0
  1
[0.012
 50
90.0
  0
TEXT
  5
42A
  8
回07-寸法
  6
CONTINUOUS
 62
     5
 10
200.6303714592601
 20
287.9648686174566
 30
0.0
 40
2.000099999999999
  1
±0.002
 50
90.0
  0
TEXT
  5
42B
  8
回07-寸法
  6
CONTINUOUS
 62
     5
 10
200.6303714592601
 20
295.5652486174566
 30
0.0
 40
3.0
  1
]
 50
90.0
  0
ENDBLK
  5
42D
  8
回08-記事
  6
CONTINUOUS
 62
     7
  0
BLOCK
  8
回08-記事
  2
*X48
 70
     1
 10
0.0
 20
0.0
 30
0.0
  3
*X48
  1

  0
TEXT
  5
430
  8
回07-寸法
  6
CONTINUOUS
 62
     5
 10
428.1893631676179
 20
221.8614764127323
 30
0.0
 40
3.0
  1
1.4
 50
90.0
  0
TEXT
  5
431
  8
回07-寸法
  6
CONTINUOUS
 62
     5
 10
428.1893631676179
 20
226.6614764127323
 30
0.0
 40
2.000099999999999
  1
±0.2
 50
90.0
  0
TEXT
  5
432
  8
回07-寸法
  6
CONTINUOUS
 62
     5
 10
428.1893631676179
 20
231.4617164127322
 30
0.0
 40
3.0
  1
[0.055
 50
90.0
  0
TEXT
  5
433
  8
回07-寸法
  6
CONTINUOUS
 62
     5
 10
428.1893631676179
 20
241.9617164127322
 30
0.0
 40
2.000099999999999
  1
±0.008
 50
90.0
  0
TEXT
  5
434
  8
回07-寸法
  6
CONTINUOUS
 62
     5
 10
428.1893631676179
 20
249.5620964127322
 30
0.0
 40
3.0
  1
]
 50
90.0
  0
ENDBLK
  5
436
  8
回08-記事
  6
CONTINUOUS
 62
     7
  0
BLOCK
  8
回08-記事
  2
*X49
 70
     1
 10
0.0
 20
0.0
 30
0.0
  3
*X49
  1

  0
TEXT
  5
439
  8
回07-寸法
  6
CONTINUOUS
 62
     5
 10
238.0989001937045
 20
376.0825938480183
 30
0.0
 40
3.0
  1
75
  0
TEXT
  5
43A
  8
回07-寸法
  6
CONTINUOUS
 62
     5
 10
242.2989001937045
 20
376.0825938480183
 30
0.0
 40
2.1
  1
±1
  0
TEXT
  5
43B
  8
回07-寸法
  6
CONTINUOUS
 62
     5
 10
244.8189001937045
 20
376.0825938480183
 30
0.0
 40
3.0
  1
 [2.953
  0
TEXT
  5
43C
  8
回07-寸法
  6
CONTINUOUS
 62
     5
 10
257.1297312992855
 20
376.0825938480183
 30
0.0
 40
2.1
  1
±0.039
  0
TEXT
  5
43D
  8
回07-寸法
  6
CONTINUOUS
 62
     5
 10
265.1173130731921
 20
376.0825938480183
 30
0.0
 40
3.0
  1
]
  0
ENDBLK
  5
43F
  8
回08-記事
  6
CONTINUOUS
 62
     7
  0
BLOCK
  8
回08-記事
  2
*X50
 70
     1
 10
0.0
 20
0.0
 30
0.0
  3
*X50
  1

  0
TEXT
  5
442
  8
回07-寸法
  6
CONTINUOUS
 62
     5
 10
197.0705544391999
 20
354.3057049736673
 30
0.0
 40
3.0
  1
5
 50
90.0
  0
TEXT
  5
443
  8
回07-寸法
  6
CONTINUOUS
 62
     5
 10
197.0705544391999
 20
356.4057049736673
 30
0.0
 40
2.1
  1
±0.1
 50
90.0
  0
TEXT
  5
444
  8
回07-寸法
  6
CONTINUOUS
 62
     5
 10
197.0705544391999
 20
361.0257049736673
 30
0.0
 40
3.0
  1
 [0.197
 50
90.0
  0
TEXT
  5
445
  8
回07-寸法
  6
CONTINUOUS
 62
     5
 10
197.0705544391999
 20
372.7365360792483
 30
0.0
 40
2.1
  1
±0.004
 50
90.0
  0
TEXT
  5
446
  8
回07-寸法
  6
CONTINUOUS
 62
     5
 10
197.0705544391999
 20
380.9265360792482
 30
0.0
 40
3.0
  1
]
 50
90.0
  0
ENDBLK
  5
448
  8
回08-記事
  6
CONTINUOUS
 62
     7
  0
BLOCK
  8
回08-記事
  2
*X51
 70
     1
 10
0.0
 20
0.0
 30
0.0
  3
*X51
  1

  0
TEXT
  5
44B
  8
回07-寸法
  6
CONTINUOUS
 62
     5
 10
338.4581066334483
 20
440.7690729529162
 30
0.0
 40
3.0
  1
131.4
  0
TEXT
  5
44C
  8
回07-寸法
  6
CONTINUOUS
 62
     5
 10
346.8581066334483
 20
440.7690729529162
 30
0.0
 40
2.1
  1
±0.3
  0
TEXT
  5
44D
  8
回07-寸法
  6
CONTINUOUS
 62
     5
 10
351.8981066334483
 20
440.7690729529162
 30
0.0
 40
3.0
  1
 [5.173
  0
TEXT
  5
44E
  8
回07-寸法
  6
CONTINUOUS
 62
     5
 10
363.5981066334483
 20
440.7690729529162
 30
0.0
 40
2.1
  1
±0.012
  0
TEXT
  5
44F
  8
回07-寸法
  6
CONTINUOUS
 62
     5
 10
371.1581066334483
 20
440.7690729529162
 30
0.0
 40
3.0
  1
]
  0
ENDBLK
  5
451
  8
回08-記事
  6
CONTINUOUS
 62
     7
  0
BLOCK
  8
回08-記事
  2
*X52
 70
     1
 10
0.0
 20
0.0
 30
0.0
  3
*X52
  1

  0
TEXT
  5
454
  8
回07-寸法
  6
CONTINUOUS
 62
     5
 10
243.8077390743933
 20
434.1102517138391
 30
0.0
 40
3.0
  1
8.4 [0.331]
  0
TEXT
  5
455
  8
回07-寸法
  6
CONTINUOUS
 62
     5
 10
262.1077390743932
 20
434.1102517138391
 30
0.0
 40
2.000099999999999
  1
(INSULATION AREA)
  0
ENDBLK
  5
457
  8
回08-記事
  6
CONTINUOUS
 62
     7
  0
BLOCK
  8
回08-記事
  2
*X53
 70
     1
 10
0.0
 20
0.0
 30
0.0
  3
*X53
  1

  0
TEXT
  5
45A
  8
回07-寸法
  6
CONTINUOUS
 62
     5
 10
425.1581066334483
 20
434.1102517138391
 30
0.0
 40
3.0
  1
3.6 [0.142]
  0
TEXT
  5
45B
  8
回07-寸法
  6
CONTINUOUS
 62
     5
 10
443.4581066334483
 20
434.1102517138391
 30
0.0
 40
2.000099999999999
  1
(INSULATION AREA)
  0
ENDBLK
  5
45D
  8
回08-記事
  6
CONTINUOUS
 62
     7
  0
BLOCK
  8
回08-記事
  2
*X54
 70
     1
 10
0.0
 20
0.0
 30
0.0
  3
*X54
  1

  0
TEXT
  5
460
  8
回07-寸法
  6
CONTINUOUS
 62
     5
 10
479.3979822323269
 20
333.105879030716
 30
0.0
 40
3.0
  1
103
 50
90.0
  0
TEXT
  5
461
  8
回07-寸法
  6
CONTINUOUS
 62
     5
 10
479.397982232327
 20
338.805879030716
 30
0.0
 40
2.1
  1
±0.3
 50
90.0
  0
TEXT
  5
462
  8
回07-寸法
  6
CONTINUOUS
 62
     5
 10
479.397982232327
 20
343.845879030716
 30
0.0
 40
3.0
  1
 [4.055
 50
90.0
  0
TEXT
  5
463
  8
回07-寸法
  6
CONTINUOUS
 62
     5
 10
479.397982232327
 20
356.445879030716
 30
0.0
 40
2.1
  1
±0.012
 50
90.0
  0
TEXT
  5
464
  8
回07-寸法
  6
CONTINUOUS
 62
     5
 10
479.397982232327
 20
364.005879030716
 30
0.0
 40
3.0
  1
]
 50
90.0
  0
ENDBLK
  5
466
  8
回08-記事
  6
CONTINUOUS
 62
     7
  0
BLOCK
  8
回08-記事
  2
*X55
 70
     1
 10
0.0
 20
0.0
 30
0.0
  3
*X55
  1

  0
TEXT
  5
469
  8
回07-寸法
  6
CONTINUOUS
 62
     5
 10
471.0276786937209
 20
404.7058790307159
 30
0.0
 40
3.0
  1
8.2 [0.323]
 50
90.0
  0
TEXT
  5
46A
  8
回07-寸法
  6
CONTINUOUS
 62
     5
 10
471.0276786937209
 20
423.3058790307159
 30
0.0
 40
2.000099999999999
  1
(INSULATION AREA)
 50
90.0
  0
ENDBLK
  5
46C
  8
回08-記事
  6
CONTINUOUS
 62
     7
  0
BLOCK
  8
回08-記事
  2
*X56
 70
     1
 10
0.0
 20
0.0
 30
0.0
  3
*X56
  1

  0
TEXT
  5
46F
  8
回07-寸法
  6
CONTINUOUS
 62
     5
 10
471.0276786937207
 20
252.0555114716608
 30
0.0
 40
3.0
  1
3.3 [0.130]
 50
90.0
  0
TEXT
  5
470
  8
回07-寸法
  6
CONTINUOUS
 62
     5
 10
471.0276786937207
 20
270.0555114716609
 30
0.0
 40
2.000099999999999
  1
(INSULATION AREA)
 50
90.0
  0
ENDBLK
  5
472
  8
回08-記事
  6
CONTINUOUS
 62
     7
  0
ENDSEC
  0
SECTION
  2
ENTITIES
  0
TEXT
  5
5E
  8
回03-記事
  6
CONTINUOUS
 62
     5
 10
263.1545527976235
 20
190.6036173295798
 30
0.0
 40
4.8
  1
without affecting product specification.
  0
TEXT
  5
60
  8
回03-記事
  6
CONTINUOUS
 62
     5
 10
263.1545527976235
 20
199.0233230437798
 30
0.0
 40
4.8
  1
Edges and corners of ITO glass may be chamfered 
  0
TEXT
  5
61
  8
回03-記事
  6
CONTINUOUS
 62
     5
 10
263.1545527976235
 20
207.4430287579796
 30
0.0
 40
4.8
  1
Unit: mm
  0
TEXT
  5
62
  8
回03-記事
  6
CONTINUOUS
 62
     5
 10
263.1545527976235
 20
215.8627344721794
 30
0.0
 40
4.8
  1
EXCEPT WHERE INDICATED
  0
TEXT
  5
63
  8
回03-記事
  6
CONTINUOUS
 62
     5
 10
263.1545527976235
 20
224.2824401863791
 30
0.0
 40
4.8
  1
TOLERANCE=±0.5mm
  0
TEXT
  5
64
  8
回08-記事
  6
CONTINUOUS
 62
     5
 10
492.0735155349794
 20
356.5558661216578
 30
0.0
 40
4.341093749999999
  1
PIN ASSIGNMENT
  0
DIMENSION
  5
65
  8
回08-記事
  6
CONTINUOUS
 62
     7
  2
*D4
 10
504.7702670874534
 20
253.8445860977125
 30
0.0
 11
502.6202670874534
 21
241.2434049953501
 31
0.0
 70
     0
  1
0.6[0.024]
  3
DMC
 13
507.027738384435
 23
256.2445860977125
 33
0.0
 14
507.027738384435
 24
253.8445860977124
 34
0.0
 50
90.0
1001
ACAD
1000
DSTYLE
1002
{
1070
   170
1070
     1
1070
   371
1070
     9
1070
   372
1070
     9
1002
}
  0
LINE
  5
77
  8
回08-記事
  6
CONTINUOUS
 62
     7
 10
527.027738384435
 20
271.0445860977126
 30
0.0
 11
527.027738384435
 21
251.044586097712
 31
0.0
  0
TEXT
  5
78
  8
回08-記事
  6
CONTINUOUS
 62
     5
 10
220.854825499481
 20
334.1033654137209
 30
0.0
 40
3.0
  1
A
1001
ACAD
1000
MTEXTBEGIN
1070
    73
1070
     1
1070
    44
1040
1.0
1070
    74
1070
     0
1000
MTEXTEND
  0
INSERT
  5
79
  8
回08-記事
  6
CONTINUOUS
 62
     7
 66
     1
  2
*X37
 10
0.0
 20
0.0
 30
0.0
  0
SEQEND
  5
388
  8
回08-記事
  6
CONTINUOUS
 62
     7
  0
CIRCLE
  5
7A
  8
回08-記事
  6
DASHED2
 62
     5
 10
214.7081066334483
 20
346.7058790307165
 30
0.0
 40
7.367353187040897
  0
DIMENSION
  5
7C
  8
回07-寸法
  6
CONTINUOUS
 62
     7
  2
*D3
 10
499.7966454292964
 20
259.0445860977126
 30
0.0
 11
499.7966454292964
 21
242.5252845116192
 31
0.0
 70
   128
  1
1[0.039]
  3
DMC
 13
507.027738384435
 23
255.0445860977125
 33
0.0
 14
507.027738384435
 24
259.0445860977125
 34
0.0
 50
90.0
1001
ACAD
1000
DSTYLE
1002
{
1070
   144
1040
0.25
1070
    47
1040
0.2
1070
    48
1040
0.2
1070
   371
1070
     9
1070
   372
1070
     9
1002
}
  0
DIMENSION
  5
91
  8
回07-寸法
  6
CONTINUOUS
 62
     7
  2
*D2
 10
493.6449257976197
 20
255.0445860977126
 30
0.0
 11
493.6449257976196
 21
242.5445860977124
 31
0.0
 70
   128
  1
3[0.118]
  3
DMC
 13
507.027738384435
 23
267.0445860977125
 33
0.0
 14
507.027738384435
 24
255.0445860977125
 34
0.0
 50
90.0
1001
ACAD
1000
DSTYLE
1002
{
1070
   144
1040
0.25
1070
    47
1040
0.2
1070
    48
1040
0.2
1070
   371
1070
     9
1070
   372
1070
     9
1002
}
  0
DIMENSION
  5
A2
  8
回07-寸法
  6
CONTINUOUS
 62
     7
  2
*D1
 10
487.4314396954434
 20
251.0445860977119
 30
0.0
 11
485.2814396954434
 21
234.2890396019703
 31
0.0
 70
     0
  1
5{\H0.6667x;±0.1}[0.197{\H0.6667x;±0.004}]
  3
DMC
 13
509.027738384435
 23
271.0445860977125
 33
0.0
 14
509.027738384435
 24
251.0445860977118
 34
0.0
 50
90.0
1001
ACAD
1000
DSTYLE
1002
{
1070
   147
1040
0.5
1070
    72
1070
     0
1070
    71
1070
     1
1070
   144
1040
0.25
1070
    47
1040
0.1
1070
    48
1040
0.1
1070
   371
1070
     9
1070
   372
1070
     9
1002
}
  0
TEXT
  5
B3
  8
ACC
  6
CONTINUOUS
 62
     7
 10
511.669062894121
 20
272.6428456216666
 30
0.0
 40
4.0
  1
4
 50
90.0
  0
TEXT
  5
B7
  8
ACC
  6
CONTINUOUS
 62
     7
 10
511.669062894121
 20
247.1714534832985
 30
0.0
 40
4.0
  1
1
 50
90.0
  0
POLYLINE
  5
B8
  8
ACC
  6
CONTINUOUS
 62
     8
 66
     1
 10
0.0
 20
0.0
 30
0.0
 40
2.399999999999999
 41
2.399999999999999
  0
VERTEX
  5
389
  8
ACC
  6
CONTINUOUS
 62
     8
 10
507.027738384435
 20
259.0445860977125
 30
0.0
  0
VERTEX
  5
38B
  8
ACC
  6
CONTINUOUS
 62
     8
 10
527.027738384435
 20
259.0445860977125
 30
0.0
  0
SEQEND
  5
38A
  8
回08-記事
  6
CONTINUOUS
 62
     7
  0
POLYLINE
  5
B9
  8
ACC
  6
CONTINUOUS
 62
     8
 66
     1
 10
0.0
 20
0.0
 30
0.0
 40
2.399999999999999
 41
2.399999999999999
  0
VERTEX
  5
38C
  8
ACC
  6
CONTINUOUS
 62
     8
 10
507.027738384435
 20
255.0445860977125
 30
0.0
  0
VERTEX
  5
38E
  8
ACC
  6
CONTINUOUS
 62
     8
 10
527.027738384435
 20
255.0445860977125
 30
0.0
  0
SEQEND
  5
38D
  8
回08-記事
  6
CONTINUOUS
 62
     7
  0
POLYLINE
  5
BA
  8
ACC
  6
CONTINUOUS
 62
     8
 66
     1
 10
0.0
 20
0.0
 30
0.0
 40
2.399999999999999
 41
2.399999999999999
  0
VERTEX
  5
38F
  8
ACC
  6
CONTINUOUS
 62
     8
 10
507.027738384435
 20
267.0445860977125
 30
0.0
  0
VERTEX
  5
391
  8
ACC
  6
CONTINUOUS
 62
     8
 10
527.027738384435
 20
267.0445860977125
 30
0.0
  0
SEQEND
  5
390
  8
回08-記事
  6
CONTINUOUS
 62
     7
  0
POLYLINE
  5
BB
  8
ACC
  6
CONTINUOUS
 62
     8
 66
     1
 10
0.0
 20
0.0
 30
0.0
 40
2.399999999999999
 41
2.399999999999999
  0
VERTEX
  5
392
  8
ACC
  6
CONTINUOUS
 62
     8
 10
507.027738384435
 20
263.0445860977125
 30
0.0
  0
VERTEX
  5
394
  8
ACC
  6
CONTINUOUS
 62
     8
 10
527.027738384435
 20
263.0445860977125
 30
0.0
  0
SEQEND
  5
393
  8
回08-記事
  6
CONTINUOUS
 62
     7
  0
LINE
  5
BC
  8
ACC
  6
BYBLOCK
 62
     8
 10
507.027738384435
 20
253.0445860977124
 30
0.0
 11
507.027738384435
 21
269.0445860977129
 31
0.0
  0
ARC
  5
BD
  8
ACC
  6
BYBLOCK
 62
     8
 10
509.027738384435
 20
269.0445860977129
 30
0.0
 40
2.0
 50
90.0
 51
180.0
  0
ARC
  5
BE
  8
ACC
  6
BYBLOCK
 62
     8
 10
509.027738384435
 20
253.0445860977124
 30
0.0
 40
2.0
 50
180.0
 51
270.0
  0
LINE
  5
BF
  8
ACC
  6
BYBLOCK
 62
     8
 10
509.027738384435
 20
271.0445860977125
 30
0.0
 11
533.0159506299662
 21
271.0445860977125
 31
0.0
  0
LINE
  5
C0
  8
ACC
  6
BYBLOCK
 62
     8
 10
509.027738384435
 20
251.0445860977118
 30
0.0
 11
533.015950629966
 21
251.0445860977118
 31
0.0
  0
TEXT
  5
C1
  8
回08-記事
  6
CONTINUOUS
 62
     5
 10
179.2180752149004
 20
249.7914785849145
 30
0.0
 40
3.0
  1
Trace Expose
1001
ACAD
1000
MTEXTBEGIN
1070
    73
1070
     1
1070
    44
1040
1.0
1070
    74
1070
     0
1000
MTEXTEND
  0
INSERT
  5
C2
  8
回08-記事
  6
CONTINUOUS
 62
     8
 66
     1
  2
*X38
 10
0.0
 20
0.0
 30
0.0
  0
SEQEND
  5
39B
  8
回08-記事
  6
CONTINUOUS
 62
     7
  0
POLYLINE
  5
C3
  8
回08-記事
  6
CONTINUOUS
 62
     8
 66
     1
 10
0.0
 20
0.0
 30
0.0
 70
     1
1001
ACAD
1000
ASC_BOUNDS
1002
{
1070
    19
1005
C4
1002
}
  0
VERTEX
  5
39C
  8
回08-記事
  6
CONTINUOUS
 62
     8
 10
285.3973201958217
 20
339.455879030716
 30
0.0
  0
VERTEX
  5
39E
  8
回08-記事
  6
CONTINUOUS
 62
     8
 10
285.3973201958217
 20
345.4558790307165
 30
0.0
  0
VERTEX
  5
39F
  8
回08-記事
  6
CONTINUOUS
 62
     8
 10
293.2973201958217
 20
345.4558790307165
 30
0.0
  0
VERTEX
  5
3A0
  8
回08-記事
  6
CONTINUOUS
 62
     8
 10
293.2973201958217
 20
339.455879030716
 30
0.0
  0
SEQEND
  5
39D
  8
回08-記事
  6
CONTINUOUS
 62
     7
  0
INSERT
  5
C4
  8
回08-記事
  6
CONTINUOUS
 62
     8
 66
     1
  2
*X39
 10
0.0
 20
0.0
 30
0.0
1001
ACAD
1010
0.0
1020
0.0
1030
0.0
  0
SEQEND
  5
3A9
  8
回08-記事
  6
CONTINUOUS
 62
     7
  0
DIMENSION
  5
C5
  8
回07-寸法
  6
CONTINUOUS
 62
     7
  2
*D15
 10
197.7205544391998
 20
344.2058790307165
 30
0.0
 11
197.7205544391999
 21
368.2161205264578
 31
0.0
 70
   128
  3
DMC
 13
215.2081066334483
 23
349.2058790307165
 33
0.0
 14
215.2081066334484
 24
344.2058790307163
 34
0.0
 50
90.0
1001
ACAD
1000
DSTYLE
1002
{
1070
    47
1040
0.1
1070
   147
1040
0.5
1070
    48
1040
0.1
1070
    72
1070
     0
1070
    71
1070
     1
1070
   170
1070
     1
1070
   371
1070
     9
1070
   372
1070
     9
1002
}
  0
TEXT
  5
D4
  8
回07-寸法
  6
CONTINUOUS
 62
     5
 10
274.0142497490069
 20
334.9891064625938
 30
0.0
 40
2.099999999999999
  1
4-R1
  0
TEXT
  5
D5
  8
回07-寸法
  6
CONTINUOUS
 62
     5
 10
279.0369043502137
 20
330.6219722489293
 30
0.0
 40
2.099999999999999
  1
2-R2
  0
INSERT
  5
D6
  8
回07-寸法
  6
CONTINUOUS
 62
     7
 66
     1
  2
*X40
 10
0.0
 20
0.0
 30
0.0
  0
SEQEND
  5
3B0
  8
回08-記事
  6
CONTINUOUS
 62
     7
  0
INSERT
  5
D7
  8
回07-寸法
  6
CONTINUOUS
 62
     7
 66
     1
  2
*X41
 10
0.0
 20
0.0
 30
0.0
  0
SEQEND
  5
3B7
  8
回08-記事
  6
CONTINUOUS
 62
     7
  0
POLYLINE
  5
D8
  8
回08-記事
  6
CONTINUOUS
 62
     8
 66
     1
 10
0.0
 20
0.0
 30
0.0
 70
     1
1001
ACAD
1000
ASC_BOUNDS
1002
{
1070
    19
1005
D9
1002
}
  0
VERTEX
  5
3B8
  8
回08-記事
  6
CONTINUOUS
 62
     8
 10
239.6208935240501
 20
344.4558790307165
 30
0.0
  0
VERTEX
  5
3BA
  8
回08-記事
  6
CONTINUOUS
 62
     8
 10
264.6208935240501
 20
344.4558790307165
 30
0.0
 42
0.4142135623730951
  0
VERTEX
  5
3BB
  8
回08-記事
  6
CONTINUOUS
 62
     8
 10
265.1208935240501
 20
344.9558790307165
 30
0.0
  0
VERTEX
  5
3BC
  8
回08-記事
  6
CONTINUOUS
 62
     8
 10
265.1208935240501
 20
348.4558790307163
 30
0.0
 42
0.4142135623730951
  0
VERTEX
  5
3BD
  8
回08-記事
  6
CONTINUOUS
 62
     8
 10
264.6208935240501
 20
348.9558790307163
 30
0.0
  0
VERTEX
  5
3BE
  8
回08-記事
  6
CONTINUOUS
 62
     8
 10
239.6208935240501
 20
348.9558790307163
 30
0.0
 42
0.4142135623730951
  0
VERTEX
  5
3BF
  8
回08-記事
  6
CONTINUOUS
 62
     8
 10
239.1208935240501
 20
348.4558790307165
 30
0.0
  0
VERTEX
  5
3C0
  8
回08-記事
  6
CONTINUOUS
 62
     8
 10
239.1208935240501
 20
344.9558790307165
 30
0.0
 42
0.4142135623730971
  0
SEQEND
  5
3B9
  8
回08-記事
  6
CONTINUOUS
 62
     7
  0
INSERT
  5
D9
  8
回08-記事
  6
CONTINUOUS
 62
     8
 66
     1
  2
*X42
 10
0.0
 20
0.0
 30
0.0
1001
ACAD
1010
0.0
1020
0.0
1030
0.0
  0
SEQEND
  5
3CB
  8
回08-記事
  6
CONTINUOUS
 62
     7
  0
DIMENSION
  5
DA
  8
回07-寸法
  6
CONTINUOUS
 62
     7
  2
*D14
 10
204.9225538388108
 20
346.7058790307166
 30
0.0
 11
202.7711037617517
 21
322.1808790307163
 31
0.0
 70
     0
  1
(<>)
  3
DMC
 13
289.7081066334483
 23
297.655879030716
 33
0.0
 14
212.7081066334483
 24
346.7058790307165
 34
0.0
 50
90.0
1001
ACAD
1000
DSTYLE
1002
{
1070
   170
1070
     1
1070
   371
1070
     9
1070
   372
1070
     9
1002
}
  0
DIMENSION
  5
E7
  8
回07-寸法
  6
CONTINUOUS
 62
     7
  2
*D13
 10
266.0722831058174
 20
338.705879030716
 30
0.0
 11
266.0722831058174
 21
326.1058790307158
 31
0.0
 70
   128
  3
DMC
 13
285.5203503107887
 23
354.7058790307166
 33
0.0
 14
285.5203503107887
 24
338.7058790307159
 34
0.0
 50
90.0
1001
ACAD
1000
DSTYLE
1002
{
1070
   170
1070
     1
1070
   371
1070
     9
1070
   372
1070
     9
1002
}
  0
DIMENSION
  5
F6
  8
回07-寸法
  6
CONTINUOUS
 62
     7
  2
*D12
 10
289.7081066334483
 20
368.4986734225979
 30
0.0
 11
264.5535955262281
 21
368.4986734225979
 31
0.0
 70
   128
  3
DMC
 13
279.553595526228
 23
349.2816101626932
 33
0.0
 14
289.7081066334483
 24
355.3830033751841
 34
0.0
1001
ACAD
1000
DSTYLE
1002
{
1070
   170
1070
     1
1070
   371
1070
     9
1070
   372
1070
     9
1002
}
  0
DIMENSION
  5
105
  8
回07-寸法
  6
CONTINUOUS
 62
     7
  2
*D11
 10
289.7081066334483
 20
362.1058067270362
 30
0.0
 11
267.0888249199418
 21
362.1058067270362
 31
0.0
 70
   128
  3
DMC
 13
285.1388249199418
 23
354.6302373898709
 33
0.0
 14
289.7081066334483
 24
355.3830033751841
 34
0.0
1001
ACAD
1000
DSTYLE
1002
{
1070
   170
1070
     1
1070
   371
1070
     9
1070
   372
1070
     9
1002
}
  0
DIMENSION
  5
114
  8
回07-寸法
  6
CONTINUOUS
 62
     7
  2
*D10
 10
289.7081066334483
 20
375.4325938480183
 30
0.0
 11
252.2081066334483
 21
377.5825938480183
 31
0.0
 70
     0
  3
DMC
 13
214.7081066334483
 23
346.7058790307165
 33
0.0
 14
289.7081066334483
 24
355.3830033751841
 34
0.0
1001
ACAD
1000
DSTYLE
1002
{
1070
    47
1040
1.0
1070
   147
1040
0.5
1070
    48
1040
1.0
1070
    72
1070
     0
1070
    71
1070
     1
1070
   170
1070
     1
1070
   371
1070
     9
1070
   372
1070
     9
1002
}
  0
LINE
  5
121
  8
回07-寸法
  6
CENTER2
 62
     5
 10
212.7081066334483
 20
346.7058790307165
 30
0.0
 11
424.5433693468052
 21
346.7058790307165
 31
0.0
  0
TEXT
  5
123
  8
ACC
  6
CONTINUOUS
 62
     7
 10
217.7802042470994
 20
349.6215778155013
 30
0.0
 40
3.0
  1
4
 50
90.0
1001
ACAD
1000
MTEXTBEGIN
1070
    73
1070
     1
1070
    44
1040
1.0
1070
    74
1070
     0
1000
MTEXTEND
  0
TEXT
  5
124
  8
ACC
  6
CONTINUOUS
 62
     7
 10
217.7802042470994
 20
341.3076640225693
 30
0.0
 40
3.0
  1
1
 50
90.0
1001
ACAD
1000
MTEXTBEGIN
1070
    73
1070
     1
1070
    44
1040
1.0
1070
    74
1070
     0
1000
MTEXTEND
  0
INSERT
  5
125
  8
ACC
  6
CONTINUOUS
 62
     7
 66
     1
  2
*X43
 10
0.0
 20
0.0
 30
0.0
  0
SEQEND
  5
3D2
  8
回08-記事
  6
CONTINUOUS
 62
     7
  0
TEXT
  5
126
  8
ACC
  6
CONTINUOUS
 62
     5
 10
250.7987346595109
 20
274.2481848275111
 30
0.0
 40
2.799999999999999
  1
QST-057A075H
  0
TEXT
  5
127
  8
ACC
  6
CONTINUOUS
 62
     5
 10
248.4068309296393
 20
278.215117228693
 30
0.0
 40
2.799999999999999
  1
Tail information label
1001
ACAD
1000
MTEXTBEGIN
1070
    73
1070
     1
1070
    44
1040
1.0
1070
    74
1070
     0
1000
MTEXTEND
  0
TEXT
  5
128
  8
ACC
  6
CONTINUOUS
 62
     5
 10
249.7101571475723
 20
251.0077610337494
 30
0.0
 40
3.0
  1
LOT LABEL
1001
ACAD
1000
MTEXTBEGIN
1070
    73
1070
     1
1070
    44
1040
1.0
1070
    74
1070
     0
1000
MTEXTEND
  0
INSERT
  5
129
  8
ACC
  6
CONTINUOUS
 62
     5
 66
     1
  2
*X44
 10
0.0
 20
0.0
 30
0.0
  0
SEQEND
  5
3D9
  8
回08-記事
  6
CONTINUOUS
 62
     7
  0
INSERT
  5
12A
  8
ACC
  6
CONTINUOUS
 62
     7
 66
     1
  2
*X45
 10
0.0
 20
0.0
 30
0.0
  0
SEQEND
  5
3E0
  8
回08-記事
  6
CONTINUOUS
 62
     7
  0
TEXT
  5
12B
  8
ACC
  6
CONTINUOUS
 62
     5
 10
383.4223435296237
 20
407.6634292839782
 30
0.0
 40
3.0
  1
Part No.
1001
ACAD
1000
MTEXTBEGIN
1070
    73
1070
     1
1070
    44
1040
1.0
1070
    74
1070
     0
1000
MTEXTEND
  0
POLYLINE
  5
12C
  8
ACC
  6
CONTINUOUS
 62
     7
 66
     1
 10
0.0
 20
0.0
 30
0.0
 70
     1
  0
VERTEX
  5
3E1
  8
ACC
  6
CONTINUOUS
 62
     7
 10
239.1208935240501
 20
261.035683074444
 30
0.0
  0
VERTEX
  5
3E3
  8
ACC
  6
CONTINUOUS
 62
     7
 10
264.8530790773912
 20
261.035683074444
 30
0.0
  0
VERTEX
  5
3E4
  8
ACC
  6
CONTINUOUS
 62
     7
 10
264.8530790773912
 20
260.3121464127323
 30
0.0
  0
VERTEX
  5
3E5
  8
ACC
  6
CONTINUOUS
 62
     7
 10
239.1208935240501
 20
260.3121464127323
 30
0.0
  0
SEQEND
  5
3E2
  8
回08-記事
  6
CONTINUOUS
 62
     7
  0
ARC
  5
12D
  8
FPC
  6
BYBLOCK
 62
     7
 10
288.2081066334481
 20
336.7058790307161
 30
0.0
 40
2.0
 50
41.40962210926075
 51
90.0
  0
LINE
  5
131
  8
FPC
  6
BYBLOCK
 62
     7
 10
285.5203503107887
 20
338.7058790307159
 30
0.0
 11
288.2081066334481
 21
338.7058790307159
 31
0.0
  0
ARC
  5
132
  8
FPC
  6
BYBLOCK
 62
     7
 10
279.1718533886508
 20
343.2058790307154
 30
0.0
 40
1.0
 50
45.11672702027706
 51
90.0
  0
ARC
  5
133
  8
FPC
  6
BYBLOCK
 62
     7
 10
285.5203503107882
 20
339.7058790307161
 30
0.0
 40
1.0
 50
225.1435981442338
 51
270.0
  0
LINE
  5
134
  8
FPC
  6
BYBLOCK
 62
     7
 10
279.8775181354019
 20
343.9144249115113
 30
0.0
 11
284.8150179422709
 21
338.9970022784372
 31
0.0
  0
ARC
  5
135
  8
FPC
  6
BYBLOCK
 62
     7
 10
279.1718533886508
 20
350.2058790307169
 30
0.0
 40
1.0
 50
270.0
 51
314.8832729797229
  0
ARC
  5
136
  8
FPC
  6
BYBLOCK
 62
     7
 10
285.5203503107882
 20
353.7058790307161
 30
0.0
 40
1.0
 50
90.0
 51
134.8564018557661
  0
ARC
  5
137
  8
FPC
  6
BYBLOCK
 62
     7
 10
288.2081066334481
 20
356.7058790307161
 30
0.0
 40
2.0
 50
270.0
 51
318.5903778907392
  0
LINE
  5
138
  8
FPC
  6
BYBLOCK
 62
     7
 10
279.8775181354019
 20
349.497333149921
 30
0.0
 11
284.8150179422709
 21
354.4147557829953
 31
0.0
  0
LINE
  5
139
  8
FPC
  6
BYBLOCK
 62
     7
 10
285.5203503107887
 20
354.7058790307166
 30
0.0
 11
288.2081066334481
 21
354.7058790307166
 31
0.0
  0
LINE
  5
13A
  8
FPC
  6
BYBLOCK
 62
     7
 10
214.7081066334483
 20
344.7058790307165
 30
0.0
 11
214.7081066334483
 21
348.7058790307166
 31
0.0
  0
ARC
  5
13B
  8
FPC
  6
BYBLOCK
 62
     7
 10
215.2081066334483
 20
348.7058790307166
 30
0.0
 40
0.5
 50
90.0
 51
180.0
  0
ARC
  5
13C
  8
FPC
  6
BYBLOCK
 62
     7
 10
215.2081066334483
 20
344.7058790307165
 30
0.0
 40
0.5
 50
180.0
 51
270.0
  0
LINE
  5
13D
  8
FPC
  6
BYBLOCK
 62
     7
 10
215.2081066334483
 20
349.2058790307165
 30
0.0
 11
279.1718533886508
 21
349.2058790307165
 31
0.0
  0
LINE
  5
13E
  8
FPC
  6
BYBLOCK
 62
     7
 10
215.2081066334483
 20
344.2058790307163
 30
0.0
 11
279.1718533886508
 21
344.2058790307163
 31
0.0
  0
POLYLINE
  5
13F
  8
ACC
  6
DASHED2
 62
     7
 66
     1
 10
0.0
 20
0.0
 30
0.0
 70
     1
  0
VERTEX
  5
3E6
  8
ACC
  6
DASHED2
 62
     7
 10
298.1081066334483
 20
392.455879030716
 30
0.0
  0
VERTEX
  5
3E8
  8
ACC
  6
DASHED2
 62
     7
 10
417.5081066334483
 20
392.455879030716
 30
0.0
  0
VERTEX
  5
3E9
  8
ACC
  6
DASHED2
 62
     7
 10
417.5081066334483
 20
300.9558790307161
 30
0.0
  0
VERTEX
  5
3EA
  8
ACC
  6
DASHED2
 62
     7
 10
298.1081066334483
 20
300.9558790307161
 30
0.0
  0
SEQEND
  5
3E7
  8
回08-記事
  6
CONTINUOUS
 62
     7
  0
TEXT
  5
140
  8
ACC
  6
CONTINUOUS
 62
     5
 10
381.1428661718068
 20
402.669561757787
 30
0.0
 40
3.0
  1
QST-057A
  0
TEXT
  5
141
  8
回04-下接
  6
CONTINUOUS
 62
     7
 10
398.8739125037018
 20
398.2003752912201
 30
0.0
 40
1.5
  1
QST-057A
  0
ARC
  5
145
  8
ACC
  6
CONTINUOUS
 62
     7
 10
300.5993200408582
 20
258.8121464127323
 30
0.0
 40
0.3
 50
0.0
 51
180.0
  0
TEXT
  5
146
  8
回08-記事
  6
CONTINUOUS
 62
     5
 10
409.6098104015927
 20
350.1920652640842
 30
0.0
 40
3.0
  1
XR
  0
TEXT
  5
147
  8
回08-記事
  6
CONTINUOUS
 62
     5
 10
300.6965737422106
 20
350.1920652640842
 30
0.0
 40
3.0
  1
XL
  0
TEXT
  5
148
  8
回08-記事
  6
CONTINUOUS
 62
     5
 10
351.5813785514256
 20
303.8529342991192
 30
0.0
 40
3.0
  1
YD
  0
TEXT
  5
149
  8
回08-記事
  6
CONTINUOUS
 62
     5
 10
351.5813785514256
 20
386.4851892992333
 30
0.0
 40
3.0
  1
YU
  0
DIMENSION
  5
14A
  8
回07-寸法
  6
CONTINUOUS
 62
     3
  2
*D36
 10
471.6776786937209
 20
297.6558790307162
 30
0.0
 11
469.5276786937208
 21
272.8306952511884
 31
0.0
 70
     0
  1
<>{\H0.6667x;(INSULATION AREA)}
  3
DMC
 13
417.5081066334483
 23
300.9558790307161
 33
0.0
 14
421.1081066334482
 24
297.655879030716
 34
0.0
 50
90.0
1001
ACAD
1000
DSTYLE
1002
{
1070
   170
1070
     1
1070
   371
1070
     9
1070
   372
1070
     9
1002
}
  0
DIMENSION
  5
159
  8
回07-寸法
  6
CONTINUOUS
 62
     3
  2
*D35
 10
462.5226346516302
 20
297.6558790307162
 30
0.0
 11
460.3726346516302
 21
285.0558790307159
 31
0.0
 70
     0
  3
DMC
 13
417.0081066334482
 23
301.7558790307161
 33
0.0
 14
421.1081066334482
 24
297.655879030716
 34
0.0
 50
90.0
1001
ACAD
1000
DSTYLE
1002
{
1070
   170
1070
     1
1070
   371
1070
     9
1070
   372
1070
     9
1002
}
  0
DIMENSION
  5
168
  8
回07-寸法
  6
CONTINUOUS
 62
     3
  2
*D34
 10
453.1060507235432
 20
297.6558790307162
 30
0.0
 11
453.1060507235431
 21
284.905879030716
 31
0.0
 70
   128
  3
DMC
 13
416.0081066334482
 23
302.7558790307161
 33
0.0
 14
421.1081066334482
 24
297.655879030716
 34
0.0
 50
90.0
1001
ACAD
1000
DSTYLE
1002
{
1070
   170
1070
     1
1070
   371
1070
     9
1070
   372
1070
     9
1002
}
  0
DIMENSION
  5
177
  8
回07-寸法
  6
CONTINUOUS
 62
     3
  2
*D33
 10
453.1060507235433
 20
400.6558790307162
 30
0.0
 11
453.1060507235433
 21
414.6099394240954
 31
0.0
 70
   128
  1
(<>)
  3
DMC
 13
416.0081066334482
 23
390.655879030716
 33
0.0
 14
421.1081066334482
 24
400.655879030716
 34
0.0
 50
90.0
1001
ACAD
1000
DSTYLE
1002
{
1070
   170
1070
     1
1070
   371
1070
     9
1070
   372
1070
     9
1002
}
  0
DIMENSION
  5
186
  8
回07-寸法
  6
CONTINUOUS
 62
     3
  2
*D32
 10
471.6776786937209
 20
400.6558790307162
 30
0.0
 11
469.5276786937209
 21
425.7810628102435
 31
0.0
 70
     0
  1
<>{\H0.6667x;(INSULATION AREA)}
  3
DMC
 13
417.5081066334483
 23
392.455879030716
 33
0.0
 14
421.1081066334482
 24
400.655879030716
 34
0.0
 50
90.0
1001
ACAD
1000
DSTYLE
1002
{
1070
   170
1070
     1
1070
   371
1070
     9
1070
   372
1070
     9
1002
}
  0
DIMENSION
  5
195
  8
回07-寸法
  6
CONTINUOUS
 62
     3
  2
*D31
 10
462.52263465163
 20
400.6558790307162
 30
0.0
 11
462.52263465163
 21
413.8599394240954
 31
0.0
 70
   128
  1
(<>)
  3
DMC
 13
417.0081066334482
 23
391.6558790307161
 33
0.0
 14
421.1081066334482
 24
400.655879030716
 34
0.0
 50
90.0
1001
ACAD
1000
DSTYLE
1002
{
1070
   170
1070
     1
1070
   371
1070
     9
1070
   372
1070
     9
1002
}
  0
DIMENSION
  5
1A4
  8
回07-寸法
  6
CONTINUOUS
 62
     3
  2
*D30
 10
453.1060507235434
 20
302.7558790307162
 30
0.0
 11
450.9560507235433
 21
346.705879030716
 31
0.0
 70
     0
  1
<>(ACTIVE AREA)
  3
DMC
 13
416.0081066334482
 23
390.655879030716
 33
0.0
 14
416.0081066334482
 24
302.7558790307161
 34
0.0
 50
90.0
1001
ACAD
1000
DSTYLE
1002
{
1070
   170
1070
     1
1070
   371
1070
     9
1070
   372
1070
     9
1002
}
  0
DIMENSION
  5
1B1
  8
回07-寸法
  6
CONTINUOUS
 62
     3
  2
*D29
 10
462.5226346516302
 20
301.7558790307162
 30
0.0
 11
460.3719096131007
 21
346.705879030716
 31
0.0
 70
     0
  1
<>(VIEWING AREA)
  3
DMC
 13
417.0081066334482
 23
391.6558790307161
 33
0.0
 14
417.0081066334482
 24
301.7558790307161
 34
0.0
 50
90.0
1001
ACAD
1000
DSTYLE
1002
{
1070
   170
1070
     1
1070
   371
1070
     9
1070
   372
1070
     9
1002
}
  0
DIMENSION
  5
1BE
  8
回07-寸法
  6
CONTINUOUS
 62
     3
  2
*D28
 10
471.6776786937209
 20
300.9558790307163
 30
0.0
 11
469.5276786937208
 21
346.7058790307159
 31
0.0
 70
     0
  3
DMC
 13
417.5081066334483
 23
392.455879030716
 33
0.0
 14
417.5081066334483
 24
300.9558790307161
 34
0.0
 50
90.0
1001
ACAD
1000
DSTYLE
1002
{
1070
   170
1070
     1
1070
   371
1070
     9
1070
   372
1070
     9
1002
}
  0
DIMENSION
  5
1CB
  8
回07-寸法
  6
CONTINUOUS
 62
     3
  2
*D27
 10
480.047982232327
 20
297.6558790307162
 30
0.0
 11
477.8979822323269
 21
349.155879030716
 31
0.0
 70
     0
  3
DMC
 13
421.1081066334482
 23
400.655879030716
 33
0.0
 14
421.1081066334482
 24
297.655879030716
 34
0.0
 50
90.0
1001
ACAD
1000
DSTYLE
1002
{
1070
    47
1040
0.3
1070
   147
1040
0.5
1070
    48
1040
0.3
1070
    72
1070
     0
1070
    71
1070
     1
1070
   170
1070
     1
1070
   371
1070
     9
1070
   372
1070
     9
1002
}
  0
DIMENSION
  5
1D8
  8
回07-寸法
  6
CONTINUOUS
 62
     3
  2
*D26
 10
421.1081066334482
 20
433.4602517138391
 30
0.0
 11
446.0832904129758
 21
435.6102517138391
 31
0.0
 70
     0
  1
<>{\H0.6667x;(INSULATION AREA)}
  3
DMC
 13
417.5081066334483
 23
392.455879030716
 33
0.0
 14
421.1081066334482
 24
400.655879030716
 34
0.0
1001
ACAD
1000
DSTYLE
1002
{
1070
   170
1070
     1
1070
   371
1070
     9
1070
   372
1070
     9
1002
}
  0
DIMENSION
  5
1E7
  8
回07-寸法
  6
CONTINUOUS
 62
     3
  2
*D25
 10
421.1081066334482
 20
422.1960618022662
 30
0.0
 11
434.906925531086
 21
424.3460618022663
 31
0.0
 70
     0
  1
(<>)
  3
DMC
 13
417.0081066334482
 23
391.6558790307161
 33
0.0
 14
421.1081066334482
 24
400.655879030716
 34
0.0
1001
ACAD
1000
DSTYLE
1002
{
1070
   170
1070
     1
1070
   371
1070
     9
1070
   372
1070
     9
1002
}
  0
DIMENSION
  5
1F6
  8
回07-寸法
  6
CONTINUOUS
 62
     3
  2
*D24
 10
421.1081066334482
 20
413.3296038944786
 30
0.0
 11
435.0569255310861
 21
415.4796038944786
 31
0.0
 70
     0
  1
(<>)
  3
DMC
 13
416.0081066334482
 23
390.655879030716
 33
0.0
 14
421.1081066334482
 24
400.655879030716
 34
0.0
1001
ACAD
1000
DSTYLE
1002
{
1070
   170
1070
     1
1070
   371
1070
     9
1070
   372
1070
     9
1002
}
  0
DIMENSION
  5
205
  8
回07-寸法
  6
CONTINUOUS
 62
     3
  2
*D23
 10
416.0081066334482
 20
413.3296038944786
 30
0.0
 11
357.8081066334483
 21
415.4796038944786
 31
0.0
 70
     0
  1
<>(ACTIVE AREA)
  3
DMC
 13
299.6081066334483
 23
390.655879030716
 33
0.0
 14
416.0081066334482
 24
390.655879030716
 34
0.0
1001
ACAD
1000
DSTYLE
1002
{
1070
   170
1070
     1
1070
   371
1070
     9
1070
   372
1070
     9
1002
}
  0
DIMENSION
  5
212
  8
回07-寸法
  6
CONTINUOUS
 62
     3
  2
*D22
 10
289.7081066334483
 20
413.3296038944786
 30
0.0
 11
276.2854916076095
 21
413.3296038944786
 31
0.0
 70
   128
  3
DMC
 13
299.6081066334483
 23
390.655879030716
 33
0.0
 14
289.7081066334483
 24
400.655879030716
 34
0.0
1001
ACAD
1000
DSTYLE
1002
{
1070
   170
1070
     1
1070
   371
1070
     9
1070
   372
1070
     9
1002
}
  0
DIMENSION
  5
221
  8
回07-寸法
  6
CONTINUOUS
 62
     3
  2
*D21
 10
417.0081066334482
 20
422.1960618022662
 30
0.0
 11
357.8081066334483
 21
422.1960618022662
 31
0.0
 70
   128
  1
<>(VIEWING AREA)
  3
DMC
 13
298.6081066334483
 23
391.6558790307161
 33
0.0
 14
417.0081066334482
 24
391.6558790307161
 34
0.0
1001
ACAD
1000
DSTYLE
1002
{
1070
   170
1070
     1
1070
   371
1070
     9
1070
   372
1070
     9
1002
}
  0
DIMENSION
  5
22E
  8
回07-寸法
  6
CONTINUOUS
 62
     3
  2
*D20
 10
289.7081066334483
 20
422.1960618022662
 30
0.0
 11
276.3528651377069
 21
422.1960618022662
 31
0.0
 70
   128
  3
DMC
 13
298.6081066334483
 23
391.6558790307161
 33
0.0
 14
289.7081066334483
 24
400.655879030716
 34
0.0
1001
ACAD
1000
DSTYLE
1002
{
1070
   170
1070
     1
1070
   371
1070
     9
1070
   372
1070
     9
1002
}
  0
DIMENSION
  5
23D
  8
回07-寸法
  6
CONTINUOUS
 62
     3
  2
*D19
 10
417.5081066334483
 20
433.4602517138391
 30
0.0
 11
357.8081066334483
 21
433.4602517138391
 31
0.0
 70
   128
  3
DMC
 13
298.1081066334483
 23
392.455879030716
 33
0.0
 14
417.5081066334483
 24
392.455879030716
 34
0.0
1001
ACAD
1000
DSTYLE
1002
{
1070
   170
1070
     1
1070
   371
1070
     9
1070
   372
1070
     9
1002
}
  0
DIMENSION
  5
24A
  8
回07-寸法
  6
CONTINUOUS
 62
     3
  2
*D18
 10
289.7081066334483
 20
433.4602517138391
 30
0.0
 11
264.7329228539208
 21
435.6102517138391
 31
0.0
 70
     0
  1
<>{\H0.6667x;(INSULATION AREA)}
  3
DMC
 13
298.1081066334483
 23
392.455879030716
 33
0.0
 14
289.7081066334483
 24
400.655879030716
 34
0.0
1001
ACAD
1000
DSTYLE
1002
{
1070
   170
1070
     1
1070
   371
1070
     9
1070
   372
1070
     9
1002
}
  0
DIMENSION
  5
259
  8
回07-寸法
  6
CONTINUOUS
 62
     3
  2
*D17
 10
421.1081066334482
 20
440.1190729529162
 30
0.0
 11
355.4081066334483
 21
440.1190729529162
 31
0.0
 70
   128
  3
DMC
 13
289.7081066334483
 23
400.655879030716
 33
0.0
 14
421.1081066334482
 24
400.655879030716
 34
0.0
1001
ACAD
1000
DSTYLE
1002
{
1070
    47
1040
0.3
1070
   147
1040
0.5
1070
    48
1040
0.3
1070
    72
1070
     0
1070
    71
1070
     1
1070
   170
1070
     1
1070
   371
1070
     9
1070
   372
1070
     9
1002
}
  0
LINE
  5
266
  8
回07-寸法
  6
CENTER2
 62
     5
 10
357.8081066334483
 20
300.0748302538891
 30
0.0
 11
357.8081066334483
 21
394.7712337302896
 31
0.0
  0
POLYLINE
  5
267
  8
AV_AREA
  6
CONTINUOUS
 62
     7
 66
     1
 10
0.0
 20
0.0
 30
0.0
 70
     1
  0
VERTEX
  5
3EB
  8
AV_AREA
  6
CONTINUOUS
 62
     7
 10
299.6081066334483
 20
390.655879030716
 30
0.0
  0
VERTEX
  5
3ED
  8
AV_AREA
  6
CONTINUOUS
 62
     7
 10
416.0081066334482
 20
390.655879030716
 30
0.0
  0
VERTEX
  5
3EE
  8
AV_AREA
  6
CONTINUOUS
 62
     7
 10
416.0081066334482
 20
302.7558790307161
 30
0.0
  0
VERTEX
  5
3EF
  8
AV_AREA
  6
CONTINUOUS
 62
     7
 10
299.6081066334483
 20
302.7558790307161
 30
0.0
  0
SEQEND
  5
3EC
  8
回08-記事
  6
CONTINUOUS
 62
     7
  0
POLYLINE
  5
26B
  8
AV_AREA
  6
CONTINUOUS
 62
     7
 66
     1
 10
0.0
 20
0.0
 30
0.0
 70
     1
  0
VERTEX
  5
3F0
  8
AV_AREA
  6
CONTINUOUS
 62
     7
 10
298.6081066334483
 20
391.6558790307161
 30
0.0
  0
VERTEX
  5
3F2
  8
AV_AREA
  6
CONTINUOUS
 62
     7
 10
417.0081066334482
 20
391.6558790307161
 30
0.0
  0
VERTEX
  5
3F3
  8
AV_AREA
  6
CONTINUOUS
 62
     7
 10
417.0081066334482
 20
301.7558790307161
 30
0.0
  0
VERTEX
  5
3F4
  8
AV_AREA
  6
CONTINUOUS
 62
     7
 10
298.6081066334483
 20
301.7558790307161
 30
0.0
  0
SEQEND
  5
3F1
  8
回08-記事
  6
CONTINUOUS
 62
     7
  0
POLYLINE
  5
26C
  8
GLASS
  6
CONTINUOUS
 62
     7
 66
     1
 10
0.0
 20
0.0
 30
0.0
 70
     1
  0
VERTEX
  5
3F5
  8
GLASS
  6
CONTINUOUS
 62
     7
 10
289.7081066334483
 20
400.655879030716
 30
0.0
  0
VERTEX
  5
3F7
  8
GLASS
  6
CONTINUOUS
 62
     7
 10
421.1081066334482
 20
400.655879030716
 30
0.0
  0
VERTEX
  5
3F8
  8
GLASS
  6
CONTINUOUS
 62
     7
 10
421.1081066334482
 20
297.655879030716
 30
0.0
  0
VERTEX
  5
3F9
  8
GLASS
  6
CONTINUOUS
 62
     7
 10
289.7081066334483
 20
297.655879030716
 30
0.0
  0
SEQEND
  5
3F6
  8
回08-記事
  6
CONTINUOUS
 62
     7
  0
LINE
  5
270
  8
ACC
  6
CONTINUOUS
 62
     5
 10
279.8090861391324
 20
264.6698366300359
 30
0.0
 11
277.7562795878193
 21
258.5441187983347
 31
0.0
  0
POLYLINE
  5
271
  8
ACC
  6
CONTINUOUS
 62
     7
 66
     1
 10
0.0
 20
0.0
 30
0.0
 70
     1
  0
VERTEX
  5
3FA
  8
ACC
  6
CONTINUOUS
 62
     7
 10
280.2618458296036
 20
260.3121464127323
 30
0.0
  0
VERTEX
  5
3FC
  8
ACC
  6
CONTINUOUS
 62
     7
 10
290.2081066334483
 20
260.3121464127323
 30
0.0
  0
VERTEX
  5
3FD
  8
ACC
  6
CONTINUOUS
 62
     7
 10
290.2081066334483
 20
260.9121464127323
 30
0.0
  0
VERTEX
  5
3FE
  8
ACC
  6
CONTINUOUS
 62
     7
 10
280.2618458296036
 20
260.9121464127323
 30
0.0
  0
SEQEND
  5
3FB
  8
回08-記事
  6
CONTINUOUS
 62
     7
  0
POLYLINE
  5
272
  8
ACC
  6
CONTINUOUS
 62
     7
 66
     1
 10
0.0
 20
0.0
 30
0.0
 70
     1
  0
VERTEX
  5
3FF
  8
ACC
  6
CONTINUOUS
 62
     7
 10
239.1208935240501
 20
258.3121464127323
 30
0.0
  0
VERTEX
  5
401
  8
ACC
  6
CONTINUOUS
 62
     7
 10
264.8530790773912
 20
258.3121464127323
 30
0.0
  0
VERTEX
  5
402
  8
ACC
  6
CONTINUOUS
 62
     7
 10
264.8530790773912
 20
257.5886097510206
 30
0.0
  0
VERTEX
  5
403
  8
ACC
  6
CONTINUOUS
 62
     7
 10
239.1208935240501
 20
257.5886097510206
 30
0.0
  0
SEQEND
  5
400
  8
回08-記事
  6
CONTINUOUS
 62
     7
  0
DIMENSION
  5
273
  8
回07-寸法
  6
CONTINUOUS
 62
    30
  2
*D16
 10
290.2081066334485
 20
269.7165443047072
 30
0.0
 11
304.7569255310862
 21
271.8665443047072
 31
0.0
 70
     0
  1
(<>)
  3
DMC
 13
289.7081066334484
 23
258.8121464127323
 33
0.0
 14
290.2081066334485
 24
262.6121464127323
 34
0.0
1001
ACAD
1000
DSTYLE
1002
{
1070
   170
1070
     1
1070
   371
1070
     9
1070
   372
1070
     9
1002
}
  0
LINE
  5
282
  8
ACC
  6
CONTINUOUS
 62
     7
 10
293.2973201958217
 20
255.2121464127323
 30
0.0
 11
293.2973201958217
 21
255.8121464127323
 31
0.0
  0
LINE
  5
283
  8
ACC
  6
CONTINUOUS
 62
     7
 10
289.1081066334484
 20
255.2121464127323
 30
0.0
 11
293.2973201958217
 21
255.2121464127323
 31
0.0
  0
LINE
  5
284
  8
ACC
  6
CONTINUOUS
 62
     7
 10
289.1081066334484
 20
257.6121464127323
 30
0.0
 11
289.1081066334484
 21
255.2121464127323
 31
0.0
  0
LINE
  5
285
  8
ACC
  6
CONTINUOUS
 62
     7
 10
285.3973201958217
 20
257.6121464127323
 30
0.0
 11
289.1081066334484
 21
257.6121464127323
 31
0.0
  0
LINE
  5
286
  8
ACC
  6
CONTINUOUS
 62
     7
 10
285.3973201958217
 20
258.3121464127323
 30
0.0
 11
285.3973201958217
 21
257.6121464127323
 31
0.0
  0
LINE
  5
287
  8
ACC
  6
CONTINUOUS
 62
     5
 10
289.3337034653914
 20
255.6491747314408
 30
0.0
 11
292.0409551220164
 21
251.5082395620943
 31
0.0
  0
TEXT
  5
288
  8
ACC
  6
CONTINUOUS
 62
     5
 10
293.0310121399107
 20
248.050635628033
 30
0.0
 40
3.0
  1
PROTECTION TAPE
  0
LINE
  5
289
  8
ACC
  6
CONTINUOUS
 62
     5
 10
347.3633584652848
 20
251.3743019971075
 30
0.0
 11
345.9156635465213
 21
256.7979600174997
 31
0.0
  0
LINE
  5
28A
  8
ACC
  6
CONTINUOUS
 62
     5
 10
350.0363045172075
 20
266.3248048375683
 30
0.0
 11
347.6931626176568
 21
261.9650622166544
 31
0.0
  0
LINE
  5
28B
  8
ACC
  6
CONTINUOUS
 62
     5
 10
279.8090861391324
 20
264.6698366300359
 30
0.0
 11
283.9440241136017
 21
260.5226517781535
 31
0.0
  0
LINE
  5
28C
  8
ACC
  6
CONTINUOUS
 62
     5
 10
274.0829580886843
 20
259.4492954772873
 30
0.0
 11
276.4574135517596
 21
254.8200574351422
 31
0.0
  0
LINE
  5
28D
  8
ACC
  6
CONTINUOUS
 62
     5
 10
218.9889599117109
 20
260.8441045812083
 30
0.0
 11
223.1000564274345
 21
265.8024249992049
 31
0.0
  0
TEXT
  5
28E
  8
ACC
  6
CONTINUOUS
 62
     5
 10
347.5401221543338
 20
246.6167059689791
 30
0.0
 40
3.0
  1
ITO GLASS
  0
TEXT
  5
28F
  8
ACC
  6
CONTINUOUS
 62
     5
 10
349.0200864630941
 20
267.1582723337892
 30
0.0
 40
3.0
  1
ITO FILM (ANTI-GLARE(ANR))
  0
TEXT
  5
290
  8
ACC
  6
CONTINUOUS
 62
     5
 10
223.2018355288383
 20
267.1410097517219
 30
0.0
 40
3.0
  1
STIFFENER
  0
TEXT
  5
291
  8
ACC
  6
CONTINUOUS
 62
     5
 10
249.5492885732328
 20
264.9658812892808
 30
0.0
 40
3.0
  1
REINFORCEMENT FILM
  0
TEXT
  5
292
  8
ACC
  6
CONTINUOUS
 62
     5
 10
274.8717728590356
 20
249.7473151305231
 30
0.0
 40
3.0
  1
TAIL
  0
ARC
  5
293
  8
ACC
  6
CONTINUOUS
 62
     7
 10
303.0993200408582
 20
258.8121464127323
 30
0.0
 40
0.3
 50
0.0
 51
180.0
  0
ARC
  5
294
  8
ACC
  6
CONTINUOUS
 62
     7
 10
305.4439112861071
 20
258.8121464127323
 30
0.0
 40
0.3
 50
0.0
 51
180.0
  0
ARC
  5
295
  8
ACC
  6
CONTINUOUS
 62
     7
 10
307.9439112861071
 20
258.8121464127323
 30
0.0
 40
0.3
 50
0.0
 51
180.0
  0
ARC
  5
296
  8
ACC
  6
CONTINUOUS
 62
     7
 10
310.4439112861072
 20
258.8121464127323
 30
0.0
 40
0.3
 50
0.0
 51
180.0
  0
ARC
  5
297
  8
ACC
  6
CONTINUOUS
 62
     7
 10
312.9439112861072
 20
258.8121464127323
 30
0.0
 40
0.3
 50
0.0
 51
180.0
  0
ARC
  5
298
  8
ACC
  6
CONTINUOUS
 62
     7
 10
315.4439112861072
 20
258.8121464127323
 30
0.0
 40
0.3
 50
0.0
 51
180.0
  0
ARC
  5
299
  8
ACC
  6
CONTINUOUS
 62
     7
 10
317.9439112861071
 20
258.8121464127323
 30
0.0
 40
0.3
 50
0.0
 51
180.0
  0
ARC
  5
29A
  8
ACC
  6
CONTINUOUS
 62
     7
 10
320.4439112861071
 20
258.8121464127323
 30
0.0
 40
0.3
 50
0.0
 51
180.0
  0
ARC
  5
29B
  8
ACC
  6
CONTINUOUS
 62
     7
 10
322.9439112861072
 20
258.8121464127323
 30
0.0
 40
0.3
 50
0.0
 51
180.0
  0
ARC
  5
29C
  8
ACC
  6
CONTINUOUS
 62
     7
 10
325.4439112861072
 20
258.8121464127323
 30
0.0
 40
0.3
 50
0.0
 51
180.0
  0
ARC
  5
29D
  8
ACC
  6
CONTINUOUS
 62
     7
 10
327.9439112861072
 20
258.8121464127323
 30
0.0
 40
0.3
 50
0.0
 51
180.0
  0
ARC
  5
29E
  8
ACC
  6
CONTINUOUS
 62
     7
 10
330.4439112861071
 20
258.8121464127323
 30
0.0
 40
0.3
 50
0.0
 51
180.0
  0
ARC
  5
29F
  8
ACC
  6
CONTINUOUS
 62
     7
 10
332.9439112861071
 20
258.8121464127323
 30
0.0
 40
0.3
 50
0.0
 51
180.0
  0
ARC
  5
2A0
  8
ACC
  6
CONTINUOUS
 62
     7
 10
335.4439112861072
 20
258.8121464127323
 30
0.0
 40
0.3
 50
0.0
 51
180.0
  0
ARC
  5
2A1
  8
ACC
  6
CONTINUOUS
 62
     7
 10
337.9439112861072
 20
258.8121464127323
 30
0.0
 40
0.3
 50
0.0
 51
180.0
  0
ARC
  5
2A2
  8
ACC
  6
CONTINUOUS
 62
     7
 10
340.4439112861072
 20
258.8121464127323
 30
0.0
 40
0.3
 50
0.0
 51
180.0
  0
ARC
  5
2A3
  8
ACC
  6
CONTINUOUS
 62
     7
 10
342.9439112861071
 20
258.8121464127323
 30
0.0
 40
0.3
 50
0.0
 51
180.0
  0
ARC
  5
2A4
  8
ACC
  6
CONTINUOUS
 62
     7
 10
345.4439112861071
 20
258.8121464127323
 30
0.0
 40
0.3
 50
0.0
 51
180.0
  0
ARC
  5
2A5
  8
ACC
  6
CONTINUOUS
 62
     7
 10
347.9439112861072
 20
258.8121464127323
 30
0.0
 40
0.3
 50
0.0
 51
180.0
  0
ARC
  5
2A6
  8
ACC
  6
CONTINUOUS
 62
     7
 10
350.4439112861072
 20
258.8121464127323
 30
0.0
 40
0.3
 50
0.0
 51
180.0
  0
ARC
  5
2A7
  8
ACC
  6
CONTINUOUS
 62
     7
 10
352.9439112861072
 20
258.8121464127323
 30
0.0
 40
0.3
 50
0.0
 51
180.0
  0
ARC
  5
2A8
  8
ACC
  6
CONTINUOUS
 62
     7
 10
355.4439112861071
 20
258.8121464127323
 30
0.0
 40
0.3
 50
0.0
 51
180.0
  0
ARC
  5
2A9
  8
ACC
  6
CONTINUOUS
 62
     7
 10
357.9439112861071
 20
258.8121464127323
 30
0.0
 40
0.3
 50
0.0
 51
180.0
  0
ARC
  5
2AA
  8
ACC
  6
CONTINUOUS
 62
     7
 10
360.4439112861072
 20
258.8121464127323
 30
0.0
 40
0.3
 50
0.0
 51
180.0
  0
ARC
  5
2AB
  8
ACC
  6
CONTINUOUS
 62
     7
 10
362.9439112861072
 20
258.8121464127323
 30
0.0
 40
0.3
 50
0.0
 51
180.0
  0
ARC
  5
2AC
  8
ACC
  6
CONTINUOUS
 62
     7
 10
365.4439112861072
 20
258.8121464127323
 30
0.0
 40
0.3
 50
0.0
 51
180.0
  0
ARC
  5
2AD
  8
ACC
  6
CONTINUOUS
 62
     7
 10
367.9439112861071
 20
258.8121464127323
 30
0.0
 40
0.3
 50
0.0
 51
180.0
  0
ARC
  5
2AE
  8
ACC
  6
CONTINUOUS
 62
     7
 10
370.4439112861071
 20
258.8121464127323
 30
0.0
 40
0.3
 50
0.0
 51
180.0
  0
ARC
  5
2AF
  8
ACC
  6
CONTINUOUS
 62
     7
 10
372.9439112861072
 20
258.8121464127323
 30
0.0
 40
0.3
 50
0.0
 51
180.0
  0
ARC
  5
2B0
  8
ACC
  6
CONTINUOUS
 62
     7
 10
375.4439112861072
 20
258.8121464127323
 30
0.0
 40
0.3
 50
0.0
 51
180.0
  0
ARC
  5
2B1
  8
ACC
  6
CONTINUOUS
 62
     7
 10
377.9439112861072
 20
258.8121464127323
 30
0.0
 40
0.3
 50
0.0
 51
180.0
  0
ARC
  5
2B2
  8
ACC
  6
CONTINUOUS
 62
     7
 10
380.4439112861071
 20
258.8121464127323
 30
0.0
 40
0.3
 50
0.0
 51
180.0
  0
ARC
  5
2B3
  8
ACC
  6
CONTINUOUS
 62
     7
 10
382.9439112861071
 20
258.8121464127323
 30
0.0
 40
0.3
 50
0.0
 51
180.0
  0
ARC
  5
2B4
  8
ACC
  6
CONTINUOUS
 62
     7
 10
385.4439112861072
 20
258.8121464127323
 30
0.0
 40
0.3
 50
0.0
 51
180.0
  0
ARC
  5
2B5
  8
ACC
  6
CONTINUOUS
 62
     7
 10
387.9439112861072
 20
258.8121464127323
 30
0.0
 40
0.3
 50
0.0
 51
180.0
  0
ARC
  5
2B6
  8
ACC
  6
CONTINUOUS
 62
     7
 10
390.4439112861071
 20
258.8121464127323
 30
0.0
 40
0.3
 50
0.0
 51
180.0
  0
ARC
  5
2B7
  8
ACC
  6
CONTINUOUS
 62
     7
 10
392.9439112861071
 20
258.8121464127323
 30
0.0
 40
0.3
 50
0.0
 51
180.0
  0
ARC
  5
2B8
  8
ACC
  6
CONTINUOUS
 62
     7
 10
395.4439112861071
 20
258.8121464127323
 30
0.0
 40
0.3
 50
0.0
 51
180.0
  0
ARC
  5
2B9
  8
ACC
  6
CONTINUOUS
 62
     7
 10
397.9439112861072
 20
258.8121464127323
 30
0.0
 40
0.3
 50
0.0
 51
180.0
  0
ARC
  5
2BA
  8
ACC
  6
CONTINUOUS
 62
     7
 10
400.4439112861071
 20
258.8121464127323
 30
0.0
 40
0.3
 50
0.0
 51
180.0
  0
ARC
  5
2BB
  8
ACC
  6
CONTINUOUS
 62
     7
 10
402.9439112861071
 20
258.8121464127323
 30
0.0
 40
0.3
 50
0.0
 51
180.0
  0
ARC
  5
2BC
  8
ACC
  6
CONTINUOUS
 62
     7
 10
405.4439112861071
 20
258.8121464127323
 30
0.0
 40
0.3
 50
0.0
 51
180.0
  0
ARC
  5
2BD
  8
ACC
  6
CONTINUOUS
 62
     7
 10
407.9439112861071
 20
258.8121464127323
 30
0.0
 40
0.3
 50
0.0
 51
180.0
  0
ARC
  5
2BE
  8
ACC
  6
CONTINUOUS
 62
     7
 10
410.4439112861071
 20
258.8121464127323
 30
0.0
 40
0.3
 50
0.0
 51
180.0
  0
ARC
  5
2BF
  8
ACC
  6
CONTINUOUS
 62
     7
 10
412.9439112861071
 20
258.8121464127323
 30
0.0
 40
0.3
 50
0.0
 51
180.0
  0
ARC
  5
2C0
  8
ACC
  6
CONTINUOUS
 62
     7
 10
415.4439112861071
 20
258.8121464127323
 30
0.0
 40
0.3
 50
0.0
 51
180.0
  0
LINE
  5
2C1
  8
ACC
  6
CONTINUOUS
 62
     7
 10
417.5081066334483
 20
260.3121464127323
 30
0.0
 11
417.5081066334483
 21
258.8121464127323
 31
0.0
  0
LINE
  5
2C2
  8
ACC
  6
CONTINUOUS
 62
     7
 10
298.1081066334483
 20
260.3121464127323
 30
0.0
 11
298.1081066334483
 21
258.8121464127323
 31
0.0
  0
DIMENSION
  5
2C3
  8
回07-寸法
  6
CONTINUOUS
 62
     7
  2
*D9
 10
420.6081066334483
 20
274.7520573602196
 30
0.0
 11
406.0592877358105
 21
274.7520573602196
 31
0.0
 70
   128
  1
(<>)
  3
DMC
 13
421.1081066334483
 23
258.8121464127323
 33
0.0
 14
420.6081066334483
 24
262.6121464127323
 34
0.0
1001
ACAD
1000
DSTYLE
1002
{
1070
   170
1070
     1
1070
   371
1070
     9
1070
   372
1070
     9
1002
}
  0
DIMENSION
  5
2D2
  8
回07-寸法
  6
CONTINUOUS
 62
     7
  2
*D8
 10
428.8393631676179
 20
255.8121464127324
 30
0.0
 11
428.8393631676179
 21
236.3117864127322
 31
0.0
 70
   128
  1
1.4{\H0.6667x;±0.2}[0.055{\H0.6667x;±0.008}]
  3
DMC
 13
420.6081066334483
 23
262.6121464127323
 33
0.0
 14
421.1081066334483
 24
255.8121464127323
 34
0.0
 50
90.0
1001
ACAD
1000
DSTYLE
1002
{
1070
   170
1070
     1
1070
   371
1070
     9
1070
   372
1070
     9
1002
}
  0
DIMENSION
  5
2E1
  8
回07-寸法
  6
CONTINUOUS
 62
     7
  2
*D7
 10
219.7081066334486
 20
275.6921285194985
 30
0.0
 11
233.6621670268278
 21
275.6921285194985
 31
0.0
 70
   128
  1
(<>)
  3
DMC
 13
209.7081066334486
 23
261.7121464127323
 33
0.0
 14
219.7081066334486
 24
261.7121464127323
 34
0.0
1001
ACAD
1000
DSTYLE
1002
{
1070
   170
1070
     1
1070
   371
1070
     9
1070
   372
1070
     9
1002
}
  0
DIMENSION
  5
2F0
  8
回07-寸法
  6
CONTINUOUS
 62
     7
  2
*D6
 10
214.7081066334486
 20
246.6993931264411
 30
0.0
 11
226.26334812919
 21
246.6993931264411
 31
0.0
 70
   128
  3
DMC
 13
209.7081066334486
 23
258.8121464127323
 33
0.0
 14
214.7081066334486
 24
258.3121464127323
 34
0.0
1001
ACAD
1000
DSTYLE
1002
{
1070
   170
1070
     1
1070
   371
1070
     9
1070
   372
1070
     9
1002
}
  0
DIMENSION
  5
2FF
  8
回07-寸法
  6
CONTINUOUS
 62
     7
  2
*D5
 10
201.28037145926
 20
258.8121464127324
 30
0.0
 11
201.2803714592601
 21
281.7637225150944
 31
0.0
 70
   128
  1
0.3{\H0.6667x;±0.05}[0.012{\H0.6667x;±0.002}]
  3
DMC
 13
209.7081066334486
 23
261.7121464127323
 33
0.0
 14
209.7081066334486
 24
258.8121464127323
 34
0.0
 50
90.0
1001
ACAD
1000
DSTYLE
1002
{
1070
   170
1070
     1
1070
   371
1070
     9
1070
   372
1070
     9
1002
}
  0
POLYLINE
  5
30E
  8
ACC
  6
CONTINUOUS
 62
     7
 66
     1
 10
0.0
 20
0.0
 30
0.0
 70
     1
  0
VERTEX
  5
404
  8
ACC
  6
CONTINUOUS
 62
     7
 10
289.7081066334484
 20
258.8121464127323
 30
0.0
  0
VERTEX
  5
406
  8
ACC
  6
CONTINUOUS
 62
     7
 10
214.7081066334486
 20
258.8121464127323
 30
0.0
  0
VERTEX
  5
407
  8
ACC
  6
CONTINUOUS
 62
     7
 10
214.7081066334486
 20
258.3121464127323
 30
0.0
  0
VERTEX
  5
408
  8
ACC
  6
CONTINUOUS
 62
     7
 10
289.7081066334484
 20
258.3121464127323
 30
0.0
  0
SEQEND
  5
405
  8
回08-記事
  6
CONTINUOUS
 62
     7
  0
POLYLINE
  5
30F
  8
ACC
  6
CONTINUOUS
 62
     7
 66
     1
 10
0.0
 20
0.0
 30
0.0
 70
     1
  0
VERTEX
  5
409
  8
ACC
  6
CONTINUOUS
 62
     7
 10
219.7081066334486
 20
260.3121464127323
 30
0.0
  0
VERTEX
  5
40B
  8
ACC
  6
CONTINUOUS
 62
     7
 10
209.7081066334486
 20
260.3121464127323
 30
0.0
  0
VERTEX
  5
40C
  8
ACC
  6
CONTINUOUS
 62
     7
 10
209.7081066334486
 20
261.7121464127323
 30
0.0
  0
VERTEX
  5
40D
  8
ACC
  6
CONTINUOUS
 62
     7
 10
219.7081066334486
 20
261.7121464127323
 30
0.0
  0
SEQEND
  5
40A
  8
回08-記事
  6
CONTINUOUS
 62
     7
  0
POLYLINE
  5
310
  8
ACC
  6
CONTINUOUS
 62
     7
 66
     1
 10
0.0
 20
0.0
 30
0.0
 70
     1
  0
VERTEX
  5
40E
  8
ACC
  6
CONTINUOUS
 62
     7
 10
209.7081066334486
 20
258.8121464127323
 30
0.0
  0
VERTEX
  5
410
  8
ACC
  6
CONTINUOUS
 62
     7
 10
292.4081066334484
 20
258.8121464127323
 30
0.0
  0
VERTEX
  5
411
  8
ACC
  6
CONTINUOUS
 62
     7
 10
292.4081066334484
 20
260.3121464127323
 30
0.0
  0
VERTEX
  5
412
  8
ACC
  6
CONTINUOUS
 62
     7
 10
209.7081066334486
 20
260.3121464127323
 30
0.0
  0
SEQEND
  5
40F
  8
回08-記事
  6
CONTINUOUS
 62
     7
  0
LINE
  5
311
  8
ACC
  6
CONTINUOUS
 62
     7
 10
420.6081066334483
 20
260.3121464127323
 30
0.0
 11
420.6081066334483
 21
258.8121464127323
 31
0.0
  0
POLYLINE
  5
312
  8
ACC
  6
CONTINUOUS
 62
     7
 66
     1
 10
0.0
 20
0.0
 30
0.0
 70
     1
  0
VERTEX
  5
413
  8
ACC
  6
CONTINUOUS
 62
     7
 10
290.2081066334485
 20
262.6121464127323
 30
0.0
  0
VERTEX
  5
415
  8
ACC
  6
CONTINUOUS
 62
     7
 10
420.6081066334483
 20
262.6121464127323
 30
0.0
  0
VERTEX
  5
416
  8
ACC
  6
CONTINUOUS
 62
     7
 10
420.6081066334483
 20
260.3121464127323
 30
0.0
  0
VERTEX
  5
417
  8
ACC
  6
CONTINUOUS
 62
     7
 10
290.2081066334483
 20
260.3121464127323
 30
0.0
  0
SEQEND
  5
414
  8
回08-記事
  6
CONTINUOUS
 62
     7
  0
POLYLINE
  5
313
  8
ACC
  6
CONTINUOUS
 62
     7
 66
     1
 10
0.0
 20
0.0
 30
0.0
 70
     1
  0
VERTEX
  5
418
  8
ACC
  6
CONTINUOUS
 62
     7
 10
289.7081066334484
 20
255.8121464127323
 30
0.0
  0
VERTEX
  5
41A
  8
ACC
  6
CONTINUOUS
 62
     7
 10
421.1081066334483
 20
255.8121464127323
 30
0.0
  0
VERTEX
  5
41B
  8
ACC
  6
CONTINUOUS
 62
     7
 10
421.1081066334483
 20
258.8121464127323
 30
0.0
  0
VERTEX
  5
41C
  8
ACC
  6
CONTINUOUS
 62
     7
 10
289.7081066334484
 20
258.8121464127323
 30
0.0
  0
SEQEND
  5
419
  8
回08-記事
  6
CONTINUOUS
 62
     7
  0
TEXT
  5
314
  8
回90-枠3
 10
517.6793307184571
 20
195.0685997567907
 30
0.0
 40
3.0
  1
Oct/06/2023
  0
TEXT
  5
318
  8
回90-枠3
 10
524.2364309875592
 20
200.7164919823281
 30
0.0
 40
2.5
  1
DATE
  0
LINE
  5
319
  8
回90-枠3
  6
CONTINUOUS
 62
     7
 10
509.3932734456948
 20
204.4228520294741
 30
0.0
 11
509.3932734456948
 21
181.4902038735408
 31
0.0
  0
TEXT
  5
31A
  8
回90-枠3
 10
514.1146859089704
 20
184.2973188040532
 30
0.0
 40
4.0
  1
DMC Co., Ltd.
  0
TEXT
  5
31B
  8
回90-枠3
 10
472.4482150085296
 20
200.6510238681039
 30
0.0
 40
2.5
  1
PART No.
  0
TEXT
  5
31C
  8
回90-枠3
 10
472.710162321212
 20
189.6682588995609
 30
0.0
 40
2.5
  1
TYPE
  0
TEXT
  5
31D
  8
回90-枠3
 10
458.5247447741403
 20
185.6626914353637
 30
0.0
 40
2.5
  1
STANDARD TOUCHSCREEN
  0
LINE
  5
31E
  8
回90-枠3
 10
445.1236488150061
 20
204.4228520294741
 30
0.0
 11
445.1236488150061
 21
181.5569290097919
 31
0.0
  0
TEXT
  5
31F
  8
回90-枠3
 10
460.3970787317639
 20
182.2785600137649
 30
0.0
 40
2.5
  1
DIMENSIONAL DRAWING
  0
LINE
  5
320
  8
回90-枠3
 10
456.4252044202685
 20
185.3207220773997
 30
0.0
 11
502.7544749676407
 21
185.3207220773997
 31
0.0
  0
LINE
  5
321
  8
回90-枠3
 10
445.1236488150061
 20
200.1618724489913
 30
0.0
 11
548.3817668523133
 21
200.1618724489913
 31
0.0
  0
LINE
  5
322
  8
回90-枠3
 10
445.1372552723396
 20
189.1587817730669
 30
0.0
 11
509.3932734456948
 21
189.1587817730669
 31
0.0
  0
LINE
  5
323
  8
回90-枠3
 10
445.1236488150061
 20
204.4228520294741
 30
0.0
 11
548.5417733593813
 21
204.4228520294741
 31
0.0
  0
LINE
  5
324
  8
回90-枠3
 10
445.122720401855
 20
192.8797701871935
 30
0.0
 11
548.4299728256528
 21
192.8797701871935
 31
0.0
  0
TEXT
  5
325
  8
回90-枠3
 10
453.0778733476963
 20
193.6170848761608
 30
0.0
 40
5.0
  1
QST-057A075H
  0
TEXT
  5
326
  8
回08-記事
  6
CONTINUOUS
 62
     5
 10
498.7479783410726
 20
283.0416592250876
 30
0.0
 40
4.341093749999999
  1
SECTION A
  0
TEXT
  5
327
  8
回91-枠英3
 10
549.9461943630404
 20
417.3456163056512
 30
0.0
 40
4.0
  1
1
  0
TEXT
  5
32B
  8
回91-枠英3
 10
515.271158665033
 20
453.9293521358431
 30
0.0
 40
4.0
  1
F
  0
LINE
  5
32C
  8
回91-枠英3
 10
484.5417733593803
 20
458.5569290097919
 30
0.0
 11
484.5417733593803
 21
453.5569290097919
 31
0.0
  0
LINE
  5
32D
  8
回91-枠英3
 10
420.5417733593804
 20
458.5569290097919
 30
0.0
 11
420.5417733593804
 21
453.5569290097919
 31
0.0
  0
TEXT
  5
32E
  8
回91-枠英3
 10
387.271158665033
 20
453.9293521358431
 30
0.0
 40
4.0
  1
D
  0
TEXT
  5
32F
  8
回91-枠英3
 10
451.271158665033
 20
453.9293521358431
 30
0.0
 40
4.0
  1
E
  0
LINE
  5
330
  8
回91-枠英3
 10
356.5417733593804
 20
458.5569290097919
 30
0.0
 11
356.5417733593804
 21
453.5569290097919
 31
0.0
  0
TEXT
  5
331
  8
回91-枠英3
 10
323.271158665033
 20
453.9293521358431
 30
0.0
 40
4.0
  1
C
  0
LINE
  5
332
  8
回91-枠英3
 10
292.5417733593804
 20
458.5569290097919
 30
0.0
 11
292.5417733593804
 21
453.5569290097919
 31
0.0
  0
TEXT
  5
333
  8
回91-枠英3
 10
259.271158665033
 20
453.9293521358431
 30
0.0
 40
4.0
  1
B
  0
LINE
  5
334
  8
回91-枠英3
 10
228.5417733593804
 20
458.5569290097919
 30
0.0
 11
228.5417733593804
 21
453.5569290097919
 31
0.0
  0
TEXT
  5
335
  8
回91-枠英3
 10
195.271158665033
 20
453.9293521358431
 30
0.0
 40
4.0
  1
A
  0
TEXT
  5
336
  8
回91-枠英3
 10
160.9461943630404
 20
417.3456163056512
 30
0.0
 40
4.0
  1
1
  0
LINE
  5
337
  8
回91-枠英3
 10
164.5417733593804
 20
453.5569290097919
 30
0.0
 11
548.5417733593804
 21
453.5569290097919
 31
0.0
  0
LINE
  5
338
  8
回91-枠英3
 10
553.5417733593804
 20
458.5569290097919
 30
0.0
 11
159.5417733593803
 21
458.5569290097919
 31
0.0
  0
TEXT
  5
339
  8
回91-枠英3
 10
549.6446956597383
 20
349.3456163056512
 30
0.0
 40
4.0
  1
2
  0
LINE
  5
33A
  8
回91-枠英3
 10
553.5417733593804
 20
385.5569290097919
 30
0.0
 11
548.5417733593804
 21
385.5569290097919
 31
0.0
  0
TEXT
  5
33B
  8
回91-枠英3
 10
549.6392148155373
 20
281.3456163056512
 30
0.0
 40
4.0
  1
3
  0
LINE
  5
33C
  8
回91-枠英3
 10
553.5417733593804
 20
317.5569290097919
 30
0.0
 11
548.5417733593804
 21
317.5569290097919
 31
0.0
  0
TEXT
  5
33D
  8
回91-枠英3
 10
549.5661226954561
 20
213.3456163056512
 30
0.0
 40
4.0
  1
4
  0
LINE
  5
33E
  8
回91-枠英3
 10
553.5417733593804
 20
249.5569290097919
 30
0.0
 11
548.5417733593804
 21
249.5569290097919
 31
0.0
  0
TEXT
  5
33F
  8
回91-枠英3
 10
515.271158665033
 20
176.9293521358431
 30
0.0
 40
4.0
  1
F
  0
LINE
  5
340
  8
回91-枠英3
 10
484.5417733593803
 20
181.5569290097919
 30
0.0
 11
484.5417733593803
 21
176.5569290097919
 31
0.0
  0
LINE
  5
341
  8
回91-枠英3
 10
420.5417733593804
 20
181.5569290097919
 30
0.0
 11
420.5417733593804
 21
176.5569290097919
 31
0.0
  0
TEXT
  5
342
  8
回91-枠英3
 10
387.271158665033
 20
176.9293521358431
 30
0.0
 40
4.0
  1
D
  0
TEXT
  5
343
  8
回91-枠英3
 10
451.271158665033
 20
176.9293521358431
 30
0.0
 40
4.0
  1
E
  0
LINE
  5
344
  8
回91-枠英3
 10
356.5417733593804
 20
181.5569290097919
 30
0.0
 11
356.5417733593804
 21
176.5569290097919
 31
0.0
  0
TEXT
  5
345
  8
回91-枠英3
 10
323.271158665033
 20
176.9293521358431
 30
0.0
 40
4.0
  1
C
  0
LINE
  5
346
  8
回91-枠英3
 10
292.5417733593804
 20
181.5569290097919
 30
0.0
 11
292.5417733593804
 21
176.5569290097919
 31
0.0
  0
TEXT
  5
347
  8
回91-枠英3
 10
259.271158665033
 20
176.9293521358431
 30
0.0
 40
4.0
  1
B
  0
LINE
  5
348
  8
回91-枠英3
 10
164.5417733593804
 20
385.5569290097919
 30
0.0
 11
159.5417733593803
 21
385.5569290097919
 31
0.0
  0
TEXT
  5
349
  8
回91-枠英3
 10
160.6446956597383
 20
349.3456163056512
 30
0.0
 40
4.0
  1
2
  0
LINE
  5
34A
  8
回91-枠英3
 10
164.5417733593804
 20
317.5569290097919
 30
0.0
 11
159.5417733593803
 21
317.5569290097919
 31
0.0
  0
TEXT
  5
34B
  8
回91-枠英3
 10
160.6392148155373
 20
281.3456163056512
 30
0.0
 40
4.0
  1
3
  0
LINE
  5
34C
  8
回91-枠英3
 10
228.5417733593804
 20
181.5569290097919
 30
0.0
 11
228.5417733593804
 21
176.5569290097919
 31
0.0
  0
TEXT
  5
34D
  8
回91-枠英3
 10
195.271158665033
 20
176.9293521358431
 30
0.0
 40
4.0
  1
A
  0
LINE
  5
34E
  8
回91-枠英3
 10
164.5417733593804
 20
249.5569290097919
 30
0.0
 11
159.5417733593803
 21
249.5569290097919
 31
0.0
  0
TEXT
  5
34F
  8
回91-枠英3
 10
160.5661226954562
 20
213.3456163056512
 30
0.0
 40
4.0
  1
4
  0
LINE
  5
350
  8
回91-枠英3
 10
553.5417733593804
 20
176.5569290097919
 30
0.0
 11
159.5417733593803
 21
176.5569290097919
 31
0.0
  0
LINE
  5
351
  8
回91-枠英3
 10
164.5417733593804
 20
181.5569290097919
 30
0.0
 11
548.5417733593804
 21
181.5569290097919
 31
0.0
  0
LINE
  5
352
  8
回91-枠英3
 10
159.5417733593803
 20
176.5569290097919
 30
0.0
 11
159.5417733593803
 21
458.5569290097919
 31
0.0
  0
LINE
  5
353
  8
回91-枠英3
 10
553.5417733593804
 20
176.5569290097919
 30
0.0
 11
553.5417733593804
 21
458.5569290097919
 31
0.0
  0
LINE
  5
354
  8
回91-枠英3
 10
164.5417733593804
 20
453.5569290097919
 30
0.0
 11
164.5417733593804
 21
181.5569290097919
 31
0.0
  0
LINE
  5
355
  8
回91-枠英3
 10
548.5417733593804
 20
453.5569290097919
 30
0.0
 11
548.5417733593804
 21
181.5569290097919
 31
0.0
  0
LINE
  5
356
  8
回08-記事
  6
CONTINUOUS
 62
     5
 10
518.7010087175308
 20
373.2967312695898
 30
0.0
 11
494.7012431442244
 21
373.2967312695898
 31
0.0
  0
TEXT
  5
357
  8
回08-記事
  6
CONTINUOUS
 62
     5
 10
489.7941257706448
 20
415.5870660920719
 30
0.0
 40
4.571383918725
  1
4
  0
TEXT
  5
358
  8
回08-記事
  6
CONTINUOUS
 62
     5
 10
532.9181725407884
 20
383.177070600496
 30
0.0
 40
3.999960928884373
  1
XR
  0
LINE
  5
359
  8
回08-記事
  6
CONTINUOUS
 62
     5
 10
536.4151214025904
 20
389.0108634902069
 30
0.0
 11
536.4151214025904
 21
417.5820129822382
 31
0.0
  0
LINE
  5
35A
  8
回08-記事
  6
CONTINUOUS
 62
     5
 10
532.700871968626
 20
389.0108634902069
 30
0.0
 11
536.4151214025904
 21
389.0108634902069
 31
0.0
  0
LINE
  5
35B
  8
回08-記事
  6
CONTINUOUS
 62
     5
 10
525.2152308017139
 20
390.4965632637927
 30
0.0
 11
527.2723535651403
 21
386.38231773694
 31
0.0
  0
LINE
  5
35C
  8
回08-記事
  6
CONTINUOUS
 62
     5
 10
523.158108038288
 20
386.38231773694
 30
0.0
 11
525.2152308017139
 21
390.4965632637927
 31
0.0
  0
LINE
  5
35D
  8
回08-記事
  6
CONTINUOUS
 62
     5
 10
527.2723535651403
 20
386.38231773694
 30
0.0
 11
529.3294763285667
 21
390.4965632637927
 31
0.0
  0
LINE
  5
35E
  8
回08-記事
  6
CONTINUOUS
 62
     5
 10
529.3294763285667
 20
390.4965632637927
 30
0.0
 11
531.386599091993
 21
386.38231773694
 31
0.0
  0
LINE
  5
35F
  8
回08-記事
  6
CONTINUOUS
 62
     5
 10
531.386599091993
 20
386.38231773694
 30
0.0
 11
532.700871968626
 21
389.0108634902069
 31
0.0
  0
LINE
  5
360
  8
回08-記事
  6
CONTINUOUS
 62
     5
 10
514.9296169845828
 20
386.38231773694
 30
0.0
 11
516.9867397480088
 21
390.4965632637927
 31
0.0
  0
LINE
  5
361
  8
回08-記事
  6
CONTINUOUS
 62
     5
 10
510.8153714577302
 20
386.38231773694
 30
0.0
 11
512.8724942211564
 21
390.4965632637927
 31
0.0
  0
LINE
  5
362
  8
回08-記事
  6
CONTINUOUS
 62
     5
 10
512.8724942211564
 20
390.4965632637927
 30
0.0
 11
514.9296169845828
 21
386.38231773694
 31
0.0
  0
LINE
  5
363
  8
回08-記事
  6
CONTINUOUS
 62
     5
 10
516.6438859541044
 20
390.6679901607447
 30
0.0
 11
520.7581314809572
 21
388.6108673973185
 31
0.0
  0
LINE
  5
364
  8
回08-記事
  6
CONTINUOUS
 62
     5
 10
516.6438859541044
 20
394.7822356875974
 30
0.0
 11
520.7581314809572
 21
392.7251129241711
 31
0.0
  0
LINE
  5
365
  8
回08-記事
  6
CONTINUOUS
 62
     5
 10
516.6438859541044
 20
394.7822356875974
 30
0.0
 11
520.7581314809572
 21
396.8393584510236
 31
0.0
  0
LINE
  5
366
  8
回08-記事
  6
CONTINUOUS
 62
     5
 10
516.6438859541044
 20
390.6679901607447
 30
0.0
 11
520.7581314809572
 21
392.7251129241711
 31
0.0
  0
LINE
  5
367
  8
回08-記事
  6
CONTINUOUS
 62
     5
 10
516.6438859541044
 20
382.4394991070394
 30
0.0
 11
520.7581314809572
 21
384.4966218704664
 31
0.0
  0
LINE
  5
368
  8
回08-記事
  6
CONTINUOUS
 62
     5
 10
516.6438859541044
 20
386.5537446338922
 30
0.0
 11
520.7581314809572
 21
384.4966218704664
 31
0.0
  0
LINE
  5
369
  8
回08-記事
  6
CONTINUOUS
 62
     5
 10
516.6438859541044
 20
386.5537446338922
 30
0.0
 11
520.7581314809572
 21
388.6108673973185
 31
0.0
  0
LINE
  5
36A
  8
回08-記事
  6
CONTINUOUS
 62
     5
 10
518.7010087175308
 20
397.8679198327368
 30
0.0
 11
520.7581314809572
 21
396.8393584510236
 31
0.0
  0
LINE
  5
36B
  8
回08-記事
  6
CONTINUOUS
 62
     5
 10
516.9867397480088
 20
390.4965632637927
 30
0.0
 11
519.0438625114356
 21
386.38231773694
 31
0.0
  0
LINE
  5
36C
  8
回08-記事
  6
CONTINUOUS
 62
     5
 10
519.0438625114356
 20
386.38231773694
 30
0.0
 11
521.1009852748616
 21
390.4965632637927
 31
0.0
  0
LINE
  5
36D
  8
回08-記事
  6
CONTINUOUS
 62
     5
 10
518.7010087175308
 20
397.8679198327368
 30
0.0
 11
518.7010087175308
 21
401.2964577717804
 31
0.0
  0
TEXT
  5
36E
  8
回08-記事
  6
CONTINUOUS
 62
     5
 10
499.5268859895949
 20
389.5435757447956
 30
0.0
 40
3.999960928884373
  1
XL
  0
LINE
  5
36F
  8
回08-記事
  6
CONTINUOUS
 62
     5
 10
507.4439758176708
 20
387.8680175105258
 30
0.0
 11
508.7582486943039
 21
390.4965632637927
 31
0.0
  0
LINE
  5
370
  8
回08-記事
  6
CONTINUOUS
 62
     5
 10
508.7582486943039
 20
390.4965632637927
 30
0.0
 11
510.8153714577302
 21
386.38231773694
 31
0.0
  0
LINE
  5
371
  8
回08-記事
  6
CONTINUOUS
 62
     5
 10
516.6438859541044
 20
378.3252535801872
 30
0.0
 11
520.7581314809572
 21
380.3823763436136
 31
0.0
  0
LINE
  5
372
  8
回08-記事
  6
CONTINUOUS
 62
     5
 10
516.6438859541044
 20
378.3252535801872
 30
0.0
 11
518.7010087175308
 21
377.296692198474
 31
0.0
  0
LINE
  5
373
  8
回08-記事
  6
CONTINUOUS
 62
     5
 10
518.7010087175308
 20
373.2967312695898
 30
0.0
 11
518.7010087175308
 21
377.296692198474
 31
0.0
  0
TEXT
  5
374
  8
回08-記事
  6
CONTINUOUS
 62
     5
 10
508.1933251535493
 20
374.9260764229656
 30
0.0
 40
3.999960928884373
  1
YD
  0
LINE
  5
375
  8
回08-記事
  6
CONTINUOUS
 62
     5
 10
516.6438859541044
 20
382.4394991070394
 30
0.0
 11
520.7581314809572
 21
380.3823763436136
 31
0.0
  0
TEXT
  5
376
  8
回08-記事
  6
CONTINUOUS
 62
     5
 10
490.2326240175918
 20
370.7427438967564
 30
0.0
 40
4.571383918725
  1
1
  0
TEXT
  5
377
  8
回08-記事
  6
CONTINUOUS
 62
     5
 10
489.8820843685627
 20
385.2695291063779
 30
0.0
 40
4.571383918725
  1
2
  0
TEXT
  5
378
  8
回08-記事
  6
CONTINUOUS
 62
     5
 10
490.0553464498832
 20
399.1539657412344
 30
0.0
 40
4.571383918725
  1
3
  0
LINE
  5
379
  8
回08-記事
  6
CONTINUOUS
 62
     5
 10
494.7012431442244
 20
401.2964577717804
 30
0.0
 11
518.7010087175308
 21
401.2964577717804
 31
0.0
  0
LINE
  5
37A
  8
回08-記事
  6
CONTINUOUS
 62
     5
 10
494.7012431442244
 20
387.8680175105258
 30
0.0
 11
507.4439758176708
 21
387.8680175105258
 31
0.0
  0
TEXT
  5
37B
  8
回08-記事
  6
CONTINUOUS
 62
     5
 10
519.8235324767636
 20
402.6213195167629
 30
0.0
 40
3.999960928884373
  1
YU
  0
LINE
  5
37C
  8
回08-記事
  6
CONTINUOUS
 62
     5
 10
521.1009852748616
 20
390.4965632637927
 30
0.0
 11
523.158108038288
 21
386.38231773694
 31
0.0
  0
LINE
  5
37D
  8
回08-記事
  6
CONTINUOUS
 62
     5
 10
494.7012431442244
 20
417.5820129822382
 30
0.0
 11
536.4151214025904
 21
417.5820129822382
 31
0.0
  0
ENDSEC
  0
EOF
