  0
SECTION
  2
HEADER
  9
$ACADVER
  1
AC1009
  9
$INSBASE
 10
0.0
 20
0.0
 30
0.0
  9
$EXTMIN
 10
-11.66299612423245
 20
-513.0097667544024
 30
0.0
  9
$EXTMAX
 10
2802.257233667032
 20
613.7118543888909
 30
0.0
  9
$LIMMIN
 10
0.0
 20
0.0
  9
$LIMMAX
 10
3000.0
 20
2500.0
  9
$ORTHOMODE
 70
     0
  9
$REGENMODE
 70
     1
  9
$FILLMODE
 70
     1
  9
$QTEXTMODE
 70
     0
  9
$MIRRTEXT
 70
     1
  9
$DRAGMODE
 70
     2
  9
$LTSCALE
 40
0.5
  9
$OSMODE
 70
    37
  9
$ATTMODE
 70
     1
  9
$TEXTSIZE
 40
3.0
  9
$TRACEWID
 40
1.0
  9
$TEXTSTYLE
  7
STANDARD
  9
$CLAYER
  8
回08-記事
  9
$CELTYPE
  6
CONTINUOUS
  9
$CECOLOR
 62
     7
  9
$DIMSCALE
 40
1.0
  9
$DIMASZ
 40
2.0
  9
$DIMEXO
 40
0.0
  9
$DIMDLI
 40
0.0
  9
$DIMRND
 40
0.0
  9
$DIMDLE
 40
0.0
  9
$DIMEXE
 40
1.0
  9
$DIMTP
 40
0.0
  9
$DIMTM
 40
0.0
  9
$DIMTXT
 40
3.0
  9
$DIMCEN
 40
2.0
  9
$DIMTSZ
 40
0.0
  9
$DIMTOL
 70
     0
  9
$DIMLIM
 70
     0
  9
$DIMTIH
 70
     0
  9
$DIMTOH
 70
     0
  9
$DIMSE1
 70
     0
  9
$DIMSE2
 70
     0
  9
$DIMTAD
 70
     3
  9
$DIMZIN
 70
     8
  9
$DIMBLK
  1
OPEN
  9
$DIMASO
 70
     1
  9
$DIMSHO
 70
     1
  9
$DIMPOST
  1

  9
$DIMAPOST
  1

  9
$DIMALT
 70
     1
  9
$DIMALTD
 70
     3
  9
$DIMALTF
 40
0.03937007874016
  9
$DIMLFAC
 40
1.0
  9
$DIMTOFL
 70
     1
  9
$DIMTVP
 40
0.0
  9
$DIMTIX
 70
     0
  9
$DIMSOXD
 70
     0
  9
$DIMSAH
 70
     0
  9
$DIMBLK1
  1

  9
$DIMBLK2
  1

  9
$DIMSTYLE
  2
DMC
  9
$DIMCLRD
 70
     5
  9
$DIMCLRE
 70
     5
  9
$DIMCLRT
 70
     5
  9
$DIMTFAC
 40
0.7
  9
$DIMGAP
 40
0.5
  9
$LUNITS
 70
     2
  9
$LUPREC
 70
     4
  9
$SKETCHINC
 40
1.0
  9
$FILLETRAD
 40
0.0
  9
$AUNITS
 70
     0
  9
$AUPREC
 70
     0
  9
$MENU
  1
.
  9
$ELEVATION
 40
0.0
  9
$PELEVATION
 40
0.0
  9
$THICKNESS
 40
0.0
  9
$LIMCHECK
 70
     0
  9
$BLIPMODE
 70
     0
  9
$CHAMFERA
 40
1.0
  9
$CHAMFERB
 40
1.0
  9
$SKPOLY
 70
     0
  9
$TDCREATE
 40
2451810.404221065
  9
$TDUPDATE
 40
2460224.583790336
  9
$TDINDWG
 40
3.807574583
  9
$TDUSRTIMER
 40
3.807573889
  9
$USRTIMER
 70
     1
  9
$ANGBASE
 50
0.0
  9
$ANGDIR
 70
     0
  9
$PDMODE
 70
     0
  9
$PDSIZE
 40
0.0
  9
$PLINEWID
 40
0.2
  9
$COORDS
 70
     0
  9
$SPLFRAME
 70
     0
  9
$SPLINETYPE
 70
     6
  9
$SPLINESEGS
 70
     8
  9
$ATTDIA
 70
     1
  9
$ATTREQ
 70
     1
  9
$HANDLING
 70
     1
  9
$HANDSEED
  5
4C7
  9
$SURFTAB1
 70
     6
  9
$SURFTAB2
 70
     6
  9
$SURFTYPE
 70
     6
  9
$SURFU
 70
     6
  9
$SURFV
 70
     6
  9
$UCSNAME
  2

  9
$UCSORG
 10
0.0
 20
0.0
 30
0.0
  9
$UCSXDIR
 10
1.0
 20
0.0
 30
0.0
  9
$UCSYDIR
 10
0.0
 20
1.0
 30
0.0
  9
$PUCSNAME
  2

  9
$PUCSORG
 10
0.0
 20
0.0
 30
0.0
  9
$PUCSXDIR
 10
1.0
 20
0.0
 30
0.0
  9
$PUCSYDIR
 10
0.0
 20
1.0
 30
0.0
  9
$USERI1
 70
     0
  9
$USERI2
 70
     0
  9
$USERI3
 70
     0
  9
$USERI4
 70
     0
  9
$USERI5
 70
     0
  9
$USERR1
 40
0.0
  9
$USERR2
 40
0.0
  9
$USERR3
 40
0.0
  9
$USERR4
 40
0.0
  9
$USERR5
 40
0.0
  9
$WORLDVIEW
 70
     1
  9
$SHADEDGE
 70
     3
  9
$SHADEDIF
 70
    70
  9
$TILEMODE
 70
     1
  9
$MAXACTVP
 70
    64
  9
$PLIMCHECK
 70
     0
  9
$PEXTMIN
 10
1.000000000000000E+20
 20
1.000000000000000E+20
 30
1.000000000000000E+20
  9
$PEXTMAX
 10
-1.000000000000000E+20
 20
-1.000000000000000E+20
 30
-1.000000000000000E+20
  9
$PLIMMIN
 10
0.0
 20
0.0
  9
$PLIMMAX
 10
420.0
 20
297.0
  9
$UNITMODE
 70
     0
  9
$VISRETAIN
 70
     1
  9
$PLINEGEN
 70
     0
  9
$PSLTSCALE
 70
     1
  0
ENDSEC
  0
SECTION
  2
TABLES
  0
TABLE
  2
VPORT
 70
     1
  0
VPORT
  2
*ACTIVE
 70
     0
 10
0.0
 20
0.0
 11
1.0
 21
1.0
 12
900.6932037765974
 22
399.8932530960439
 13
0.0
 23
0.0
 14
10.0
 24
10.0
 15
10.0
 25
10.0
 16
0.0
 26
0.0
 36
1.0
 17
0.0
 27
0.0
 37
0.0
 40
453.979469530272
 41
2.216284987277353
 42
50.0
 43
0.0
 44
0.0
 50
0.0
 51
0.0
 71
     0
 72
   500
 73
     1
 74
     1
 75
     0
 76
     0
 77
     0
 78
     0
  0
ENDTAB
  0
TABLE
  2
LTYPE
 70
     2
  0
LTYPE
  2
CONTINUOUS
 70
     0
  3
Solid line
 72
    65
 73
     0
 40
0.0
  0
LTYPE
  2
CENTER2
 70
     0
  3
Center (.5x) ___ _ ___ _ ___ _ ___ _ ___ _ ___
 72
    65
 73
     4
 40
28.575
 49
19.05
 49
-3.174999999999999
 49
3.174999999999999
 49
-3.174999999999999
  0
ENDTAB
  0
TABLE
  2
LAYER
 70
     9
  0
LAYER
  2
0
 70
     0
 62
     7
  6
CONTINUOUS
  0
LAYER
  2
DEFPOINTS
 70
     0
 62
     7
  6
CONTINUOUS
  0
LAYER
  2
回04-下接
 70
     0
 62
     7
  6
CONTINUOUS
  0
LAYER
  2
回08-記事
 70
     0
 62
     7
  6
CONTINUOUS
  0
LAYER
  2
ACC
 70
     0
 62
     7
  6
CONTINUOUS
  0
LAYER
  2
回05-ﾃｰﾙ
 70
     0
 62
     7
  6
CONTINUOUS
  0
LAYER
  2
回07-寸法
 70
     0
 62
     7
  6
CONTINUOUS
  0
LAYER
  2
回91-枠英2
 70
     0
 62
     7
  6
CONTINUOUS
  0
LAYER
  2
回03-記事
 70
     0
 62
     7
  6
CONTINUOUS
  0
ENDTAB
  0
TABLE
  2
STYLE
 70
     1
  0
STYLE
  2
STANDARD
 70
     0
 40
3.0
 41
1.0
 50
0.0
 71
     0
 42
3.0
  3
isocp.shx
  4
bigfont.shx
  0
ENDTAB
  0
TABLE
  2
VIEW
 70
     0
  0
ENDTAB
  0
TABLE
  2
UCS
 70
     0
  0
ENDTAB
  0
TABLE
  2
APPID
 70
     3
  0
APPID
  2
ACAD
 70
     0
  0
APPID
  2
ACAECLAYERSTANDARD
 70
     0
  0
APPID
  2
ACAD_NAV_VCDISPLAY
 70
     0
  0
ENDTAB
  0
TABLE
  2
DIMSTYLE
 70
     1
  0
DIMSTYLE
  2
DMC
 70
     0
  3

  4

  5
OPEN
  6

  7

 40
1.0
 41
2.0
 42
0.0
 43
0.0
 44
1.0
 45
0.0
 46
0.0
 47
0.0
 48
0.0
140
3.0
141
2.0
142
0.0
143
0.03937007874016
144
1.0
145
0.0
146
0.7
147
0.5
 71
     0
 72
     0
 73
     0
 74
     0
 75
     0
 76
     0
 77
     3
 78
     8
170
     0
171
     3
172
     1
173
     0
174
     0
175
     0
176
     5
177
     5
178
     5
  0
ENDTAB
  0
ENDSEC
  0
SECTION
  2
BLOCKS
  0
BLOCK
  8
0
  2
$MODEL_SPACE
 70
     0
 10
0.0
 20
0.0
 30
0.0
  3
$MODEL_SPACE
  1

  0
ENDBLK
  8
0
  5
20
  0
BLOCK
 67
     1
  8
0
  2
$PAPER_SPACE
 70
     0
 10
0.0
 20
0.0
 30
0.0
  3
$PAPER_SPACE
  1

  0
ENDBLK
  5
25
 67
     1
  8
0
  0
BLOCK
  8
0
  2
_OPEN
 70
     0
 10
0.0
 20
0.0
 30
0.0
  3
_OPEN
  1

  0
LINE
  5
14
  8
0
  6
CONTINUOUS
 62
     0
 10
-1.0
 20
0.1666666666666666
 30
0.0
 11
0.0
 21
0.0
 31
0.0
  0
LINE
  5
15
  8
0
  6
CONTINUOUS
 62
     0
 10
-1.0
 20
-0.1666666666666666
 30
0.0
 11
0.0
 21
0.0
 31
0.0
  0
LINE
  5
16
  8
0
  6
CONTINUOUS
 62
     0
 10
0.0
 20
0.0
 30
0.0
 11
-1.0
 21
0.0
 31
0.0
  0
ENDBLK
  5
17
  8
0
  0
BLOCK
  8
0
  2
*D1
 70
     1
 10
0.0
 20
0.0
 30
0.0
  3
*D1
  1

  0
LINE
  5
33D
  8
回07-寸法
  6
CONTINUOUS
 62
     5
 10
973.0991740057453
 20
324.8985876977077
 30
0.0
 11
982.9357603229755
 21
324.8985876977077
 31
0.0
  0
LINE
  5
33E
  8
回07-寸法
  6
CONTINUOUS
 62
     5
 10
973.5991740057452
 20
319.8985876977078
 30
0.0
 11
982.9357603229755
 21
319.8985876977078
 31
0.0
  0
LINE
  5
33F
  8
回07-寸法
  6
CONTINUOUS
 62
     5
 10
981.9357603229756
 20
326.8985876977077
 30
0.0
 11
981.9357603229756
 21
328.8985876977077
 31
0.0
  0
LINE
  5
340
  8
回07-寸法
  6
CONTINUOUS
 62
     5
 10
981.9357603229756
 20
317.8985876977078
 30
0.0
 11
981.9357603229756
 21
286.8979676977078
 31
0.0
  0
LINE
  5
341
  8
回07-寸法
  6
CONTINUOUS
 62
     5
 10
981.9357603229756
 20
324.8985876977077
 30
0.0
 11
981.9357603229756
 21
319.8985876977078
 31
0.0
  0
INSERT
  5
342
  8
回07-寸法
  6
CONTINUOUS
 62
     5
  2
_OPEN
 10
981.9357603229756
 20
324.8985876977077
 30
0.0
 41
2.0
 42
2.0
 43
2.0
 50
270.0
  0
INSERT
  5
343
  8
回07-寸法
  6
CONTINUOUS
 62
     5
  2
_OPEN
 10
981.9357603229756
 20
319.8985876977078
 30
0.0
 41
2.0
 42
2.0
 43
2.0
 50
90.0
  0
INSERT
  5
344
  8
回07-寸法
  6
CONTINUOUS
 62
     5
 66
     1
  2
*X47
 10
0.0
 20
0.0
 30
0.0
  0
SEQEND
  5
46B
  8
回08-記事
  6
CONTINUOUS
 62
     7
  0
POINT
  5
345
  8
DEFPOINTS
  6
CONTINUOUS
 62
     0
 10
973.0991740057453
 20
324.8985876977077
 30
0.0
  0
POINT
  5
346
  8
DEFPOINTS
  6
CONTINUOUS
 62
     0
 10
973.5991740057452
 20
319.8985876977078
 30
0.0
  0
POINT
  5
347
  8
DEFPOINTS
  6
CONTINUOUS
 62
     0
 10
981.9357603229756
 20
319.8985876977078
 30
0.0
  0
ENDBLK
  5
348
  8
0
 62
     7
  0
BLOCK
  8
0
  2
*D2
 70
     1
 10
0.0
 20
0.0
 30
0.0
  3
*D2
  1

  0
LINE
  5
311
  8
回07-寸法
  6
CONTINUOUS
 62
     5
 10
973.5991740057448
 20
322.3985876977076
 30
0.0
 11
973.5991740057448
 21
330.1524087591372
 31
0.0
  0
LINE
  5
312
  8
回07-寸法
  6
CONTINUOUS
 62
     5
 10
973.0991740057447
 20
324.8985876977076
 30
0.0
 11
973.0991740057447
 21
330.1524087591372
 31
0.0
  0
LINE
  5
313
  8
回07-寸法
  6
CONTINUOUS
 62
     5
 10
975.5991740057448
 20
329.1524087591372
 30
0.0
 11
977.5991740057447
 21
329.1524087591372
 31
0.0
  0
LINE
  5
314
  8
回07-寸法
  6
CONTINUOUS
 62
     5
 10
971.0991740057448
 20
329.1524087591372
 30
0.0
 11
948.0015362104692
 21
329.1524087591372
 31
0.0
  0
LINE
  5
315
  8
回07-寸法
  6
CONTINUOUS
 62
     5
 10
973.5991740057448
 20
329.1524087591372
 30
0.0
 11
973.0991740057447
 21
329.1524087591372
 31
0.0
  0
INSERT
  5
316
  8
回07-寸法
  6
CONTINUOUS
 62
     5
 66
     1
  2
_OPEN
 10
973.5991740057448
 20
329.1524087591372
 30
0.0
 41
2.0
 42
2.0
 43
2.0
 50
180.0
  0
SEQEND
  5
317
  8
回08-記事
  6
CONTINUOUS
 62
     7
  0
INSERT
  5
318
  8
回07-寸法
  6
CONTINUOUS
 62
     5
 66
     1
  2
_OPEN
 10
973.0991740057447
 20
329.1524087591372
 30
0.0
 41
2.0
 42
2.0
 43
2.0
  0
SEQEND
  5
319
  8
回08-記事
  6
CONTINUOUS
 62
     7
  0
TEXT
  5
31A
  8
回07-寸法
  6
CONTINUOUS
 62
     5
 10
948.0503551081069
 20
329.8024087591372
 30
0.0
 40
3.0
  1
(0.5 [0.020])
1001
ACAD
1000
MTEXTBEGIN
1070
    73
1070
     1
1070
    44
1040
1.0
1070
    74
1070
     0
1000
MTEXTEND
  0
POINT
  5
31B
  8
DEFPOINTS
  6
CONTINUOUS
 62
     0
 10
973.5991740057448
 20
322.3985876977076
 30
0.0
  0
POINT
  5
31C
  8
DEFPOINTS
  6
CONTINUOUS
 62
     0
 10
973.0991740057447
 20
324.8985876977076
 30
0.0
  0
POINT
  5
31D
  8
DEFPOINTS
  6
CONTINUOUS
 62
     0
 10
973.0991740057447
 20
329.1524087591372
 30
0.0
  0
ENDBLK
  5
31E
  8
0
 62
     7
  0
BLOCK
  8
0
  2
*D3
 70
     1
 10
0.0
 20
0.0
 30
0.0
  3
*D3
  1

  0
LINE
  5
304
  8
回07-寸法
  6
CONTINUOUS
 62
     5
 10
808.5991740057448
 20
491.8217323525043
 30
0.0
 11
808.5991740057448
 21
531.4008649486736
 31
0.0
  0
LINE
  5
305
  8
回07-寸法
  6
CONTINUOUS
 62
     5
 10
973.5991740057448
 20
491.8217323525043
 30
0.0
 11
973.5991740057448
 21
531.4008649486736
 31
0.0
  0
LINE
  5
306
  8
回07-寸法
  6
CONTINUOUS
 62
     5
 10
810.5991740057447
 20
530.4008649486736
 30
0.0
 11
971.5991740057447
 21
530.4008649486736
 31
0.0
  0
INSERT
  5
307
  8
回07-寸法
  6
CONTINUOUS
 62
     5
  2
_OPEN
 10
808.5991740057448
 20
530.4008649486736
 30
0.0
 41
2.0
 42
2.0
 43
2.0
 50
180.0
  0
INSERT
  5
308
  8
回07-寸法
  6
CONTINUOUS
 62
     5
  2
_OPEN
 10
973.5991740057448
 20
530.4008649486736
 30
0.0
 41
2.0
 42
2.0
 43
2.0
  0
INSERT
  5
309
  8
回07-寸法
  6
CONTINUOUS
 62
     5
 66
     1
  2
*X48
 10
0.0
 20
0.0
 30
0.0
  0
SEQEND
  5
474
  8
回08-記事
  6
CONTINUOUS
 62
     7
  0
POINT
  5
30A
  8
DEFPOINTS
  6
CONTINUOUS
 62
     0
 10
808.5991740057448
 20
491.8217323525043
 30
0.0
  0
POINT
  5
30B
  8
DEFPOINTS
  6
CONTINUOUS
 62
     0
 10
973.5991740057448
 20
491.8217323525043
 30
0.0
  0
POINT
  5
30C
  8
DEFPOINTS
  6
CONTINUOUS
 62
     0
 10
973.5991740057448
 20
530.4008649486736
 30
0.0
  0
ENDBLK
  5
30D
  8
0
 62
     7
  0
BLOCK
  8
0
  2
*D4
 70
     1
 10
0.0
 20
0.0
 30
0.0
  3
*D4
  1

  0
LINE
  5
2F5
  8
回07-寸法
  6
CONTINUOUS
 62
     5
 10
814.299174005745
 20
486.1117323525043
 30
0.0
 11
814.299174005745
 21
515.3899913409959
 31
0.0
  0
LINE
  5
2F6
  8
回07-寸法
  6
CONTINUOUS
 62
     5
 10
969.1991740057449
 20
486.1117323525043
 30
0.0
 11
969.1991740057449
 21
515.3899913409959
 31
0.0
  0
LINE
  5
2F7
  8
回07-寸法
  6
CONTINUOUS
 62
     5
 10
816.2991740057449
 20
514.3899913409959
 30
0.0
 11
967.1991740057448
 21
514.3899913409959
 31
0.0
  0
INSERT
  5
2F8
  8
回07-寸法
  6
CONTINUOUS
 62
     5
 66
     1
  2
_OPEN
 10
814.299174005745
 20
514.3899913409959
 30
0.0
 41
2.0
 42
2.0
 43
2.0
 50
180.0
  0
SEQEND
  5
2F9
  8
回08-記事
  6
CONTINUOUS
 62
     7
  0
INSERT
  5
2FA
  8
回07-寸法
  6
CONTINUOUS
 62
     5
 66
     1
  2
_OPEN
 10
969.1991740057449
 20
514.3899913409959
 30
0.0
 41
2.0
 42
2.0
 43
2.0
  0
SEQEND
  5
2FB
  8
回08-記事
  6
CONTINUOUS
 62
     7
  0
TEXT
  5
2FC
  8
回07-寸法
  6
CONTINUOUS
 62
     5
 10
866.088933451345
 20
515.0399314348937
 30
0.0
 40
3.0
  1
154.9 [6.098](VIEWING AREA)
1001
ACAD
1000
MTEXTBEGIN
1070
    73
1070
     1
1070
    44
1040
1.0
1070
    74
1070
     0
1000
MTEXTEND
  0
POINT
  5
2FD
  8
DEFPOINTS
  6
CONTINUOUS
 62
     0
 10
814.299174005745
 20
486.1117323525043
 30
0.0
  0
POINT
  5
2FE
  8
DEFPOINTS
  6
CONTINUOUS
 62
     0
 10
969.1991740057449
 20
486.1117323525043
 30
0.0
  0
POINT
  5
2FF
  8
DEFPOINTS
  6
CONTINUOUS
 62
     0
 10
969.1991740057449
 20
514.3899913409959
 30
0.0
  0
ENDBLK
  5
300
  8
0
 62
     7
  0
BLOCK
  8
0
  2
*D5
 70
     1
 10
0.0
 20
0.0
 30
0.0
  3
*D5
  1

  0
LINE
  5
2E6
  8
回07-寸法
  6
CONTINUOUS
 62
     5
 10
815.6991740057449
 20
484.8617323525043
 30
0.0
 11
815.6991740057449
 21
507.880254165494
 31
0.0
  0
LINE
  5
2E7
  8
回07-寸法
  6
CONTINUOUS
 62
     5
 10
968.0991740057448
 20
484.8617323525043
 30
0.0
 11
968.0991740057448
 21
507.880254165494
 31
0.0
  0
LINE
  5
2E8
  8
回07-寸法
  6
CONTINUOUS
 62
     5
 10
817.6991740057449
 20
506.8802541654941
 30
0.0
 11
966.0991740057447
 21
506.8802541654941
 31
0.0
  0
INSERT
  5
2E9
  8
回07-寸法
  6
CONTINUOUS
 62
     5
 66
     1
  2
_OPEN
 10
815.6991740057449
 20
506.8802541654941
 30
0.0
 41
2.0
 42
2.0
 43
2.0
 50
180.0
  0
SEQEND
  5
2EA
  8
回08-記事
  6
CONTINUOUS
 62
     7
  0
INSERT
  5
2EB
  8
回07-寸法
  6
CONTINUOUS
 62
     5
 66
     1
  2
_OPEN
 10
968.0991740057448
 20
506.8802541654941
 30
0.0
 41
2.0
 42
2.0
 43
2.0
  0
SEQEND
  5
2EC
  8
回08-記事
  6
CONTINUOUS
 62
     7
  0
TEXT
  5
2ED
  8
回07-寸法
  6
CONTINUOUS
 62
     5
 10
867.1497645569258
 20
507.5302541654941
 30
0.0
 40
3.0
  1
152.4 [6.000](ACTIVE AREA)
1001
ACAD
1000
MTEXTBEGIN
1070
    73
1070
     1
1070
    44
1040
1.0
1070
    74
1070
     0
1000
MTEXTEND
  0
POINT
  5
2EE
  8
DEFPOINTS
  6
CONTINUOUS
 62
     0
 10
815.6991740057449
 20
484.8617323525043
 30
0.0
  0
POINT
  5
2EF
  8
DEFPOINTS
  6
CONTINUOUS
 62
     0
 10
968.0991740057448
 20
484.8617323525043
 30
0.0
  0
POINT
  5
2F0
  8
DEFPOINTS
  6
CONTINUOUS
 62
     0
 10
968.0991740057448
 20
506.8802541654941
 30
0.0
  0
ENDBLK
  5
2F1
  8
0
 62
     7
  0
BLOCK
  8
0
  2
*D6
 70
     1
 10
0.0
 20
0.0
 30
0.0
  3
*D6
  1

  0
LINE
  5
2D9
  8
回07-寸法
  6
CONTINUOUS
 62
     5
 10
973.5991740057452
 20
491.8217323525046
 30
0.0
 11
1036.038066218868
 21
491.8217323525046
 31
0.0
  0
LINE
  5
2DA
  8
回07-寸法
  6
CONTINUOUS
 62
     5
 10
973.5991740057452
 20
387.8217323525046
 30
0.0
 11
1036.038066218868
 21
387.8217323525046
 31
0.0
  0
LINE
  5
2DB
  8
回07-寸法
  6
CONTINUOUS
 62
     5
 10
1035.038066218868
 20
489.8217323525045
 30
0.0
 11
1035.038066218868
 21
389.8217323525046
 31
0.0
  0
INSERT
  5
2DC
  8
回07-寸法
  6
CONTINUOUS
 62
     5
  2
_OPEN
 10
1035.038066218868
 20
491.8217323525046
 30
0.0
 41
2.0
 42
2.0
 43
2.0
 50
90.0
  0
INSERT
  5
2DD
  8
回07-寸法
  6
CONTINUOUS
 62
     5
  2
_OPEN
 10
1035.038066218868
 20
387.8217323525046
 30
0.0
 41
2.0
 42
2.0
 43
2.0
 50
270.0
  0
INSERT
  5
2DE
  8
回07-寸法
  6
CONTINUOUS
 62
     5
 66
     1
  2
*X49
 10
0.0
 20
0.0
 30
0.0
  0
SEQEND
  5
47D
  8
回08-記事
  6
CONTINUOUS
 62
     7
  0
POINT
  5
2DF
  8
DEFPOINTS
  6
CONTINUOUS
 62
     0
 10
973.5991740057452
 20
491.8217323525046
 30
0.0
  0
POINT
  5
2E0
  8
DEFPOINTS
  6
CONTINUOUS
 62
     0
 10
973.5991740057452
 20
387.8217323525046
 30
0.0
  0
POINT
  5
2E1
  8
DEFPOINTS
  6
CONTINUOUS
 62
     0
 10
1035.038066218868
 20
387.8217323525046
 30
0.0
  0
ENDBLK
  5
2E2
  8
0
 62
     7
  0
BLOCK
  8
0
  2
*D7
 70
     1
 10
0.0
 20
0.0
 30
0.0
  3
*D7
  1

  0
LINE
  5
2CA
  8
回07-寸法
  6
CONTINUOUS
 62
     5
 10
969.1991740057453
 20
486.1117323525045
 30
0.0
 11
1019.977357639777
 21
486.1117323525045
 31
0.0
  0
LINE
  5
2CB
  8
回07-寸法
  6
CONTINUOUS
 62
     5
 10
969.1991740057453
 20
392.1717323525047
 30
0.0
 11
1019.977357639777
 21
392.1717323525047
 31
0.0
  0
LINE
  5
2CC
  8
回07-寸法
  6
CONTINUOUS
 62
     5
 10
1018.977357639777
 20
484.1117323525045
 30
0.0
 11
1018.977357639777
 21
394.1717323525047
 31
0.0
  0
INSERT
  5
2CD
  8
回07-寸法
  6
CONTINUOUS
 62
     5
 66
     1
  2
_OPEN
 10
1018.977357639777
 20
486.1117323525045
 30
0.0
 41
2.0
 42
2.0
 43
2.0
 50
90.0
  0
SEQEND
  5
2CE
  8
回08-記事
  6
CONTINUOUS
 62
     7
  0
INSERT
  5
2CF
  8
回07-寸法
  6
CONTINUOUS
 62
     5
 66
     1
  2
_OPEN
 10
1018.977357639777
 20
392.1717323525047
 30
0.0
 41
2.0
 42
2.0
 43
2.0
 50
270.0
  0
SEQEND
  5
2D0
  8
回08-記事
  6
CONTINUOUS
 62
     7
  0
TEXT
  5
2D1
  8
回07-寸法
  6
CONTINUOUS
 62
     5
 10
1018.327417545879
 20
413.1706606925233
 30
0.0
 40
3.0
  1
93.94 [3.698](VIEWING AREA)
 50
90.0
1001
ACAD
1000
MTEXTBEGIN
1070
    73
1070
     1
1070
    44
1040
1.0
1070
    74
1070
     0
1000
MTEXTEND
  0
POINT
  5
2D2
  8
DEFPOINTS
  6
CONTINUOUS
 62
     0
 10
969.1991740057453
 20
486.1117323525045
 30
0.0
  0
POINT
  5
2D3
  8
DEFPOINTS
  6
CONTINUOUS
 62
     0
 10
969.1991740057453
 20
392.1717323525047
 30
0.0
  0
POINT
  5
2D4
  8
DEFPOINTS
  6
CONTINUOUS
 62
     0
 10
1018.977357639777
 20
392.1717323525047
 30
0.0
  0
ENDBLK
  5
2D5
  8
0
 62
     7
  0
BLOCK
  8
0
  2
*D8
 70
     1
 10
0.0
 20
0.0
 30
0.0
  3
*D8
  1

  0
LINE
  5
2BB
  8
回07-寸法
  6
CONTINUOUS
 62
     5
 10
968.0991740057452
 20
393.4217323525047
 30
0.0
 11
1010.835086547168
 21
393.4217323525047
 31
0.0
  0
LINE
  5
2BC
  8
回07-寸法
  6
CONTINUOUS
 62
     5
 10
968.0991740057452
 20
484.8617323525045
 30
0.0
 11
1010.835086547168
 21
484.8617323525045
 31
0.0
  0
LINE
  5
2BD
  8
回07-寸法
  6
CONTINUOUS
 62
     5
 10
1009.835086547168
 20
395.4217323525047
 30
0.0
 11
1009.835086547168
 21
482.8617323525045
 31
0.0
  0
INSERT
  5
2BE
  8
回07-寸法
  6
CONTINUOUS
 62
     5
 66
     1
  2
_OPEN
 10
1009.835086547168
 20
393.4217323525047
 30
0.0
 41
2.0
 42
2.0
 43
2.0
 50
270.0
  0
SEQEND
  5
2BF
  8
回08-記事
  6
CONTINUOUS
 62
     7
  0
INSERT
  5
2C0
  8
回07-寸法
  6
CONTINUOUS
 62
     5
 66
     1
  2
_OPEN
 10
1009.835086547168
 20
484.8617323525045
 30
0.0
 41
2.0
 42
2.0
 43
2.0
 50
90.0
  0
SEQEND
  5
2C1
  8
回08-記事
  6
CONTINUOUS
 62
     7
  0
TEXT
  5
2C2
  8
回07-寸法
  6
CONTINUOUS
 62
     5
 10
1009.185086547168
 20
414.2314917981044
 30
0.0
 40
3.0
  1
91.44 [3.600](ACTIVE AREA)
 50
90.0
1001
ACAD
1000
MTEXTBEGIN
1070
    73
1070
     1
1070
    44
1040
1.0
1070
    74
1070
     0
1000
MTEXTEND
  0
POINT
  5
2C3
  8
DEFPOINTS
  6
CONTINUOUS
 62
     0
 10
968.0991740057452
 20
393.4217323525047
 30
0.0
  0
POINT
  5
2C4
  8
DEFPOINTS
  6
CONTINUOUS
 62
     0
 10
968.0991740057452
 20
484.8617323525045
 30
0.0
  0
POINT
  5
2C5
  8
DEFPOINTS
  6
CONTINUOUS
 62
     0
 10
1009.835086547168
 20
484.8617323525045
 30
0.0
  0
ENDBLK
  5
2C6
  8
0
 62
     7
  0
BLOCK
  8
0
  2
*D9
 70
     1
 10
0.0
 20
0.0
 30
0.0
  3
*D9
  1

  0
LINE
  5
2AA
  8
回07-寸法
  6
CONTINUOUS
 62
     5
 10
969.1991740057449
 20
486.1117323525043
 30
0.0
 11
969.1991740057449
 21
515.3899913409959
 31
0.0
  0
LINE
  5
2AB
  8
回07-寸法
  6
CONTINUOUS
 62
     5
 10
973.5991740057448
 20
491.8217323525043
 30
0.0
 11
973.5991740057448
 21
515.3899913409959
 31
0.0
  0
LINE
  5
2AC
  8
回07-寸法
  6
CONTINUOUS
 62
     5
 10
967.1991740057448
 20
514.3899913409959
 30
0.0
 11
965.1991740057448
 21
514.3899913409959
 31
0.0
  0
LINE
  5
2AD
  8
回07-寸法
  6
CONTINUOUS
 62
     5
 10
975.5991740057448
 20
514.3899913409959
 30
0.0
 11
996.2991740057448
 21
514.3899913409959
 31
0.0
  0
LINE
  5
2AE
  8
回07-寸法
  6
CONTINUOUS
 62
     5
 10
969.1991740057449
 20
514.3899913409959
 30
0.0
 11
973.5991740057448
 21
514.3899913409959
 31
0.0
  0
INSERT
  5
2AF
  8
回07-寸法
  6
CONTINUOUS
 62
     5
 66
     1
  2
_OPEN
 10
969.1991740057449
 20
514.3899913409959
 30
0.0
 41
2.0
 42
2.0
 43
2.0
  0
SEQEND
  5
2B0
  8
回08-記事
  6
CONTINUOUS
 62
     7
  0
INSERT
  5
2B1
  8
回07-寸法
  6
CONTINUOUS
 62
     5
 66
     1
  2
_OPEN
 10
973.5991740057448
 20
514.3899913409959
 30
0.0
 41
2.0
 42
2.0
 43
2.0
 50
180.0
  0
SEQEND
  5
2B2
  8
回08-記事
  6
CONTINUOUS
 62
     7
  0
TEXT
  5
2B3
  8
回07-寸法
  6
CONTINUOUS
 62
     5
 10
977.6491740057448
 20
515.0399913409959
 30
0.0
 40
3.0
  1
4.4 [0.173]
1001
ACAD
1000
MTEXTBEGIN
1070
    73
1070
     1
1070
    44
1040
1.0
1070
    74
1070
     0
1000
MTEXTEND
  0
POINT
  5
2B4
  8
DEFPOINTS
  6
CONTINUOUS
 62
     0
 10
969.1991740057449
 20
486.1117323525043
 30
0.0
  0
POINT
  5
2B5
  8
DEFPOINTS
  6
CONTINUOUS
 62
     0
 10
973.5991740057448
 20
491.8217323525043
 30
0.0
  0
POINT
  5
2B6
  8
DEFPOINTS
  6
CONTINUOUS
 62
     0
 10
973.5991740057448
 20
514.3899913409959
 30
0.0
  0
ENDBLK
  5
2B7
  8
0
 62
     7
  0
BLOCK
  8
0
  2
*D10
 70
     1
 10
0.0
 20
0.0
 30
0.0
  3
*D10
  1

  0
LINE
  5
299
  8
回07-寸法
  6
CONTINUOUS
 62
     5
 10
968.0991740057448
 20
484.8617323525043
 30
0.0
 11
968.0991740057448
 21
507.880254165494
 31
0.0
  0
LINE
  5
29A
  8
回07-寸法
  6
CONTINUOUS
 62
     5
 10
973.5991740057448
 20
491.8217323525043
 30
0.0
 11
973.5991740057448
 21
507.880254165494
 31
0.0
  0
LINE
  5
29B
  8
回07-寸法
  6
CONTINUOUS
 62
     5
 10
966.0991740057447
 20
506.8802541654941
 30
0.0
 11
964.0991740057447
 21
506.8802541654941
 31
0.0
  0
LINE
  5
29C
  8
回07-寸法
  6
CONTINUOUS
 62
     5
 10
975.5991740057448
 20
506.8802541654941
 30
0.0
 11
995.6991740057448
 21
506.8802541654941
 31
0.0
  0
LINE
  5
29D
  8
回07-寸法
  6
CONTINUOUS
 62
     5
 10
968.0991740057448
 20
506.8802541654941
 30
0.0
 11
973.5991740057448
 21
506.8802541654941
 31
0.0
  0
INSERT
  5
29E
  8
回07-寸法
  6
CONTINUOUS
 62
     5
 66
     1
  2
_OPEN
 10
968.0991740057448
 20
506.8802541654941
 30
0.0
 41
2.0
 42
2.0
 43
2.0
  0
SEQEND
  5
29F
  8
回08-記事
  6
CONTINUOUS
 62
     7
  0
INSERT
  5
2A0
  8
回07-寸法
  6
CONTINUOUS
 62
     5
 66
     1
  2
_OPEN
 10
973.5991740057448
 20
506.8802541654941
 30
0.0
 41
2.0
 42
2.0
 43
2.0
 50
180.0
  0
SEQEND
  5
2A1
  8
回08-記事
  6
CONTINUOUS
 62
     7
  0
TEXT
  5
2A2
  8
回07-寸法
  6
CONTINUOUS
 62
     5
 10
977.6491740057448
 20
507.5302541654941
 30
0.0
 40
3.0
  1
5.5 [0.217]
1001
ACAD
1000
MTEXTBEGIN
1070
    73
1070
     1
1070
    44
1040
1.0
1070
    74
1070
     0
1000
MTEXTEND
  0
POINT
  5
2A3
  8
DEFPOINTS
  6
CONTINUOUS
 62
     0
 10
968.0991740057448
 20
484.8617323525043
 30
0.0
  0
POINT
  5
2A4
  8
DEFPOINTS
  6
CONTINUOUS
 62
     0
 10
973.5991740057448
 20
491.8217323525043
 30
0.0
  0
POINT
  5
2A5
  8
DEFPOINTS
  6
CONTINUOUS
 62
     0
 10
973.5991740057448
 20
506.8802541654941
 30
0.0
  0
ENDBLK
  5
2A6
  8
0
 62
     7
  0
BLOCK
  8
0
  2
*D11
 70
     1
 10
0.0
 20
0.0
 30
0.0
  3
*D11
  1

  0
LINE
  5
288
  8
回07-寸法
  6
CONTINUOUS
 62
     5
 10
814.299174005745
 20
486.1117323525043
 30
0.0
 11
814.299174005745
 21
515.3899913409959
 31
0.0
  0
LINE
  5
289
  8
回07-寸法
  6
CONTINUOUS
 62
     5
 10
808.5991740057448
 20
491.8217323525043
 30
0.0
 11
808.5991740057448
 21
515.3899913409959
 31
0.0
  0
LINE
  5
28A
  8
回07-寸法
  6
CONTINUOUS
 62
     5
 10
816.2991740057449
 20
514.3899913409959
 30
0.0
 11
818.2991740057451
 21
514.3899913409959
 31
0.0
  0
LINE
  5
28B
  8
回07-寸法
  6
CONTINUOUS
 62
     5
 10
806.5991740057448
 20
514.3899913409959
 30
0.0
 11
783.2015362104692
 21
514.3899913409959
 31
0.0
  0
LINE
  5
28C
  8
回07-寸法
  6
CONTINUOUS
 62
     5
 10
814.299174005745
 20
514.3899913409959
 30
0.0
 11
808.5991740057448
 21
514.3899913409959
 31
0.0
  0
INSERT
  5
28D
  8
回07-寸法
  6
CONTINUOUS
 62
     5
 66
     1
  2
_OPEN
 10
814.299174005745
 20
514.3899913409959
 30
0.0
 41
2.0
 42
2.0
 43
2.0
 50
180.0
  0
SEQEND
  5
28E
  8
回08-記事
  6
CONTINUOUS
 62
     7
  0
INSERT
  5
28F
  8
回07-寸法
  6
CONTINUOUS
 62
     5
 66
     1
  2
_OPEN
 10
808.5991740057448
 20
514.3899913409959
 30
0.0
 41
2.0
 42
2.0
 43
2.0
  0
SEQEND
  5
290
  8
回08-記事
  6
CONTINUOUS
 62
     7
  0
TEXT
  5
291
  8
回07-寸法
  6
CONTINUOUS
 62
     5
 10
783.2503551081069
 20
515.0399913409959
 30
0.0
 40
3.0
  1
(5.7 [0.224])
1001
ACAD
1000
MTEXTBEGIN
1070
    73
1070
     1
1070
    44
1040
1.0
1070
    74
1070
     0
1000
MTEXTEND
  0
POINT
  5
292
  8
DEFPOINTS
  6
CONTINUOUS
 62
     0
 10
814.299174005745
 20
486.1117323525043
 30
0.0
  0
POINT
  5
293
  8
DEFPOINTS
  6
CONTINUOUS
 62
     0
 10
808.5991740057448
 20
491.8217323525043
 30
0.0
  0
POINT
  5
294
  8
DEFPOINTS
  6
CONTINUOUS
 62
     0
 10
808.5991740057448
 20
514.3899913409959
 30
0.0
  0
ENDBLK
  5
295
  8
0
 62
     7
  0
BLOCK
  8
0
  2
*D12
 70
     1
 10
0.0
 20
0.0
 30
0.0
  3
*D12
  1

  0
LINE
  5
277
  8
回07-寸法
  6
CONTINUOUS
 62
     5
 10
815.6991740057449
 20
484.8617323525043
 30
0.0
 11
815.6991740057449
 21
507.880254165494
 31
0.0
  0
LINE
  5
278
  8
回07-寸法
  6
CONTINUOUS
 62
     5
 10
808.5991740057448
 20
491.8217323525043
 30
0.0
 11
808.5991740057448
 21
507.880254165494
 31
0.0
  0
LINE
  5
279
  8
回07-寸法
  6
CONTINUOUS
 62
     5
 10
817.6991740057449
 20
506.8802541654941
 30
0.0
 11
819.6991740057448
 21
506.8802541654941
 31
0.0
  0
LINE
  5
27A
  8
回07-寸法
  6
CONTINUOUS
 62
     5
 10
806.5991740057448
 20
506.8802541654941
 30
0.0
 11
784.1015362104692
 21
506.8802541654941
 31
0.0
  0
LINE
  5
27B
  8
回07-寸法
  6
CONTINUOUS
 62
     5
 10
815.6991740057449
 20
506.8802541654941
 30
0.0
 11
808.5991740057448
 21
506.8802541654941
 31
0.0
  0
INSERT
  5
27C
  8
回07-寸法
  6
CONTINUOUS
 62
     5
 66
     1
  2
_OPEN
 10
815.6991740057449
 20
506.8802541654941
 30
0.0
 41
2.0
 42
2.0
 43
2.0
 50
180.0
  0
SEQEND
  5
27D
  8
回08-記事
  6
CONTINUOUS
 62
     7
  0
INSERT
  5
27E
  8
回07-寸法
  6
CONTINUOUS
 62
     5
 66
     1
  2
_OPEN
 10
808.5991740057448
 20
506.8802541654941
 30
0.0
 41
2.0
 42
2.0
 43
2.0
  0
SEQEND
  5
27F
  8
回08-記事
  6
CONTINUOUS
 62
     7
  0
TEXT
  5
280
  8
回07-寸法
  6
CONTINUOUS
 62
     5
 10
784.150355108107
 20
507.5302541654941
 30
0.0
 40
3.0
  1
(7.1 [0.280])
1001
ACAD
1000
MTEXTBEGIN
1070
    73
1070
     1
1070
    44
1040
1.0
1070
    74
1070
     0
1000
MTEXTEND
  0
POINT
  5
281
  8
DEFPOINTS
  6
CONTINUOUS
 62
     0
 10
815.6991740057449
 20
484.8617323525043
 30
0.0
  0
POINT
  5
282
  8
DEFPOINTS
  6
CONTINUOUS
 62
     0
 10
808.5991740057448
 20
491.8217323525043
 30
0.0
  0
POINT
  5
283
  8
DEFPOINTS
  6
CONTINUOUS
 62
     0
 10
808.5991740057448
 20
506.8802541654941
 30
0.0
  0
ENDBLK
  5
284
  8
0
 62
     7
  0
BLOCK
  8
0
  2
*D13
 70
     1
 10
0.0
 20
0.0
 30
0.0
  3
*D13
  1

  0
LINE
  5
266
  8
回07-寸法
  6
CONTINUOUS
 62
     5
 10
969.1991740057453
 20
392.1717323525047
 30
0.0
 11
1019.977357639777
 21
392.1717323525047
 31
0.0
  0
LINE
  5
267
  8
回07-寸法
  6
CONTINUOUS
 62
     5
 10
973.5991740057452
 20
387.8217323525046
 30
0.0
 11
1019.977357639777
 21
387.8217323525046
 31
0.0
  0
LINE
  5
268
  8
回07-寸法
  6
CONTINUOUS
 62
     5
 10
1018.977357639777
 20
394.1717323525047
 30
0.0
 11
1018.977357639777
 21
396.1717323525047
 31
0.0
  0
LINE
  5
269
  8
回07-寸法
  6
CONTINUOUS
 62
     5
 10
1018.977357639777
 20
385.8217323525046
 30
0.0
 11
1018.977357639777
 21
363.9217323525045
 31
0.0
  0
LINE
  5
26A
  8
回07-寸法
  6
CONTINUOUS
 62
     5
 10
1018.977357639777
 20
392.1717323525047
 30
0.0
 11
1018.977357639777
 21
387.8217323525046
 31
0.0
  0
INSERT
  5
26B
  8
回07-寸法
  6
CONTINUOUS
 62
     5
 66
     1
  2
_OPEN
 10
1018.977357639777
 20
392.1717323525047
 30
0.0
 41
2.0
 42
2.0
 43
2.0
 50
270.0
  0
SEQEND
  5
26C
  8
回08-記事
  6
CONTINUOUS
 62
     7
  0
INSERT
  5
26D
  8
回07-寸法
  6
CONTINUOUS
 62
     5
 66
     1
  2
_OPEN
 10
1018.977357639777
 20
387.8217323525046
 30
0.0
 41
2.0
 42
2.0
 43
2.0
 50
90.0
  0
SEQEND
  5
26E
  8
回08-記事
  6
CONTINUOUS
 62
     7
  0
TEXT
  5
26F
  8
回07-寸法
  6
CONTINUOUS
 62
     5
 10
1018.327357639777
 20
363.9717323525041
 30
0.0
 40
3.0
  1
4.35 [0.171]
 50
90.0
1001
ACAD
1000
MTEXTBEGIN
1070
    73
1070
     1
1070
    44
1040
1.0
1070
    74
1070
     0
1000
MTEXTEND
  0
POINT
  5
270
  8
DEFPOINTS
  6
CONTINUOUS
 62
     0
 10
969.1991740057453
 20
392.1717323525047
 30
0.0
  0
POINT
  5
271
  8
DEFPOINTS
  6
CONTINUOUS
 62
     0
 10
973.5991740057452
 20
387.8217323525046
 30
0.0
  0
POINT
  5
272
  8
DEFPOINTS
  6
CONTINUOUS
 62
     0
 10
1018.977357639777
 20
387.8217323525046
 30
0.0
  0
ENDBLK
  5
273
  8
0
 62
     7
  0
BLOCK
  8
0
  2
*D14
 70
     1
 10
0.0
 20
0.0
 30
0.0
  3
*D14
  1

  0
LINE
  5
255
  8
回07-寸法
  6
CONTINUOUS
 62
     5
 10
968.0991740057452
 20
393.4217323525047
 30
0.0
 11
1010.835086547167
 21
393.4217323525047
 31
0.0
  0
LINE
  5
256
  8
回07-寸法
  6
CONTINUOUS
 62
     5
 10
973.5991740057452
 20
387.8217323525046
 30
0.0
 11
1010.835086547167
 21
387.8217323525046
 31
0.0
  0
LINE
  5
257
  8
回07-寸法
  6
CONTINUOUS
 62
     5
 10
1009.835086547167
 20
395.4217323525047
 30
0.0
 11
1009.835086547167
 21
397.4217323525047
 31
0.0
  0
LINE
  5
258
  8
回07-寸法
  6
CONTINUOUS
 62
     5
 10
1009.835086547167
 20
385.8217323525046
 30
0.0
 11
1009.835086547167
 21
365.1217323525045
 31
0.0
  0
LINE
  5
259
  8
回07-寸法
  6
CONTINUOUS
 62
     5
 10
1009.835086547167
 20
393.4217323525047
 30
0.0
 11
1009.835086547167
 21
387.8217323525046
 31
0.0
  0
INSERT
  5
25A
  8
回07-寸法
  6
CONTINUOUS
 62
     5
 66
     1
  2
_OPEN
 10
1009.835086547167
 20
393.4217323525047
 30
0.0
 41
2.0
 42
2.0
 43
2.0
 50
270.0
  0
SEQEND
  5
25B
  8
回08-記事
  6
CONTINUOUS
 62
     7
  0
INSERT
  5
25C
  8
回07-寸法
  6
CONTINUOUS
 62
     5
 66
     1
  2
_OPEN
 10
1009.835086547167
 20
387.8217323525046
 30
0.0
 41
2.0
 42
2.0
 43
2.0
 50
90.0
  0
SEQEND
  5
25D
  8
回08-記事
  6
CONTINUOUS
 62
     7
  0
TEXT
  5
25E
  8
回07-寸法
  6
CONTINUOUS
 62
     5
 10
1009.185086547167
 20
365.1717323525041
 30
0.0
 40
3.0
  1
5.6 [0.220]
 50
90.0
1001
ACAD
1000
MTEXTBEGIN
1070
    73
1070
     1
1070
    44
1040
1.0
1070
    74
1070
     0
1000
MTEXTEND
  0
POINT
  5
25F
  8
DEFPOINTS
  6
CONTINUOUS
 62
     0
 10
968.0991740057452
 20
393.4217323525047
 30
0.0
  0
POINT
  5
260
  8
DEFPOINTS
  6
CONTINUOUS
 62
     0
 10
973.5991740057452
 20
387.8217323525046
 30
0.0
  0
POINT
  5
261
  8
DEFPOINTS
  6
CONTINUOUS
 62
     0
 10
1009.835086547167
 20
387.8217323525046
 30
0.0
  0
ENDBLK
  5
262
  8
0
 62
     7
  0
BLOCK
  8
0
  2
*D15
 70
     1
 10
0.0
 20
0.0
 30
0.0
  3
*D15
  1

  0
LINE
  5
244
  8
回07-寸法
  6
CONTINUOUS
 62
     5
 10
969.1991740057453
 20
486.1117323525045
 30
0.0
 11
1019.977357639777
 21
486.1117323525045
 31
0.0
  0
LINE
  5
245
  8
回07-寸法
  6
CONTINUOUS
 62
     5
 10
973.5991740057452
 20
491.8217323525046
 30
0.0
 11
1019.977357639777
 21
491.8217323525046
 31
0.0
  0
LINE
  5
246
  8
回07-寸法
  6
CONTINUOUS
 62
     5
 10
1018.977357639777
 20
484.1117323525045
 30
0.0
 11
1018.977357639777
 21
482.1117323525045
 31
0.0
  0
LINE
  5
247
  8
回07-寸法
  6
CONTINUOUS
 62
     5
 10
1018.977357639777
 20
493.8217323525045
 30
0.0
 11
1018.977357639777
 21
518.4193701477801
 31
0.0
  0
LINE
  5
248
  8
回07-寸法
  6
CONTINUOUS
 62
     5
 10
1018.977357639777
 20
486.1117323525045
 30
0.0
 11
1018.977357639777
 21
491.8217323525046
 31
0.0
  0
INSERT
  5
249
  8
回07-寸法
  6
CONTINUOUS
 62
     5
 66
     1
  2
_OPEN
 10
1018.977357639777
 20
486.1117323525045
 30
0.0
 41
2.0
 42
2.0
 43
2.0
 50
90.0
  0
SEQEND
  5
24A
  8
回08-記事
  6
CONTINUOUS
 62
     7
  0
INSERT
  5
24B
  8
回07-寸法
  6
CONTINUOUS
 62
     5
 66
     1
  2
_OPEN
 10
1018.977357639777
 20
491.8217323525046
 30
0.0
 41
2.0
 42
2.0
 43
2.0
 50
270.0
  0
SEQEND
  5
24C
  8
回08-記事
  6
CONTINUOUS
 62
     7
  0
TEXT
  5
24D
  8
回07-寸法
  6
CONTINUOUS
 62
     5
 10
1018.327357639777
 20
495.8705512501419
 30
0.0
 40
3.0
  1
(5.71 [0.225])
 50
90.0
1001
ACAD
1000
MTEXTBEGIN
1070
    73
1070
     1
1070
    44
1040
1.0
1070
    74
1070
     0
1000
MTEXTEND
  0
POINT
  5
24E
  8
DEFPOINTS
  6
CONTINUOUS
 62
     0
 10
969.1991740057453
 20
486.1117323525045
 30
0.0
  0
POINT
  5
24F
  8
DEFPOINTS
  6
CONTINUOUS
 62
     0
 10
973.5991740057452
 20
491.8217323525046
 30
0.0
  0
POINT
  5
250
  8
DEFPOINTS
  6
CONTINUOUS
 62
     0
 10
1018.977357639777
 20
491.8217323525046
 30
0.0
  0
ENDBLK
  5
251
  8
0
 62
     7
  0
BLOCK
  8
0
  2
*D16
 70
     1
 10
0.0
 20
0.0
 30
0.0
  3
*D16
  1

  0
LINE
  5
233
  8
回07-寸法
  6
CONTINUOUS
 62
     5
 10
968.0991740057452
 20
484.8617323525045
 30
0.0
 11
1010.835086547168
 21
484.8617323525045
 31
0.0
  0
LINE
  5
234
  8
回07-寸法
  6
CONTINUOUS
 62
     5
 10
973.5991740057452
 20
491.8217323525046
 30
0.0
 11
1010.835086547168
 21
491.8217323525046
 31
0.0
  0
LINE
  5
235
  8
回07-寸法
  6
CONTINUOUS
 62
     5
 10
1009.835086547168
 20
482.8617323525045
 30
0.0
 11
1009.835086547168
 21
480.8617323525045
 31
0.0
  0
LINE
  5
236
  8
回07-寸法
  6
CONTINUOUS
 62
     5
 10
1009.835086547168
 20
493.8217323525045
 30
0.0
 11
1009.835086547168
 21
519.3298531392628
 31
0.0
  0
LINE
  5
237
  8
回07-寸法
  6
CONTINUOUS
 62
     5
 10
1009.835086547168
 20
484.8617323525045
 30
0.0
 11
1009.835086547168
 21
491.8217323525046
 31
0.0
  0
INSERT
  5
238
  8
回07-寸法
  6
CONTINUOUS
 62
     5
 66
     1
  2
_OPEN
 10
1009.835086547168
 20
484.8617323525045
 30
0.0
 41
2.0
 42
2.0
 43
2.0
 50
90.0
  0
SEQEND
  5
239
  8
回08-記事
  6
CONTINUOUS
 62
     7
  0
INSERT
  5
23A
  8
回07-寸法
  6
CONTINUOUS
 62
     5
 66
     1
  2
_OPEN
 10
1009.835086547168
 20
491.8217323525046
 30
0.0
 41
2.0
 42
2.0
 43
2.0
 50
270.0
  0
SEQEND
  5
23B
  8
回08-記事
  6
CONTINUOUS
 62
     7
  0
TEXT
  5
23C
  8
回07-寸法
  6
CONTINUOUS
 62
     5
 10
1009.184361508638
 20
495.8703771930928
 30
0.0
 40
3.0
  1
(6.96 [0.274])
 50
90.0
1001
ACAD
1000
MTEXTBEGIN
1070
    73
1070
     1
1070
    44
1040
1.0
1070
    74
1070
     0
1000
MTEXTEND
  0
POINT
  5
23D
  8
DEFPOINTS
  6
CONTINUOUS
 62
     0
 10
968.0991740057452
 20
484.8617323525045
 30
0.0
  0
POINT
  5
23E
  8
DEFPOINTS
  6
CONTINUOUS
 62
     0
 10
973.5991740057452
 20
491.8217323525046
 30
0.0
  0
POINT
  5
23F
  8
DEFPOINTS
  6
CONTINUOUS
 62
     0
 10
1009.835086547168
 20
491.8217323525046
 30
0.0
  0
ENDBLK
  5
240
  8
0
 62
     7
  0
BLOCK
  8
0
  2
*D17
 70
     1
 10
0.0
 20
0.0
 30
0.0
  3
*D17
  1

  0
LINE
  5
21D
  8
回07-寸法
  6
CONTINUOUS
 62
     5
 10
808.5991740057448
 20
322.3985876977076
 30
0.0
 11
808.5991740057448
 21
329.6186296929809
 31
0.0
  0
LINE
  5
21E
  8
回07-寸法
  6
CONTINUOUS
 62
     5
 10
809.0991740057447
 20
324.8985876977076
 30
0.0
 11
809.0991740057447
 21
329.6186296929809
 31
0.0
  0
LINE
  5
21F
  8
回07-寸法
  6
CONTINUOUS
 62
     5
 10
806.5991740057448
 20
328.6186296929809
 30
0.0
 11
804.5991740057447
 21
328.6186296929809
 31
0.0
  0
LINE
  5
220
  8
回07-寸法
  6
CONTINUOUS
 62
     5
 10
811.0991740057448
 20
328.6186296929809
 30
0.0
 11
834.1968118010203
 21
328.6186296929809
 31
0.0
  0
LINE
  5
221
  8
回07-寸法
  6
CONTINUOUS
 62
     5
 10
808.5991740057448
 20
328.6186296929809
 30
0.0
 11
809.0991740057447
 21
328.6186296929809
 31
0.0
  0
INSERT
  5
222
  8
回07-寸法
  6
CONTINUOUS
 62
     5
 66
     1
  2
_OPEN
 10
808.5991740057448
 20
328.6186296929809
 30
0.0
 41
2.0
 42
2.0
 43
2.0
  0
SEQEND
  5
223
  8
回08-記事
  6
CONTINUOUS
 62
     7
  0
INSERT
  5
224
  8
回07-寸法
  6
CONTINUOUS
 62
     5
 66
     1
  2
_OPEN
 10
809.0991740057447
 20
328.6186296929809
 30
0.0
 41
2.0
 42
2.0
 43
2.0
 50
180.0
  0
SEQEND
  5
225
  8
回08-記事
  6
CONTINUOUS
 62
     7
  0
TEXT
  5
226
  8
回07-寸法
  6
CONTINUOUS
 62
     5
 10
813.1479929033826
 20
329.2686296929809
 30
0.0
 40
3.0
  1
(0.5 [0.020])
1001
ACAD
1000
MTEXTBEGIN
1070
    73
1070
     1
1070
    44
1040
1.0
1070
    74
1070
     0
1000
MTEXTEND
  0
POINT
  5
227
  8
DEFPOINTS
  6
CONTINUOUS
 62
     0
 10
808.5991740057448
 20
322.3985876977076
 30
0.0
  0
POINT
  5
228
  8
DEFPOINTS
  6
CONTINUOUS
 62
     0
 10
809.0991740057447
 20
324.8985876977076
 30
0.0
  0
POINT
  5
229
  8
DEFPOINTS
  6
CONTINUOUS
 62
     0
 10
809.0991740057447
 20
328.6186296929809
 30
0.0
  0
ENDBLK
  5
22A
  8
0
 62
     7
  0
BLOCK
  8
0
  2
*D18
 70
     1
 10
0.0
 20
0.0
 30
0.0
  3
*D18
  1

  0
LINE
  5
1FA
  8
回07-寸法
  6
CONTINUOUS
 62
     5
 10
734.0991740057449
 20
436.6417323525045
 30
0.0
 11
727.9467130663395
 21
436.6417323525045
 31
0.0
  0
LINE
  5
1FB
  8
回07-寸法
  6
CONTINUOUS
 62
     5
 10
734.0991740057449
 20
441.6417323525047
 30
0.0
 11
727.9467130663395
 21
441.6417323525047
 31
0.0
  0
LINE
  5
1FC
  8
回07-寸法
  6
CONTINUOUS
 62
     5
 10
728.9467130663394
 20
434.6417323525044
 30
0.0
 11
728.9467130663394
 21
432.6417323525045
 31
0.0
  0
LINE
  5
1FD
  8
回07-寸法
  6
CONTINUOUS
 62
     5
 10
728.9467130663394
 20
443.6417323525047
 30
0.0
 11
728.9467130663394
 21
474.6122153439876
 31
0.0
  0
LINE
  5
1FE
  8
回07-寸法
  6
CONTINUOUS
 62
     5
 10
728.9467130663394
 20
436.6417323525045
 30
0.0
 11
728.9467130663394
 21
441.6417323525047
 31
0.0
  0
INSERT
  5
1FF
  8
回07-寸法
  6
CONTINUOUS
 62
     5
  2
_OPEN
 10
728.9467130663394
 20
436.6417323525045
 30
0.0
 41
2.0
 42
2.0
 43
2.0
 50
90.0
  0
INSERT
  5
200
  8
回07-寸法
  6
CONTINUOUS
 62
     5
  2
_OPEN
 10
728.9467130663394
 20
441.6417323525047
 30
0.0
 41
2.0
 42
2.0
 43
2.0
 50
270.0
  0
INSERT
  5
201
  8
回07-寸法
  6
CONTINUOUS
 62
     5
 66
     1
  2
*X50
 10
0.0
 20
0.0
 30
0.0
  0
SEQEND
  5
486
  8
回08-記事
  6
CONTINUOUS
 62
     7
  0
POINT
  5
202
  8
DEFPOINTS
  6
CONTINUOUS
 62
     0
 10
734.0991740057449
 20
436.6417323525045
 30
0.0
  0
POINT
  5
203
  8
DEFPOINTS
  6
CONTINUOUS
 62
     0
 10
734.0991740057449
 20
441.6417323525047
 30
0.0
  0
POINT
  5
204
  8
DEFPOINTS
  6
CONTINUOUS
 62
     0
 10
728.9467130663394
 20
441.6417323525047
 30
0.0
  0
ENDBLK
  5
205
  8
0
 62
     7
  0
BLOCK
  8
0
  2
*D19
 70
     1
 10
0.0
 20
0.0
 30
0.0
  3
*D19
  1

  0
LINE
  5
1E7
  8
回07-寸法
  6
CONTINUOUS
 62
     5
 10
808.5991740057448
 20
447.818856696972
 30
0.0
 11
808.5991740057448
 21
454.4052625578608
 31
0.0
  0
LINE
  5
1E8
  8
回07-寸法
  6
CONTINUOUS
 62
     5
 10
803.998397179269
 20
447.1417323525042
 30
0.0
 11
803.998397179269
 21
454.4052625578608
 31
0.0
  0
LINE
  5
1E9
  8
回07-寸法
  6
CONTINUOUS
 62
     5
 10
810.5991740057447
 20
453.4052625578608
 30
0.0
 11
812.5991740057447
 21
453.4052625578608
 31
0.0
  0
LINE
  5
1EA
  8
回07-寸法
  6
CONTINUOUS
 62
     5
 10
801.998397179269
 20
453.4052625578608
 30
0.0
 11
777.1325250236911
 21
453.4052625578608
 31
0.0
  0
LINE
  5
1EB
  8
回07-寸法
  6
CONTINUOUS
 62
     5
 10
808.5991740057448
 20
453.4052625578608
 30
0.0
 11
803.998397179269
 21
453.4052625578608
 31
0.0
  0
INSERT
  5
1EC
  8
回07-寸法
  6
CONTINUOUS
 62
     5
 66
     1
  2
_OPEN
 10
808.5991740057448
 20
453.4052625578608
 30
0.0
 41
2.0
 42
2.0
 43
2.0
 50
180.0
  0
SEQEND
  5
1ED
  8
回08-記事
  6
CONTINUOUS
 62
     7
  0
INSERT
  5
1EE
  8
回07-寸法
  6
CONTINUOUS
 62
     5
 66
     1
  2
_OPEN
 10
803.998397179269
 20
453.4052625578608
 30
0.0
 41
2.0
 42
2.0
 43
2.0
  0
SEQEND
  5
1EF
  8
回08-記事
  6
CONTINUOUS
 62
     7
  0
TEXT
  5
1F0
  8
回07-寸法
  6
CONTINUOUS
 62
     5
 10
777.182525023691
 20
454.0552625578608
 30
0.0
 40
3.0
  1
4.6 [0.181]
1001
ACAD
1000
MTEXTBEGIN
1070
    73
1070
     1
1070
    44
1040
1.0
1070
    74
1070
     0
1000
MTEXTEND
  0
POINT
  5
1F1
  8
DEFPOINTS
  6
CONTINUOUS
 62
     0
 10
808.5991740057448
 20
447.818856696972
 30
0.0
  0
POINT
  5
1F2
  8
DEFPOINTS
  6
CONTINUOUS
 62
     0
 10
803.998397179269
 20
447.1417323525042
 30
0.0
  0
POINT
  5
1F3
  8
DEFPOINTS
  6
CONTINUOUS
 62
     0
 10
803.998397179269
 20
453.4052625578608
 30
0.0
  0
ENDBLK
  5
1F4
  8
0
 62
     7
  0
BLOCK
  8
0
  2
*D20
 70
     1
 10
0.0
 20
0.0
 30
0.0
  3
*D20
  1

  0
LINE
  5
1D6
  8
回07-寸法
  6
CONTINUOUS
 62
     5
 10
804.411417683085
 20
431.1417323525042
 30
0.0
 11
786.0034604800549
 21
431.1417323525042
 31
0.0
  0
LINE
  5
1D7
  8
回07-寸法
  6
CONTINUOUS
 62
     5
 10
804.411417683085
 20
447.1417323525042
 30
0.0
 11
786.0034604800549
 21
447.1417323525042
 31
0.0
  0
LINE
  5
1D8
  8
回07-寸法
  6
CONTINUOUS
 62
     5
 10
787.0034604800549
 20
449.1417323525042
 30
0.0
 11
787.0034604800549
 21
451.1417323525042
 31
0.0
  0
LINE
  5
1D9
  8
回07-寸法
  6
CONTINUOUS
 62
     5
 10
787.0034604800549
 20
429.1417323525043
 30
0.0
 11
787.0034604800549
 21
409.9417323525043
 31
0.0
  0
LINE
  5
1DA
  8
回07-寸法
  6
CONTINUOUS
 62
     5
 10
787.0034604800549
 20
447.1417323525042
 30
0.0
 11
787.0034604800549
 21
431.1417323525042
 31
0.0
  0
INSERT
  5
1DB
  8
回07-寸法
  6
CONTINUOUS
 62
     5
 66
     1
  2
_OPEN
 10
787.0034604800549
 20
447.1417323525042
 30
0.0
 41
2.0
 42
2.0
 43
2.0
 50
270.0
  0
SEQEND
  5
1DC
  8
回08-記事
  6
CONTINUOUS
 62
     7
  0
INSERT
  5
1DD
  8
回07-寸法
  6
CONTINUOUS
 62
     5
 66
     1
  2
_OPEN
 10
787.0034604800549
 20
431.1417323525042
 30
0.0
 41
2.0
 42
2.0
 43
2.0
 50
90.0
  0
SEQEND
  5
1DE
  8
回08-記事
  6
CONTINUOUS
 62
     7
  0
TEXT
  5
1DF
  8
回07-寸法
  6
CONTINUOUS
 62
     5
 10
786.3534604800547
 20
409.9917323525038
 30
0.0
 40
3.0
  1
16 [0.630]
 50
90.0
1001
ACAD
1000
MTEXTBEGIN
1070
    73
1070
     1
1070
    44
1040
1.0
1070
    74
1070
     0
1000
MTEXTEND
  0
POINT
  5
1E0
  8
DEFPOINTS
  6
CONTINUOUS
 62
     0
 10
804.411417683085
 20
431.1417323525042
 30
0.0
  0
POINT
  5
1E1
  8
DEFPOINTS
  6
CONTINUOUS
 62
     0
 10
804.411417683085
 20
447.1417323525042
 30
0.0
  0
POINT
  5
1E2
  8
DEFPOINTS
  6
CONTINUOUS
 62
     0
 10
787.0034604800549
 20
447.1417323525042
 30
0.0
  0
ENDBLK
  5
1E3
  8
0
 62
     7
  0
BLOCK
  8
0
  2
*D21
 70
     1
 10
0.0
 20
0.0
 30
0.0
  3
*D21
  1

  0
LINE
  5
1C0
  8
回07-寸法
  6
CONTINUOUS
 62
     5
 10
733.5991740057448
 20
441.1417323525045
 30
0.0
 11
733.5991740057448
 21
473.8230500297031
 31
0.0
  0
LINE
  5
1C1
  8
回07-寸法
  6
CONTINUOUS
 62
     5
 10
808.5991740057448
 20
447.818856696972
 30
0.0
 11
808.5991740057448
 21
473.8230500297031
 31
0.0
  0
LINE
  5
1C2
  8
回07-寸法
  6
CONTINUOUS
 62
     5
 10
735.5991740057447
 20
472.8230500297031
 30
0.0
 11
806.5991740057448
 21
472.8230500297031
 31
0.0
  0
INSERT
  5
1C3
  8
回07-寸法
  6
CONTINUOUS
 62
     5
  2
_OPEN
 10
733.5991740057448
 20
472.8230500297031
 30
0.0
 41
2.0
 42
2.0
 43
2.0
 50
180.0
  0
INSERT
  5
1C4
  8
回07-寸法
  6
CONTINUOUS
 62
     5
  2
_OPEN
 10
808.5991740057448
 20
472.8230500297031
 30
0.0
 41
2.0
 42
2.0
 43
2.0
  0
INSERT
  5
1C5
  8
回07-寸法
  6
CONTINUOUS
 62
     5
 66
     1
  2
*X51
 10
0.0
 20
0.0
 30
0.0
  0
SEQEND
  5
48F
  8
回08-記事
  6
CONTINUOUS
 62
     7
  0
POINT
  5
1C6
  8
DEFPOINTS
  6
CONTINUOUS
 62
     0
 10
733.5991740057448
 20
441.1417323525045
 30
0.0
  0
POINT
  5
1C7
  8
DEFPOINTS
  6
CONTINUOUS
 62
     0
 10
808.5991740057448
 20
447.818856696972
 30
0.0
  0
POINT
  5
1C8
  8
DEFPOINTS
  6
CONTINUOUS
 62
     0
 10
808.5991740057448
 20
472.8230500297031
 30
0.0
  0
ENDBLK
  5
1C9
  8
0
 62
     7
  0
BLOCK
  8
0
  2
*D22
 70
     1
 10
0.0
 20
0.0
 30
0.0
  3
*D22
  1

  0
LINE
  5
1AD
  8
回07-寸法
  6
CONTINUOUS
 62
     5
 10
798.4446628985247
 20
441.7174634844809
 30
0.0
 11
798.4446628985247
 21
461.3723177848514
 31
0.0
  0
LINE
  5
1AE
  8
回07-寸法
  6
CONTINUOUS
 62
     5
 10
808.5991740057448
 20
452.4052625578608
 30
0.0
 11
808.5991740057448
 21
461.3723177848514
 31
0.0
  0
LINE
  5
1AF
  8
回07-寸法
  6
CONTINUOUS
 62
     5
 10
810.5991740057447
 20
460.3723177848515
 30
0.0
 11
812.5991740057447
 21
460.3723177848515
 31
0.0
  0
LINE
  5
1B0
  8
回07-寸法
  6
CONTINUOUS
 62
     5
 10
796.4446628985247
 20
460.3723177848515
 30
0.0
 11
772.4446628985247
 21
460.3723177848515
 31
0.0
  0
LINE
  5
1B1
  8
回07-寸法
  6
CONTINUOUS
 62
     5
 10
808.5991740057448
 20
460.3723177848515
 30
0.0
 11
798.4446628985247
 21
460.3723177848515
 31
0.0
  0
INSERT
  5
1B2
  8
回07-寸法
  6
CONTINUOUS
 62
     5
 66
     1
  2
_OPEN
 10
808.5991740057448
 20
460.3723177848515
 30
0.0
 41
2.0
 42
2.0
 43
2.0
 50
180.0
  0
SEQEND
  5
1B3
  8
回08-記事
  6
CONTINUOUS
 62
     7
  0
INSERT
  5
1B4
  8
回07-寸法
  6
CONTINUOUS
 62
     5
 66
     1
  2
_OPEN
 10
798.4446628985247
 20
460.3723177848515
 30
0.0
 41
2.0
 42
2.0
 43
2.0
  0
SEQEND
  5
1B5
  8
回08-記事
  6
CONTINUOUS
 62
     7
  0
TEXT
  5
1B6
  8
回07-寸法
  6
CONTINUOUS
 62
     5
 10
772.4946628985247
 20
461.0223177848514
 30
0.0
 40
3.0
  1
10.15 [0.400]
1001
ACAD
1000
MTEXTBEGIN
1070
    73
1070
     1
1070
    44
1040
1.0
1070
    74
1070
     0
1000
MTEXTEND
  0
POINT
  5
1B7
  8
DEFPOINTS
  6
CONTINUOUS
 62
     0
 10
798.4446628985247
 20
441.7174634844809
 30
0.0
  0
POINT
  5
1B8
  8
DEFPOINTS
  6
CONTINUOUS
 62
     0
 10
808.5991740057448
 20
452.4052625578608
 30
0.0
  0
POINT
  5
1B9
  8
DEFPOINTS
  6
CONTINUOUS
 62
     0
 10
808.5991740057448
 20
460.3723177848515
 30
0.0
  0
ENDBLK
  5
1BA
  8
0
 62
     7
  0
BLOCK
  8
0
  2
*D23
 70
     1
 10
0.0
 20
0.0
 30
0.0
  3
*D23
  1

  0
LINE
  5
19C
  8
回07-寸法
  6
CONTINUOUS
 62
     5
 10
969.6991740057447
 20
486.9117323525045
 30
0.0
 11
969.6991740057447
 21
523.6463477971788
 31
0.0
  0
LINE
  5
19D
  8
回07-寸法
  6
CONTINUOUS
 62
     5
 10
813.7991740057445
 20
486.9117323525045
 30
0.0
 11
813.7991740057445
 21
523.6463477971788
 31
0.0
  0
LINE
  5
19E
  8
回07-寸法
  6
CONTINUOUS
 62
     5
 10
967.6991740057447
 20
522.6463477971788
 30
0.0
 11
815.7991740057445
 21
522.6463477971788
 31
0.0
  0
INSERT
  5
19F
  8
回07-寸法
  6
CONTINUOUS
 62
     5
 66
     1
  2
_OPEN
 10
969.6991740057447
 20
522.6463477971788
 30
0.0
 41
2.0
 42
2.0
 43
2.0
  0
SEQEND
  5
1A0
  8
回08-記事
  6
CONTINUOUS
 62
     7
  0
INSERT
  5
1A1
  8
回07-寸法
  6
CONTINUOUS
 62
     5
 66
     1
  2
_OPEN
 10
813.7991740057445
 20
522.6463477971788
 30
0.0
 41
2.0
 42
2.0
 43
2.0
 50
180.0
  0
SEQEND
  5
1A2
  8
回08-記事
  6
CONTINUOUS
 62
     7
  0
TEXT
  5
1A3
  8
回07-寸法
  6
CONTINUOUS
 62
     5
 10
880.9437584529542
 20
523.2963477971788
 30
0.0
 40
3.0
  1
155.9 [6.138]
1001
ACAD
1000
MTEXTBEGIN
1070
    73
1070
     1
1070
    44
1040
1.0
1070
    74
1070
     0
1000
MTEXTEND
  0
POINT
  5
1A4
  8
DEFPOINTS
  6
CONTINUOUS
 62
     0
 10
969.6991740057447
 20
486.9117323525045
 30
0.0
  0
POINT
  5
1A5
  8
DEFPOINTS
  6
CONTINUOUS
 62
     0
 10
813.7991740057445
 20
486.9117323525045
 30
0.0
  0
POINT
  5
1A6
  8
DEFPOINTS
  6
CONTINUOUS
 62
     0
 10
813.7991740057445
 20
522.6463477971788
 30
0.0
  0
ENDBLK
  5
1A7
  8
0
 62
     7
  0
BLOCK
  8
0
  2
*D24
 70
     1
 10
0.0
 20
0.0
 30
0.0
  3
*D24
  1

  0
LINE
  5
18B
  8
回07-寸法
  6
CONTINUOUS
 62
     5
 10
813.7991740057445
 20
522.6463477971788
 30
0.0
 11
813.7991740057445
 21
523.6463477971788
 31
0.0
  0
LINE
  5
18C
  8
回07-寸法
  6
CONTINUOUS
 62
     5
 10
808.5991740057448
 20
491.8217323525043
 30
0.0
 11
808.5991740057448
 21
523.6463477971788
 31
0.0
  0
LINE
  5
18D
  8
回07-寸法
  6
CONTINUOUS
 62
     5
 10
815.7991740057445
 20
522.6463477971788
 30
0.0
 11
817.7991740057446
 21
522.6463477971788
 31
0.0
  0
LINE
  5
18E
  8
回07-寸法
  6
CONTINUOUS
 62
     5
 10
806.5991740057448
 20
522.6463477971788
 30
0.0
 11
762.7091541632251
 21
522.6463477971788
 31
0.0
  0
LINE
  5
18F
  8
回07-寸法
  6
CONTINUOUS
 62
     5
 10
813.7991740057445
 20
522.6463477971788
 30
0.0
 11
808.5991740057448
 21
522.6463477971788
 31
0.0
  0
INSERT
  5
190
  8
回07-寸法
  6
CONTINUOUS
 62
     5
 66
     1
  2
_OPEN
 10
813.7991740057445
 20
522.6463477971788
 30
0.0
 41
2.0
 42
2.0
 43
2.0
 50
180.0
  0
SEQEND
  5
191
  8
回08-記事
  6
CONTINUOUS
 62
     7
  0
INSERT
  5
192
  8
回07-寸法
  6
CONTINUOUS
 62
     5
 66
     1
  2
_OPEN
 10
808.5991740057448
 20
522.6463477971788
 30
0.0
 41
2.0
 42
2.0
 43
2.0
  0
SEQEND
  5
193
  8
回08-記事
  6
CONTINUOUS
 62
     7
  0
INSERT
  5
194
  8
回07-寸法
  6
CONTINUOUS
 62
     5
 66
     1
  2
*X52
 10
0.0
 20
0.0
 30
0.0
  0
SEQEND
  5
495
  8
回08-記事
  6
CONTINUOUS
 62
     7
  0
POINT
  5
195
  8
DEFPOINTS
  6
CONTINUOUS
 62
     0
 10
813.7991740057445
 20
522.6463477971788
 30
0.0
  0
POINT
  5
196
  8
DEFPOINTS
  6
CONTINUOUS
 62
     0
 10
808.5991740057448
 20
491.8217323525043
 30
0.0
  0
POINT
  5
197
  8
DEFPOINTS
  6
CONTINUOUS
 62
     0
 10
808.5991740057448
 20
522.6463477971788
 30
0.0
  0
ENDBLK
  5
198
  8
0
 62
     7
  0
BLOCK
  8
0
  2
*D25
 70
     1
 10
0.0
 20
0.0
 30
0.0
  3
*D25
  1

  0
LINE
  5
17A
  8
回07-寸法
  6
CONTINUOUS
 62
     5
 10
973.5991740057448
 20
491.8217323525043
 30
0.0
 11
973.5991740057448
 21
523.6463477971788
 31
0.0
  0
LINE
  5
17B
  8
回07-寸法
  6
CONTINUOUS
 62
     5
 10
969.6991740057447
 20
486.9117323525045
 30
0.0
 11
969.6991740057447
 21
523.6463477971788
 31
0.0
  0
LINE
  5
17C
  8
回07-寸法
  6
CONTINUOUS
 62
     5
 10
967.6991740057447
 20
522.6463477971788
 30
0.0
 11
965.6991740057447
 21
522.6463477971788
 31
0.0
  0
LINE
  5
17D
  8
回07-寸法
  6
CONTINUOUS
 62
     5
 10
975.5991740057448
 20
522.6463477971788
 30
0.0
 11
1019.199676839747
 21
522.6463477971788
 31
0.0
  0
LINE
  5
17E
  8
回07-寸法
  6
CONTINUOUS
 62
     5
 10
969.6991740057447
 20
522.6463477971788
 30
0.0
 11
973.5991740057448
 21
522.6463477971788
 31
0.0
  0
INSERT
  5
17F
  8
回07-寸法
  6
CONTINUOUS
 62
     5
 66
     1
  2
_OPEN
 10
969.6991740057447
 20
522.6463477971788
 30
0.0
 41
2.0
 42
2.0
 43
2.0
  0
SEQEND
  5
180
  8
回08-記事
  6
CONTINUOUS
 62
     7
  0
INSERT
  5
181
  8
回07-寸法
  6
CONTINUOUS
 62
     5
 66
     1
  2
_OPEN
 10
973.5991740057448
 20
522.6463477971788
 30
0.0
 41
2.0
 42
2.0
 43
2.0
 50
180.0
  0
SEQEND
  5
182
  8
回08-記事
  6
CONTINUOUS
 62
     7
  0
INSERT
  5
183
  8
回07-寸法
  6
CONTINUOUS
 62
     5
 66
     1
  2
*X53
 10
0.0
 20
0.0
 30
0.0
  0
SEQEND
  5
49B
  8
回08-記事
  6
CONTINUOUS
 62
     7
  0
POINT
  5
184
  8
DEFPOINTS
  6
CONTINUOUS
 62
     0
 10
973.5991740057448
 20
491.8217323525043
 30
0.0
  0
POINT
  5
185
  8
DEFPOINTS
  6
CONTINUOUS
 62
     0
 10
969.6991740057447
 20
486.9117323525045
 30
0.0
  0
POINT
  5
186
  8
DEFPOINTS
  6
CONTINUOUS
 62
     0
 10
969.6991740057447
 20
522.6463477971788
 30
0.0
  0
ENDBLK
  5
187
  8
0
 62
     7
  0
BLOCK
  8
0
  2
*D26
 70
     1
 10
0.0
 20
0.0
 30
0.0
  3
*D26
  1

  0
LINE
  5
16B
  8
回07-寸法
  6
CONTINUOUS
 62
     5
 10
969.6991740057452
 20
486.9117323525046
 30
0.0
 11
1028.544634100816
 21
486.9117323525046
 31
0.0
  0
LINE
  5
16C
  8
回07-寸法
  6
CONTINUOUS
 62
     5
 10
969.6991740057452
 20
391.3717323525048
 30
0.0
 11
1028.544634100816
 21
391.3717323525048
 31
0.0
  0
LINE
  5
16D
  8
回07-寸法
  6
CONTINUOUS
 62
     5
 10
1027.544634100816
 20
484.9117323525047
 30
0.0
 11
1027.544634100816
 21
393.3717323525048
 31
0.0
  0
INSERT
  5
16E
  8
回07-寸法
  6
CONTINUOUS
 62
     5
 66
     1
  2
_OPEN
 10
1027.544634100816
 20
486.9117323525046
 30
0.0
 41
2.0
 42
2.0
 43
2.0
 50
90.0
  0
SEQEND
  5
16F
  8
回08-記事
  6
CONTINUOUS
 62
     7
  0
INSERT
  5
170
  8
回07-寸法
  6
CONTINUOUS
 62
     5
 66
     1
  2
_OPEN
 10
1027.544634100816
 20
391.3717323525048
 30
0.0
 41
2.0
 42
2.0
 43
2.0
 50
270.0
  0
SEQEND
  5
171
  8
回08-記事
  6
CONTINUOUS
 62
     7
  0
TEXT
  5
172
  8
回07-寸法
  6
CONTINUOUS
 62
     5
 10
1026.894634100816
 20
427.8809012469233
 30
0.0
 40
3.0
  1
95.54 [3.761]
 50
90.0
1001
ACAD
1000
MTEXTBEGIN
1070
    73
1070
     1
1070
    44
1040
1.0
1070
    74
1070
     0
1000
MTEXTEND
  0
POINT
  5
173
  8
DEFPOINTS
  6
CONTINUOUS
 62
     0
 10
969.6991740057452
 20
486.9117323525046
 30
0.0
  0
POINT
  5
174
  8
DEFPOINTS
  6
CONTINUOUS
 62
     0
 10
969.6991740057452
 20
391.3717323525048
 30
0.0
  0
POINT
  5
175
  8
DEFPOINTS
  6
CONTINUOUS
 62
     0
 10
1027.544634100816
 20
391.3717323525048
 30
0.0
  0
ENDBLK
  5
176
  8
0
 62
     7
  0
BLOCK
  8
0
  2
*D27
 70
     1
 10
0.0
 20
0.0
 30
0.0
  3
*D27
  1

  0
LINE
  5
15A
  8
回07-寸法
  6
CONTINUOUS
 62
     5
 10
969.6991740057452
 20
486.9117323525046
 30
0.0
 11
1028.544634100816
 21
486.9117323525046
 31
0.0
  0
LINE
  5
15B
  8
回07-寸法
  6
CONTINUOUS
 62
     5
 10
973.5991740057452
 20
491.8217323525046
 30
0.0
 11
1028.544634100816
 21
491.8217323525046
 31
0.0
  0
LINE
  5
15C
  8
回07-寸法
  6
CONTINUOUS
 62
     5
 10
1027.544634100816
 20
484.9117323525047
 30
0.0
 11
1027.544634100816
 21
482.9117323525046
 31
0.0
  0
LINE
  5
15D
  8
回07-寸法
  6
CONTINUOUS
 62
     5
 10
1027.544634100816
 20
493.8217323525045
 30
0.0
 11
1027.544634100816
 21
538.9327181779898
 31
0.0
  0
LINE
  5
15E
  8
回07-寸法
  6
CONTINUOUS
 62
     5
 10
1027.544634100816
 20
486.9117323525046
 30
0.0
 11
1027.544634100816
 21
491.8217323525046
 31
0.0
  0
INSERT
  5
15F
  8
回07-寸法
  6
CONTINUOUS
 62
     5
 66
     1
  2
_OPEN
 10
1027.544634100816
 20
486.9117323525046
 30
0.0
 41
2.0
 42
2.0
 43
2.0
 50
90.0
  0
SEQEND
  5
160
  8
回08-記事
  6
CONTINUOUS
 62
     7
  0
INSERT
  5
161
  8
回07-寸法
  6
CONTINUOUS
 62
     5
 66
     1
  2
_OPEN
 10
1027.544634100816
 20
491.8217323525046
 30
0.0
 41
2.0
 42
2.0
 43
2.0
 50
270.0
  0
SEQEND
  5
162
  8
回08-記事
  6
CONTINUOUS
 62
     7
  0
INSERT
  5
163
  8
回07-寸法
  6
CONTINUOUS
 62
     5
 66
     1
  2
*X54
 10
0.0
 20
0.0
 30
0.0
  0
SEQEND
  5
4A1
  8
回08-記事
  6
CONTINUOUS
 62
     7
  0
POINT
  5
164
  8
DEFPOINTS
  6
CONTINUOUS
 62
     0
 10
969.6991740057452
 20
486.9117323525046
 30
0.0
  0
POINT
  5
165
  8
DEFPOINTS
  6
CONTINUOUS
 62
     0
 10
973.5991740057452
 20
491.8217323525046
 30
0.0
  0
POINT
  5
166
  8
DEFPOINTS
  6
CONTINUOUS
 62
     0
 10
1027.544634100816
 20
491.8217323525046
 30
0.0
  0
ENDBLK
  5
167
  8
0
 62
     7
  0
BLOCK
  8
0
  2
*D28
 70
     1
 10
0.0
 20
0.0
 30
0.0
  3
*D28
  1

  0
LINE
  5
149
  8
回07-寸法
  6
CONTINUOUS
 62
     5
 10
973.5991740057452
 20
387.8217323525046
 30
0.0
 11
1028.544634100815
 21
387.8217323525046
 31
0.0
  0
LINE
  5
14A
  8
回07-寸法
  6
CONTINUOUS
 62
     5
 10
969.6991740057452
 20
391.3717323525048
 30
0.0
 11
1028.544634100815
 21
391.3717323525048
 31
0.0
  0
LINE
  5
14B
  8
回07-寸法
  6
CONTINUOUS
 62
     5
 10
1027.544634100816
 20
393.3717323525048
 30
0.0
 11
1027.544634100816
 21
395.3717323525048
 31
0.0
  0
LINE
  5
14C
  8
回07-寸法
  6
CONTINUOUS
 62
     5
 10
1027.544634100816
 20
385.8217323525046
 30
0.0
 11
1027.544634100816
 21
340.1317125099848
 31
0.0
  0
LINE
  5
14D
  8
回07-寸法
  6
CONTINUOUS
 62
     5
 10
1027.544634100816
 20
391.3717323525048
 30
0.0
 11
1027.544634100816
 21
387.8217323525046
 31
0.0
  0
INSERT
  5
14E
  8
回07-寸法
  6
CONTINUOUS
 62
     5
 66
     1
  2
_OPEN
 10
1027.544634100816
 20
391.3717323525048
 30
0.0
 41
2.0
 42
2.0
 43
2.0
 50
270.0
  0
SEQEND
  5
14F
  8
回08-記事
  6
CONTINUOUS
 62
     7
  0
INSERT
  5
150
  8
回07-寸法
  6
CONTINUOUS
 62
     5
 66
     1
  2
_OPEN
 10
1027.544634100816
 20
387.8217323525046
 30
0.0
 41
2.0
 42
2.0
 43
2.0
 50
90.0
  0
SEQEND
  5
151
  8
回08-記事
  6
CONTINUOUS
 62
     7
  0
INSERT
  5
152
  8
回07-寸法
  6
CONTINUOUS
 62
     5
 66
     1
  2
*X55
 10
0.0
 20
0.0
 30
0.0
  0
SEQEND
  5
4A7
  8
回08-記事
  6
CONTINUOUS
 62
     7
  0
POINT
  5
153
  8
DEFPOINTS
  6
CONTINUOUS
 62
     0
 10
973.5991740057452
 20
387.8217323525046
 30
0.0
  0
POINT
  5
154
  8
DEFPOINTS
  6
CONTINUOUS
 62
     0
 10
969.6991740057452
 20
391.3717323525048
 30
0.0
  0
POINT
  5
155
  8
DEFPOINTS
  6
CONTINUOUS
 62
     0
 10
1027.544634100816
 20
391.3717323525048
 30
0.0
  0
ENDBLK
  5
156
  8
0
 62
     7
  0
BLOCK
  8
0
  2
*D29
 70
     1
 10
0.0
 20
0.0
 30
0.0
  3
*D29
  1

  0
LINE
  5
134
  8
回07-寸法
  6
CONTINUOUS
 62
     5
 10
733.5991740057448
 20
322.3985876977076
 30
0.0
 11
733.5991740057448
 21
309.8508244331351
 31
0.0
  0
LINE
  5
135
  8
回07-寸法
  6
CONTINUOUS
 62
     5
 10
738.5991740057447
 20
321.3985876977076
 30
0.0
 11
738.5991740057447
 21
309.8508244331351
 31
0.0
  0
LINE
  5
136
  8
回07-寸法
  6
CONTINUOUS
 62
     5
 10
731.5991740057447
 20
310.8508244331351
 30
0.0
 11
729.5991740057448
 21
310.8508244331351
 31
0.0
  0
LINE
  5
137
  8
回07-寸法
  6
CONTINUOUS
 62
     5
 10
740.5991740057447
 20
310.8508244331351
 30
0.0
 11
757.7096569972277
 21
310.8508244331351
 31
0.0
  0
LINE
  5
138
  8
回07-寸法
  6
CONTINUOUS
 62
     5
 10
733.5991740057448
 20
310.8508244331351
 30
0.0
 11
738.5991740057447
 21
310.8508244331351
 31
0.0
  0
INSERT
  5
139
  8
回07-寸法
  6
CONTINUOUS
 62
     5
 66
     1
  2
_OPEN
 10
733.5991740057448
 20
310.8508244331351
 30
0.0
 41
2.0
 42
2.0
 43
2.0
  0
SEQEND
  5
13A
  8
回08-記事
  6
CONTINUOUS
 62
     7
  0
INSERT
  5
13B
  8
回07-寸法
  6
CONTINUOUS
 62
     5
 66
     1
  2
_OPEN
 10
738.5991740057447
 20
310.8508244331351
 30
0.0
 41
2.0
 42
2.0
 43
2.0
 50
180.0
  0
SEQEND
  5
13C
  8
回08-記事
  6
CONTINUOUS
 62
     7
  0
TEXT
  5
13D
  8
回07-寸法
  6
CONTINUOUS
 62
     5
 10
742.6489999486957
 20
311.5007645270328
 30
0.0
 40
3.0
  1
5 [0.197]
1001
ACAD
1000
MTEXTBEGIN
1070
    73
1070
     1
1070
    44
1040
1.0
1070
    74
1070
     0
1000
MTEXTEND
  0
POINT
  5
13E
  8
DEFPOINTS
  6
CONTINUOUS
 62
     0
 10
733.5991740057448
 20
322.3985876977076
 30
0.0
  0
POINT
  5
13F
  8
DEFPOINTS
  6
CONTINUOUS
 62
     0
 10
738.5991740057447
 20
321.3985876977076
 30
0.0
  0
POINT
  5
140
  8
DEFPOINTS
  6
CONTINUOUS
 62
     0
 10
738.5991740057447
 20
310.8508244331351
 30
0.0
  0
ENDBLK
  5
141
  8
0
 62
     7
  0
BLOCK
  8
0
  2
*D30
 70
     1
 10
0.0
 20
0.0
 30
0.0
  3
*D30
  1

  0
LINE
  5
123
  8
回07-寸法
  6
CONTINUOUS
 62
     5
 10
743.5991740057447
 20
324.8985876977076
 30
0.0
 11
743.5991740057447
 21
340.6405928693348
 31
0.0
  0
LINE
  5
124
  8
回07-寸法
  6
CONTINUOUS
 62
     5
 10
733.5991740057448
 20
324.8985876977076
 30
0.0
 11
733.5991740057448
 21
340.6405928693348
 31
0.0
  0
LINE
  5
125
  8
回07-寸法
  6
CONTINUOUS
 62
     5
 10
731.5991740057447
 20
339.6405928693348
 30
0.0
 11
729.5991740057448
 21
339.6405928693348
 31
0.0
  0
LINE
  5
126
  8
回07-寸法
  6
CONTINUOUS
 62
     5
 10
745.5991740057448
 20
339.6405928693348
 30
0.0
 11
767.5072947925031
 21
339.6405928693348
 31
0.0
  0
LINE
  5
127
  8
回07-寸法
  6
CONTINUOUS
 62
     5
 10
733.5991740057448
 20
339.6405928693348
 30
0.0
 11
743.5991740057447
 21
339.6405928693348
 31
0.0
  0
INSERT
  5
128
  8
回07-寸法
  6
CONTINUOUS
 62
     5
 66
     1
  2
_OPEN
 10
733.5991740057448
 20
339.6405928693348
 30
0.0
 41
2.0
 42
2.0
 43
2.0
  0
SEQEND
  5
129
  8
回08-記事
  6
CONTINUOUS
 62
     7
  0
INSERT
  5
12A
  8
回07-寸法
  6
CONTINUOUS
 62
     5
 66
     1
  2
_OPEN
 10
743.5991740057447
 20
339.6405928693348
 30
0.0
 41
2.0
 42
2.0
 43
2.0
 50
180.0
  0
SEQEND
  5
12B
  8
回08-記事
  6
CONTINUOUS
 62
     7
  0
TEXT
  5
12C
  8
回07-寸法
  6
CONTINUOUS
 62
     5
 10
747.6478188463334
 20
340.2905329632325
 30
0.0
 40
3.0
  1
(10 [0.394])
1001
ACAD
1000
MTEXTBEGIN
1070
    73
1070
     1
1070
    44
1040
1.0
1070
    74
1070
     0
1000
MTEXTEND
  0
POINT
  5
12D
  8
DEFPOINTS
  6
CONTINUOUS
 62
     0
 10
743.5991740057447
 20
324.8985876977076
 30
0.0
  0
POINT
  5
12E
  8
DEFPOINTS
  6
CONTINUOUS
 62
     0
 10
733.5991740057448
 20
324.8985876977076
 30
0.0
  0
POINT
  5
12F
  8
DEFPOINTS
  6
CONTINUOUS
 62
     0
 10
733.5991740057448
 20
339.6405928693348
 30
0.0
  0
ENDBLK
  5
130
  8
0
 62
     7
  0
BLOCK
  8
0
  2
*D31
 70
     1
 10
0.0
 20
0.0
 30
0.0
  3
*D31
  1

  0
LINE
  5
112
  8
回07-寸法
  6
CONTINUOUS
 62
     5
 10
733.5991740057449
 20
322.3985876977077
 30
0.0
 11
725.6454987074712
 21
322.3985876977077
 31
0.0
  0
LINE
  5
113
  8
回07-寸法
  6
CONTINUOUS
 62
     5
 10
733.5991740057449
 20
324.8985876977077
 30
0.0
 11
725.6454987074712
 21
324.8985876977077
 31
0.0
  0
LINE
  5
114
  8
回07-寸法
  6
CONTINUOUS
 62
     5
 10
726.6454987074712
 20
320.3985876977077
 30
0.0
 11
726.6454987074712
 21
318.3985876977077
 31
0.0
  0
LINE
  5
115
  8
回07-寸法
  6
CONTINUOUS
 62
     5
 10
726.6454987074712
 20
326.8985876977077
 30
0.0
 11
726.6454987074712
 21
359.0016399024322
 31
0.0
  0
LINE
  5
116
  8
回07-寸法
  6
CONTINUOUS
 62
     5
 10
726.6454987074712
 20
322.3985876977077
 30
0.0
 11
726.6454987074712
 21
324.8985876977077
 31
0.0
  0
INSERT
  5
117
  8
回07-寸法
  6
CONTINUOUS
 62
     5
 66
     1
  2
_OPEN
 10
726.6454987074712
 20
322.3985876977077
 30
0.0
 41
2.0
 42
2.0
 43
2.0
 50
90.0
  0
SEQEND
  5
118
  8
回08-記事
  6
CONTINUOUS
 62
     7
  0
INSERT
  5
119
  8
回07-寸法
  6
CONTINUOUS
 62
     5
 66
     1
  2
_OPEN
 10
726.6454987074712
 20
324.8985876977077
 30
0.0
 41
2.0
 42
2.0
 43
2.0
 50
270.0
  0
SEQEND
  5
11A
  8
回08-記事
  6
CONTINUOUS
 62
     7
  0
INSERT
  5
11B
  8
回07-寸法
  6
CONTINUOUS
 62
     5
 66
     1
  2
*X56
 10
0.0
 20
0.0
 30
0.0
  0
SEQEND
  5
4B0
  8
回08-記事
  6
CONTINUOUS
 62
     7
  0
POINT
  5
11C
  8
DEFPOINTS
  6
CONTINUOUS
 62
     0
 10
733.5991740057449
 20
322.3985876977077
 30
0.0
  0
POINT
  5
11D
  8
DEFPOINTS
  6
CONTINUOUS
 62
     0
 10
733.5991740057449
 20
324.8985876977077
 30
0.0
  0
POINT
  5
11E
  8
DEFPOINTS
  6
CONTINUOUS
 62
     0
 10
726.6454987074712
 20
324.8985876977077
 30
0.0
  0
ENDBLK
  5
11F
  8
0
 62
     7
  0
BLOCK
  8
0
  2
*D32
 70
     1
 10
0.0
 20
0.0
 30
0.0
  3
*D32
  1

  0
LINE
  5
F5
  8
回07-寸法
  6
CONTINUOUS
 62
     5
 10
733.5991740057449
 20
439.1417323525045
 30
0.0
 11
722.2175478249512
 21
439.1417323525045
 31
0.0
  0
LINE
  5
F6
  8
回07-寸法
  6
CONTINUOUS
 62
     5
 10
808.5991740057451
 20
387.8217323525046
 30
0.0
 11
722.2175478249512
 21
387.8217323525046
 31
0.0
  0
LINE
  5
F7
  8
回07-寸法
  6
CONTINUOUS
 62
     5
 10
723.2175478249512
 20
437.1417323525045
 30
0.0
 11
723.2175478249512
 21
389.8217323525046
 31
0.0
  0
INSERT
  5
F8
  8
回07-寸法
  6
CONTINUOUS
 62
     5
 66
     1
  2
_OPEN
 10
723.2175478249512
 20
439.1417323525045
 30
0.0
 41
2.0
 42
2.0
 43
2.0
 50
90.0
  0
SEQEND
  5
F9
  8
回08-記事
  6
CONTINUOUS
 62
     7
  0
INSERT
  5
FA
  8
回07-寸法
  6
CONTINUOUS
 62
     5
 66
     1
  2
_OPEN
 10
723.2175478249512
 20
387.8217323525046
 30
0.0
 41
2.0
 42
2.0
 43
2.0
 50
270.0
  0
SEQEND
  5
FB
  8
回08-記事
  6
CONTINUOUS
 62
     7
  0
TEXT
  5
FC
  8
回07-寸法
  6
CONTINUOUS
 62
     5
 10
722.5675478249511
 20
401.1817323525042
 30
0.0
 40
3.0
  1
(51.32 [2.020])
 50
90.0
1001
ACAD
1000
MTEXTBEGIN
1070
    73
1070
     1
1070
    44
1040
1.0
1070
    74
1070
     0
1000
MTEXTEND
  0
POINT
  5
FD
  8
DEFPOINTS
  6
CONTINUOUS
 62
     0
 10
733.5991740057449
 20
439.1417323525045
 30
0.0
  0
POINT
  5
FE
  8
DEFPOINTS
  6
CONTINUOUS
 62
     0
 10
808.5991740057451
 20
387.8217323525046
 30
0.0
  0
POINT
  5
FF
  8
DEFPOINTS
  6
CONTINUOUS
 62
     0
 10
723.2175478249512
 20
387.8217323525046
 30
0.0
  0
ENDBLK
  5
100
  8
0
 62
     7
  0
BLOCK
  8
0
  2
*D33
 70
     1
 10
0.0
 20
0.0
 30
0.0
  3
*D33
  1

  0
LINE
  5
CC
  8
回07-寸法
  6
CONTINUOUS
 62
     5
 10
689.4129164353367
 20
544.4411486301805
 30
0.0
 11
666.816617746345
 21
544.4411486301805
 31
0.0
  0
LINE
  5
CD
  8
回07-寸法
  6
CONTINUOUS
 62
     5
 10
689.4129164353367
 20
524.4411486301799
 30
0.0
 11
666.816617746345
 21
524.4411486301799
 31
0.0
  0
LINE
  5
CE
  8
回07-寸法
  6
CONTINUOUS
 62
     5
 10
667.8166177463451
 20
546.4411486301806
 30
0.0
 11
667.8166177463451
 21
548.4411486301805
 31
0.0
  0
LINE
  5
CF
  8
回07-寸法
  6
CONTINUOUS
 62
     5
 10
667.8166177463451
 20
522.4411486301798
 30
0.0
 11
667.8166177463451
 21
494.9300556386971
 31
0.0
  0
LINE
  5
D0
  8
回07-寸法
  6
CONTINUOUS
 62
     5
 10
667.8166177463451
 20
544.4411486301805
 30
0.0
 11
667.8166177463451
 21
524.4411486301799
 31
0.0
  0
INSERT
  5
D1
  8
回07-寸法
  6
CONTINUOUS
 62
     5
 66
     1
  2
_OPEN
 10
667.8166177463451
 20
544.4411486301805
 30
0.0
 41
2.0
 42
2.0
 43
2.0
 50
270.0
  0
SEQEND
  5
D2
  8
回08-記事
  6
CONTINUOUS
 62
     7
  0
INSERT
  5
D3
  8
回07-寸法
  6
CONTINUOUS
 62
     5
 66
     1
  2
_OPEN
 10
667.8166177463451
 20
524.4411486301799
 30
0.0
 41
2.0
 42
2.0
 43
2.0
 50
90.0
  0
SEQEND
  5
D4
  8
回08-記事
  6
CONTINUOUS
 62
     7
  0
INSERT
  5
D5
  8
回07-寸法
  6
CONTINUOUS
 62
     5
 66
     1
  2
*X57
 10
0.0
 20
0.0
 30
0.0
  0
SEQEND
  5
4B9
  8
回08-記事
  6
CONTINUOUS
 62
     7
  0
POINT
  5
D6
  8
DEFPOINTS
  6
CONTINUOUS
 62
     0
 10
689.4129164353367
 20
544.4411486301805
 30
0.0
  0
POINT
  5
D7
  8
DEFPOINTS
  6
CONTINUOUS
 62
     0
 10
689.4129164353367
 20
524.4411486301799
 30
0.0
  0
POINT
  5
D8
  8
DEFPOINTS
  6
CONTINUOUS
 62
     0
 10
667.8166177463451
 20
524.4411486301799
 30
0.0
  0
ENDBLK
  5
D9
  8
0
 62
     7
  0
BLOCK
  8
0
  2
*D34
 70
     1
 10
0.0
 20
0.0
 30
0.0
  3
*D34
  1

  0
LINE
  5
BB
  8
回07-寸法
  6
CONTINUOUS
 62
     5
 10
687.4129164353368
 20
540.4411486301805
 30
0.0
 11
673.0301038485212
 21
540.4411486301805
 31
0.0
  0
LINE
  5
BC
  8
回07-寸法
  6
CONTINUOUS
 62
     5
 10
687.4129164353368
 20
528.4411486301805
 30
0.0
 11
673.0301038485212
 21
528.4411486301805
 31
0.0
  0
LINE
  5
BD
  8
回07-寸法
  6
CONTINUOUS
 62
     5
 10
674.0301038485212
 20
542.4411486301806
 30
0.0
 11
674.0301038485212
 21
544.4411486301805
 31
0.0
  0
LINE
  5
BE
  8
回07-寸法
  6
CONTINUOUS
 62
     5
 10
674.0301038485212
 20
526.4411486301805
 30
0.0
 11
674.0301038485212
 21
509.5911486301806
 31
0.0
  0
LINE
  5
BF
  8
回07-寸法
  6
CONTINUOUS
 62
     5
 10
674.0301038485212
 20
540.4411486301805
 30
0.0
 11
674.0301038485212
 21
528.4411486301805
 31
0.0
  0
INSERT
  5
C0
  8
回07-寸法
  6
CONTINUOUS
 62
     5
 66
     1
  2
_OPEN
 10
674.0301038485212
 20
540.4411486301805
 30
0.0
 41
2.0
 42
2.0
 43
2.0
 50
270.0
  0
SEQEND
  5
C1
  8
回08-記事
  6
CONTINUOUS
 62
     7
  0
INSERT
  5
C2
  8
回07-寸法
  6
CONTINUOUS
 62
     5
 66
     1
  2
_OPEN
 10
674.0301038485212
 20
528.4411486301805
 30
0.0
 41
2.0
 42
2.0
 43
2.0
 50
90.0
  0
SEQEND
  5
C3
  8
回08-記事
  6
CONTINUOUS
 62
     7
  0
TEXT
  5
C4
  8
回07-寸法
  6
CONTINUOUS
 62
     5
 10
673.3801038485212
 20
509.6411486301803
 30
0.0
 40
3.0
  1
3[0.118]
 50
90.0
1001
ACAD
1000
MTEXTBEGIN
1070
    73
1070
     1
1070
    44
1040
1.0
1070
    74
1070
     0
1000
MTEXTEND
  0
POINT
  5
C5
  8
DEFPOINTS
  6
CONTINUOUS
 62
     0
 10
687.4129164353368
 20
540.4411486301805
 30
0.0
  0
POINT
  5
C6
  8
DEFPOINTS
  6
CONTINUOUS
 62
     0
 10
687.4129164353368
 20
528.4411486301805
 30
0.0
  0
POINT
  5
C7
  8
DEFPOINTS
  6
CONTINUOUS
 62
     0
 10
674.0301038485212
 20
528.4411486301805
 30
0.0
  0
ENDBLK
  5
C8
  8
0
 62
     7
  0
BLOCK
  8
0
  2
*D35
 70
     1
 10
0.0
 20
0.0
 30
0.0
  3
*D35
  1

  0
LINE
  5
AA
  8
回07-寸法
  6
CONTINUOUS
 62
     5
 10
687.4129164353368
 20
528.4411486301805
 30
0.0
 11
679.1818234801979
 21
528.4411486301805
 31
0.0
  0
LINE
  5
AB
  8
回07-寸法
  6
CONTINUOUS
 62
     5
 10
687.4129164353368
 20
532.4411486301805
 30
0.0
 11
679.1818234801979
 21
532.4411486301805
 31
0.0
  0
LINE
  5
AC
  8
回07-寸法
  6
CONTINUOUS
 62
     5
 10
680.1818234801979
 20
534.4411486301805
 30
0.0
 11
680.1818234801979
 21
536.4411486301805
 31
0.0
  0
LINE
  5
AD
  8
回07-寸法
  6
CONTINUOUS
 62
     5
 10
680.1818234801979
 20
526.4411486301805
 30
0.0
 11
680.1818234801979
 21
509.2666055483459
 31
0.0
  0
LINE
  5
AE
  8
回07-寸法
  6
CONTINUOUS
 62
     5
 10
680.1818234801979
 20
532.4411486301805
 30
0.0
 11
680.1818234801979
 21
528.4411486301805
 31
0.0
  0
INSERT
  5
AF
  8
回07-寸法
  6
CONTINUOUS
 62
     5
 66
     1
  2
_OPEN
 10
680.1818234801979
 20
532.4411486301805
 30
0.0
 41
2.0
 42
2.0
 43
2.0
 50
270.0
  0
SEQEND
  5
B0
  8
回08-記事
  6
CONTINUOUS
 62
     7
  0
INSERT
  5
B1
  8
回07-寸法
  6
CONTINUOUS
 62
     5
 66
     1
  2
_OPEN
 10
680.1818234801979
 20
528.4411486301805
 30
0.0
 41
2.0
 42
2.0
 43
2.0
 50
90.0
  0
SEQEND
  5
B2
  8
回08-記事
  6
CONTINUOUS
 62
     7
  0
TEXT
  5
B3
  8
回07-寸法
  6
CONTINUOUS
 62
     5
 10
679.5318833863003
 20
509.3164314912966
 30
0.0
 40
3.0
  1
1[0.039]
 50
90.0
1001
ACAD
1000
MTEXTBEGIN
1070
    73
1070
     1
1070
    44
1040
1.0
1070
    74
1070
     0
1000
MTEXTEND
  0
POINT
  5
B4
  8
DEFPOINTS
  6
CONTINUOUS
 62
     0
 10
687.4129164353368
 20
528.4411486301805
 30
0.0
  0
POINT
  5
B5
  8
DEFPOINTS
  6
CONTINUOUS
 62
     0
 10
687.4129164353368
 20
532.4411486301805
 30
0.0
  0
POINT
  5
B6
  8
DEFPOINTS
  6
CONTINUOUS
 62
     0
 10
680.1818234801979
 20
532.4411486301805
 30
0.0
  0
ENDBLK
  5
B7
  8
0
 62
     7
  0
BLOCK
  8
0
  2
*D36
 70
     1
 10
0.0
 20
0.0
 30
0.0
  3
*D36
  1

  0
LINE
  5
93
  8
回08-記事
  6
CONTINUOUS
 62
     5
 10
687.4129164353368
 20
529.6411486301805
 30
0.0
 11
684.155445138355
 21
529.6411486301805
 31
0.0
  0
LINE
  5
94
  8
回08-記事
  6
CONTINUOUS
 62
     5
 10
687.4129164353368
 20
527.2411486301805
 30
0.0
 11
684.155445138355
 21
527.2411486301805
 31
0.0
  0
LINE
  5
95
  8
回08-記事
  6
CONTINUOUS
 62
     5
 10
685.155445138355
 20
531.6411486301806
 30
0.0
 11
685.155445138355
 21
533.6411486301805
 31
0.0
  0
LINE
  5
96
  8
回08-記事
  6
CONTINUOUS
 62
     5
 10
685.155445138355
 20
525.2411486301805
 30
0.0
 11
685.155445138355
 21
506.0387864254561
 31
0.0
  0
LINE
  5
97
  8
回08-記事
  6
CONTINUOUS
 62
     5
 10
685.155445138355
 20
529.6411486301805
 30
0.0
 11
685.155445138355
 21
527.2411486301805
 31
0.0
  0
INSERT
  5
98
  8
回08-記事
  6
CONTINUOUS
 62
     5
 66
     1
  2
_OPEN
 10
685.155445138355
 20
529.6411486301805
 30
0.0
 41
2.0
 42
2.0
 43
2.0
 50
270.0
  0
SEQEND
  5
99
  8
回08-記事
  6
CONTINUOUS
 62
     7
  0
INSERT
  5
9A
  8
回08-記事
  6
CONTINUOUS
 62
     5
 66
     1
  2
_OPEN
 10
685.155445138355
 20
527.2411486301805
 30
0.0
 41
2.0
 42
2.0
 43
2.0
 50
90.0
  0
SEQEND
  5
9B
  8
回08-記事
  6
CONTINUOUS
 62
     7
  0
TEXT
  5
9C
  8
回08-記事
  6
CONTINUOUS
 62
     5
 10
684.5054451383551
 20
506.0911486301802
 30
0.0
 40
3.0
  1
0.6[0.024]
 50
90.0
1001
ACAD
1000
MTEXTBEGIN
1070
    73
1070
     1
1070
    44
1040
1.0
1070
    74
1070
     0
1000
MTEXTEND
  0
POINT
  5
9D
  8
DEFPOINTS
  6
CONTINUOUS
 62
     0
 10
687.4129164353368
 20
529.6411486301805
 30
0.0
  0
POINT
  5
9F
  8
DEFPOINTS
  6
CONTINUOUS
 62
     0
 10
687.4129164353368
 20
527.2411486301805
 30
0.0
  0
POINT
  5
A0
  8
DEFPOINTS
  6
CONTINUOUS
 62
     0
 10
685.155445138355
 20
527.2411486301805
 30
0.0
  0
ENDBLK
  5
A1
  8
0
 62
     7
  0
BLOCK
  8
回08-記事
  2
*X37
 70
     1
 10
0.0
 20
0.0
 30
0.0
  3
*X37
  1

  0
INSERT
  5
3B1
  8
回08-記事
  6
CONTINUOUS
 62
     5
  2
_OPEN
 10
739.1931362792875
 20
435.2197223023904
 30
0.0
 41
2.0
 42
2.0
 43
2.0
 50
118.0477729867591
  0
LINE
  5
3B2
  8
回08-記事
  6
CONTINUOUS
 62
     5
 10
740.1335514744923
 20
433.4546106173609
 30
0.0
 11
742.9854774834511
 21
428.1016899617607
 31
0.0
  0
LINE
  5
3B3
  8
回08-記事
  6
CONTINUOUS
 62
     5
 10
742.9854774834511
 20
428.1016899617607
 30
0.0
 11
747.2854774834511
 21
428.1016899617607
 31
0.0
  0
ENDBLK
  5
3B5
  8
回08-記事
  6
CONTINUOUS
 62
     7
  0
BLOCK
  8
回08-記事
  2
*X38
 70
     1
 10
0.0
 20
0.0
 30
0.0
  3
*X38
  1

  0
INSERT
  5
3C4
  8
回08-記事
  6
CONTINUOUS
 62
     5
  2
_OPEN
 10
736.3338140721136
 20
322.3985876977076
 30
0.0
 41
1.999999999999999
 42
1.999999999999999
 43
2.0
 50
40.07970579340869
  0
LINE
  5
3C5
  8
回08-記事
  6
CONTINUOUS
 62
     5
 10
734.8035150681398
 20
321.1108823904122
 30
0.0
 11
723.6513611852001
 21
311.7266459075127
 31
0.0
  0
LINE
  5
3C6
  8
回08-記事
  6
CONTINUOUS
 62
     5
 10
723.6513611852001
 20
311.7266459075127
 30
0.0
 11
697.4438611852001
 21
311.7266459075127
 31
0.0
  0
ENDBLK
  5
3C8
  8
回08-記事
  6
CONTINUOUS
 62
     7
  0
BLOCK
  8
回08-記事
  2
*X39
 70
     1
 10
0.0
 20
0.0
 30
0.0
  3
*X39
  1

  0
INSERT
  5
3CB
  8
回08-記事
  6
CONTINUOUS
 62
     5
  2
_OPEN
 10
972.820577007687
 20
402.3307415947715
 30
0.0
 41
2.0
 42
2.0
 43
2.0
 50
237.845752773072
  0
LINE
  5
3CC
  8
回08-記事
  6
CONTINUOUS
 62
     5
 10
973.8849777878654
 20
404.0239784296991
 30
0.0
 11
979.8830049806447
 21
413.5655728825054
 31
0.0
  0
LINE
  5
3CD
  8
回08-記事
  6
CONTINUOUS
 62
     5
 10
979.8830049806447
 20
413.5655728825054
 30
0.0
 11
996.7830049806448
 21
413.5655728825054
 31
0.0
  0
ENDBLK
  5
3CF
  8
回08-記事
  6
CONTINUOUS
 62
     7
  0
BLOCK
  8
回08-記事
  2
*X40
 70
     1
 10
0.0
 20
0.0
 30
0.0
  3
*X40
  1

  0
INSERT
  5
3D2
  8
回08-記事
  6
CONTINUOUS
 62
     5
  2
_OPEN
 10
770.0771526538601
 20
324.3985876977076
 30
0.0
 41
2.0
 42
2.0
 43
2.0
 50
249.4354995742493
  0
LINE
  5
3D3
  8
回08-記事
  6
CONTINUOUS
 62
     5
 10
770.7796758798049
 20
326.2711424010496
 30
0.0
 11
776.6768502315694
 21
341.9898847301365
 31
0.0
  0
LINE
  5
3D4
  8
回08-記事
  6
CONTINUOUS
 62
     5
 10
776.6768502315694
 20
341.9898847301365
 30
0.0
 11
805.2017322514798
 21
341.9898847301365
 31
0.0
  0
ENDBLK
  5
3D6
  8
回08-記事
  6
CONTINUOUS
 62
     7
  0
BLOCK
  8
回08-記事
  2
*X41
 70
     1
 10
0.0
 20
0.0
 30
0.0
  3
*X41
  1

  0
INSERT
  5
3DE
  8
回08-記事
  6
CONTINUOUS
 62
     5
  2
_OPEN
 10
763.7376501318263
 20
320.7117488852718
 30
0.0
 41
2.0
 42
2.0
 43
2.0
 50
97.47824176864064
  0
LINE
  5
3DF
  8
回08-記事
  6
CONTINUOUS
 62
     5
 10
763.9979494895831
 20
318.7287601701372
 30
0.0
 11
764.6923840902768
 21
313.4384821285694
 31
0.0
  0
LINE
  5
3E0
  8
回08-記事
  6
CONTINUOUS
 62
     5
 10
764.6923840902768
 20
313.4384821285694
 30
0.0
 11
786.3923840902769
 21
313.4384821285694
 31
0.0
  0
ENDBLK
  5
3E2
  8
回08-記事
  6
CONTINUOUS
 62
     7
  0
BLOCK
  8
回08-記事
  2
*X42
 70
     1
 10
0.0
 20
0.0
 30
0.0
  3
*X42
  1

  0
INSERT
  5
403
  8
回07-寸法
  6
CONTINUOUS
 62
     5
  2
_OPEN
 10
808.5133875681176
 20
430.5559459148766
 30
0.0
 41
2.0
 42
2.0
 43
2.0
 50
77.26569167618994
  0
LINE
  5
404
  8
回07-寸法
  6
CONTINUOUS
 62
     5
 10
808.0725269513836
 20
428.6051404615797
 30
0.0
 11
806.3880960405032
 21
421.1515442864638
 31
0.0
  0
LINE
  5
405
  8
回07-寸法
  6
CONTINUOUS
 62
     5
 10
806.3880960405032
 20
421.1515442864638
 30
0.0
 11
796.0874326698228
 21
421.1515442864638
 31
0.0
  0
ENDBLK
  5
407
  8
回08-記事
  6
CONTINUOUS
 62
     7
  0
BLOCK
  8
回08-記事
  2
*X43
 70
     1
 10
0.0
 20
0.0
 30
0.0
  3
*X43
  1

  0
LINE
  5
40F
  8
回08-記事
  6
CONTINUOUS
 62
     8
 10
804.6991740057446
 20
435.5744919087992
 30
0.0
 11
807.0164144494491
 21
437.8917323525037
 31
0.0
1001
ACAD
1010
0.0
1020
0.0
1030
0.0
  0
LINE
  5
410
  8
回08-記事
  6
CONTINUOUS
 62
     8
 10
805.5065425099837
 20
431.8917323525036
 30
0.0
 11
811.5065425099835
 21
437.8917323525036
 31
0.0
1001
ACAD
1010
0.0
1020
0.0
1030
0.0
  0
LINE
  5
411
  8
回08-記事
  6
CONTINUOUS
 62
     8
 10
809.9966705705181
 20
431.8917323525035
 30
0.0
 11
812.8991740057447
 21
434.7942357877301
 31
0.0
1001
ACAD
1010
0.0
1020
0.0
1030
0.0
  0
ENDBLK
  5
413
  8
回08-記事
  6
CONTINUOUS
 62
     7
  0
BLOCK
  8
回08-記事
  2
*X44
 70
     1
 10
0.0
 20
0.0
 30
0.0
  3
*X44
  1

  0
LINE
  5
41F
  8
回08-記事
  6
CONTINUOUS
 62
     8
 10
758.7724934797845
 20
436.8917323525042
 30
0.0
 11
757.2771526538603
 21
438.3870731784283
 31
0.0
1001
ACAD
1010
0.0
1020
0.0
1030
0.0
  0
LINE
  5
420
  8
回08-記事
  6
CONTINUOUS
 62
     8
 10
761.424143909234
 20
436.8917323525042
 30
0.0
 11
757.2943049993384
 21
441.0215712623998
 31
0.0
1001
ACAD
1010
0.0
1020
0.0
1030
0.0
  0
LINE
  5
421
  8
回08-記事
  6
CONTINUOUS
 62
     8
 10
764.0757943386836
 20
436.8917323525042
 30
0.0
 11
759.5757943386836
 21
441.3917323525041
 31
0.0
1001
ACAD
1010
0.0
1020
0.0
1030
0.0
  0
LINE
  5
422
  8
回08-記事
  6
CONTINUOUS
 62
     8
 10
766.7274447681331
 20
436.8917323525042
 30
0.0
 11
762.2274447681331
 21
441.3917323525042
 31
0.0
1001
ACAD
1010
0.0
1020
0.0
1030
0.0
  0
LINE
  5
423
  8
回08-記事
  6
CONTINUOUS
 62
     8
 10
769.3790951975826
 20
436.8917323525042
 30
0.0
 11
764.8790951975826
 21
441.3917323525042
 31
0.0
1001
ACAD
1010
0.0
1020
0.0
1030
0.0
  0
LINE
  5
424
  8
回08-記事
  6
CONTINUOUS
 62
     8
 10
772.0307456270322
 20
436.8917323525042
 30
0.0
 11
767.5307456270322
 21
441.3917323525041
 31
0.0
1001
ACAD
1010
0.0
1020
0.0
1030
0.0
  0
LINE
  5
425
  8
回08-記事
  6
CONTINUOUS
 62
     8
 10
774.6823960564818
 20
436.8917323525042
 30
0.0
 11
770.1823960564817
 21
441.3917323525042
 31
0.0
1001
ACAD
1010
0.0
1020
0.0
1030
0.0
  0
LINE
  5
426
  8
回08-記事
  6
CONTINUOUS
 62
     8
 10
777.3340464859312
 20
436.8917323525042
 30
0.0
 11
772.8340464859313
 21
441.3917323525041
 31
0.0
1001
ACAD
1010
0.0
1020
0.0
1030
0.0
  0
LINE
  5
427
  8
回08-記事
  6
CONTINUOUS
 62
     8
 10
779.9856969153807
 20
436.8917323525042
 30
0.0
 11
775.4856969153808
 21
441.3917323525042
 31
0.0
1001
ACAD
1010
0.0
1020
0.0
1030
0.0
  0
LINE
  5
428
  8
回08-記事
  6
CONTINUOUS
 62
     8
 10
782.6373473448303
 20
436.8917323525042
 30
0.0
 11
778.1373473448303
 21
441.3917323525042
 31
0.0
1001
ACAD
1010
0.0
1020
0.0
1030
0.0
  0
LINE
  5
429
  8
回08-記事
  6
CONTINUOUS
 62
     8
 10
783.2771526538603
 20
438.9035774729237
 30
0.0
 11
780.7889977742799
 21
441.3917323525041
 31
0.0
1001
ACAD
1010
0.0
1020
0.0
1030
0.0
  0
ENDBLK
  5
42B
  8
回08-記事
  6
CONTINUOUS
 62
     7
  0
BLOCK
  8
回08-記事
  2
*X45
 70
     1
 10
0.0
 20
0.0
 30
0.0
  3
*X45
  1

  0
INSERT
  5
42E
  8
回07-寸法
  6
CONTINUOUS
 62
     5
  2
_OPEN
 10
804.0298922922382
 20
431.2173739933487
 30
0.0
 41
2.0
 42
2.0
 43
2.0
 50
72.28833896500437
  0
LINE
  5
42F
  8
回07-寸法
  6
CONTINUOUS
 62
     5
 10
803.4214384050715
 20
429.3121748260195
 30
0.0
 11
802.4025739317959
 21
426.1218923953412
 31
0.0
  0
LINE
  5
430
  8
回07-寸法
  6
CONTINUOUS
 62
     5
 10
802.4025739317959
 20
426.1218923953412
 30
0.0
 11
792.402573931796
 21
426.1218923953412
 31
0.0
  0
ENDBLK
  5
432
  8
回08-記事
  6
CONTINUOUS
 62
     7
  0
BLOCK
  8
回08-記事
  2
*X46
 70
     1
 10
0.0
 20
0.0
 30
0.0
  3
*X46
  1

  0
LINE
  5
435
  8
回08-記事
  6
CONTINUOUS
 62
     7
 10
804.9474733253068
 20
320.8985876977076
 30
0.0
 11
805.4474733253069
 21
321.3985876977076
 31
0.0
  0
LINE
  5
436
  8
回08-記事
  6
CONTINUOUS
 62
     7
 10
806.2945117434672
 20
320.8985876977077
 30
0.0
 11
806.7945117434671
 21
321.3985876977076
 31
0.0
  0
LINE
  5
437
  8
回08-記事
  6
CONTINUOUS
 62
     7
 10
807.6415501616276
 20
320.8985876977077
 30
0.0
 11
808.1415501616275
 21
321.3985876977077
 31
0.0
  0
LINE
  5
438
  8
回08-記事
  6
CONTINUOUS
 62
     7
 10
808.0991740057449
 20
320.0091731236647
 30
0.0
 11
808.5991740057448
 21
320.5091731236646
 31
0.0
  0
LINE
  5
439
  8
回08-記事
  6
CONTINUOUS
 62
     7
 10
808.8356269979481
 20
319.3985876977077
 30
0.0
 11
809.335626997948
 21
319.8985876977075
 31
0.0
  0
LINE
  5
43A
  8
回08-記事
  6
CONTINUOUS
 62
     7
 10
810.1826654161085
 20
319.3985876977077
 30
0.0
 11
810.6826654161086
 21
319.8985876977076
 31
0.0
  0
LINE
  5
43B
  8
回08-記事
  6
CONTINUOUS
 62
     7
 10
811.5297038342689
 20
319.3985876977076
 30
0.0
 11
812.0297038342688
 21
319.8985876977075
 31
0.0
  0
LINE
  5
43C
  8
回08-記事
  6
CONTINUOUS
 62
     7
 10
812.876742252429
 20
319.3985876977075
 30
0.0
 11
812.8991740057447
 21
319.4210194510231
 31
0.0
  0
ENDBLK
  5
43E
  8
回08-記事
  6
CONTINUOUS
 62
     7
  0
BLOCK
  8
回08-記事
  2
*X47
 70
     1
 10
0.0
 20
0.0
 30
0.0
  3
*X47
  1

  0
TEXT
  5
464
  8
回07-寸法
  6
CONTINUOUS
 62
     5
 10
981.2857603229756
 20
286.9479676977073
 30
0.0
 40
3.0
  1
1.4
 50
90.0
  0
TEXT
  5
465
  8
回07-寸法
  6
CONTINUOUS
 62
     5
 10
981.2857603229756
 20
291.7479676977073
 30
0.0
 40
2.000099999999999
  1
±0.2
 50
90.0
  0
TEXT
  5
466
  8
回07-寸法
  6
CONTINUOUS
 62
     5
 10
981.2857603229756
 20
296.5482076977073
 30
0.0
 40
3.0
  1
[0.055
 50
90.0
  0
TEXT
  5
467
  8
回07-寸法
  6
CONTINUOUS
 62
     5
 10
981.2857603229756
 20
307.0482076977073
 30
0.0
 40
2.000099999999999
  1
±0.008
 50
90.0
  0
TEXT
  5
468
  8
回07-寸法
  6
CONTINUOUS
 62
     5
 10
981.2857603229756
 20
314.6485876977073
 30
0.0
 40
3.0
  1
]
 50
90.0
  0
ENDBLK
  5
46A
  8
回08-記事
  6
CONTINUOUS
 62
     7
  0
BLOCK
  8
回08-記事
  2
*X48
 70
     1
 10
0.0
 20
0.0
 30
0.0
  3
*X48
  1

  0
TEXT
  5
46D
  8
回07-寸法
  6
CONTINUOUS
 62
     5
 10
875.0437584529542
 20
531.0508649486735
 30
0.0
 40
3.0
  1
165
  0
TEXT
  5
46E
  8
回07-寸法
  6
CONTINUOUS
 62
     5
 10
880.7437584529543
 20
531.0508649486735
 30
0.0
 40
2.1
  1
±0.3
  0
TEXT
  5
46F
  8
回07-寸法
  6
CONTINUOUS
 62
     5
 10
885.7837584529542
 20
531.0508649486735
 30
0.0
 40
3.0
  1
 [6.496
  0
TEXT
  5
470
  8
回07-寸法
  6
CONTINUOUS
 62
     5
 10
898.3945895585351
 20
531.0508649486735
 30
0.0
 40
2.1
  1
±0.012
  0
TEXT
  5
471
  8
回07-寸法
  6
CONTINUOUS
 62
     5
 10
905.9545895585351
 20
531.0508649486735
 30
0.0
 40
3.0
  1
]
  0
ENDBLK
  5
473
  8
回08-記事
  6
CONTINUOUS
 62
     7
  0
BLOCK
  8
回08-記事
  2
*X49
 70
     1
 10
0.0
 20
0.0
 30
0.0
  3
*X49
  1

  0
TEXT
  5
476
  8
回07-寸法
  6
CONTINUOUS
 62
     5
 10
1034.388066218867
 20
423.4663167997135
 30
0.0
 40
3.0
  1
104
 50
90.0
  0
TEXT
  5
477
  8
回07-寸法
  6
CONTINUOUS
 62
     5
 10
1034.388066218867
 20
429.4663167997136
 30
0.0
 40
2.1
  1
±0.3
 50
90.0
  0
TEXT
  5
478
  8
回07-寸法
  6
CONTINUOUS
 62
     5
 10
1034.388066218867
 20
434.5063167997136
 30
0.0
 40
3.0
  1
 [4.094
 50
90.0
  0
TEXT
  5
479
  8
回07-寸法
  6
CONTINUOUS
 62
     5
 10
1034.388066218867
 20
447.4171479052945
 30
0.0
 40
2.1
  1
±0.012
 50
90.0
  0
TEXT
  5
47A
  8
回07-寸法
  6
CONTINUOUS
 62
     5
 10
1034.388066218867
 20
454.9771479052944
 30
0.0
 40
3.0
  1
]
 50
90.0
  0
ENDBLK
  5
47C
  8
回08-記事
  6
CONTINUOUS
 62
     7
  0
BLOCK
  8
回08-記事
  2
*X50
 70
     1
 10
0.0
 20
0.0
 30
0.0
  3
*X50
  1

  0
TEXT
  5
47F
  8
回07-寸法
  6
CONTINUOUS
 62
     5
 10
728.2967130663394
 20
446.7415582954554
 30
0.0
 40
3.0
  1
5
 50
90.0
  0
TEXT
  5
480
  8
回07-寸法
  6
CONTINUOUS
 62
     5
 10
728.2967130663394
 20
448.8415582954554
 30
0.0
 40
2.1
  1
±0.1
 50
90.0
  0
TEXT
  5
481
  8
回07-寸法
  6
CONTINUOUS
 62
     5
 10
728.2967130663394
 20
453.4615582954554
 30
0.0
 40
3.0
  1
 [0.197
 50
90.0
  0
TEXT
  5
482
  8
回07-寸法
  6
CONTINUOUS
 62
     5
 10
728.2967130663394
 20
465.1723894010364
 30
0.0
 40
2.1
  1
±0.004
 50
90.0
  0
TEXT
  5
483
  8
回07-寸法
  6
CONTINUOUS
 62
     5
 10
728.2967130663394
 20
473.3623894010364
 30
0.0
 40
3.0
  1
]
 50
90.0
  0
ENDBLK
  5
485
  8
回08-記事
  6
CONTINUOUS
 62
     7
  0
BLOCK
  8
回08-記事
  2
*X51
 70
     1
 10
0.0
 20
0.0
 30
0.0
  3
*X51
  1

  0
TEXT
  5
488
  8
回07-寸法
  6
CONTINUOUS
 62
     5
 10
756.9899675660009
 20
473.4730500297031
 30
0.0
 40
3.0
  1
75
  0
TEXT
  5
489
  8
回07-寸法
  6
CONTINUOUS
 62
     5
 10
761.1899675660009
 20
473.4730500297031
 30
0.0
 40
2.1
  1
±1
  0
TEXT
  5
48A
  8
回07-寸法
  6
CONTINUOUS
 62
     5
 10
763.7099675660009
 20
473.4730500297031
 30
0.0
 40
3.0
  1
 [2.953
  0
TEXT
  5
48B
  8
回07-寸法
  6
CONTINUOUS
 62
     5
 10
776.0207986715819
 20
473.4730500297031
 30
0.0
 40
2.1
  1
±0.039
  0
TEXT
  5
48C
  8
回07-寸法
  6
CONTINUOUS
 62
     5
 10
784.0083804454885
 20
473.4730500297031
 30
0.0
 40
3.0
  1
]
  0
ENDBLK
  5
48E
  8
回08-記事
  6
CONTINUOUS
 62
     7
  0
BLOCK
  8
回08-記事
  2
*X52
 70
     1
 10
0.0
 20
0.0
 30
0.0
  3
*X52
  1

  0
TEXT
  5
491
  8
回07-寸法
  6
CONTINUOUS
 62
     5
 10
762.759154163225
 20
523.2963477971788
 30
0.0
 40
3.0
  1
5.2 [0.205]
  0
TEXT
  5
492
  8
回07-寸法
  6
CONTINUOUS
 62
     5
 10
781.359154163225
 20
523.2963477971788
 30
0.0
 40
1.9689
  1
(INSULATION AREA)
  0
ENDBLK
  5
494
  8
回08-記事
  6
CONTINUOUS
 62
     7
  0
BLOCK
  8
回08-記事
  2
*X53
 70
     1
 10
0.0
 20
0.0
 30
0.0
  3
*X53
  1

  0
TEXT
  5
497
  8
回07-寸法
  6
CONTINUOUS
 62
     5
 10
977.6489999486956
 20
523.2963477971788
 30
0.0
 40
3.0
  1
3.9 [0.154]
  0
TEXT
  5
498
  8
回07-寸法
  6
CONTINUOUS
 62
     5
 10
995.9598310542768
 20
523.2963477971788
 30
0.0
 40
1.9689
  1
(INSULATION AREA)
  0
ENDBLK
  5
49A
  8
回08-記事
  6
CONTINUOUS
 62
     7
  0
BLOCK
  8
回08-記事
  2
*X54
 70
     1
 10
0.0
 20
0.0
 30
0.0
  3
*X54
  1

  0
TEXT
  5
49D
  8
回07-寸法
  6
CONTINUOUS
 62
     5
 10
1026.894694006918
 20
495.8713842384059
 30
0.0
 40
3.0
  1
4.91 [0.193]
 50
90.0
  0
TEXT
  5
49E
  8
回07-寸法
  6
CONTINUOUS
 62
     5
 10
1026.894694006918
 20
515.6930464495679
 30
0.0
 40
1.9689
  1
(INSULATION AREA)
 50
90.0
  0
ENDBLK
  5
4A0
  8
回08-記事
  6
CONTINUOUS
 62
     7
  0
BLOCK
  8
回08-記事
  2
*X55
 70
     1
 10
0.0
 20
0.0
 30
0.0
  3
*X55
  1

  0
TEXT
  5
4A3
  8
回07-寸法
  6
CONTINUOUS
 62
     5
 10
1026.894634100815
 20
340.1817125099845
 30
0.0
 40
3.0
  1
3.55 [0.140]
 50
90.0
  0
TEXT
  5
4A4
  8
回07-寸法
  6
CONTINUOUS
 62
     5
 10
1026.894634100815
 20
360.5817125099844
 30
0.0
 40
1.9689
  1
(INSULATION AREA)
 50
90.0
  0
ENDBLK
  5
4A6
  8
回08-記事
  6
CONTINUOUS
 62
     7
  0
BLOCK
  8
回08-記事
  2
*X56
 70
     1
 10
0.0
 20
0.0
 30
0.0
  3
*X56
  1

  0
TEXT
  5
4A9
  8
回07-寸法
  6
CONTINUOUS
 62
     5
 10
725.9954987074711
 20
328.9509499024319
 30
0.0
 40
3.0
  1
0.3
 50
90.0
  0
TEXT
  5
4AA
  8
回07-寸法
  6
CONTINUOUS
 62
     5
 10
725.9954987074711
 20
334.0509499024319
 30
0.0
 40
2.000099999999999
  1
±0.05
 50
90.0
  0
TEXT
  5
4AB
  8
回07-寸法
  6
CONTINUOUS
 62
     5
 10
725.9954987074711
 20
340.2512599024319
 30
0.0
 40
3.0
  1
[0.012
 50
90.0
  0
TEXT
  5
4AC
  8
回07-寸法
  6
CONTINUOUS
 62
     5
 10
725.9954987074711
 20
350.1512599024318
 30
0.0
 40
2.000099999999999
  1
±0.002
 50
90.0
  0
TEXT
  5
4AD
  8
回07-寸法
  6
CONTINUOUS
 62
     5
 10
725.9954987074711
 20
357.7516399024318
 30
0.0
 40
3.0
  1
]
 50
90.0
  0
ENDBLK
  5
4AF
  8
回08-記事
  6
CONTINUOUS
 62
     7
  0
BLOCK
  8
回08-記事
  2
*X57
 70
     1
 10
0.0
 20
0.0
 30
0.0
  3
*X57
  1

  0
TEXT
  5
4B2
  8
回07-寸法
  6
CONTINUOUS
 62
     5
 10
667.1666177463451
 20
494.9798815816476
 30
0.0
 40
3.0
  1
5
 50
90.0
  0
TEXT
  5
4B3
  8
回07-寸法
  6
CONTINUOUS
 62
     5
 10
667.1666177463451
 20
497.0798815816477
 30
0.0
 40
2.000099999999999
  1
±0.1
 50
90.0
  0
TEXT
  5
4B4
  8
回07-寸法
  6
CONTINUOUS
 62
     5
 10
667.1666177463451
 20
501.4801015816477
 30
0.0
 40
3.0
  1
[0.197
 50
90.0
  0
TEXT
  5
4B5
  8
回07-寸法
  6
CONTINUOUS
 62
     5
 10
667.1666177463451
 20
511.3909326872287
 30
0.0
 40
2.000099999999999
  1
±0.004
 50
90.0
  0
TEXT
  5
4B6
  8
回07-寸法
  6
CONTINUOUS
 62
     5
 10
667.1666177463451
 20
519.1913226872286
 30
0.0
 40
3.0
  1
]
 50
90.0
  0
ENDBLK
  5
4B8
  8
回08-記事
  6
CONTINUOUS
 62
     7
  0
ENDSEC
  0
SECTION
  2
ENTITIES
  0
TEXT
  5
5F
  8
回03-記事
  6
CONTINUOUS
 62
     5
 10
812.9636307683123
 20
238.8121079749218
 30
0.0
 40
4.8
  1
without affecting product specification.
  0
TEXT
  5
61
  8
回03-記事
  6
CONTINUOUS
 62
     5
 10
812.9636307683123
 20
247.2318136891217
 30
0.0
 40
4.8
  1
Edges and corners of ITO glass may be chamfered 
  0
TEXT
  5
62
  8
回03-記事
  6
CONTINUOUS
 62
     5
 10
812.9636307683123
 20
255.6515194033216
 30
0.0
 40
4.8
  1
Unit: mm
  0
TEXT
  5
63
  8
回03-記事
  6
CONTINUOUS
 62
     5
 10
812.9636307683123
 20
264.0712251175213
 30
0.0
 40
4.8
  1
EXCEPT WHERE INDICATED
  0
TEXT
  5
64
  8
回03-記事
  6
CONTINUOUS
 62
     5
 10
812.9636307683123
 20
272.490930831721
 30
0.0
 40
4.8
  1
TOLERANCE=±0.5mm
  0
TEXT
  5
65
  8
回08-記事
  6
CONTINUOUS
 62
     5
 10
745.0354774834511
 20
428.6016899617607
 30
0.0
 40
3.0
  1
A
1001
ACAD
1000
MTEXTBEGIN
1070
    73
1070
     1
1070
    44
1040
1.0
1070
    74
1070
     0
1000
MTEXTEND
  0
INSERT
  5
66
  8
回08-記事
  6
CONTINUOUS
 62
     7
 66
     1
  2
*X37
 10
0.0
 20
0.0
 30
0.0
  0
SEQEND
  5
3B6
  8
回08-記事
  6
CONTINUOUS
 62
     7
  0
TEXT
  5
67
  8
回08-記事
  6
CONTINUOUS
 62
     5
 10
1069.213474699638
 20
451.0128257266492
 30
0.0
 40
4.341093749999999
  1
PIN ASSIGNMENT
  0
LINE
  5
68
  8
回08-記事
  6
CONTINUOUS
 62
     5
 10
1095.840967882189
 20
467.7536908745812
 30
0.0
 11
1071.841202308883
 21
467.7536908745812
 31
0.0
  0
TEXT
  5
69
  8
回08-記事
  6
CONTINUOUS
 62
     5
 10
1066.934084935303
 20
510.0440256970633
 30
0.0
 40
4.571383918725
  1
4
  0
TEXT
  5
6A
  8
回08-記事
  6
CONTINUOUS
 62
     5
 10
1110.058131705447
 20
477.6340302054875
 30
0.0
 40
3.999960928884373
  1
XR
  0
LINE
  5
6B
  8
回08-記事
  6
CONTINUOUS
 62
     5
 10
1113.555080567249
 20
483.4678230951984
 30
0.0
 11
1113.555080567249
 21
512.0389725872296
 31
0.0
  0
LINE
  5
6C
  8
回08-記事
  6
CONTINUOUS
 62
     5
 10
1109.840831133285
 20
483.4678230951984
 30
0.0
 11
1113.555080567249
 21
483.4678230951984
 31
0.0
  0
LINE
  5
6D
  8
回08-記事
  6
CONTINUOUS
 62
     5
 10
1102.355189966372
 20
484.9535228687841
 30
0.0
 11
1104.412312729799
 21
480.8392773419313
 31
0.0
  0
LINE
  5
6E
  8
回08-記事
  6
CONTINUOUS
 62
     5
 10
1100.298067202946
 20
480.8392773419313
 30
0.0
 11
1102.355189966372
 21
484.9535228687841
 31
0.0
  0
LINE
  5
6F
  8
回08-記事
  6
CONTINUOUS
 62
     5
 10
1104.412312729799
 20
480.8392773419313
 30
0.0
 11
1106.469435493225
 21
484.9535228687841
 31
0.0
  0
LINE
  5
70
  8
回08-記事
  6
CONTINUOUS
 62
     5
 10
1106.469435493225
 20
484.9535228687841
 30
0.0
 11
1108.526558256651
 21
480.8392773419313
 31
0.0
  0
LINE
  5
71
  8
回08-記事
  6
CONTINUOUS
 62
     5
 10
1108.526558256651
 20
480.8392773419313
 30
0.0
 11
1109.840831133285
 21
483.4678230951984
 31
0.0
  0
LINE
  5
72
  8
回08-記事
  6
CONTINUOUS
 62
     5
 10
1092.069576149241
 20
480.8392773419313
 30
0.0
 11
1094.126698912667
 21
484.9535228687841
 31
0.0
  0
LINE
  5
73
  8
回08-記事
  6
CONTINUOUS
 62
     5
 10
1087.955330622389
 20
480.8392773419313
 30
0.0
 11
1090.012453385815
 21
484.9535228687841
 31
0.0
  0
LINE
  5
74
  8
回08-記事
  6
CONTINUOUS
 62
     5
 10
1090.012453385815
 20
484.9535228687841
 30
0.0
 11
1092.069576149241
 21
480.8392773419313
 31
0.0
  0
LINE
  5
75
  8
回08-記事
  6
CONTINUOUS
 62
     5
 10
1093.783845118763
 20
485.1249497657361
 30
0.0
 11
1097.898090645616
 21
483.0678270023099
 31
0.0
  0
LINE
  5
76
  8
回08-記事
  6
CONTINUOUS
 62
     5
 10
1093.783845118763
 20
489.2391952925889
 30
0.0
 11
1097.898090645616
 21
487.1820725291625
 31
0.0
  0
LINE
  5
77
  8
回08-記事
  6
CONTINUOUS
 62
     5
 10
1093.783845118763
 20
489.2391952925889
 30
0.0
 11
1097.898090645616
 21
491.296318056015
 31
0.0
  0
LINE
  5
78
  8
回08-記事
  6
CONTINUOUS
 62
     5
 10
1093.783845118763
 20
485.1249497657361
 30
0.0
 11
1097.898090645616
 21
487.1820725291625
 31
0.0
  0
LINE
  5
79
  8
回08-記事
  6
CONTINUOUS
 62
     5
 10
1093.783845118763
 20
476.8964587120308
 30
0.0
 11
1097.898090645616
 21
478.9535814754578
 31
0.0
  0
LINE
  5
7A
  8
回08-記事
  6
CONTINUOUS
 62
     5
 10
1093.783845118763
 20
481.0107042388835
 30
0.0
 11
1097.898090645616
 21
478.9535814754578
 31
0.0
  0
LINE
  5
7B
  8
回08-記事
  6
CONTINUOUS
 62
     5
 10
1093.783845118763
 20
481.0107042388835
 30
0.0
 11
1097.898090645616
 21
483.0678270023099
 31
0.0
  0
LINE
  5
7C
  8
回08-記事
  6
CONTINUOUS
 62
     5
 10
1095.840967882189
 20
492.3248794377282
 30
0.0
 11
1097.898090645616
 21
491.296318056015
 31
0.0
  0
LINE
  5
7D
  8
回08-記事
  6
CONTINUOUS
 62
     5
 10
1094.126698912667
 20
484.9535228687841
 30
0.0
 11
1096.183821676094
 21
480.8392773419313
 31
0.0
  0
LINE
  5
7E
  8
回08-記事
  6
CONTINUOUS
 62
     5
 10
1096.183821676094
 20
480.8392773419313
 30
0.0
 11
1098.24094443952
 21
484.9535228687841
 31
0.0
  0
LINE
  5
7F
  8
回08-記事
  6
CONTINUOUS
 62
     5
 10
1095.840967882189
 20
492.3248794377282
 30
0.0
 11
1095.840967882189
 21
495.7534173767718
 31
0.0
  0
TEXT
  5
80
  8
回08-記事
  6
CONTINUOUS
 62
     5
 10
1076.666845154254
 20
484.0005353497871
 30
0.0
 40
3.999960928884373
  1
XL
  0
LINE
  5
81
  8
回08-記事
  6
CONTINUOUS
 62
     5
 10
1084.583934982329
 20
482.3249771155173
 30
0.0
 11
1085.898207858962
 21
484.9535228687841
 31
0.0
  0
LINE
  5
82
  8
回08-記事
  6
CONTINUOUS
 62
     5
 10
1085.898207858962
 20
484.9535228687841
 30
0.0
 11
1087.955330622389
 21
480.8392773419313
 31
0.0
  0
LINE
  5
83
  8
回08-記事
  6
CONTINUOUS
 62
     5
 10
1093.783845118763
 20
472.7822131851787
 30
0.0
 11
1097.898090645616
 21
474.839335948605
 31
0.0
  0
LINE
  5
84
  8
回08-記事
  6
CONTINUOUS
 62
     5
 10
1093.783845118763
 20
472.7822131851787
 30
0.0
 11
1095.840967882189
 21
471.7536518034655
 31
0.0
  0
LINE
  5
85
  8
回08-記事
  6
CONTINUOUS
 62
     5
 10
1095.840967882189
 20
467.7536908745812
 30
0.0
 11
1095.840967882189
 21
471.7536518034655
 31
0.0
  0
TEXT
  5
86
  8
回08-記事
  6
CONTINUOUS
 62
     5
 10
1085.333284318208
 20
469.3830360279569
 30
0.0
 40
3.999960928884373
  1
YD
  0
LINE
  5
87
  8
回08-記事
  6
CONTINUOUS
 62
     5
 10
1093.783845118763
 20
476.8964587120308
 30
0.0
 11
1097.898090645616
 21
474.839335948605
 31
0.0
  0
TEXT
  5
88
  8
回08-記事
  6
CONTINUOUS
 62
     5
 10
1067.37258318225
 20
465.1997035017477
 30
0.0
 40
4.571383918725
  1
1
  0
TEXT
  5
89
  8
回08-記事
  6
CONTINUOUS
 62
     5
 10
1067.022043533221
 20
479.7264887113693
 30
0.0
 40
4.571383918725
  1
2
  0
TEXT
  5
8A
  8
回08-記事
  6
CONTINUOUS
 62
     5
 10
1067.195305614542
 20
493.6109253462258
 30
0.0
 40
4.571383918725
  1
3
  0
LINE
  5
8B
  8
回08-記事
  6
CONTINUOUS
 62
     5
 10
1071.841202308883
 20
495.7534173767718
 30
0.0
 11
1095.840967882189
 21
495.7534173767718
 31
0.0
  0
LINE
  5
8C
  8
回08-記事
  6
CONTINUOUS
 62
     5
 10
1071.841202308883
 20
482.3249771155173
 30
0.0
 11
1084.583934982329
 21
482.3249771155173
 31
0.0
  0
TEXT
  5
8D
  8
回08-記事
  6
CONTINUOUS
 62
     5
 10
1096.963491641422
 20
497.0782791217543
 30
0.0
 40
3.999960928884373
  1
YU
  0
LINE
  5
8E
  8
回08-記事
  6
CONTINUOUS
 62
     5
 10
1098.24094443952
 20
484.9535228687841
 30
0.0
 11
1100.298067202946
 21
480.8392773419313
 31
0.0
  0
LINE
  5
8F
  8
回08-記事
  6
CONTINUOUS
 62
     5
 10
1071.841202308883
 20
512.0389725872296
 30
0.0
 11
1113.555080567249
 21
512.0389725872296
 31
0.0
  0
DIMENSION
  5
90
  8
回08-記事
  6
CONTINUOUS
 62
     7
  2
*D36
 10
685.155445138355
 20
527.2411486301805
 30
0.0
 11
683.005445138355
 21
514.639967527818
 31
0.0
 70
     0
  1
0.6[0.024]
  3
DMC
 13
687.4129164353365
 23
529.6411486301804
 33
0.0
 14
687.4129164353365
 24
527.2411486301803
 34
0.0
 50
90.0
1001
ACAD
1000
DSTYLE
1002
{
1070
   170
1070
     1
1070
   371
1070
     9
1070
   372
1070
     9
1002
}
  0
LINE
  5
A2
  8
回08-記事
  6
CONTINUOUS
 62
     7
 10
707.4129164353365
 20
544.4411486301805
 30
0.0
 11
707.4129164353365
 21
524.4411486301799
 31
0.0
  0
DIMENSION
  5
A3
  8
回07-寸法
  6
CONTINUOUS
 62
     7
  2
*D35
 10
680.1818234801979
 20
532.4411486301805
 30
0.0
 11
680.1818234801979
 21
515.9218470440871
 31
0.0
 70
   128
  1
1[0.039]
  3
DMC
 13
687.4129164353365
 23
528.4411486301803
 33
0.0
 14
687.4129164353365
 24
532.4411486301803
 34
0.0
 50
90.0
1001
ACAD
1000
DSTYLE
1002
{
1070
   144
1040
0.25
1070
    47
1040
0.2
1070
    48
1040
0.2
1070
   371
1070
     9
1070
   372
1070
     9
1002
}
  0
DIMENSION
  5
B8
  8
回07-寸法
  6
CONTINUOUS
 62
     7
  2
*D34
 10
674.0301038485212
 20
528.4411486301805
 30
0.0
 11
674.0301038485212
 21
515.9411486301803
 31
0.0
 70
   128
  1
3[0.118]
  3
DMC
 13
687.4129164353365
 23
540.4411486301803
 33
0.0
 14
687.4129164353365
 24
528.4411486301803
 34
0.0
 50
90.0
1001
ACAD
1000
DSTYLE
1002
{
1070
   144
1040
0.25
1070
    47
1040
0.2
1070
    48
1040
0.2
1070
   371
1070
     9
1070
   372
1070
     9
1002
}
  0
DIMENSION
  5
C9
  8
回07-寸法
  6
CONTINUOUS
 62
     7
  2
*D33
 10
667.8166177463451
 20
524.4411486301799
 30
0.0
 11
665.666617746345
 21
507.6856021344381
 31
0.0
 70
     0
  1
5{\H0.6667x;±0.1}[0.197{\H0.6667x;±0.004}]
  3
DMC
 13
689.4129164353365
 23
544.4411486301803
 33
0.0
 14
689.4129164353365
 24
524.4411486301796
 34
0.0
 50
90.0
1001
ACAD
1000
DSTYLE
1002
{
1070
   147
1040
0.5
1070
    72
1070
     0
1070
    71
1070
     1
1070
   144
1040
0.25
1070
    47
1040
0.1
1070
    48
1040
0.1
1070
   371
1070
     9
1070
   372
1070
     9
1002
}
  0
TEXT
  5
DA
  8
ACC
  6
CONTINUOUS
 62
     7
 10
692.0542409450225
 20
546.0394081541345
 30
0.0
 40
4.0
  1
4
 50
90.0
  0
TEXT
  5
DE
  8
ACC
  6
CONTINUOUS
 62
     7
 10
692.0542409450225
 20
520.5680160157664
 30
0.0
 40
4.0
  1
1
 50
90.0
  0
POLYLINE
  5
DF
  8
ACC
  6
CONTINUOUS
 62
     8
 66
     1
 10
0.0
 20
0.0
 30
0.0
 40
2.399999999999999
 41
2.399999999999999
  0
VERTEX
  5
3B7
  8
ACC
  6
CONTINUOUS
 62
     8
 10
687.4129164353365
 20
532.4411486301803
 30
0.0
  0
VERTEX
  5
3B9
  8
ACC
  6
CONTINUOUS
 62
     8
 10
707.4129164353365
 20
532.4411486301803
 30
0.0
  0
SEQEND
  5
3B8
  8
回08-記事
  6
CONTINUOUS
 62
     7
  0
POLYLINE
  5
E0
  8
ACC
  6
CONTINUOUS
 62
     8
 66
     1
 10
0.0
 20
0.0
 30
0.0
 40
2.399999999999999
 41
2.399999999999999
  0
VERTEX
  5
3BA
  8
ACC
  6
CONTINUOUS
 62
     8
 10
687.4129164353365
 20
528.4411486301803
 30
0.0
  0
VERTEX
  5
3BC
  8
ACC
  6
CONTINUOUS
 62
     8
 10
707.4129164353365
 20
528.4411486301803
 30
0.0
  0
SEQEND
  5
3BB
  8
回08-記事
  6
CONTINUOUS
 62
     7
  0
POLYLINE
  5
E1
  8
ACC
  6
CONTINUOUS
 62
     8
 66
     1
 10
0.0
 20
0.0
 30
0.0
 40
2.399999999999999
 41
2.399999999999999
  0
VERTEX
  5
3BD
  8
ACC
  6
CONTINUOUS
 62
     8
 10
687.4129164353365
 20
540.4411486301803
 30
0.0
  0
VERTEX
  5
3BF
  8
ACC
  6
CONTINUOUS
 62
     8
 10
707.4129164353365
 20
540.4411486301803
 30
0.0
  0
SEQEND
  5
3BE
  8
回08-記事
  6
CONTINUOUS
 62
     7
  0
POLYLINE
  5
E2
  8
ACC
  6
CONTINUOUS
 62
     8
 66
     1
 10
0.0
 20
0.0
 30
0.0
 40
2.399999999999999
 41
2.399999999999999
  0
VERTEX
  5
3C0
  8
ACC
  6
CONTINUOUS
 62
     8
 10
687.4129164353365
 20
536.4411486301803
 30
0.0
  0
VERTEX
  5
3C2
  8
ACC
  6
CONTINUOUS
 62
     8
 10
707.4129164353365
 20
536.4411486301803
 30
0.0
  0
SEQEND
  5
3C1
  8
回08-記事
  6
CONTINUOUS
 62
     7
  0
LINE
  5
E3
  8
ACC
  6
BYBLOCK
 62
     8
 10
687.4129164353365
 20
526.4411486301803
 30
0.0
 11
687.4129164353365
 21
542.4411486301807
 31
0.0
  0
ARC
  5
E4
  8
ACC
  6
BYBLOCK
 62
     8
 10
689.4129164353365
 20
542.4411486301807
 30
0.0
 40
2.0
 50
90.0
 51
180.0
  0
ARC
  5
E5
  8
ACC
  6
BYBLOCK
 62
     8
 10
689.4129164353365
 20
526.4411486301803
 30
0.0
 40
2.0
 50
180.0
 51
270.0
  0
LINE
  5
E6
  8
ACC
  6
BYBLOCK
 62
     8
 10
689.4129164353365
 20
544.4411486301803
 30
0.0
 11
713.4011286808678
 21
544.4411486301803
 31
0.0
  0
LINE
  5
E7
  8
ACC
  6
BYBLOCK
 62
     8
 10
689.4129164353365
 20
524.4411486301796
 30
0.0
 11
713.4011286808676
 21
524.4411486301796
 31
0.0
  0
TEXT
  5
E8
  8
回08-記事
  6
CONTINUOUS
 62
     5
 10
679.1331563919742
 20
556.4382217575555
 30
0.0
 40
4.341093749999999
  1
SECTION A
  0
TEXT
  5
E9
  8
回08-記事
  6
CONTINUOUS
 62
     5
 10
696.9938611852001
 20
312.9766459075126
 30
0.0
 40
3.0
  1
Trace Expose
1001
ACAD
1000
MTEXTBEGIN
1070
    73
1070
     1
1070
    44
1040
1.0
1070
    74
1070
     0
1000
MTEXTEND
  0
INSERT
  5
EA
  8
回08-記事
  6
CONTINUOUS
 62
     8
 66
     1
  2
*X38
 10
0.0
 20
0.0
 30
0.0
  0
SEQEND
  5
3C9
  8
回08-記事
  6
CONTINUOUS
 62
     7
  0
TEXT
  5
EB
  8
回08-記事
  6
CONTINUOUS
 62
     5
 10
980.2047671970568
 20
408.9573974007903
 30
0.0
 40
3.0
  1
QST-070WA
  0
TEXT
  5
EC
  8
回08-記事
  6
CONTINUOUS
 62
     5
 10
981.9330049806447
 20
414.0655728825054
 30
0.0
 40
3.0
  1
Part No.
1001
ACAD
1000
MTEXTBEGIN
1070
    73
1070
     1
1070
    44
1040
1.0
1070
    74
1070
     0
1000
MTEXTEND
  0
INSERT
  5
ED
  8
回08-記事
  6
CONTINUOUS
 62
     5
 66
     1
  2
*X39
 10
0.0
 20
0.0
 30
0.0
  0
SEQEND
  5
3D0
  8
回08-記事
  6
CONTINUOUS
 62
     7
  0
TEXT
  5
EE
  8
回04-下接
  6
CONTINUOUS
 62
     7
 10
972.8087871146358
 20
396.621803536691
 30
0.0
 40
1.28
  1
QST-070WA
 50
90.0
  0
DIMENSION
  5
F2
  8
回07-寸法
  6
CONTINUOUS
 62
     7
  2
*D32
 10
723.2175478249512
 20
387.8217323525046
 30
0.0
 11
721.0675478249513
 21
413.4817323525042
 31
0.0
 70
     0
  1
(<>)
  3
DMC
 13
733.5991740057448
 23
439.1417323525042
 33
0.0
 14
808.5991740057448
 24
387.8217323525043
 34
0.0
 50
90.0
1001
ACAD
1000
DSTYLE
1002
{
1070
   170
1070
     1
1070
   371
1070
     9
1070
   372
1070
     9
1002
}
  0
INSERT
  5
101
  8
回08-記事
  6
CONTINUOUS
 62
     7
 66
     1
  2
*X40
 10
0.0
 20
0.0
 30
0.0
  0
SEQEND
  5
3D7
  8
回08-記事
  6
CONTINUOUS
 62
     7
  0
TEXT
  5
102
  8
回08-記事
  6
CONTINUOUS
 62
     5
 10
778.5690468562079
 20
337.9086122808039
 30
0.0
 40
2.799999999999999
  1
QST-070WA075H
  0
TEXT
  5
103
  8
回08-記事
  6
CONTINUOUS
 62
     5
 10
776.6900266626677
 20
342.7802741394485
 30
0.0
 40
2.799999999999999
  1
Tail information label
1001
ACAD
1000
MTEXTBEGIN
1070
    73
1070
     1
1070
    44
1040
1.0
1070
    74
1070
     0
1000
MTEXTEND
  0
POLYLINE
  5
104
  8
回08-記事
  6
CONTINUOUS
 62
     7
 66
     1
 10
0.0
 20
0.0
 30
0.0
 70
     1
  0
VERTEX
  5
3D8
  8
回08-記事
  6
CONTINUOUS
 62
     7
 10
757.0771526538601
 20
324.3985876977076
 30
0.0
  0
VERTEX
  5
3DA
  8
回08-記事
  6
CONTINUOUS
 62
     7
 10
783.0771526538601
 20
324.3985876977076
 30
0.0
  0
VERTEX
  5
3DB
  8
回08-記事
  6
CONTINUOUS
 62
     7
 10
783.0771526538601
 20
323.3985876977076
 30
0.0
  0
VERTEX
  5
3DC
  8
回08-記事
  6
CONTINUOUS
 62
     7
 10
757.0771526538601
 20
323.3985876977076
 30
0.0
  0
SEQEND
  5
3D9
  8
回08-記事
  6
CONTINUOUS
 62
     7
  0
TEXT
  5
105
  8
回08-記事
  6
CONTINUOUS
 62
     5
 10
766.7423840902768
 20
313.9384821285694
 30
0.0
 40
3.0
  1
LOT LABEL
1001
ACAD
1000
MTEXTBEGIN
1070
    73
1070
     1
1070
    44
1040
1.0
1070
    74
1070
     0
1000
MTEXTEND
  0
INSERT
  5
106
  8
回08-記事
  6
CONTINUOUS
 62
     5
 66
     1
  2
*X41
 10
0.0
 20
0.0
 30
0.0
  0
SEQEND
  5
3E3
  8
回08-記事
  6
CONTINUOUS
 62
     7
  0
TEXT
  5
107
  8
回08-記事
  6
CONTINUOUS
 62
     5
 10
749.0047603543139
 20
330.9060604387814
 30
0.0
 40
3.0
  1
STIFFENER
  0
LINE
  5
108
  8
回08-記事
  6
CONTINUOUS
 62
     5
 10
742.8769954339045
 20
324.078694923735
 30
0.0
 11
748.6379569205114
 21
329.7678263150483
 31
0.0
  0
LINE
  5
109
  8
回08-記事
  6
CONTINUOUS
 62
     5
 10
801.9851099315769
 20
323.7981191586178
 30
0.0
 11
794.2727962160406
 21
303.2039483635417
 31
0.0
  0
TEXT
  5
10A
  8
回08-記事
  6
CONTINUOUS
 62
     5
 10
756.0427828313713
 20
297.9094473657497
 30
0.0
 40
3.0
  1
REINFORCEMENT FILM
  0
LINE
  5
10B
  8
回08-記事
  6
CONTINUOUS
 62
     5
 10
794.1292213466017
 20
321.8048441455299
 30
0.0
 11
794.2727962160406
 21
303.2039483635417
 31
0.0
  0
TEXT
  5
10C
  8
回08-記事
  6
CONTINUOUS
 62
     5
 10
793.4053829731888
 20
332.04920931177
 30
0.0
 40
3.0
  1
TAIL
  0
LINE
  5
10D
  8
回08-記事
  6
CONTINUOUS
 62
     5
 10
791.7811348050404
 20
322.9068219565611
 30
0.0
 11
794.407759618
 21
330.7963131923516
 31
0.0
  0
POLYLINE
  5
10E
  8
回08-記事
  6
CONTINUOUS
 62
     7
 66
     1
 10
0.0
 20
0.0
 30
0.0
 70
     1
  0
VERTEX
  5
3E4
  8
回08-記事
  6
CONTINUOUS
 62
     7
 10
757.0771526538601
 20
321.3985876977076
 30
0.0
  0
VERTEX
  5
3E6
  8
回08-記事
  6
CONTINUOUS
 62
     7
 10
783.0771526538601
 20
321.3985876977076
 30
0.0
  0
VERTEX
  5
3E7
  8
回08-記事
  6
CONTINUOUS
 62
     7
 10
783.0771526538601
 20
320.3985876977076
 30
0.0
  0
VERTEX
  5
3E8
  8
回08-記事
  6
CONTINUOUS
 62
     7
 10
757.0771526538601
 20
320.3985876977076
 30
0.0
  0
SEQEND
  5
3E5
  8
回08-記事
  6
CONTINUOUS
 62
     7
  0
DIMENSION
  5
10F
  8
回07-寸法
  6
CONTINUOUS
 62
     7
  2
*D31
 10
726.6454987074712
 20
324.8985876977077
 30
0.0
 11
724.4954987074712
 21
343.9501138000697
 31
0.0
 70
     0
  1
0.3{\H0.6667x;±0.05}[0.012{\H0.6667x;±0.002}]
  3
DMC
 13
733.5991740057448
 23
322.3985876977076
 33
0.0
 14
733.5991740057448
 24
324.8985876977076
 34
0.0
 50
90.0
1001
ACAD
1000
DSTYLE
1002
{
1070
   170
1070
     1
1070
   371
1070
     9
1070
   372
1070
     9
1002
}
  0
DIMENSION
  5
120
  8
回07-寸法
  6
CONTINUOUS
 62
     7
  2
*D30
 10
733.5991740057448
 20
339.6405928693348
 30
0.0
 11
757.5532343991239
 21
339.6405928693348
 31
0.0
 70
   128
  1
(<>)
  3
DMC
 13
743.5991740057447
 23
324.8985876977076
 33
0.0
 14
733.5991740057448
 24
324.8985876977076
 34
0.0
1001
ACAD
1000
DSTYLE
1002
{
1070
   170
1070
     1
1070
   371
1070
     9
1070
   372
1070
     9
1002
}
  0
DIMENSION
  5
131
  8
回07-寸法
  6
CONTINUOUS
 62
     7
  2
*D29
 10
738.5991740057447
 20
310.8508244331351
 30
0.0
 11
750.1544155014862
 21
310.8508244331351
 31
0.0
 70
   128
  3
DMC
 13
733.5991740057448
 23
322.3985876977076
 33
0.0
 14
738.5991740057447
 24
321.3985876977076
 34
0.0
1001
ACAD
1000
DSTYLE
1002
{
1070
   170
1070
     1
1070
   371
1070
     9
1070
   372
1070
     9
1002
}
  0
POLYLINE
  5
142
  8
回08-記事
  6
CONTINUOUS
 62
     7
 66
     1
 10
0.0
 20
0.0
 30
0.0
 70
     1
  0
VERTEX
  5
3E9
  8
回08-記事
  6
CONTINUOUS
 62
     7
 10
799.0991740057447
 20
324.3985876977076
 30
0.0
  0
VERTEX
  5
3EB
  8
回08-記事
  6
CONTINUOUS
 62
     7
 10
809.0991740057447
 20
324.3985876977076
 30
0.0
  0
VERTEX
  5
3EC
  8
回08-記事
  6
CONTINUOUS
 62
     7
 10
809.0991740057447
 20
323.3985876977076
 30
0.0
  0
VERTEX
  5
3ED
  8
回08-記事
  6
CONTINUOUS
 62
     7
 10
799.0991740057447
 20
323.3985876977076
 30
0.0
  0
SEQEND
  5
3EA
  8
回08-記事
  6
CONTINUOUS
 62
     7
  0
POLYLINE
  5
143
  8
回08-記事
  6
CONTINUOUS
 62
     7
 66
     1
 10
0.0
 20
0.0
 30
0.0
 70
     1
  0
VERTEX
  5
3EE
  8
回08-記事
  6
CONTINUOUS
 62
     7
 10
733.5991740057448
 20
324.8985876977076
 30
0.0
  0
VERTEX
  5
3F0
  8
回08-記事
  6
CONTINUOUS
 62
     7
 10
743.5991740057447
 20
324.8985876977076
 30
0.0
  0
VERTEX
  5
3F1
  8
回08-記事
  6
CONTINUOUS
 62
     7
 10
743.5991740057447
 20
323.3985876977076
 30
0.0
  0
VERTEX
  5
3F2
  8
回08-記事
  6
CONTINUOUS
 62
     7
 10
733.5991740057448
 20
323.3985876977076
 30
0.0
  0
SEQEND
  5
3EF
  8
回08-記事
  6
CONTINUOUS
 62
     7
  0
POLYLINE
  5
144
  8
回08-記事
  6
CONTINUOUS
 62
     7
 66
     1
 10
0.0
 20
0.0
 30
0.0
 70
     1
  0
VERTEX
  5
3F3
  8
回08-記事
  6
CONTINUOUS
 62
     7
 10
738.5991740057447
 20
322.3985876977076
 30
0.0
  0
VERTEX
  5
3F5
  8
回08-記事
  6
CONTINUOUS
 62
     7
 10
808.5991740057448
 20
322.3985876977076
 30
0.0
  0
VERTEX
  5
3F6
  8
回08-記事
  6
CONTINUOUS
 62
     7
 10
808.5991740057448
 20
321.3985876977076
 30
0.0
  0
VERTEX
  5
3F7
  8
回08-記事
  6
CONTINUOUS
 62
     7
 10
738.5991740057447
 20
321.3985876977076
 30
0.0
  0
SEQEND
  5
3F4
  8
回08-記事
  6
CONTINUOUS
 62
     7
  0
POLYLINE
  5
145
  8
回08-記事
  6
CONTINUOUS
 62
     7
 66
     1
 10
0.0
 20
0.0
 30
0.0
 70
     1
  0
VERTEX
  5
3F8
  8
回08-記事
  6
CONTINUOUS
 62
     7
 10
733.5991740057448
 20
323.3985876977076
 30
0.0
  0
VERTEX
  5
3FA
  8
回08-記事
  6
CONTINUOUS
 62
     7
 10
811.8991740057445
 20
323.3985876977076
 30
0.0
  0
VERTEX
  5
3FB
  8
回08-記事
  6
CONTINUOUS
 62
     7
 10
811.8991740057445
 20
322.3985876977076
 30
0.0
  0
VERTEX
  5
3FC
  8
回08-記事
  6
CONTINUOUS
 62
     7
 10
733.5991740057448
 20
322.3985876977076
 30
0.0
  0
SEQEND
  5
3F9
  8
回08-記事
  6
CONTINUOUS
 62
     7
  0
DIMENSION
  5
146
  8
回07-寸法
  6
CONTINUOUS
 62
     7
  2
*D28
 10
1027.544634100816
 20
391.3717323525048
 30
0.0
 11
1027.544634100815
 21
361.9767224312444
 31
0.0
 70
   128
  1
<>{\H0.6563x;(INSULATION AREA)}
  3
DMC
 13
973.5991740057448
 23
387.8217323525043
 33
0.0
 14
969.6991740057447
 24
391.3717323525045
 34
0.0
 50
90.0
1001
ACAD
1000
DSTYLE
1002
{
1070
   170
1070
     1
1070
   371
1070
     9
1070
   372
1070
     9
1002
}
  0
DIMENSION
  5
157
  8
回07-寸法
  6
CONTINUOUS
 62
     7
  2
*D27
 10
1027.544634100816
 20
491.8217323525046
 30
0.0
 11
1025.393909062286
 21
517.3772252652468
 31
0.0
 70
     0
  1
<>{\H0.6563x;(INSULATION AREA)}
  3
DMC
 13
969.6991740057447
 23
486.9117323525045
 33
0.0
 14
973.5991740057448
 24
491.8217323525043
 34
0.0
 50
90.0
1001
ACAD
1000
DSTYLE
1002
{
1070
   170
1070
     1
1070
   371
1070
     9
1070
   372
1070
     9
1002
}
  0
DIMENSION
  5
168
  8
回07-寸法
  6
CONTINUOUS
 62
     7
  2
*D26
 10
1027.544634100816
 20
391.3717323525048
 30
0.0
 11
1025.394634100816
 21
439.1417323525043
 31
0.0
 70
     0
  3
DMC
 13
969.6991740057447
 23
486.9117323525045
 33
0.0
 14
969.6991740057447
 24
391.3717323525045
 34
0.0
 50
90.0
1001
ACAD
1000
DSTYLE
1002
{
1070
   170
1070
     1
1070
   371
1070
     9
1070
   372
1070
     9
1002
}
  0
DIMENSION
  5
177
  8
回07-寸法
  6
CONTINUOUS
 62
     7
  2
*D25
 10
969.6991740057447
 20
522.6463477971788
 30
0.0
 11
998.3994254227461
 21
522.6463477971788
 31
0.0
 70
   128
  1
<>{\H0.6563x;(INSULATION AREA)}
  3
DMC
 13
973.5991740057448
 23
491.8217323525043
 33
0.0
 14
969.6991740057447
 24
486.9117323525045
 34
0.0
1001
ACAD
1000
DSTYLE
1002
{
1070
   170
1070
     1
1070
   371
1070
     9
1070
   372
1070
     9
1002
}
  0
DIMENSION
  5
188
  8
回07-寸法
  6
CONTINUOUS
 62
     7
  2
*D24
 10
808.5991740057448
 20
522.6463477971788
 30
0.0
 11
783.6541640844849
 21
524.7963477971787
 31
0.0
 70
     0
  1
<>{\H0.6563x;(INSULATION AREA)}
  3
DMC
 13
813.7991740057445
 23
522.6463477971788
 33
0.0
 14
808.5991740057448
 24
491.8217323525043
 34
0.0
1001
ACAD
1000
DSTYLE
1002
{
1070
   170
1070
     1
1070
   371
1070
     9
1070
   372
1070
     9
1002
}
  0
DIMENSION
  5
199
  8
回07-寸法
  6
CONTINUOUS
 62
     7
  2
*D23
 10
813.7991740057445
 20
522.6463477971788
 30
0.0
 11
891.7491740057446
 21
524.7963477971787
 31
0.0
 70
     0
  3
DMC
 13
969.6991740057447
 23
486.9117323525045
 33
0.0
 14
813.7991740057445
 24
486.9117323525045
 34
0.0
1001
ACAD
1000
DSTYLE
1002
{
1070
   170
1070
     1
1070
   371
1070
     9
1070
   372
1070
     9
1002
}
  0
POLYLINE
  5
1A8
  8
回08-記事
  6
CENTER2
 62
     7
 66
     1
 10
0.0
 20
0.0
 30
0.0
 70
     1
  0
VERTEX
  5
3FD
  8
回08-記事
  6
CENTER2
 62
     7
 10
969.6991740057447
 20
391.3717323525045
 30
0.0
  0
VERTEX
  5
3FF
  8
回08-記事
  6
CENTER2
 62
     7
 10
813.7991740057445
 20
391.3717323525045
 30
0.0
  0
VERTEX
  5
400
  8
回08-記事
  6
CENTER2
 62
     7
 10
813.7991740057445
 20
486.9117323525045
 30
0.0
  0
VERTEX
  5
401
  8
回08-記事
  6
CENTER2
 62
     7
 10
969.6991740057447
 20
486.9117323525045
 30
0.0
  0
SEQEND
  5
3FE
  8
回08-記事
  6
CONTINUOUS
 62
     7
  0
DIMENSION
  5
1AA
  8
回07-寸法
  6
CONTINUOUS
 62
     7
  2
*D22
 10
808.5991740057448
 20
460.3723177848515
 30
0.0
 11
783.4446628985247
 21
460.3723177848515
 31
0.0
 70
   128
  3
DMC
 13
798.4446628985247
 23
441.7174634844809
 33
0.0
 14
808.5991740057448
 24
452.4052625578608
 34
0.0
1001
ACAD
1000
DSTYLE
1002
{
1070
   170
1070
     1
1070
   371
1070
     9
1070
   372
1070
     9
1002
}
  0
TEXT
  5
1BB
  8
回07-寸法
  6
CONTINUOUS
 62
     5
 10
795.6374326698226
 20
421.6515442864638
 30
0.0
 40
3.0
  1
2-R2
1001
ACAD
1000
MTEXTBEGIN
1070
    73
1070
     1
1070
    44
1040
1.0
1070
    74
1070
     0
1000
MTEXTEND
  0
INSERT
  5
1BC
  8
回07-寸法
  6
CONTINUOUS
 62
     5
 66
     1
  2
*X42
 10
0.0
 20
0.0
 30
0.0
  0
SEQEND
  5
408
  8
回08-記事
  6
CONTINUOUS
 62
     7
  0
DIMENSION
  5
1BD
  8
回07-寸法
  6
CONTINUOUS
 62
     7
  2
*D21
 10
808.5991740057448
 20
472.8230500297031
 30
0.0
 11
771.0991740057448
 21
472.8230500297031
 31
0.0
 70
   128
  3
DMC
 13
733.5991740057448
 23
441.1417323525045
 33
0.0
 14
808.5991740057448
 24
447.818856696972
 34
0.0
1001
ACAD
1000
DSTYLE
1002
{
1070
    47
1040
1.0
1070
    48
1040
1.0
1070
    71
1070
     1
1070
   170
1070
     1
1070
   371
1070
     9
1070
   372
1070
     9
1002
}
  0
TEXT
  5
1CA
  8
回08-記事
  6
CONTINUOUS
 62
     5
 10
817.0674908633987
 20
441.0700869228128
 30
0.0
 40
4.0
  1
XL
  0
LINE
  5
1CB
  8
回07-寸法
  6
CENTER2
 62
     5
 10
731.9297923978592
 20
439.1417323525042
 30
0.0
 11
814.3092686022091
 21
439.1417323525042
 31
0.0
  0
CIRCLE
  5
1CC
  8
回08-記事
  6
CONTINUOUS
 62
     5
 10
735.4577225341358
 20
439.1417323525042
 30
0.0
 40
6.267265662978532
  0
POLYLINE
  5
1CD
  8
回08-記事
  6
CONTINUOUS
 62
     8
 66
     1
 10
0.0
 20
0.0
 30
0.0
 70
     1
1001
ACAD
1000
ASC_BOUNDS
1002
{
1070
    19
1005
1CE
1002
}
  0
VERTEX
  5
409
  8
回08-記事
  6
CONTINUOUS
 62
     8
 10
804.6991740057446
 20
431.8917323525035
 30
0.0
  0
VERTEX
  5
40B
  8
回08-記事
  6
CONTINUOUS
 62
     8
 10
812.8991740057447
 20
431.8917323525035
 30
0.0
  0
VERTEX
  5
40C
  8
回08-記事
  6
CONTINUOUS
 62
     8
 10
812.8991740057447
 20
437.8917323525036
 30
0.0
  0
VERTEX
  5
40D
  8
回08-記事
  6
CONTINUOUS
 62
     8
 10
804.6991740057446
 20
437.8917323525036
 30
0.0
  0
SEQEND
  5
40A
  8
回08-記事
  6
CONTINUOUS
 62
     7
  0
INSERT
  5
1CE
  8
回08-記事
  6
CONTINUOUS
 62
     8
 66
     1
  2
*X43
 10
0.0
 20
0.0
 30
0.0
1001
ACAD
1010
0.0
1020
0.0
1030
0.0
  0
SEQEND
  5
414
  8
回08-記事
  6
CONTINUOUS
 62
     7
  0
POLYLINE
  5
1CF
  8
回08-記事
  6
CONTINUOUS
 62
     8
 66
     1
 10
0.0
 20
0.0
 30
0.0
 70
     1
1001
ACAD
1000
ASC_BOUNDS
1002
{
1070
    19
1005
1D0
1002
}
  0
VERTEX
  5
415
  8
回08-記事
  6
CONTINUOUS
 62
     8
 10
757.7771526538602
 20
436.8917323525042
 30
0.0
  0
VERTEX
  5
417
  8
回08-記事
  6
CONTINUOUS
 62
     8
 10
782.7771526538602
 20
436.8917323525042
 30
0.0
 42
0.4142135623730951
  0
VERTEX
  5
418
  8
回08-記事
  6
CONTINUOUS
 62
     8
 10
783.2771526538602
 20
437.3917323525042
 30
0.0
  0
VERTEX
  5
419
  8
回08-記事
  6
CONTINUOUS
 62
     8
 10
783.2771526538602
 20
440.8917323525042
 30
0.0
 42
0.4142135623730951
  0
VERTEX
  5
41A
  8
回08-記事
  6
CONTINUOUS
 62
     8
 10
782.7771526538602
 20
441.3917323525042
 30
0.0
  0
VERTEX
  5
41B
  8
回08-記事
  6
CONTINUOUS
 62
     8
 10
757.7771526538602
 20
441.3917323525042
 30
0.0
 42
0.4142135623730951
  0
VERTEX
  5
41C
  8
回08-記事
  6
CONTINUOUS
 62
     8
 10
757.2771526538602
 20
440.8917323525042
 30
0.0
  0
VERTEX
  5
41D
  8
回08-記事
  6
CONTINUOUS
 62
     8
 10
757.2771526538602
 20
437.3917323525042
 30
0.0
 42
0.4142135623730971
  0
SEQEND
  5
416
  8
回08-記事
  6
CONTINUOUS
 62
     7
  0
INSERT
  5
1D0
  8
回08-記事
  6
CONTINUOUS
 62
     8
 66
     1
  2
*X44
 10
0.0
 20
0.0
 30
0.0
1001
ACAD
1010
0.0
1020
0.0
1030
0.0
  0
SEQEND
  5
42C
  8
回08-記事
  6
CONTINUOUS
 62
     7
  0
TEXT
  5
1D1
  8
回07-寸法
  6
CONTINUOUS
 62
     5
 10
791.9525739317959
 20
426.6218923953413
 30
0.0
 40
3.0
  1
4-R1
1001
ACAD
1000
MTEXTBEGIN
1070
    73
1070
     1
1070
    44
1040
1.0
1070
    74
1070
     0
1000
MTEXTEND
  0
INSERT
  5
1D2
  8
回07-寸法
  6
CONTINUOUS
 62
     5
 66
     1
  2
*X45
 10
0.0
 20
0.0
 30
0.0
  0
SEQEND
  5
433
  8
回08-記事
  6
CONTINUOUS
 62
     7
  0
DIMENSION
  5
1D3
  8
回07-寸法
  6
CONTINUOUS
 62
     5
  2
*D20
 10
787.0034604800549
 20
447.1417323525042
 30
0.0
 11
787.0034604800548
 21
418.5417323525038
 31
0.0
 70
   128
  3
DMC
 13
804.4114176830847
 23
431.1417323525041
 33
0.0
 14
804.4114176830847
 24
447.141732352504
 34
0.0
 50
90.0
1001
ACAD
1000
DSTYLE
1002
{
1070
   170
1070
     1
1070
   371
1070
     9
1070
   372
1070
     9
1002
}
  0
DIMENSION
  5
1E4
  8
回07-寸法
  6
CONTINUOUS
 62
     5
  2
*D19
 10
803.998397179269
 20
453.4052625578608
 30
0.0
 11
786.032525023691
 21
453.4052625578608
 31
0.0
 70
   128
  3
DMC
 13
808.5991740057448
 23
447.818856696972
 33
0.0
 14
803.998397179269
 24
447.1417323525042
 34
0.0
1001
ACAD
1000
DSTYLE
1002
{
1070
   170
1070
     1
1070
   371
1070
     9
1070
   372
1070
     9
1002
}
  0
TEXT
  5
1F5
  8
回08-記事
  6
CONTINUOUS
 62
     5
 10
737.1577202180461
 20
442.3688112943459
 30
0.0
 40
2.4
  1
4
 50
90.0
  0
TEXT
  5
1F6
  8
回08-記事
  6
CONTINUOUS
 62
     5
 10
737.1577202180461
 20
434.1644865072485
 30
0.0
 40
2.4
  1
1
 50
90.0
  0
DIMENSION
  5
1F7
  8
回07-寸法
  6
CONTINUOUS
 62
     7
  2
*D18
 10
728.9467130663394
 20
441.6417323525047
 30
0.0
 11
728.9467130663394
 21
460.6519738482459
 31
0.0
 70
   128
  3
DMC
 13
734.0991740057448
 23
436.6417323525042
 33
0.0
 14
734.0991740057448
 24
441.6417323525045
 34
0.0
 50
90.0
1001
ACAD
1000
DSTYLE
1002
{
1070
    47
1040
0.1
1070
    48
1040
0.1
1070
    71
1070
     1
1070
   170
1070
     1
1070
   371
1070
     9
1070
   372
1070
     9
1002
}
  0
ARC
  5
206
  8
回05-ﾃｰﾙ
  6
BYBLOCK
 62
     7
 10
807.0991740057445
 20
429.141732352504
 30
0.0
 40
2.0
 50
41.40962210926075
 51
90.0
  0
LINE
  5
20A
  8
回05-ﾃｰﾙ
  6
BYBLOCK
 62
     7
 10
804.411417683085
 20
431.1417323525038
 30
0.0
 11
807.0991740057445
 21
431.1417323525038
 31
0.0
  0
ARC
  5
20B
  8
回05-ﾃｰﾙ
  6
BYBLOCK
 62
     7
 10
798.0629207609472
 20
435.6417323525033
 30
0.0
 40
1.0
 50
45.11672702027762
 51
90.0
  0
ARC
  5
20C
  8
回05-ﾃｰﾙ
  6
BYBLOCK
 62
     7
 10
804.4114176830847
 20
432.141732352504
 30
0.0
 40
1.0
 50
225.1435981442241
 51
270.0
  0
LINE
  5
20D
  8
回05-ﾃｰﾙ
  6
BYBLOCK
 62
     7
 10
798.7685855076984
 20
436.3502782332991
 30
0.0
 11
803.7060853145673
 21
431.4328556002251
 31
0.0
  0
ARC
  5
20E
  8
回05-ﾃｰﾙ
  6
BYBLOCK
 62
     7
 10
798.0629207609472
 20
442.6417323525047
 30
0.0
 40
1.0
 50
270.0
 51
314.8832729797224
  0
ARC
  5
20F
  8
回05-ﾃｰﾙ
  6
BYBLOCK
 62
     7
 10
804.4114176830847
 20
446.141732352504
 30
0.0
 40
1.0
 50
90.0
 51
134.8564018557758
  0
ARC
  5
210
  8
回05-ﾃｰﾙ
  6
BYBLOCK
 62
     7
 10
807.0991740057445
 20
449.141732352504
 30
0.0
 40
2.0
 50
270.0
 51
318.5903778907392
  0
LINE
  5
211
  8
回05-ﾃｰﾙ
  6
BYBLOCK
 62
     7
 10
798.7685855076984
 20
441.9331864717089
 30
0.0
 11
803.7060853145673
 21
446.8506091047829
 31
0.0
  0
LINE
  5
212
  8
回05-ﾃｰﾙ
  6
BYBLOCK
 62
     7
 10
804.411417683085
 20
447.1417323525042
 30
0.0
 11
807.0991740057445
 21
447.1417323525042
 31
0.0
  0
LINE
  5
213
  8
回05-ﾃｰﾙ
  6
BYBLOCK
 62
     7
 10
733.5991740057448
 20
437.1417323525043
 30
0.0
 11
733.5991740057448
 21
441.1417323525045
 31
0.0
  0
ARC
  5
214
  8
回05-ﾃｰﾙ
  6
BYBLOCK
 62
     7
 10
734.0991740057448
 20
441.1417323525045
 30
0.0
 40
0.5
 50
90.0
 51
180.0
  0
ARC
  5
215
  8
回05-ﾃｰﾙ
  6
BYBLOCK
 62
     7
 10
734.0991740057448
 20
437.1417323525043
 30
0.0
 40
0.5
 50
180.0
 51
270.0
  0
LINE
  5
216
  8
回05-ﾃｰﾙ
  6
BYBLOCK
 62
     7
 10
734.0991740057448
 20
441.6417323525043
 30
0.0
 11
798.0629207609472
 21
441.6417323525043
 31
0.0
  0
LINE
  5
217
  8
回05-ﾃｰﾙ
  6
BYBLOCK
 62
     7
 10
734.0991740057448
 20
436.6417323525042
 30
0.0
 11
798.0629207609472
 21
436.6417323525042
 31
0.0
  0
INSERT
  5
218
  8
回08-記事
  6
CONTINUOUS
 62
     7
 66
     1
  2
*X46
 10
0.0
 20
0.0
 30
0.0
1001
ACAD
1000
HATCH
1002
{
1070
    19
1000
ANSI31
1040
0.3
1040
0.0
1000
ASC_BOUNDS
1070
     1
1070
     2
1070
     1
1005
219
1000
ASC_SEEDPOINT
1011
573.6627435326022
1021
218.9295460483991
1031
0.0
1000
R14_HATCH_DATA
1000
218
1011
1.0
1021
0.0
1031
0.0
1011
0.0
1021
1.0
1031
0.0
1011
0.0
1021
0.0
1031
1.0
1040
0.0
1010
0.0
1020
0.0
1030
1.0
1000
ANSI31
1070
     0
1070
     1
1071
        1
1071
        1
1071
        8
1070
     1
1040
804.6991740057446
1040
320.8985876977076
1040
808.0991740057447
1040
320.8985876977076
1070
     1
1040
808.0991740057447
1040
320.8985876977076
1040
808.0991740057447
1040
319.3985876977076
1070
     1
1040
808.0991740057447
1040
319.3985876977076
1040
812.8991740057447
1040
319.3985876977076
1070
     1
1040
812.8991740057447
1040
319.3985876977076
1040
812.8991740057447
1040
319.8985876977076
1070
     1
1040
812.8991740057447
1040
319.8985876977076
1040
808.5991740057448
1040
319.8985876977076
1070
     1
1040
808.5991740057448
1040
319.8985876977076
1040
808.5991740057448
1040
321.3985876977076
1070
     1
1040
808.5991740057448
1040
321.3985876977076
1040
804.6991740057446
1040
321.3985876977076
1070
     1
1040
804.6991740057446
1040
321.3985876977076
1040
804.6991740057446
1040
320.8985876977076
1071
        1
1005
219
1070
     0
1070
     1
1040
0.0
1040
0.3
1070
     0
1070
     1
1040
0.7853981633974483
1040
573.6627435326022
1040
218.9295460483991
1040
-0.6735192090801864
1040
0.6735192090801866
1070
     0
1071
        1
1040
573.6627435326022
1040
218.9295460483991
1040
0.0
1002
}
  0
SEQEND
  5
43F
  8
回08-記事
  6
CONTINUOUS
 62
     7
  0
POLYLINE
  5
219
  8
回08-記事
  6
CONTINUOUS
 62
     7
 66
     1
 10
0.0
 20
0.0
 30
0.0
1001
ACAD
1000
ASC_BOUNDS
1002
{
1070
    19
1005
218
1002
}
  0
VERTEX
  5
440
  8
回08-記事
  6
CONTINUOUS
 62
     7
 10
804.6991740057446
 20
320.8985876977076
 30
0.0
  0
VERTEX
  5
442
  8
回08-記事
  6
CONTINUOUS
 62
     7
 10
808.0991740057447
 20
320.8985876977076
 30
0.0
  0
VERTEX
  5
443
  8
回08-記事
  6
CONTINUOUS
 62
     7
 10
808.0991740057447
 20
319.3985876977076
 30
0.0
  0
VERTEX
  5
444
  8
回08-記事
  6
CONTINUOUS
 62
     7
 10
812.8991740057447
 20
319.3985876977076
 30
0.0
  0
VERTEX
  5
445
  8
回08-記事
  6
CONTINUOUS
 62
     7
 10
812.8991740057447
 20
319.8985876977076
 30
0.0
  0
VERTEX
  5
446
  8
回08-記事
  6
CONTINUOUS
 62
     7
 10
808.5991740057448
 20
319.8985876977076
 30
0.0
  0
VERTEX
  5
447
  8
回08-記事
  6
CONTINUOUS
 62
     7
 10
808.5991740057448
 20
321.3985876977076
 30
0.0
  0
VERTEX
  5
448
  8
回08-記事
  6
CONTINUOUS
 62
     7
 10
804.6991740057446
 20
321.3985876977076
 30
0.0
  0
VERTEX
  5
449
  8
回08-記事
  6
CONTINUOUS
 62
     7
 10
804.6991740057446
 20
320.8985876977076
 30
0.0
  0
SEQEND
  5
441
  8
回08-記事
  6
CONTINUOUS
 62
     7
  0
DIMENSION
  5
21A
  8
回07-寸法
  6
CONTINUOUS
 62
     5
  2
*D17
 10
809.0991740057447
 20
328.6186296929809
 30
0.0
 11
823.6479929033826
 21
330.7686296929809
 31
0.0
 70
     0
  1
(<>)
  3
DMC
 13
808.5991740057448
 23
322.3985876977076
 33
0.0
 14
809.0991740057447
 24
324.8985876977076
 34
0.0
1001
ACAD
1000
DSTYLE
1002
{
1070
   170
1070
     1
1070
   371
1070
     9
1070
   372
1070
     9
1002
}
  0
LINE
  5
22B
  8
回07-寸法
  6
CENTER2
 62
     5
 10
808.5991740057448
 20
439.1417323525042
 30
0.0
 11
971.6770451659662
 21
439.1417323525042
 31
0.0
  0
LINE
  5
22C
  8
回07-寸法
  6
CENTER2
 62
     5
 10
891.899174005745
 20
485.4113039689354
 30
0.0
 11
891.899174005745
 21
392.872160736073
 31
0.0
  0
TEXT
  5
22D
  8
回08-記事
  6
CONTINUOUS
 62
     5
 10
960.4709310340226
 20
441.0700869228128
 30
0.0
 40
4.0
  1
XR
  0
TEXT
  5
22E
  8
回08-記事
  6
CONTINUOUS
 62
     5
 10
880.9827676940221
 20
395.1093883819278
 30
0.0
 40
4.0
  1
YD
  0
TEXT
  5
22F
  8
回08-記事
  6
CONTINUOUS
 62
     5
 10
880.9827676940221
 20
478.5364199999028
 30
0.0
 40
4.0
  1
YU
  0
DIMENSION
  5
230
  8
回07-寸法
  6
CONTINUOUS
 62
     5
  2
*D16
 10
1009.835086547168
 20
491.8217323525046
 30
0.0
 11
1007.684361508638
 21
507.5757927458833
 31
0.0
 70
     0
  1
(<>)
  3
DMC
 13
968.0991740057448
 23
484.8617323525043
 33
0.0
 14
973.5991740057448
 24
491.8217323525043
 34
0.0
 50
90.0
1001
ACAD
1000
DSTYLE
1002
{
1070
   170
1070
     1
1070
   371
1070
     9
1070
   372
1070
     9
1002
}
  0
DIMENSION
  5
241
  8
回07-寸法
  6
CONTINUOUS
 62
     5
  2
*D15
 10
1018.977357639777
 20
491.8217323525046
 30
0.0
 11
1016.827357639777
 21
507.1205512501419
 31
0.0
 70
     0
  1
(<>)
  3
DMC
 13
969.1991740057449
 23
486.1117323525043
 33
0.0
 14
973.5991740057448
 24
491.8217323525043
 34
0.0
 50
90.0
1001
ACAD
1000
DSTYLE
1002
{
1070
   170
1070
     1
1070
   371
1070
     9
1070
   372
1070
     9
1002
}
  0
DIMENSION
  5
252
  8
回07-寸法
  6
CONTINUOUS
 62
     5
  2
*D14
 10
1009.835086547167
 20
387.8217323525046
 30
0.0
 11
1009.835086547167
 21
374.4717323525042
 31
0.0
 70
   128
  1
<>
  3
DMC
 13
968.0991740057448
 23
393.4217323525045
 33
0.0
 14
973.5991740057448
 24
387.8217323525043
 34
0.0
 50
90.0
1001
ACAD
1000
DSTYLE
1002
{
1070
   170
1070
     1
1070
   371
1070
     9
1070
   372
1070
     9
1002
}
  0
DIMENSION
  5
263
  8
回07-寸法
  6
CONTINUOUS
 62
     5
  2
*D13
 10
1018.977357639777
 20
387.8217323525046
 30
0.0
 11
1016.827357639777
 21
373.8717323525042
 31
0.0
 70
     0
  3
DMC
 13
969.1991740057449
 23
392.1717323525045
 33
0.0
 14
973.5991740057448
 24
387.8217323525043
 34
0.0
 50
90.0
1001
ACAD
1000
DSTYLE
1002
{
1070
   170
1070
     1
1070
   371
1070
     9
1070
   372
1070
     9
1002
}
  0
DIMENSION
  5
274
  8
回07-寸法
  6
CONTINUOUS
 62
     5
  2
*D12
 10
808.5991740057448
 20
506.8802541654941
 30
0.0
 11
794.350355108107
 21
506.8802541654941
 31
0.0
 70
   128
  1
(<>)
  3
DMC
 13
815.6991740057449
 23
484.8617323525043
 33
0.0
 14
808.5991740057448
 24
491.8217323525043
 34
0.0
1001
ACAD
1000
DSTYLE
1002
{
1070
   170
1070
     1
1070
   371
1070
     9
1070
   372
1070
     9
1002
}
  0
DIMENSION
  5
285
  8
回07-寸法
  6
CONTINUOUS
 62
     5
  2
*D11
 10
808.5991740057448
 20
514.3899913409959
 30
0.0
 11
793.900355108107
 21
514.3899913409959
 31
0.0
 70
   128
  1
(<>)
  3
DMC
 13
814.299174005745
 23
486.1117323525043
 33
0.0
 14
808.5991740057448
 24
491.8217323525043
 34
0.0
1001
ACAD
1000
DSTYLE
1002
{
1070
   170
1070
     1
1070
   371
1070
     9
1070
   372
1070
     9
1002
}
  0
DIMENSION
  5
296
  8
回07-寸法
  6
CONTINUOUS
 62
     5
  2
*D10
 10
973.5991740057448
 20
506.8802541654941
 30
0.0
 11
986.6491740057448
 21
506.8802541654941
 31
0.0
 70
   128
  3
DMC
 13
968.0991740057448
 23
484.8617323525043
 33
0.0
 14
973.5991740057448
 24
491.8217323525043
 34
0.0
1001
ACAD
1000
DSTYLE
1002
{
1070
   170
1070
     1
1070
   371
1070
     9
1070
   372
1070
     9
1002
}
  0
DIMENSION
  5
2A7
  8
回07-寸法
  6
CONTINUOUS
 62
     5
  2
*D9
 10
973.5991740057448
 20
514.3899913409959
 30
0.0
 11
986.9491740057448
 21
516.5399913409959
 31
0.0
 70
     0
  3
DMC
 13
969.1991740057449
 23
486.1117323525043
 33
0.0
 14
973.5991740057448
 24
491.8217323525043
 34
0.0
1001
ACAD
1000
DSTYLE
1002
{
1070
   170
1070
     1
1070
   371
1070
     9
1070
   372
1070
     9
1002
}
  0
DIMENSION
  5
2B8
  8
回07-寸法
  6
CONTINUOUS
 62
     5
  2
*D8
 10
1009.835086547168
 20
484.8617323525045
 30
0.0
 11
1007.685086547168
 21
439.1417323525041
 31
0.0
 70
     0
  1
<>(ACTIVE AREA)
  3
DMC
 13
968.0991740057448
 23
393.4217323525045
 33
0.0
 14
968.0991740057448
 24
484.8617323525043
 34
0.0
 50
90.0
1001
ACAD
1000
DSTYLE
1002
{
1070
   170
1070
     1
1070
   371
1070
     9
1070
   372
1070
     9
1002
}
  0
DIMENSION
  5
2C7
  8
回07-寸法
  6
CONTINUOUS
 62
     5
  2
*D7
 10
1018.977357639777
 20
392.1717323525047
 30
0.0
 11
1016.826632601247
 21
439.1417323525041
 31
0.0
 70
     0
  1
<>(VIEWING AREA)
  3
DMC
 13
969.1991740057449
 23
486.1117323525043
 33
0.0
 14
969.1991740057449
 24
392.1717323525045
 34
0.0
 50
90.0
1001
ACAD
1000
DSTYLE
1002
{
1070
   170
1070
     1
1070
   371
1070
     9
1070
   372
1070
     9
1002
}
  0
DIMENSION
  5
2D6
  8
回07-寸法
  6
CONTINUOUS
 62
     3
  2
*D6
 10
1035.038066218868
 20
387.8217323525046
 30
0.0
 11
1032.888066218867
 21
439.8217323525042
 31
0.0
 70
     0
  3
DMC
 13
973.5991740057448
 23
491.8217323525043
 33
0.0
 14
973.5991740057448
 24
387.8217323525043
 34
0.0
 50
90.0
1001
ACAD
1000
DSTYLE
1002
{
1070
    47
1040
0.3
1070
    48
1040
0.3
1070
    71
1070
     1
1070
   170
1070
     1
1070
   371
1070
     9
1070
   372
1070
     9
1002
}
  0
DIMENSION
  5
2E3
  8
回07-寸法
  6
CONTINUOUS
 62
     5
  2
*D5
 10
968.0991740057448
 20
506.8802541654941
 30
0.0
 11
891.8991740057448
 21
509.030254165494
 31
0.0
 70
     0
  1
<>(ACTIVE AREA)
  3
DMC
 13
815.6991740057449
 23
484.8617323525043
 33
0.0
 14
968.0991740057448
 24
484.8617323525043
 34
0.0
1001
ACAD
1000
DSTYLE
1002
{
1070
   170
1070
     1
1070
   371
1070
     9
1070
   372
1070
     9
1002
}
  0
DIMENSION
  5
2F2
  8
回07-寸法
  6
CONTINUOUS
 62
     5
  2
*D4
 10
969.1991740057449
 20
514.3899913409959
 30
0.0
 11
891.749174005745
 21
516.5407163795255
 31
0.0
 70
     0
  1
<>(VIEWING AREA)
  3
DMC
 13
814.299174005745
 23
486.1117323525043
 33
0.0
 14
969.1991740057449
 24
486.1117323525043
 34
0.0
1001
ACAD
1000
DSTYLE
1002
{
1070
   170
1070
     1
1070
   371
1070
     9
1070
   372
1070
     9
1002
}
  0
DIMENSION
  5
301
  8
回07-寸法
  6
CONTINUOUS
 62
     3
  2
*D3
 10
973.5991740057448
 20
530.4008649486736
 30
0.0
 11
891.0991740057447
 21
532.5508649486736
 31
0.0
 70
     0
  3
DMC
 13
808.5991740057448
 23
491.8217323525043
 33
0.0
 14
973.5991740057448
 24
491.8217323525043
 34
0.0
1001
ACAD
1000
DSTYLE
1002
{
1070
    47
1040
0.3
1070
    48
1040
0.3
1070
    71
1070
     1
1070
   170
1070
     1
1070
   371
1070
     9
1070
   372
1070
     9
1002
}
  0
DIMENSION
  5
30E
  8
回07-寸法
  6
CONTINUOUS
 62
     5
  2
*D2
 10
973.0991740057447
 20
329.1524087591372
 30
0.0
 11
958.5503551081069
 21
331.3024087591372
 31
0.0
 70
     0
  1
(<>)
  3
DMC
 13
973.5991740057448
 23
322.3985876977076
 33
0.0
 14
973.0991740057447
 24
324.8985876977076
 34
0.0
1001
ACAD
1000
DSTYLE
1002
{
1070
   170
1070
     1
1070
   371
1070
     9
1070
   372
1070
     9
1002
}
  0
TEXT
  5
31F
  8
回08-記事
  6
CONTINUOUS
 62
     5
 10
811.5246720641163
 20
307.8327984761228
 30
0.0
 40
3.0
  1
PROTECTION TAPE
  0
TEXT
  5
320
  8
回08-記事
  6
CONTINUOUS
 62
     5
 10
888.8493844838412
 20
312.8522348890235
 30
0.0
 40
3.0
  1
ITO GLASS
  0
TEXT
  5
321
  8
回08-記事
  6
CONTINUOUS
 62
     5
 10
876.0504332481524
 20
329.0432372536909
 30
0.0
 40
3.0
  1
ITO FILM (ANTI-GLARE(ANR))
  0
ARC
  5
322
  8
回08-記事
  6
CONTINUOUS
 62
     7
 10
820.4499842666432
 20
322.3985876977076
 30
0.0
 40
0.2
 50
0.0
 51
180.0
  0
ARC
  5
323
  8
回08-記事
  6
CONTINUOUS
 62
     7
 10
824.4499842666431
 20
322.3985876977076
 30
0.0
 40
0.2
 50
0.0
 51
180.0
  0
ARC
  5
324
  8
回08-記事
  6
CONTINUOUS
 62
     7
 10
828.4499842666432
 20
322.3985876977076
 30
0.0
 40
0.2
 50
0.0
 51
180.0
  0
ARC
  5
325
  8
回08-記事
  6
CONTINUOUS
 62
     7
 10
832.4499842666432
 20
322.3985876977076
 30
0.0
 40
0.2
 50
0.0
 51
180.0
  0
ARC
  5
326
  8
回08-記事
  6
CONTINUOUS
 62
     7
 10
836.4499842666432
 20
322.3985876977076
 30
0.0
 40
0.2
 50
0.0
 51
180.0
  0
ARC
  5
327
  8
回08-記事
  6
CONTINUOUS
 62
     7
 10
840.4499842666432
 20
322.3985876977076
 30
0.0
 40
0.2
 50
0.0
 51
180.0
  0
ARC
  5
328
  8
回08-記事
  6
CONTINUOUS
 62
     7
 10
844.4499842666433
 20
322.3985876977076
 30
0.0
 40
0.2
 50
0.0
 51
180.0
  0
ARC
  5
329
  8
回08-記事
  6
CONTINUOUS
 62
     7
 10
848.4499842666432
 20
322.3985876977076
 30
0.0
 40
0.2
 50
0.0
 51
180.0
  0
ARC
  5
32A
  8
回08-記事
  6
CONTINUOUS
 62
     7
 10
852.4499842666433
 20
322.3985876977076
 30
0.0
 40
0.2
 50
0.0
 51
180.0
  0
LINE
  5
32B
  8
回08-記事
  6
CONTINUOUS
 62
    40
 10
808.5991740057448
 20
321.6985876977076
 30
0.0
 11
808.5991740057448
 21
319.8985876977076
 31
0.0
  0
ARC
  5
32C
  8
回08-記事
  6
CONTINUOUS
 62
     7
 10
968.4499842666433
 20
322.3985876977076
 30
0.0
 40
0.2
 50
0.0
 51
180.0
  0
ARC
  5
32D
  8
回08-記事
  6
CONTINUOUS
 62
     7
 10
964.4499842666432
 20
322.3985876977076
 30
0.0
 40
0.2
 50
0.0
 51
180.0
  0
ARC
  5
32E
  8
回08-記事
  6
CONTINUOUS
 62
     7
 10
960.4499842666433
 20
322.3985876977076
 30
0.0
 40
0.2
 50
0.0
 51
180.0
  0
ARC
  5
32F
  8
回08-記事
  6
CONTINUOUS
 62
     7
 10
956.4499842666432
 20
322.3985876977076
 30
0.0
 40
0.2
 50
0.0
 51
180.0
  0
ARC
  5
330
  8
回08-記事
  6
CONTINUOUS
 62
     7
 10
952.4499842666433
 20
322.3985876977076
 30
0.0
 40
0.2
 50
0.0
 51
180.0
  0
ARC
  5
331
  8
回08-記事
  6
CONTINUOUS
 62
     7
 10
948.4499842666432
 20
322.3985876977076
 30
0.0
 40
0.2
 50
0.0
 51
180.0
  0
ARC
  5
332
  8
回08-記事
  6
CONTINUOUS
 62
     7
 10
944.4499842666433
 20
322.3985876977076
 30
0.0
 40
0.2
 50
0.0
 51
180.0
  0
ARC
  5
333
  8
回08-記事
  6
CONTINUOUS
 62
     7
 10
940.4499842666432
 20
322.3985876977076
 30
0.0
 40
0.2
 50
0.0
 51
180.0
  0
ARC
  5
334
  8
回08-記事
  6
CONTINUOUS
 62
     7
 10
936.4499842666432
 20
322.3985876977076
 30
0.0
 40
0.2
 50
0.0
 51
180.0
  0
ARC
  5
335
  8
回08-記事
  6
CONTINUOUS
 62
     7
 10
932.4499842666432
 20
322.3985876977076
 30
0.0
 40
0.2
 50
0.0
 51
180.0
  0
ARC
  5
336
  8
回08-記事
  6
CONTINUOUS
 62
     7
 10
928.4499842666432
 20
322.3985876977076
 30
0.0
 40
0.2
 50
0.0
 51
180.0
  0
LINE
  5
337
  8
回08-記事
  6
CONTINUOUS
 62
     5
 10
811.7638814415123
 20
312.418662297986
 30
0.0
 11
808.2452458497105
 21
319.3985876977076
 31
0.0
  0
LINE
  5
338
  8
回08-記事
  6
CONTINUOUS
 62
     5
 10
888.7500628868338
 20
316.2114587726805
 30
0.0
 11
885.9316542517321
 21
320.7684194494432
 31
0.0
  0
LINE
  5
339
  8
回08-記事
  6
CONTINUOUS
 62
     5
 10
876.1663345568495
 20
327.9767012740194
 30
0.0
 11
874.7571261711568
 21
324.4139869776063
 31
0.0
  0
DIMENSION
  5
33A
  8
回07-寸法
  6
CONTINUOUS
 62
     7
  2
*D1
 10
981.9357603229756
 20
319.8985876977078
 30
0.0
 11
979.7857603229756
 21
301.3982776977074
 31
0.0
 70
     0
  1
1.4{\H0.6667x;±0.2}[0.055{\H0.6667x;±0.008}]
  3
DMC
 13
973.0991740057447
 23
324.8985876977076
 33
0.0
 14
973.5991740057448
 24
319.8985876977076
 34
0.0
 50
90.0
1001
ACAD
1000
DSTYLE
1002
{
1070
   170
1070
     1
1070
   371
1070
     9
1070
   372
1070
     9
1002
}
  0
ARC
  5
349
  8
回08-記事
  6
CONTINUOUS
 62
     7
 10
856.4499842666432
 20
322.3985876977076
 30
0.0
 40
0.2
 50
0.0
 51
180.0
  0
ARC
  5
34A
  8
回08-記事
  6
CONTINUOUS
 62
     7
 10
860.4499842666433
 20
322.3985876977076
 30
0.0
 40
0.2
 50
0.0
 51
180.0
  0
ARC
  5
34B
  8
回08-記事
  6
CONTINUOUS
 62
     7
 10
864.4499842666432
 20
322.3985876977076
 30
0.0
 40
0.2
 50
0.0
 51
180.0
  0
ARC
  5
34C
  8
回08-記事
  6
CONTINUOUS
 62
     7
 10
868.4499842666433
 20
322.3985876977076
 30
0.0
 40
0.2
 50
0.0
 51
180.0
  0
ARC
  5
34D
  8
回08-記事
  6
CONTINUOUS
 62
     7
 10
872.4499842666432
 20
322.3985876977076
 30
0.0
 40
0.2
 50
0.0
 51
180.0
  0
ARC
  5
34E
  8
回08-記事
  6
CONTINUOUS
 62
     7
 10
876.4499842666433
 20
322.3985876977076
 30
0.0
 40
0.2
 50
0.0
 51
180.0
  0
ARC
  5
34F
  8
回08-記事
  6
CONTINUOUS
 62
     7
 10
880.4499842666432
 20
322.3985876977076
 30
0.0
 40
0.2
 50
0.0
 51
180.0
  0
ARC
  5
350
  8
回08-記事
  6
CONTINUOUS
 62
     7
 10
884.4499842666433
 20
322.3985876977076
 30
0.0
 40
0.2
 50
0.0
 51
180.0
  0
ARC
  5
351
  8
回08-記事
  6
CONTINUOUS
 62
     7
 10
888.4499842666432
 20
322.3985876977076
 30
0.0
 40
0.2
 50
0.0
 51
180.0
  0
ARC
  5
352
  8
回08-記事
  6
CONTINUOUS
 62
     7
 10
892.4499842666433
 20
322.3985876977076
 30
0.0
 40
0.2
 50
0.0
 51
180.0
  0
ARC
  5
353
  8
回08-記事
  6
CONTINUOUS
 62
     7
 10
896.4499842666432
 20
322.3985876977076
 30
0.0
 40
0.2
 50
0.0
 51
180.0
  0
ARC
  5
354
  8
回08-記事
  6
CONTINUOUS
 62
     7
 10
900.4499842666431
 20
322.3985876977076
 30
0.0
 40
0.2
 50
0.0
 51
180.0
  0
ARC
  5
355
  8
回08-記事
  6
CONTINUOUS
 62
     7
 10
904.4499842666432
 20
322.3985876977076
 30
0.0
 40
0.2
 50
0.0
 51
180.0
  0
ARC
  5
356
  8
回08-記事
  6
CONTINUOUS
 62
     7
 10
908.4499842666431
 20
322.3985876977076
 30
0.0
 40
0.2
 50
0.0
 51
180.0
  0
ARC
  5
357
  8
回08-記事
  6
CONTINUOUS
 62
     7
 10
912.4499842666432
 20
322.3985876977076
 30
0.0
 40
0.2
 50
0.0
 51
180.0
  0
ARC
  5
358
  8
回08-記事
  6
CONTINUOUS
 62
     7
 10
916.4499842666431
 20
322.3985876977076
 30
0.0
 40
0.2
 50
0.0
 51
180.0
  0
ARC
  5
359
  8
回08-記事
  6
CONTINUOUS
 62
     7
 10
920.4499842666432
 20
322.3985876977076
 30
0.0
 40
0.2
 50
0.0
 51
180.0
  0
ARC
  5
35A
  8
回08-記事
  6
CONTINUOUS
 62
     7
 10
924.4499842666431
 20
322.3985876977076
 30
0.0
 40
0.2
 50
0.0
 51
180.0
  0
LINE
  5
35B
  8
回08-記事
  6
CONTINUOUS
 62
     7
 10
816.3991740057449
 20
323.3985876977076
 30
0.0
 11
816.3991740057449
 21
322.3985876977076
 31
0.0
  0
LINE
  5
35C
  8
回08-記事
  6
CONTINUOUS
 62
     7
 10
973.0991740057447
 20
323.3985876977076
 30
0.0
 11
973.0991740057447
 21
322.3985876977076
 31
0.0
  0
LINE
  5
35D
  8
回08-記事
  6
CONTINUOUS
 62
     7
 10
970.1991740057449
 20
323.3985876977076
 30
0.0
 11
970.1991740057449
 21
322.3985876977076
 31
0.0
  0
POLYLINE
  5
35E
  8
回08-記事
  6
CONTINUOUS
 62
     7
 66
     1
 10
0.0
 20
0.0
 30
0.0
 70
     1
  0
VERTEX
  5
44A
  8
回08-記事
  6
CONTINUOUS
 62
     7
 10
808.5991740057448
 20
319.8985876977076
 30
0.0
  0
VERTEX
  5
44C
  8
回08-記事
  6
CONTINUOUS
 62
     7
 10
973.5991740057448
 20
319.8985876977076
 30
0.0
  0
VERTEX
  5
44D
  8
回08-記事
  6
CONTINUOUS
 62
     7
 10
973.5991740057448
 20
322.3985876977076
 30
0.0
  0
VERTEX
  5
44E
  8
回08-記事
  6
CONTINUOUS
 62
     7
 10
808.5991740057448
 20
322.3985876977076
 30
0.0
  0
SEQEND
  5
44B
  8
回08-記事
  6
CONTINUOUS
 62
     7
  0
POLYLINE
  5
35F
  8
回08-記事
  6
CONTINUOUS
 62
     7
 66
     1
 10
0.0
 20
0.0
 30
0.0
 70
     1
  0
VERTEX
  5
44F
  8
回08-記事
  6
CONTINUOUS
 62
     7
 10
809.0991740057447
 20
324.8985876977076
 30
0.0
  0
VERTEX
  5
451
  8
回08-記事
  6
CONTINUOUS
 62
     7
 10
973.0991740057447
 20
324.8985876977076
 30
0.0
  0
VERTEX
  5
452
  8
回08-記事
  6
CONTINUOUS
 62
     7
 10
973.0991740057447
 20
323.3985876977076
 30
0.0
  0
VERTEX
  5
453
  8
回08-記事
  6
CONTINUOUS
 62
     7
 10
809.0991740057447
 20
323.3985876977076
 30
0.0
  0
SEQEND
  5
450
  8
回08-記事
  6
CONTINUOUS
 62
     7
  0
POLYLINE
  5
360
  8
回08-記事
  6
CONTINUOUS
 62
     7
 66
     1
 10
0.0
 20
0.0
 30
0.0
 70
     1
  0
VERTEX
  5
454
  8
回08-記事
  6
CONTINUOUS
 62
     7
 10
815.6991740057449
 20
393.4217323525045
 30
0.0
  0
VERTEX
  5
456
  8
回08-記事
  6
CONTINUOUS
 62
     7
 10
968.0991740057448
 20
393.4217323525045
 30
0.0
  0
VERTEX
  5
457
  8
回08-記事
  6
CONTINUOUS
 62
     7
 10
968.0991740057448
 20
484.8617323525043
 30
0.0
  0
VERTEX
  5
458
  8
回08-記事
  6
CONTINUOUS
 62
     7
 10
815.6991740057449
 20
484.8617323525043
 30
0.0
  0
SEQEND
  5
455
  8
回08-記事
  6
CONTINUOUS
 62
     7
  0
POLYLINE
  5
361
  8
回08-記事
  6
CONTINUOUS
 62
     7
 66
     1
 10
0.0
 20
0.0
 30
0.0
 70
     1
  0
VERTEX
  5
459
  8
回08-記事
  6
CONTINUOUS
 62
     7
 10
814.299174005745
 20
392.1717323525045
 30
0.0
  0
VERTEX
  5
45B
  8
回08-記事
  6
CONTINUOUS
 62
     7
 10
969.1991740057449
 20
392.1717323525045
 30
0.0
  0
VERTEX
  5
45C
  8
回08-記事
  6
CONTINUOUS
 62
     7
 10
969.1991740057449
 20
486.1117323525043
 30
0.0
  0
VERTEX
  5
45D
  8
回08-記事
  6
CONTINUOUS
 62
     7
 10
814.299174005745
 20
486.1117323525043
 30
0.0
  0
SEQEND
  5
45A
  8
回08-記事
  6
CONTINUOUS
 62
     7
  0
POLYLINE
  5
362
  8
回04-下接
  6
CONTINUOUS
 62
     7
 66
     1
 10
0.0
 20
0.0
 30
0.0
 70
     1
  0
VERTEX
  5
45E
  8
回04-下接
  6
CONTINUOUS
 62
     7
 10
808.5991740057448
 20
387.8217323525043
 30
0.0
  0
VERTEX
  5
460
  8
回04-下接
  6
CONTINUOUS
 62
     7
 10
973.5991740057448
 20
387.8217323525043
 30
0.0
  0
VERTEX
  5
461
  8
回04-下接
  6
CONTINUOUS
 62
     7
 10
973.5991740057448
 20
491.8217323525043
 30
0.0
  0
VERTEX
  5
462
  8
回04-下接
  6
CONTINUOUS
 62
     7
 10
808.5991740057448
 20
491.8217323525043
 30
0.0
  0
SEQEND
  5
45F
  8
回08-記事
  6
CONTINUOUS
 62
     7
  0
TEXT
  5
363
  8
回91-枠英2
 10
1076.685142921226
 20
244.8970133413546
 30
0.0
 40
5.0
  1
Oct/06/2023
 72
     1
 11
1095.685142921226
 21
244.8970133413546
 31
0.0
  0
TEXT
  5
367
  8
回91-枠英2
  6
CONTINUOUS
 62
     7
 10
1090.635873026458
 20
255.8364502569771
 30
0.0
 40
3.0
  1
DATE
  0
TEXT
  5
368
  8
回91-枠英2
 10
1100.541589696313
 20
576.974884918493
 30
0.0
 40
3.6
  1
H
  0
LINE
  5
369
  8
回91-枠英2
 10
1070.185142921226
 20
581.1397041050472
 30
0.0
 11
1070.185142921226
 21
576.6397041050472
 31
0.0
  0
LINE
  5
36A
  8
回91-枠英2
 10
1137.685142921226
 20
507.339704105047
 30
0.0
 11
1133.185142921226
 21
507.339704105047
 31
0.0
  0
TEXT
  5
36B
  8
回91-枠英2
 10
1134.177772991548
 20
470.6995226713206
 30
0.0
 40
3.6
  1
2
  0
LINE
  5
36C
  8
回91-枠英2
 10
1137.685142921226
 20
438.0397041050469
 30
0.0
 11
1133.185142921226
 21
438.0397041050469
 31
0.0
  0
TEXT
  5
36D
  8
回91-枠英2
 10
1134.449121824519
 20
539.9995226713204
 30
0.0
 40
3.6
  1
1
  0
TEXT
  5
36E
  8
回91-枠英2
 10
1134.172840231767
 20
401.3995226713205
 30
0.0
 40
3.6
  1
3
  0
LINE
  5
36F
  8
回91-枠英2
 10
1137.685142921226
 20
368.7397041050472
 30
0.0
 11
1133.185142921226
 21
368.7397041050472
 31
0.0
  0
TEXT
  5
370
  8
回91-枠英2
 10
1134.107057323694
 20
332.0995226713203
 30
0.0
 40
3.6
  1
4
  0
LINE
  5
371
  8
回91-枠英2
 10
1137.685142921226
 20
299.439704105047
 30
0.0
 11
1133.185142921226
 21
299.439704105047
 31
0.0
  0
TEXT
  5
372
  8
回91-枠英2
 10
1134.107057323694
 20
262.7995226713206
 30
0.0
 40
3.6
  1
5
  0
TEXT
  5
373
  8
回91-枠英2
 10
1100.541589696313
 20
225.974884918493
 30
0.0
 40
3.6
  1
H
  0
LINE
  5
374
  8
回91-枠英2
 10
1070.185142921226
 20
230.1397041050473
 30
0.0
 11
1070.185142921226
 21
225.6397041050473
 31
0.0
  0
TEXT
  5
375
  8
回91-枠英2
 10
1075.810142921226
 20
232.6774119422394
 30
0.0
 40
5.0
  1
DMC Co., Ltd.
 72
     1
 11
1095.685142921226
 21
232.6774119422394
 31
0.0
  0
LINE
  5
376
  8
回91-枠英2
 10
1137.685142921226
 20
225.6397041050473
 30
0.0
 11
1137.685142921226
 21
581.1397041050472
 31
0.0
  0
LINE
  5
377
  8
回91-枠英2
 10
1133.185142921226
 20
576.6397041050472
 30
0.0
 11
1133.185142921226
 21
230.1397041050473
 31
0.0
  0
TEXT
  5
378
  8
回91-枠英2
 10
1037.541589696313
 20
576.974884918493
 30
0.0
 40
3.6
  1
G
  0
LINE
  5
379
  8
回91-枠英2
 10
1007.185142921226
 20
581.1397041050472
 30
0.0
 11
1007.185142921226
 21
576.6397041050472
 31
0.0
  0
TEXT
  5
37A
  8
回91-枠英2
 10
974.5415896963132
 20
576.974884918493
 30
0.0
 40
3.6
  1
F
  0
LINE
  5
37B
  8
回91-枠英2
 10
944.1851429212261
 20
581.1397041050472
 30
0.0
 11
944.1851429212261
 21
576.6397041050472
 31
0.0
  0
TEXT
  5
37C
  8
回91-枠英2
 10
911.5415896963131
 20
576.974884918493
 30
0.0
 40
3.6
  1
E
  0
LINE
  5
37D
  8
回91-枠英2
 10
881.1851429212261
 20
581.1397041050472
 30
0.0
 11
881.1851429212261
 21
576.6397041050472
 31
0.0
  0
TEXT
  5
37E
  8
回91-枠英2
 10
848.5415896963131
 20
576.974884918493
 30
0.0
 40
3.6
  1
D
  0
LINE
  5
37F
  8
回91-枠英2
 10
818.185142921226
 20
581.1397041050472
 30
0.0
 11
818.185142921226
 21
576.6397041050472
 31
0.0
  0
TEXT
  5
380
  8
回91-枠英2
 10
785.5415896963132
 20
576.974884918493
 30
0.0
 40
3.6
  1
C
  0
LINE
  5
381
  8
回91-枠英2
 10
755.1851429212261
 20
581.1397041050472
 30
0.0
 11
755.1851429212261
 21
576.6397041050472
 31
0.0
  0
TEXT
  5
382
  8
回91-枠英2
 10
722.5415896963132
 20
576.974884918493
 30
0.0
 40
3.6
  1
B
  0
LINE
  5
383
  8
回91-枠英2
 10
692.185142921226
 20
581.1397041050472
 30
0.0
 11
692.185142921226
 21
576.6397041050472
 31
0.0
  0
TEXT
  5
384
  8
回91-枠英2
 10
659.5415896963132
 20
576.974884918493
 30
0.0
 40
3.6
  1
A
  0
LINE
  5
385
  8
回91-枠英2
 10
629.185142921226
 20
507.339704105047
 30
0.0
 11
624.685142921226
 21
507.339704105047
 31
0.0
  0
TEXT
  5
386
  8
回91-枠英2
 10
625.6777729915479
 20
470.6995226713206
 30
0.0
 40
3.6
  1
2
  0
LINE
  5
387
  8
回91-枠英2
 10
629.185142921226
 20
438.0397041050469
 30
0.0
 11
624.685142921226
 21
438.0397041050469
 31
0.0
  0
TEXT
  5
388
  8
回91-枠英2
 10
625.9491218245194
 20
539.9995226713204
 30
0.0
 40
3.6
  1
1
  0
TEXT
  5
389
  8
回91-枠英2
 10
1000.185142921226
 20
247.6315863002792
 30
0.0
 40
5.0
  1
QST-070WA075H
 72
     1
 11
1025.685142921226
 21
247.6315863002792
 31
0.0
  0
TEXT
  5
38A
  8
回91-枠英2
 10
1016.235142921226
 20
256.0869570244104
 30
0.0
 40
3.0
  1
PART　No.
 72
     1
 11
1025.685142921226
 21
256.0869570244104
 31
0.0
  0
TEXT
  5
38B
  8
回91-枠英2
 10
1037.541589696313
 20
225.974884918493
 30
0.0
 40
3.6
  1
G
  0
LINE
  5
38C
  8
回91-枠英2
 10
996.1851429212261
 20
235.1397041050473
 30
0.0
 11
1055.185142921226
 21
235.1397041050473
 31
0.0
  0
TEXT
  5
38D
  8
回91-枠英2
 10
1002.344552370045
 20
236.2897348364331
 30
0.0
 40
3.0
  1
STANDARD TOUCHSCREEN
 72
     1
 11
1025.685142921226
 21
236.2897348364331
 31
0.0
  0
TEXT
  5
38E
  8
回91-枠英2
 10
1009.105041459877
 20
231.2897348364332
 30
0.0
 40
3.0
  1
CIRCUIT　DRAWING
 72
     1
 11
1025.685142921226
 21
231.2897348364332
 31
0.0
  0
LINE
  5
38F
  8
回91-枠英2
 10
1058.185142921226
 20
260.1397041050473
 30
0.0
 11
1058.185142921226
 21
230.1397041050473
 31
0.0
  0
TEXT
  5
390
  8
回91-枠英2
 10
1020.885142921226
 20
240.8833237946224
 30
0.0
 40
3.0
  1
TYPE
 72
     1
 11
1025.685142921226
 21
240.8833237946224
 31
0.0
  0
LINE
  5
391
  8
回91-枠英2
 10
1007.185142921226
 20
230.1397041050473
 30
0.0
 11
1007.185142921226
 21
225.6397041050473
 31
0.0
  0
TEXT
  5
392
  8
回91-枠英2
 10
974.5415896963132
 20
225.974884918493
 30
0.0
 40
3.6
  1
F
  0
LINE
  5
393
  8
回91-枠英2
 10
993.185142921226
 20
260.1397041050473
 30
0.0
 11
993.185142921226
 21
230.1397041050473
 31
0.0
  0
LINE
  5
394
  8
回91-枠英2
 10
944.1851429212261
 20
230.1397041050473
 30
0.0
 11
944.1851429212261
 21
225.6397041050473
 31
0.0
  0
TEXT
  5
395
  8
回91-枠英2
 10
911.5415896963131
 20
225.974884918493
 30
0.0
 40
3.6
  1
E
  0
LINE
  5
396
  8
回91-枠英2
 10
881.1851429212261
 20
230.1397041050473
 30
0.0
 11
881.1851429212261
 21
225.6397041050473
 31
0.0
  0
TEXT
  5
397
  8
回91-枠英2
 10
848.5415896963131
 20
225.974884918493
 30
0.0
 40
3.6
  1
D
  0
LINE
  5
398
  8
回91-枠英2
 10
993.185142921226
 20
245.1397041050473
 30
0.0
 11
1058.185142921226
 21
245.1397041050473
 31
0.0
  0
LINE
  5
399
  8
回91-枠英2
 10
818.185142921226
 20
230.1397041050473
 30
0.0
 11
818.185142921226
 21
225.6397041050473
 31
0.0
  0
TEXT
  5
39A
  8
回91-枠英2
 10
785.5415896963132
 20
225.974884918493
 30
0.0
 40
3.6
  1
C
  0
LINE
  5
39B
  8
回91-枠英2
 10
755.1851429212261
 20
230.1397041050473
 30
0.0
 11
755.1851429212261
 21
225.6397041050473
 31
0.0
  0
TEXT
  5
39C
  8
回91-枠英2
 10
722.5415896963132
 20
225.974884918493
 30
0.0
 40
3.6
  1
B
  0
TEXT
  5
39D
  8
回91-枠英2
 10
625.6728402317671
 20
401.3995226713205
 30
0.0
 40
3.6
  1
3
  0
LINE
  5
39E
  8
回91-枠英2
 10
629.185142921226
 20
368.7397041050472
 30
0.0
 11
624.685142921226
 21
368.7397041050472
 31
0.0
  0
TEXT
  5
39F
  8
回91-枠英2
 10
625.6070573236943
 20
332.0995226713203
 30
0.0
 40
3.6
  1
4
  0
LINE
  5
3A0
  8
回91-枠英2
 10
692.185142921226
 20
230.1397041050473
 30
0.0
 11
692.185142921226
 21
225.6397041050473
 31
0.0
  0
TEXT
  5
3A1
  8
回91-枠英2
 10
659.5415896963132
 20
225.974884918493
 30
0.0
 40
3.6
  1
A
  0
LINE
  5
3A2
  8
回91-枠英2
 10
629.185142921226
 20
299.439704105047
 30
0.0
 11
624.685142921226
 21
299.439704105047
 31
0.0
  0
TEXT
  5
3A3
  8
回91-枠英2
 10
625.6070573236943
 20
262.7995226713206
 30
0.0
 40
3.6
  1
5
  0
LINE
  5
3A4
  8
回91-枠英2
 10
624.685142921226
 20
225.6397041050473
 30
0.0
 11
624.685142921226
 21
581.1397041050472
 31
0.0
  0
LINE
  5
3A5
  8
回91-枠英2
 10
629.185142921226
 20
576.6397041050472
 30
0.0
 11
629.185142921226
 21
230.1397041050473
 31
0.0
  0
LINE
  5
3A6
  8
回91-枠英2
 10
629.185142921226
 20
230.1397041050473
 30
0.0
 11
1133.185142921226
 21
230.1397041050473
 31
0.0
  0
LINE
  5
3A7
  8
回91-枠英2
 10
1137.685142921226
 20
225.6397041050473
 30
0.0
 11
624.685142921226
 21
225.6397041050473
 31
0.0
  0
LINE
  5
3A8
  8
回91-枠英2
 10
1137.685142921226
 20
581.1397041050472
 30
0.0
 11
624.685142921226
 21
581.1397041050472
 31
0.0
  0
LINE
  5
3A9
  8
回91-枠英2
 10
629.185142921226
 20
576.6397041050472
 30
0.0
 11
1133.185142921226
 21
576.6397041050472
 31
0.0
  0
LINE
  5
3AA
  8
回91-枠英2
 10
993.185142921226
 20
240.1397041050473
 30
0.0
 11
1133.185142921226
 21
240.1397041050473
 31
0.0
  0
LINE
  5
3AB
  8
回91-枠英2
 10
993.185142921226
 20
260.1397041050473
 30
0.0
 11
1133.185142921226
 21
260.1397041050473
 31
0.0
  0
LINE
  5
3AC
  8
回91-枠英2
 10
993.185142921226
 20
255.1397041050473
 30
0.0
 11
1133.185142921226
 21
255.1397041050473
 31
0.0
  0
ENDSEC
  0
EOF
