  0
SECTION
  2
HEADER
  9
$ACADVER
  1
AC1009
  9
$INSBASE
 10
0.0
 20
0.0
 30
0.0
  9
$EXTMIN
 10
619.9333756961041
 20
-513.0097667544024
 30
0.0
  9
$EXTMAX
 10
2802.257233667032
 20
603.220088504634
 30
0.0
  9
$LIMMIN
 10
0.0
 20
0.0
  9
$LIMMAX
 10
3000.0
 20
2500.0
  9
$ORTHOMODE
 70
     0
  9
$REGENMODE
 70
     1
  9
$FILLMODE
 70
     1
  9
$QTEXTMODE
 70
     0
  9
$MIRRTEXT
 70
     1
  9
$DRAGMODE
 70
     2
  9
$LTSCALE
 40
0.5
  9
$OSMODE
 70
    37
  9
$ATTMODE
 70
     1
  9
$TEXTSIZE
 40
3.0
  9
$TRACEWID
 40
1.0
  9
$TEXTSTYLE
  7
STANDARD
  9
$CLAYER
  8
回08-記事
  9
$CELTYPE
  6
CONTINUOUS
  9
$CECOLOR
 62
     7
  9
$DIMSCALE
 40
1.0
  9
$DIMASZ
 40
2.0
  9
$DIMEXO
 40
0.0
  9
$DIMDLI
 40
0.0
  9
$DIMRND
 40
0.0
  9
$DIMDLE
 40
0.0
  9
$DIMEXE
 40
1.0
  9
$DIMTP
 40
0.0
  9
$DIMTM
 40
0.0
  9
$DIMTXT
 40
3.0
  9
$DIMCEN
 40
2.0
  9
$DIMTSZ
 40
0.0
  9
$DIMTOL
 70
     0
  9
$DIMLIM
 70
     0
  9
$DIMTIH
 70
     0
  9
$DIMTOH
 70
     0
  9
$DIMSE1
 70
     0
  9
$DIMSE2
 70
     0
  9
$DIMTAD
 70
     3
  9
$DIMZIN
 70
     8
  9
$DIMBLK
  1
OPEN
  9
$DIMASO
 70
     1
  9
$DIMSHO
 70
     1
  9
$DIMPOST
  1

  9
$DIMAPOST
  1

  9
$DIMALT
 70
     1
  9
$DIMALTD
 70
     3
  9
$DIMALTF
 40
0.03937007874016
  9
$DIMLFAC
 40
1.0
  9
$DIMTOFL
 70
     1
  9
$DIMTVP
 40
0.0
  9
$DIMTIX
 70
     0
  9
$DIMSOXD
 70
     0
  9
$DIMSAH
 70
     0
  9
$DIMBLK1
  1

  9
$DIMBLK2
  1

  9
$DIMSTYLE
  2
DMC
  9
$DIMCLRD
 70
     5
  9
$DIMCLRE
 70
     5
  9
$DIMCLRT
 70
     5
  9
$DIMTFAC
 40
0.7
  9
$DIMGAP
 40
0.5
  9
$LUNITS
 70
     2
  9
$LUPREC
 70
     4
  9
$SKETCHINC
 40
1.0
  9
$FILLETRAD
 40
0.0
  9
$AUNITS
 70
     0
  9
$AUPREC
 70
     0
  9
$MENU
  1
.
  9
$ELEVATION
 40
0.0
  9
$PELEVATION
 40
0.0
  9
$THICKNESS
 40
0.0
  9
$LIMCHECK
 70
     0
  9
$BLIPMODE
 70
     0
  9
$CHAMFERA
 40
1.0
  9
$CHAMFERB
 40
1.0
  9
$SKPOLY
 70
     0
  9
$TDCREATE
 40
2451810.404221065
  9
$TDUPDATE
 40
2460224.583795463
  9
$TDINDWG
 40
3.807564317
  9
$TDUSRTIMER
 40
3.807563623
  9
$USRTIMER
 70
     1
  9
$ANGBASE
 50
0.0
  9
$ANGDIR
 70
     0
  9
$PDMODE
 70
     0
  9
$PDSIZE
 40
0.0
  9
$PLINEWID
 40
0.2
  9
$COORDS
 70
     0
  9
$SPLFRAME
 70
     0
  9
$SPLINETYPE
 70
     6
  9
$SPLINESEGS
 70
     8
  9
$ATTDIA
 70
     1
  9
$ATTREQ
 70
     1
  9
$HANDLING
 70
     1
  9
$HANDSEED
  5
4E8
  9
$SURFTAB1
 70
     6
  9
$SURFTAB2
 70
     6
  9
$SURFTYPE
 70
     6
  9
$SURFU
 70
     6
  9
$SURFV
 70
     6
  9
$UCSNAME
  2

  9
$UCSORG
 10
0.0
 20
0.0
 30
0.0
  9
$UCSXDIR
 10
1.0
 20
0.0
 30
0.0
  9
$UCSYDIR
 10
0.0
 20
1.0
 30
0.0
  9
$PUCSNAME
  2

  9
$PUCSORG
 10
0.0
 20
0.0
 30
0.0
  9
$PUCSXDIR
 10
1.0
 20
0.0
 30
0.0
  9
$PUCSYDIR
 10
0.0
 20
1.0
 30
0.0
  9
$USERI1
 70
     0
  9
$USERI2
 70
     0
  9
$USERI3
 70
     0
  9
$USERI4
 70
     0
  9
$USERI5
 70
     0
  9
$USERR1
 40
0.0
  9
$USERR2
 40
0.0
  9
$USERR3
 40
0.0
  9
$USERR4
 40
0.0
  9
$USERR5
 40
0.0
  9
$WORLDVIEW
 70
     1
  9
$SHADEDGE
 70
     3
  9
$SHADEDIF
 70
    70
  9
$TILEMODE
 70
     1
  9
$MAXACTVP
 70
    64
  9
$PLIMCHECK
 70
     0
  9
$PEXTMIN
 10
1.000000000000000E+20
 20
1.000000000000000E+20
 30
1.000000000000000E+20
  9
$PEXTMAX
 10
-1.000000000000000E+20
 20
-1.000000000000000E+20
 30
-1.000000000000000E+20
  9
$PLIMMIN
 10
0.0
 20
0.0
  9
$PLIMMAX
 10
420.0
 20
297.0
  9
$UNITMODE
 70
     0
  9
$VISRETAIN
 70
     1
  9
$PLINEGEN
 70
     0
  9
$PSLTSCALE
 70
     1
  0
ENDSEC
  0
SECTION
  2
TABLES
  0
TABLE
  2
VPORT
 70
     1
  0
VPORT
  2
*ACTIVE
 70
     0
 10
0.0
 20
0.0
 11
1.0
 21
1.0
 12
1629.748368351967
 22
395.8697787042516
 13
0.0
 23
0.0
 14
10.0
 24
10.0
 15
10.0
 25
10.0
 16
0.0
 26
0.0
 36
1.0
 17
0.0
 27
0.0
 37
0.0
 40
583.4013534339024
 41
2.216284987277353
 42
50.0
 43
0.0
 44
0.0
 50
0.0
 51
0.0
 71
     0
 72
   500
 73
     1
 74
     1
 75
     0
 76
     0
 77
     0
 78
     0
  0
ENDTAB
  0
TABLE
  2
LTYPE
 70
     3
  0
LTYPE
  2
CONTINUOUS
 70
     0
  3
Solid line
 72
    65
 73
     0
 40
0.0
  0
LTYPE
  2
DASHED2
 70
     0
  3
Dashed (.5x) _ _ _ _ _ _ _ _ _ _ _ _ _ _ _ _ _
 72
    65
 73
     2
 40
9.524999999999998
 49
6.349999999999999
 49
-3.174999999999999
  0
LTYPE
  2
CENTER2
 70
     0
  3
Center (.5x) ___ _ ___ _ ___ _ ___ _ ___ _ ___
 72
    65
 73
     4
 40
28.575
 49
19.05
 49
-3.174999999999999
 49
3.174999999999999
 49
-3.174999999999999
  0
ENDTAB
  0
TABLE
  2
LAYER
 70
     9
  0
LAYER
  2
0
 70
     0
 62
     7
  6
CONTINUOUS
  0
LAYER
  2
DEFPOINTS
 70
     0
 62
     7
  6
CONTINUOUS
  0
LAYER
  2
回04-下接
 70
     0
 62
     7
  6
CONTINUOUS
  0
LAYER
  2
回08-記事
 70
     0
 62
     7
  6
CONTINUOUS
  0
LAYER
  2
ACC
 70
     0
 62
     7
  6
CONTINUOUS
  0
LAYER
  2
回05-ﾃｰﾙ
 70
     0
 62
     7
  6
CONTINUOUS
  0
LAYER
  2
回07-寸法
 70
     0
 62
     7
  6
CONTINUOUS
  0
LAYER
  2
回91-枠英2
 70
     0
 62
     7
  6
CONTINUOUS
  0
LAYER
  2
回03-記事
 70
     0
 62
     7
  6
CONTINUOUS
  0
ENDTAB
  0
TABLE
  2
STYLE
 70
     1
  0
STYLE
  2
STANDARD
 70
     0
 40
3.0
 41
1.0
 50
0.0
 71
     0
 42
3.0
  3
isocp.shx
  4
bigfont.shx
  0
ENDTAB
  0
TABLE
  2
VIEW
 70
     0
  0
ENDTAB
  0
TABLE
  2
UCS
 70
     0
  0
ENDTAB
  0
TABLE
  2
APPID
 70
     3
  0
APPID
  2
ACAD
 70
     0
  0
APPID
  2
ACAECLAYERSTANDARD
 70
     0
  0
APPID
  2
ACAD_NAV_VCDISPLAY
 70
     0
  0
ENDTAB
  0
TABLE
  2
DIMSTYLE
 70
     1
  0
DIMSTYLE
  2
DMC
 70
     0
  3

  4

  5
OPEN
  6

  7

 40
1.0
 41
2.0
 42
0.0
 43
0.0
 44
1.0
 45
0.0
 46
0.0
 47
0.0
 48
0.0
140
3.0
141
2.0
142
0.0
143
0.03937007874016
144
1.0
145
0.0
146
0.7
147
0.5
 71
     0
 72
     0
 73
     0
 74
     0
 75
     0
 76
     0
 77
     3
 78
     8
170
     0
171
     3
172
     1
173
     0
174
     0
175
     0
176
     5
177
     5
178
     5
  0
ENDTAB
  0
ENDSEC
  0
SECTION
  2
BLOCKS
  0
BLOCK
  8
0
  2
$MODEL_SPACE
 70
     0
 10
0.0
 20
0.0
 30
0.0
  3
$MODEL_SPACE
  1

  0
ENDBLK
  8
0
  5
20
  0
BLOCK
 67
     1
  8
0
  2
$PAPER_SPACE
 70
     0
 10
0.0
 20
0.0
 30
0.0
  3
$PAPER_SPACE
  1

  0
ENDBLK
  5
25
 67
     1
  8
0
  0
BLOCK
  8
0
  2
_OPEN
 70
     0
 10
0.0
 20
0.0
 30
0.0
  3
_OPEN
  1

  0
LINE
  5
14
  8
0
  6
CONTINUOUS
 62
     0
 10
-1.0
 20
0.1666666666666666
 30
0.0
 11
0.0
 21
0.0
 31
0.0
  0
LINE
  5
15
  8
0
  6
CONTINUOUS
 62
     0
 10
-1.0
 20
-0.1666666666666666
 30
0.0
 11
0.0
 21
0.0
 31
0.0
  0
LINE
  5
16
  8
0
  6
CONTINUOUS
 62
     0
 10
0.0
 20
0.0
 30
0.0
 11
-1.0
 21
0.0
 31
0.0
  0
ENDBLK
  5
17
  8
0
  0
BLOCK
  8
0
  2
*D1
 70
     1
 10
0.0
 20
0.0
 30
0.0
  3
*D1
  1

  0
LINE
  5
2A1
  8
回07-寸法
  6
CONTINUOUS
 62
     5
 10
1676.154243803643
 20
307.9258567420577
 30
0.0
 11
1690.150065627192
 21
307.9258567420577
 31
0.0
  0
LINE
  5
2A2
  8
回07-寸法
  6
CONTINUOUS
 62
     5
 10
1675.481502115506
 20
313.4258567420577
 30
0.0
 11
1690.150065627192
 21
313.4258567420577
 31
0.0
  0
LINE
  5
2A3
  8
回07-寸法
  6
CONTINUOUS
 62
     5
 10
1689.150065627192
 20
315.4258567420577
 30
0.0
 11
1689.150065627192
 21
317.4258567420576
 31
0.0
  0
LINE
  5
2A4
  8
回07-寸法
  6
CONTINUOUS
 62
     5
 10
1689.150065627192
 20
305.9258567420577
 30
0.0
 11
1689.150065627192
 21
274.1385226482133
 31
0.0
  0
LINE
  5
2A5
  8
回07-寸法
  6
CONTINUOUS
 62
     5
 10
1689.150065627192
 20
313.4258567420577
 30
0.0
 11
1689.150065627192
 21
307.9258567420577
 31
0.0
  0
INSERT
  5
2A6
  8
回07-寸法
  6
CONTINUOUS
 62
     5
 66
     1
  2
_OPEN
 10
1689.150065627192
 20
313.4258567420577
 30
0.0
 41
2.0
 42
2.0
 43
2.0
 50
270.0
  0
SEQEND
  5
2A7
  8
回08-記事
  6
CONTINUOUS
 62
     7
  0
INSERT
  5
2A8
  8
回07-寸法
  6
CONTINUOUS
 62
     5
 66
     1
  2
_OPEN
 10
1689.150065627192
 20
307.9258567420577
 30
0.0
 41
2.0
 42
2.0
 43
2.0
 50
90.0
  0
SEQEND
  5
2A9
  8
回08-記事
  6
CONTINUOUS
 62
     7
  0
INSERT
  5
2AA
  8
回07-寸法
  6
CONTINUOUS
 62
     5
 66
     1
  2
*X47
 10
0.0
 20
0.0
 30
0.0
  0
SEQEND
  5
48C
  8
回08-記事
  6
CONTINUOUS
 62
     7
  0
POINT
  5
2AB
  8
DEFPOINTS
  6
CONTINUOUS
 62
     0
 10
1676.154243803643
 20
307.9258567420577
 30
0.0
  0
POINT
  5
2AC
  8
DEFPOINTS
  6
CONTINUOUS
 62
     0
 10
1675.481502115506
 20
313.4258567420577
 30
0.0
  0
POINT
  5
2AD
  8
DEFPOINTS
  6
CONTINUOUS
 62
     0
 10
1689.150065627192
 20
313.4258567420577
 30
0.0
  0
ENDBLK
  5
2AE
  8
0
 62
     7
  0
BLOCK
  8
0
  2
*D2
 70
     1
 10
0.0
 20
0.0
 30
0.0
  3
*D2
  1

  0
LINE
  5
28F
  8
回07-寸法
  6
CONTINUOUS
 62
     5
 10
1417.454243803643
 20
310.9258567420576
 30
0.0
 11
1406.977154686463
 21
310.9258567420576
 31
0.0
  0
LINE
  5
290
  8
回07-寸法
  6
CONTINUOUS
 62
     5
 10
1417.454243803643
 20
313.4258567420577
 30
0.0
 11
1406.977154686463
 21
313.4258567420577
 31
0.0
  0
LINE
  5
291
  8
回07-寸法
  6
CONTINUOUS
 62
     5
 10
1407.977154686463
 20
308.9258567420576
 30
0.0
 11
1407.977154686463
 21
306.9258567420576
 31
0.0
  0
LINE
  5
292
  8
回07-寸法
  6
CONTINUOUS
 62
     5
 10
1407.977154686463
 20
315.4258567420576
 30
0.0
 11
1407.977154686463
 21
347.5289089467821
 31
0.0
  0
LINE
  5
293
  8
回07-寸法
  6
CONTINUOUS
 62
     5
 10
1407.977154686463
 20
310.9258567420576
 30
0.0
 11
1407.977154686463
 21
313.4258567420576
 31
0.0
  0
INSERT
  5
294
  8
回07-寸法
  6
CONTINUOUS
 62
     5
 66
     1
  2
_OPEN
 10
1407.977154686463
 20
310.9258567420576
 30
0.0
 41
2.0
 42
2.0
 43
2.0
 50
90.0
  0
SEQEND
  5
295
  8
回08-記事
  6
CONTINUOUS
 62
     7
  0
INSERT
  5
296
  8
回07-寸法
  6
CONTINUOUS
 62
     5
 66
     1
  2
_OPEN
 10
1407.977154686463
 20
313.4258567420576
 30
0.0
 41
2.0
 42
2.0
 43
2.0
 50
270.0
  0
SEQEND
  5
297
  8
回08-記事
  6
CONTINUOUS
 62
     7
  0
INSERT
  5
298
  8
回07-寸法
  6
CONTINUOUS
 62
     5
 66
     1
  2
*X48
 10
0.0
 20
0.0
 30
0.0
  0
SEQEND
  5
495
  8
回08-記事
  6
CONTINUOUS
 62
     7
  0
POINT
  5
299
  8
DEFPOINTS
  6
CONTINUOUS
 62
     0
 10
1417.454243803643
 20
310.9258567420576
 30
0.0
  0
POINT
  5
29A
  8
DEFPOINTS
  6
CONTINUOUS
 62
     0
 10
1417.454243803643
 20
313.4258567420577
 30
0.0
  0
POINT
  5
29B
  8
DEFPOINTS
  6
CONTINUOUS
 62
     0
 10
1407.977154686463
 20
313.4258567420576
 30
0.0
  0
ENDBLK
  5
29C
  8
0
 62
     7
  0
BLOCK
  8
0
  2
*D3
 70
     1
 10
0.0
 20
0.0
 30
0.0
  3
*D3
  1

  0
LINE
  5
27E
  8
回07-寸法
  6
CONTINUOUS
 62
     5
 10
1427.454243803643
 20
313.4258567420575
 30
0.0
 11
1427.454243803643
 21
326.2746865583158
 31
0.0
  0
LINE
  5
27F
  8
回07-寸法
  6
CONTINUOUS
 62
     5
 10
1417.454243803643
 20
313.4258567420575
 30
0.0
 11
1417.454243803643
 21
326.2746865583158
 31
0.0
  0
LINE
  5
280
  8
回07-寸法
  6
CONTINUOUS
 62
     5
 10
1415.454243803643
 20
325.2746865583158
 30
0.0
 11
1413.454243803642
 21
325.2746865583158
 31
0.0
  0
LINE
  5
281
  8
回07-寸法
  6
CONTINUOUS
 62
     5
 10
1429.454243803643
 20
325.2746865583158
 30
0.0
 11
1451.362364590401
 21
325.2746865583158
 31
0.0
  0
LINE
  5
282
  8
回07-寸法
  6
CONTINUOUS
 62
     5
 10
1417.454243803643
 20
325.2746865583158
 30
0.0
 11
1427.454243803643
 21
325.2746865583158
 31
0.0
  0
INSERT
  5
283
  8
回07-寸法
  6
CONTINUOUS
 62
     5
 66
     1
  2
_OPEN
 10
1417.454243803643
 20
325.2746865583158
 30
0.0
 41
2.0
 42
2.0
 43
2.0
  0
SEQEND
  5
284
  8
回08-記事
  6
CONTINUOUS
 62
     7
  0
INSERT
  5
285
  8
回07-寸法
  6
CONTINUOUS
 62
     5
 66
     1
  2
_OPEN
 10
1427.454243803643
 20
325.2746865583158
 30
0.0
 41
2.0
 42
2.0
 43
2.0
 50
180.0
  0
SEQEND
  5
286
  8
回08-記事
  6
CONTINUOUS
 62
     7
  0
TEXT
  5
287
  8
回07-寸法
  6
CONTINUOUS
 62
     5
 10
1431.502888644232
 20
325.9246266522135
 30
0.0
 40
3.0
  1
(10 [0.394])
1001
ACAD
1000
MTEXTBEGIN
1070
    73
1070
     1
1070
    44
1040
1.0
1070
    74
1070
     0
1000
MTEXTEND
  0
POINT
  5
288
  8
DEFPOINTS
  6
CONTINUOUS
 62
     0
 10
1427.454243803643
 20
313.4258567420575
 30
0.0
  0
POINT
  5
289
  8
DEFPOINTS
  6
CONTINUOUS
 62
     0
 10
1417.454243803643
 20
313.4258567420575
 30
0.0
  0
POINT
  5
28A
  8
DEFPOINTS
  6
CONTINUOUS
 62
     0
 10
1417.454243803643
 20
325.2746865583158
 30
0.0
  0
ENDBLK
  5
28B
  8
0
 62
     7
  0
BLOCK
  8
0
  2
*D4
 70
     1
 10
0.0
 20
0.0
 30
0.0
  3
*D4
  1

  0
LINE
  5
26D
  8
回07-寸法
  6
CONTINUOUS
 62
     5
 10
1422.454243803643
 20
309.9258567420575
 30
0.0
 11
1422.454243803643
 21
300.5965510187048
 31
0.0
  0
LINE
  5
26E
  8
回07-寸法
  6
CONTINUOUS
 62
     5
 10
1417.454243803643
 20
310.9258567420575
 30
0.0
 11
1417.454243803643
 21
300.5965510187048
 31
0.0
  0
LINE
  5
26F
  8
回07-寸法
  6
CONTINUOUS
 62
     5
 10
1415.454243803643
 20
301.5965510187048
 30
0.0
 11
1413.454243803642
 21
301.5965510187048
 31
0.0
  0
LINE
  5
270
  8
回07-寸法
  6
CONTINUOUS
 62
     5
 10
1424.454243803643
 20
301.5965510187048
 30
0.0
 11
1441.564726795125
 21
301.5965510187048
 31
0.0
  0
LINE
  5
271
  8
回07-寸法
  6
CONTINUOUS
 62
     5
 10
1417.454243803643
 20
301.5965510187048
 30
0.0
 11
1422.454243803643
 21
301.5965510187048
 31
0.0
  0
INSERT
  5
272
  8
回07-寸法
  6
CONTINUOUS
 62
     5
 66
     1
  2
_OPEN
 10
1417.454243803643
 20
301.5965510187048
 30
0.0
 41
2.0
 42
2.0
 43
2.0
  0
SEQEND
  5
273
  8
回08-記事
  6
CONTINUOUS
 62
     7
  0
INSERT
  5
274
  8
回07-寸法
  6
CONTINUOUS
 62
     5
 66
     1
  2
_OPEN
 10
1422.454243803643
 20
301.5965510187048
 30
0.0
 41
2.0
 42
2.0
 43
2.0
 50
180.0
  0
SEQEND
  5
275
  8
回08-記事
  6
CONTINUOUS
 62
     7
  0
TEXT
  5
276
  8
回07-寸法
  6
CONTINUOUS
 62
     5
 10
1426.504069746594
 20
302.2464911126024
 30
0.0
 40
3.0
  1
5 [0.197]
1001
ACAD
1000
MTEXTBEGIN
1070
    73
1070
     1
1070
    44
1040
1.0
1070
    74
1070
     0
1000
MTEXTEND
  0
POINT
  5
277
  8
DEFPOINTS
  6
CONTINUOUS
 62
     0
 10
1422.454243803643
 20
309.9258567420575
 30
0.0
  0
POINT
  5
278
  8
DEFPOINTS
  6
CONTINUOUS
 62
     0
 10
1417.454243803643
 20
310.9258567420575
 30
0.0
  0
POINT
  5
279
  8
DEFPOINTS
  6
CONTINUOUS
 62
     0
 10
1417.454243803643
 20
301.5965510187048
 30
0.0
  0
ENDBLK
  5
27A
  8
0
 62
     7
  0
BLOCK
  8
0
  2
*D5
 70
     1
 10
0.0
 20
0.0
 30
0.0
  3
*D5
  1

  0
LINE
  5
24D
  8
回07-寸法
  6
CONTINUOUS
 62
     5
 10
1492.454243803643
 20
491.8114533055566
 30
0.0
 11
1406.572499184042
 21
491.8114533055566
 31
0.0
  0
LINE
  5
24E
  8
回07-寸法
  6
CONTINUOUS
 62
     5
 10
1419.198153751272
 20
421.2614533055567
 30
0.0
 11
1406.572499184042
 21
421.2614533055567
 31
0.0
  0
LINE
  5
24F
  8
回07-寸法
  6
CONTINUOUS
 62
     5
 10
1407.572499184042
 20
489.8114533055566
 30
0.0
 11
1407.572499184042
 21
423.2614533055566
 31
0.0
  0
INSERT
  5
250
  8
回07-寸法
  6
CONTINUOUS
 62
     5
 66
     1
  2
_OPEN
 10
1407.572499184042
 20
491.8114533055566
 30
0.0
 41
2.0
 42
2.0
 43
2.0
 50
90.0
  0
SEQEND
  5
251
  8
回08-記事
  6
CONTINUOUS
 62
     7
  0
INSERT
  5
252
  8
回07-寸法
  6
CONTINUOUS
 62
     5
 66
     1
  2
_OPEN
 10
1407.572499184042
 20
421.2614533055566
 30
0.0
 41
2.0
 42
2.0
 43
2.0
 50
270.0
  0
SEQEND
  5
253
  8
回08-記事
  6
CONTINUOUS
 62
     7
  0
TEXT
  5
254
  8
回07-寸法
  6
CONTINUOUS
 62
     5
 10
1406.922499184042
 20
443.9364533055561
 30
0.0
 40
3.0
  1
(70.55 [2.778])
 50
90.0
1001
ACAD
1000
MTEXTBEGIN
1070
    73
1070
     1
1070
    44
1040
1.0
1070
    74
1070
     0
1000
MTEXTEND
  0
POINT
  5
255
  8
DEFPOINTS
  6
CONTINUOUS
 62
     0
 10
1492.454243803643
 20
491.8114533055566
 30
0.0
  0
POINT
  5
256
  8
DEFPOINTS
  6
CONTINUOUS
 62
     0
 10
1419.198153751272
 20
421.2614533055567
 30
0.0
  0
POINT
  5
257
  8
DEFPOINTS
  6
CONTINUOUS
 62
     0
 10
1407.572499184042
 20
421.2614533055566
 30
0.0
  0
ENDBLK
  5
258
  8
0
 62
     7
  0
BLOCK
  8
0
  2
*D6
 70
     1
 10
0.0
 20
0.0
 30
0.0
  3
*D6
  1

  0
LINE
  5
23A
  8
回07-寸法
  6
CONTINUOUS
 62
     5
 10
1492.454243803643
 20
310.9258567420575
 30
0.0
 11
1492.454243803643
 21
323.6170161406456
 31
0.0
  0
LINE
  5
23B
  8
回07-寸法
  6
CONTINUOUS
 62
     5
 10
1492.954243803643
 20
313.4258567420575
 30
0.0
 11
1492.954243803643
 21
323.6170161406456
 31
0.0
  0
LINE
  5
23C
  8
回07-寸法
  6
CONTINUOUS
 62
     5
 10
1490.454243803643
 20
322.6170161406456
 30
0.0
 11
1488.454243803643
 21
322.6170161406456
 31
0.0
  0
LINE
  5
23D
  8
回07-寸法
  6
CONTINUOUS
 62
     5
 10
1494.954243803643
 20
322.6170161406456
 30
0.0
 11
1518.051881598918
 21
322.6170161406456
 31
0.0
  0
LINE
  5
23E
  8
回07-寸法
  6
CONTINUOUS
 62
     5
 10
1492.454243803643
 20
322.6170161406456
 30
0.0
 11
1492.954243803643
 21
322.6170161406456
 31
0.0
  0
INSERT
  5
23F
  8
回07-寸法
  6
CONTINUOUS
 62
     5
 66
     1
  2
_OPEN
 10
1492.454243803643
 20
322.6170161406456
 30
0.0
 41
2.0
 42
2.0
 43
2.0
  0
SEQEND
  5
240
  8
回08-記事
  6
CONTINUOUS
 62
     7
  0
INSERT
  5
241
  8
回07-寸法
  6
CONTINUOUS
 62
     5
 66
     1
  2
_OPEN
 10
1492.954243803643
 20
322.6170161406456
 30
0.0
 41
2.0
 42
2.0
 43
2.0
 50
180.0
  0
SEQEND
  5
242
  8
回08-記事
  6
CONTINUOUS
 62
     7
  0
TEXT
  5
243
  8
回07-寸法
  6
CONTINUOUS
 62
     5
 10
1497.003062701281
 20
323.2670161406456
 30
0.0
 40
3.0
  1
(0.5 [0.020])
1001
ACAD
1000
MTEXTBEGIN
1070
    73
1070
     1
1070
    44
1040
1.0
1070
    74
1070
     0
1000
MTEXTEND
  0
POINT
  5
244
  8
DEFPOINTS
  6
CONTINUOUS
 62
     0
 10
1492.454243803643
 20
310.9258567420575
 30
0.0
  0
POINT
  5
245
  8
DEFPOINTS
  6
CONTINUOUS
 62
     0
 10
1492.954243803643
 20
313.4258567420575
 30
0.0
  0
POINT
  5
246
  8
DEFPOINTS
  6
CONTINUOUS
 62
     0
 10
1492.954243803643
 20
322.6170161406456
 30
0.0
  0
ENDBLK
  5
247
  8
0
 62
     7
  0
BLOCK
  8
0
  2
*D7
 70
     1
 10
0.0
 20
0.0
 30
0.0
  3
*D7
  1

  0
LINE
  5
229
  8
回07-寸法
  6
CONTINUOUS
 62
     5
 10
1676.154243803642
 20
310.9258567420575
 30
0.0
 11
1676.154243803642
 21
323.6170161406456
 31
0.0
  0
LINE
  5
22A
  8
回07-寸法
  6
CONTINUOUS
 62
     5
 10
1675.654243803642
 20
313.4258567420575
 30
0.0
 11
1675.654243803642
 21
323.6170161406456
 31
0.0
  0
LINE
  5
22B
  8
回07-寸法
  6
CONTINUOUS
 62
     5
 10
1678.154243803643
 20
322.6170161406456
 30
0.0
 11
1680.154243803643
 21
322.6170161406456
 31
0.0
  0
LINE
  5
22C
  8
回07-寸法
  6
CONTINUOUS
 62
     5
 10
1673.654243803643
 20
322.6170161406456
 30
0.0
 11
1650.556606008367
 21
322.6170161406456
 31
0.0
  0
LINE
  5
22D
  8
回07-寸法
  6
CONTINUOUS
 62
     5
 10
1676.154243803642
 20
322.6170161406456
 30
0.0
 11
1675.654243803642
 21
322.6170161406456
 31
0.0
  0
INSERT
  5
22E
  8
回07-寸法
  6
CONTINUOUS
 62
     5
 66
     1
  2
_OPEN
 10
1676.154243803642
 20
322.6170161406456
 30
0.0
 41
2.0
 42
2.0
 43
2.0
 50
180.0
  0
SEQEND
  5
22F
  8
回08-記事
  6
CONTINUOUS
 62
     7
  0
INSERT
  5
230
  8
回07-寸法
  6
CONTINUOUS
 62
     5
 66
     1
  2
_OPEN
 10
1675.654243803642
 20
322.6170161406456
 30
0.0
 41
2.0
 42
2.0
 43
2.0
  0
SEQEND
  5
231
  8
回08-記事
  6
CONTINUOUS
 62
     7
  0
TEXT
  5
232
  8
回07-寸法
  6
CONTINUOUS
 62
     5
 10
1650.605424906005
 20
323.2670161406456
 30
0.0
 40
3.0
  1
(0.5 [0.020])
1001
ACAD
1000
MTEXTBEGIN
1070
    73
1070
     1
1070
    44
1040
1.0
1070
    74
1070
     0
1000
MTEXTEND
  0
POINT
  5
233
  8
DEFPOINTS
  6
CONTINUOUS
 62
     0
 10
1676.154243803642
 20
310.9258567420575
 30
0.0
  0
POINT
  5
234
  8
DEFPOINTS
  6
CONTINUOUS
 62
     0
 10
1675.654243803642
 20
313.4258567420575
 30
0.0
  0
POINT
  5
235
  8
DEFPOINTS
  6
CONTINUOUS
 62
     0
 10
1675.654243803642
 20
322.6170161406456
 30
0.0
  0
ENDBLK
  5
236
  8
0
 62
     7
  0
BLOCK
  8
0
  2
*D8
 70
     1
 10
0.0
 20
0.0
 30
0.0
  3
*D8
  1

  0
LINE
  5
1FD
  8
回07-寸法
  6
CONTINUOUS
 62
     5
 10
1417.954243803643
 20
418.7614533055564
 30
0.0
 11
1401.67595968806
 21
418.7614533055564
 31
0.0
  0
LINE
  5
1FE
  8
回07-寸法
  6
CONTINUOUS
 62
     5
 10
1417.954243803643
 20
423.7614533055567
 30
0.0
 11
1401.67595968806
 21
423.7614533055567
 31
0.0
  0
LINE
  5
1FF
  8
回07-寸法
  6
CONTINUOUS
 62
     5
 10
1402.67595968806
 20
425.7614533055566
 30
0.0
 11
1402.67595968806
 21
427.7614533055566
 31
0.0
  0
LINE
  5
200
  8
回07-寸法
  6
CONTINUOUS
 62
     5
 10
1402.67595968806
 20
416.7614533055564
 30
0.0
 11
1402.67595968806
 21
385.7909703140741
 31
0.0
  0
LINE
  5
201
  8
回07-寸法
  6
CONTINUOUS
 62
     5
 10
1402.67595968806
 20
423.7614533055566
 30
0.0
 11
1402.67595968806
 21
418.7614533055564
 31
0.0
  0
INSERT
  5
202
  8
回07-寸法
  6
CONTINUOUS
 62
     5
  2
_OPEN
 10
1402.67595968806
 20
423.7614533055566
 30
0.0
 41
2.0
 42
2.0
 43
2.0
 50
270.0
  0
INSERT
  5
203
  8
回07-寸法
  6
CONTINUOUS
 62
     5
  2
_OPEN
 10
1402.67595968806
 20
418.7614533055564
 30
0.0
 41
2.0
 42
2.0
 43
2.0
 50
90.0
  0
INSERT
  5
204
  8
回07-寸法
  6
CONTINUOUS
 62
     5
 66
     1
  2
*X49
 10
0.0
 20
0.0
 30
0.0
  0
SEQEND
  5
49E
  8
回08-記事
  6
CONTINUOUS
 62
     7
  0
POINT
  5
205
  8
DEFPOINTS
  6
CONTINUOUS
 62
     0
 10
1417.954243803643
 20
418.7614533055564
 30
0.0
  0
POINT
  5
206
  8
DEFPOINTS
  6
CONTINUOUS
 62
     0
 10
1417.954243803643
 20
423.7614533055567
 30
0.0
  0
POINT
  5
207
  8
DEFPOINTS
  6
CONTINUOUS
 62
     0
 10
1402.67595968806
 20
423.7614533055566
 30
0.0
  0
ENDBLK
  5
208
  8
0
 62
     7
  0
BLOCK
  8
0
  2
*D9
 70
     1
 10
0.0
 20
0.0
 30
0.0
  3
*D9
  1

  0
LINE
  5
1F0
  8
回07-寸法
  6
CONTINUOUS
 62
     5
 10
1417.454243803643
 20
423.2614533055564
 30
0.0
 11
1417.454243803643
 21
455.5515644457891
 31
0.0
  0
LINE
  5
1F1
  8
回07-寸法
  6
CONTINUOUS
 62
     5
 10
1492.454243803643
 20
429.938577650024
 30
0.0
 11
1492.454243803643
 21
455.5515644457891
 31
0.0
  0
LINE
  5
1F2
  8
回07-寸法
  6
CONTINUOUS
 62
     5
 10
1419.454243803643
 20
454.5515644457891
 30
0.0
 11
1490.454243803643
 21
454.5515644457891
 31
0.0
  0
INSERT
  5
1F3
  8
回07-寸法
  6
CONTINUOUS
 62
     5
  2
_OPEN
 10
1417.454243803643
 20
454.5515644457891
 30
0.0
 41
2.0
 42
2.0
 43
2.0
 50
180.0
  0
INSERT
  5
1F4
  8
回07-寸法
  6
CONTINUOUS
 62
     5
  2
_OPEN
 10
1492.454243803643
 20
454.5515644457891
 30
0.0
 41
2.0
 42
2.0
 43
2.0
  0
INSERT
  5
1F5
  8
回07-寸法
  6
CONTINUOUS
 62
     5
 66
     1
  2
*X50
 10
0.0
 20
0.0
 30
0.0
  0
SEQEND
  5
4A7
  8
回08-記事
  6
CONTINUOUS
 62
     7
  0
POINT
  5
1F6
  8
DEFPOINTS
  6
CONTINUOUS
 62
     0
 10
1417.454243803643
 20
423.2614533055564
 30
0.0
  0
POINT
  5
1F7
  8
DEFPOINTS
  6
CONTINUOUS
 62
     0
 10
1492.454243803643
 20
429.938577650024
 30
0.0
  0
POINT
  5
1F8
  8
DEFPOINTS
  6
CONTINUOUS
 62
     0
 10
1492.454243803643
 20
454.5515644457891
 30
0.0
  0
ENDBLK
  5
1F9
  8
0
 62
     7
  0
BLOCK
  8
0
  2
*D10
 70
     1
 10
0.0
 20
0.0
 30
0.0
  3
*D10
  1

  0
LINE
  5
1DF
  8
回07-寸法
  6
CONTINUOUS
 62
     5
 10
1492.454243803643
 20
412.584328961088
 30
0.0
 11
1492.454243803643
 21
398.2542735281786
 31
0.0
  0
LINE
  5
1E0
  8
回07-寸法
  6
CONTINUOUS
 62
     5
 10
1487.853466977167
 20
413.2614533055558
 30
0.0
 11
1487.853466977167
 21
398.2542735281786
 31
0.0
  0
LINE
  5
1E1
  8
回07-寸法
  6
CONTINUOUS
 62
     5
 10
1494.454243803643
 20
399.2542735281786
 30
0.0
 11
1496.454243803643
 21
399.2542735281786
 31
0.0
  0
LINE
  5
1E2
  8
回07-寸法
  6
CONTINUOUS
 62
     5
 10
1485.853466977167
 20
399.2542735281786
 30
0.0
 11
1461.851699190211
 21
399.2542735281786
 31
0.0
  0
LINE
  5
1E3
  8
回07-寸法
  6
CONTINUOUS
 62
     5
 10
1492.454243803643
 20
399.2542735281786
 30
0.0
 11
1487.853466977167
 21
399.2542735281786
 31
0.0
  0
INSERT
  5
1E4
  8
回07-寸法
  6
CONTINUOUS
 62
     5
 66
     1
  2
_OPEN
 10
1492.454243803643
 20
399.2542735281786
 30
0.0
 41
2.0
 42
2.0
 43
2.0
 50
180.0
  0
SEQEND
  5
1E5
  8
回08-記事
  6
CONTINUOUS
 62
     7
  0
INSERT
  5
1E6
  8
回07-寸法
  6
CONTINUOUS
 62
     5
 66
     1
  2
_OPEN
 10
1487.853466977167
 20
399.2542735281786
 30
0.0
 41
2.0
 42
2.0
 43
2.0
  0
SEQEND
  5
1E7
  8
回08-記事
  6
CONTINUOUS
 62
     7
  0
TEXT
  5
1E8
  8
回07-寸法
  6
CONTINUOUS
 62
     5
 10
1461.901699190211
 20
399.9042735281786
 30
0.0
 40
3.0
  1
4.6 [0.181]
1001
ACAD
1000
MTEXTBEGIN
1070
    73
1070
     1
1070
    44
1040
1.0
1070
    74
1070
     0
1000
MTEXTEND
  0
POINT
  5
1E9
  8
DEFPOINTS
  6
CONTINUOUS
 62
     0
 10
1492.454243803643
 20
412.584328961088
 30
0.0
  0
POINT
  5
1EA
  8
DEFPOINTS
  6
CONTINUOUS
 62
     0
 10
1487.853466977167
 20
413.2614533055558
 30
0.0
  0
POINT
  5
1EB
  8
DEFPOINTS
  6
CONTINUOUS
 62
     0
 10
1487.853466977167
 20
399.2542735281786
 30
0.0
  0
ENDBLK
  5
1EC
  8
0
 62
     7
  0
BLOCK
  8
0
  2
*D11
 70
     1
 10
0.0
 20
0.0
 30
0.0
  3
*D11
  1

  0
LINE
  5
1CE
  8
回07-寸法
  6
CONTINUOUS
 62
     5
 10
1492.454243803643
 20
412.584328961088
 30
0.0
 11
1492.454243803643
 21
392.3961668145967
 31
0.0
  0
LINE
  5
1CF
  8
回07-寸法
  6
CONTINUOUS
 62
     5
 10
1482.331011218507
 20
418.7614533055566
 30
0.0
 11
1482.331011218507
 21
392.3961668145967
 31
0.0
  0
LINE
  5
1D0
  8
回07-寸法
  6
CONTINUOUS
 62
     5
 10
1494.454243803643
 20
393.3961668145967
 30
0.0
 11
1496.454243803643
 21
393.3961668145967
 31
0.0
  0
LINE
  5
1D1
  8
回07-寸法
  6
CONTINUOUS
 62
     5
 10
1480.331011218507
 20
393.3961668145967
 30
0.0
 11
1456.610045235541
 21
393.3961668145967
 31
0.0
  0
LINE
  5
1D2
  8
回07-寸法
  6
CONTINUOUS
 62
     5
 10
1492.454243803643
 20
393.3961668145967
 30
0.0
 11
1482.331011218507
 21
393.3961668145967
 31
0.0
  0
INSERT
  5
1D3
  8
回07-寸法
  6
CONTINUOUS
 62
     5
 66
     1
  2
_OPEN
 10
1492.454243803643
 20
393.3961668145967
 30
0.0
 41
2.0
 42
2.0
 43
2.0
 50
180.0
  0
SEQEND
  5
1D4
  8
回08-記事
  6
CONTINUOUS
 62
     7
  0
INSERT
  5
1D5
  8
回07-寸法
  6
CONTINUOUS
 62
     5
 66
     1
  2
_OPEN
 10
1482.331011218507
 20
393.3961668145967
 30
0.0
 41
2.0
 42
2.0
 43
2.0
  0
SEQEND
  5
1D6
  8
回08-記事
  6
CONTINUOUS
 62
     7
  0
TEXT
  5
1D7
  8
回07-寸法
  6
CONTINUOUS
 62
     5
 10
1456.659697121443
 20
394.046047002392
 30
0.0
 40
3.0
  1
10.12 [0.399]
1001
ACAD
1000
MTEXTBEGIN
1070
    73
1070
     1
1070
    44
1040
1.0
1070
    74
1070
     0
1000
MTEXTEND
  0
POINT
  5
1D8
  8
DEFPOINTS
  6
CONTINUOUS
 62
     0
 10
1492.454243803643
 20
412.584328961088
 30
0.0
  0
POINT
  5
1D9
  8
DEFPOINTS
  6
CONTINUOUS
 62
     0
 10
1482.331011218507
 20
418.7614533055566
 30
0.0
  0
POINT
  5
1DA
  8
DEFPOINTS
  6
CONTINUOUS
 62
     0
 10
1482.331011218507
 20
393.3961668145967
 30
0.0
  0
ENDBLK
  5
1DB
  8
0
 62
     7
  0
BLOCK
  8
0
  2
*D12
 70
     1
 10
0.0
 20
0.0
 30
0.0
  3
*D12
  1

  0
LINE
  5
1BD
  8
回07-寸法
  6
CONTINUOUS
 62
     5
 10
1488.266487480983
 20
413.2614533055559
 30
0.0
 11
1468.3702036082
 21
413.2614533055559
 31
0.0
  0
LINE
  5
1BE
  8
回07-寸法
  6
CONTINUOUS
 62
     5
 10
1488.266487480983
 20
429.2614533055567
 30
0.0
 11
1468.3702036082
 21
429.2614533055567
 31
0.0
  0
LINE
  5
1BF
  8
回07-寸法
  6
CONTINUOUS
 62
     5
 10
1469.3702036082
 20
411.261453305556
 30
0.0
 11
1469.3702036082
 21
409.2614533055559
 31
0.0
  0
LINE
  5
1C0
  8
回07-寸法
  6
CONTINUOUS
 62
     5
 10
1469.3702036082
 20
431.2614533055566
 30
0.0
 11
1469.3702036082
 21
450.4614533055571
 31
0.0
  0
LINE
  5
1C1
  8
回07-寸法
  6
CONTINUOUS
 62
     5
 10
1469.3702036082
 20
413.2614533055559
 30
0.0
 11
1469.3702036082
 21
429.2614533055567
 31
0.0
  0
INSERT
  5
1C2
  8
回07-寸法
  6
CONTINUOUS
 62
     5
 66
     1
  2
_OPEN
 10
1469.3702036082
 20
413.2614533055559
 30
0.0
 41
2.0
 42
2.0
 43
2.0
 50
90.0
  0
SEQEND
  5
1C3
  8
回08-記事
  6
CONTINUOUS
 62
     7
  0
INSERT
  5
1C4
  8
回07-寸法
  6
CONTINUOUS
 62
     5
 66
     1
  2
_OPEN
 10
1469.3702036082
 20
429.2614533055567
 30
0.0
 41
2.0
 42
2.0
 43
2.0
 50
270.0
  0
SEQEND
  5
1C5
  8
回08-記事
  6
CONTINUOUS
 62
     7
  0
TEXT
  5
1C6
  8
回07-寸法
  6
CONTINUOUS
 62
     5
 10
1468.7202036082
 20
433.3114533055566
 30
0.0
 40
3.0
  1
16 [0.630]
 50
90.0
1001
ACAD
1000
MTEXTBEGIN
1070
    73
1070
     1
1070
    44
1040
1.0
1070
    74
1070
     0
1000
MTEXTEND
  0
POINT
  5
1C7
  8
DEFPOINTS
  6
CONTINUOUS
 62
     0
 10
1488.266487480983
 20
413.2614533055559
 30
0.0
  0
POINT
  5
1C8
  8
DEFPOINTS
  6
CONTINUOUS
 62
     0
 10
1488.266487480983
 20
429.2614533055567
 30
0.0
  0
POINT
  5
1C9
  8
DEFPOINTS
  6
CONTINUOUS
 62
     0
 10
1469.3702036082
 20
429.2614533055567
 30
0.0
  0
ENDBLK
  5
1CA
  8
0
 62
     7
  0
BLOCK
  8
0
  2
*D13
 70
     1
 10
0.0
 20
0.0
 30
0.0
  3
*D13
  1

  0
LINE
  5
1AA
  8
回07-寸法
  6
CONTINUOUS
 62
     5
 10
1499.104243803643
 20
485.1614533055564
 30
0.0
 11
1499.104243803643
 21
507.0358755337688
 31
0.0
  0
LINE
  5
1AB
  8
回07-寸法
  6
CONTINUOUS
 62
     5
 10
1669.504243803643
 20
485.1614533055564
 30
0.0
 11
1669.504243803643
 21
507.0358755337688
 31
0.0
  0
LINE
  5
1AC
  8
回07-寸法
  6
CONTINUOUS
 62
     5
 10
1501.104243803643
 20
506.0358755337687
 30
0.0
 11
1667.504243803642
 21
506.0358755337687
 31
0.0
  0
INSERT
  5
1AD
  8
回07-寸法
  6
CONTINUOUS
 62
     5
 66
     1
  2
_OPEN
 10
1499.104243803643
 20
506.0358755337687
 30
0.0
 41
2.0
 42
2.0
 43
2.0
 50
180.0
  0
SEQEND
  5
1AE
  8
回08-記事
  6
CONTINUOUS
 62
     7
  0
INSERT
  5
1AF
  8
回07-寸法
  6
CONTINUOUS
 62
     5
 66
     1
  2
_OPEN
 10
1669.504243803643
 20
506.0358755337687
 30
0.0
 41
2.0
 42
2.0
 43
2.0
  0
SEQEND
  5
1B0
  8
回08-記事
  6
CONTINUOUS
 62
     7
  0
TEXT
  5
1B1
  8
回07-寸法
  6
CONTINUOUS
 62
     5
 10
1560.299418802033
 20
506.6858156276664
 30
0.0
 40
3.0
  1
170.4 [6.709] (Active area)
1001
ACAD
1000
MTEXTBEGIN
1070
    73
1070
     1
1070
    44
1040
1.0
1070
    74
1070
     0
1000
MTEXTEND
  0
POINT
  5
1B2
  8
DEFPOINTS
  6
CONTINUOUS
 62
     0
 10
1499.104243803643
 20
485.1614533055564
 30
0.0
  0
POINT
  5
1B3
  8
DEFPOINTS
  6
CONTINUOUS
 62
     0
 10
1669.504243803643
 20
485.1614533055564
 30
0.0
  0
POINT
  5
1B4
  8
DEFPOINTS
  6
CONTINUOUS
 62
     0
 10
1669.504243803643
 20
506.0358755337687
 30
0.0
  0
ENDBLK
  5
1B5
  8
0
 62
     7
  0
BLOCK
  8
0
  2
*D14
 70
     1
 10
0.0
 20
0.0
 30
0.0
  3
*D14
  1

  0
LINE
  5
19B
  8
回07-寸法
  6
CONTINUOUS
 62
     5
 10
1498.104243803643
 20
486.1614533055564
 30
0.0
 11
1498.104243803643
 21
514.4181623762251
 31
0.0
  0
LINE
  5
19C
  8
回07-寸法
  6
CONTINUOUS
 62
     5
 10
1670.504243803642
 20
486.1614533055564
 30
0.0
 11
1670.504243803642
 21
514.4181623762251
 31
0.0
  0
LINE
  5
19D
  8
回07-寸法
  6
CONTINUOUS
 62
     5
 10
1500.104243803643
 20
513.4181623762251
 30
0.0
 11
1668.504243803642
 21
513.4181623762251
 31
0.0
  0
INSERT
  5
19E
  8
回07-寸法
  6
CONTINUOUS
 62
     5
 66
     1
  2
_OPEN
 10
1498.104243803643
 20
513.4181623762251
 30
0.0
 41
2.0
 42
2.0
 43
2.0
 50
180.0
  0
SEQEND
  5
19F
  8
回08-記事
  6
CONTINUOUS
 62
     7
  0
INSERT
  5
1A0
  8
回07-寸法
  6
CONTINUOUS
 62
     5
 66
     1
  2
_OPEN
 10
1670.504243803642
 20
513.4181623762251
 30
0.0
 41
2.0
 42
2.0
 43
2.0
  0
SEQEND
  5
1A1
  8
回08-記事
  6
CONTINUOUS
 62
     7
  0
TEXT
  5
1A2
  8
回07-寸法
  6
CONTINUOUS
 62
     5
 10
1559.254834354824
 20
514.7225279062866
 30
0.0
 40
3.0
  1
172.4 [6.787] (Viewing area)
1001
ACAD
1000
MTEXTBEGIN
1070
    73
1070
     1
1070
    44
1040
1.0
1070
    74
1070
     0
1000
MTEXTEND
  0
POINT
  5
1A3
  8
DEFPOINTS
  6
CONTINUOUS
 62
     0
 10
1498.104243803643
 20
486.1614533055564
 30
0.0
  0
POINT
  5
1A4
  8
DEFPOINTS
  6
CONTINUOUS
 62
     0
 10
1670.504243803642
 20
486.1614533055564
 30
0.0
  0
POINT
  5
1A5
  8
DEFPOINTS
  6
CONTINUOUS
 62
     0
 10
1670.504243803642
 20
513.4181623762251
 30
0.0
  0
ENDBLK
  5
1A6
  8
0
 62
     7
  0
BLOCK
  8
0
  2
*D15
 70
     1
 10
0.0
 20
0.0
 30
0.0
  3
*D15
  1

  0
LINE
  5
18C
  8
回07-寸法
  6
CONTINUOUS
 62
     5
 10
1497.604243803643
 20
486.6614533055564
 30
0.0
 11
1497.604243803643
 21
522.0691016420168
 31
0.0
  0
LINE
  5
18D
  8
回07-寸法
  6
CONTINUOUS
 62
     5
 10
1671.004243803642
 20
486.6614533055564
 30
0.0
 11
1671.004243803642
 21
522.0691016420168
 31
0.0
  0
LINE
  5
18E
  8
回07-寸法
  6
CONTINUOUS
 62
     5
 10
1499.604243803643
 20
521.0691016420168
 30
0.0
 11
1669.004243803642
 21
521.0691016420168
 31
0.0
  0
INSERT
  5
18F
  8
回07-寸法
  6
CONTINUOUS
 62
     5
 66
     1
  2
_OPEN
 10
1497.604243803643
 20
521.0691016420168
 30
0.0
 41
2.0
 42
2.0
 43
2.0
 50
180.0
  0
SEQEND
  5
190
  8
回08-記事
  6
CONTINUOUS
 62
     7
  0
INSERT
  5
191
  8
回07-寸法
  6
CONTINUOUS
 62
     5
 66
     1
  2
_OPEN
 10
1671.004243803642
 20
521.0691016420168
 30
0.0
 41
2.0
 42
2.0
 43
2.0
  0
SEQEND
  5
192
  8
回08-記事
  6
CONTINUOUS
 62
     7
  0
TEXT
  5
193
  8
回07-寸法
  6
CONTINUOUS
 62
     5
 10
1573.054243803643
 20
521.7191016420168
 30
0.0
 40
3.0
  1
173.4 [6.827]
1001
ACAD
1000
MTEXTBEGIN
1070
    73
1070
     1
1070
    44
1040
1.0
1070
    74
1070
     0
1000
MTEXTEND
  0
POINT
  5
194
  8
DEFPOINTS
  6
CONTINUOUS
 62
     0
 10
1497.604243803643
 20
486.6614533055564
 30
0.0
  0
POINT
  5
195
  8
DEFPOINTS
  6
CONTINUOUS
 62
     0
 10
1671.004243803642
 20
486.6614533055564
 30
0.0
  0
POINT
  5
196
  8
DEFPOINTS
  6
CONTINUOUS
 62
     0
 10
1671.004243803642
 20
521.0691016420168
 30
0.0
  0
ENDBLK
  5
197
  8
0
 62
     7
  0
BLOCK
  8
0
  2
*D16
 70
     1
 10
0.0
 20
0.0
 30
0.0
  3
*D16
  1

  0
LINE
  5
17B
  8
回07-寸法
  6
CONTINUOUS
 62
     5
 10
1669.504243803643
 20
485.1614533055564
 30
0.0
 11
1669.504243803643
 21
507.0358755337688
 31
0.0
  0
LINE
  5
17C
  8
回07-寸法
  6
CONTINUOUS
 62
     5
 10
1676.154243803642
 20
491.8114533055564
 30
0.0
 11
1676.154243803642
 21
507.0358755337688
 31
0.0
  0
LINE
  5
17D
  8
回07-寸法
  6
CONTINUOUS
 62
     5
 10
1667.504243803642
 20
506.0358755337687
 30
0.0
 11
1665.504243803642
 21
506.0358755337687
 31
0.0
  0
LINE
  5
17E
  8
回07-寸法
  6
CONTINUOUS
 62
     5
 10
1678.154243803643
 20
506.0358755337687
 30
0.0
 11
1703.351881598918
 21
506.0358755337687
 31
0.0
  0
LINE
  5
17F
  8
回07-寸法
  6
CONTINUOUS
 62
     5
 10
1669.504243803643
 20
506.0358755337687
 30
0.0
 11
1676.154243803642
 21
506.0358755337687
 31
0.0
  0
INSERT
  5
180
  8
回07-寸法
  6
CONTINUOUS
 62
     5
 66
     1
  2
_OPEN
 10
1669.504243803643
 20
506.0358755337687
 30
0.0
 41
2.0
 42
2.0
 43
2.0
  0
SEQEND
  5
181
  8
回08-記事
  6
CONTINUOUS
 62
     7
  0
INSERT
  5
182
  8
回07-寸法
  6
CONTINUOUS
 62
     5
 66
     1
  2
_OPEN
 10
1676.154243803642
 20
506.0358755337687
 30
0.0
 41
2.0
 42
2.0
 43
2.0
 50
180.0
  0
SEQEND
  5
183
  8
回08-記事
  6
CONTINUOUS
 62
     7
  0
TEXT
  5
184
  8
回07-寸法
  6
CONTINUOUS
 62
     5
 10
1680.20306270128
 20
506.6858755337687
 30
0.0
 40
3.0
  1
(6.65 [0.262])
1001
ACAD
1000
MTEXTBEGIN
1070
    73
1070
     1
1070
    44
1040
1.0
1070
    74
1070
     0
1000
MTEXTEND
  0
POINT
  5
185
  8
DEFPOINTS
  6
CONTINUOUS
 62
     0
 10
1669.504243803643
 20
485.1614533055564
 30
0.0
  0
POINT
  5
186
  8
DEFPOINTS
  6
CONTINUOUS
 62
     0
 10
1676.154243803642
 20
491.8114533055564
 30
0.0
  0
POINT
  5
187
  8
DEFPOINTS
  6
CONTINUOUS
 62
     0
 10
1676.154243803642
 20
506.0358755337687
 30
0.0
  0
ENDBLK
  5
188
  8
0
 62
     7
  0
BLOCK
  8
0
  2
*D17
 70
     1
 10
0.0
 20
0.0
 30
0.0
  3
*D17
  1

  0
LINE
  5
16A
  8
回07-寸法
  6
CONTINUOUS
 62
     5
 10
1670.504243803642
 20
486.1614533055564
 30
0.0
 11
1670.504243803642
 21
514.4181623762251
 31
0.0
  0
LINE
  5
16B
  8
回07-寸法
  6
CONTINUOUS
 62
     5
 10
1676.154243803642
 20
491.8114533055564
 30
0.0
 11
1676.154243803642
 21
514.4181623762251
 31
0.0
  0
LINE
  5
16C
  8
回07-寸法
  6
CONTINUOUS
 62
     5
 10
1668.504243803642
 20
513.4181623762251
 30
0.0
 11
1666.504243803642
 21
513.4181623762251
 31
0.0
  0
LINE
  5
16D
  8
回07-寸法
  6
CONTINUOUS
 62
     5
 10
1678.154243803643
 20
513.4181623762251
 30
0.0
 11
1703.351881598918
 21
513.4181623762251
 31
0.0
  0
LINE
  5
16E
  8
回07-寸法
  6
CONTINUOUS
 62
     5
 10
1670.504243803642
 20
513.4181623762251
 30
0.0
 11
1676.154243803642
 21
513.4181623762251
 31
0.0
  0
INSERT
  5
16F
  8
回07-寸法
  6
CONTINUOUS
 62
     5
 66
     1
  2
_OPEN
 10
1670.504243803642
 20
513.4181623762251
 30
0.0
 41
2.0
 42
2.0
 43
2.0
  0
SEQEND
  5
170
  8
回08-記事
  6
CONTINUOUS
 62
     7
  0
INSERT
  5
171
  8
回07-寸法
  6
CONTINUOUS
 62
     5
 66
     1
  2
_OPEN
 10
1676.154243803642
 20
513.4181623762251
 30
0.0
 41
2.0
 42
2.0
 43
2.0
 50
180.0
  0
SEQEND
  5
172
  8
回08-記事
  6
CONTINUOUS
 62
     7
  0
TEXT
  5
173
  8
回07-寸法
  6
CONTINUOUS
 62
     5
 10
1680.20306270128
 20
514.0681623762251
 30
0.0
 40
3.0
  1
(5.65 [0.222])
1001
ACAD
1000
MTEXTBEGIN
1070
    73
1070
     1
1070
    44
1040
1.0
1070
    74
1070
     0
1000
MTEXTEND
  0
POINT
  5
174
  8
DEFPOINTS
  6
CONTINUOUS
 62
     0
 10
1670.504243803642
 20
486.1614533055564
 30
0.0
  0
POINT
  5
175
  8
DEFPOINTS
  6
CONTINUOUS
 62
     0
 10
1676.154243803642
 20
491.8114533055564
 30
0.0
  0
POINT
  5
176
  8
DEFPOINTS
  6
CONTINUOUS
 62
     0
 10
1676.154243803642
 20
513.4181623762251
 30
0.0
  0
ENDBLK
  5
177
  8
0
 62
     7
  0
BLOCK
  8
0
  2
*D18
 70
     1
 10
0.0
 20
0.0
 30
0.0
  3
*D18
  1

  0
LINE
  5
159
  8
回07-寸法
  6
CONTINUOUS
 62
     5
 10
1671.004243803642
 20
486.6614533055564
 30
0.0
 11
1671.004243803642
 21
522.0691016420168
 31
0.0
  0
LINE
  5
15A
  8
回07-寸法
  6
CONTINUOUS
 62
     5
 10
1676.154243803642
 20
491.8114533055564
 30
0.0
 11
1676.154243803642
 21
522.0691016420168
 31
0.0
  0
LINE
  5
15B
  8
回07-寸法
  6
CONTINUOUS
 62
     5
 10
1669.004243803642
 20
521.0691016420168
 30
0.0
 11
1667.004243803642
 21
521.0691016420168
 31
0.0
  0
LINE
  5
15C
  8
回07-寸法
  6
CONTINUOUS
 62
     5
 10
1678.154243803643
 20
521.0691016420168
 30
0.0
 11
1723.544263646162
 21
521.0691016420168
 31
0.0
  0
LINE
  5
15D
  8
回07-寸法
  6
CONTINUOUS
 62
     5
 10
1671.004243803642
 20
521.0691016420168
 30
0.0
 11
1676.154243803642
 21
521.0691016420168
 31
0.0
  0
INSERT
  5
15E
  8
回07-寸法
  6
CONTINUOUS
 62
     5
 66
     1
  2
_OPEN
 10
1671.004243803642
 20
521.0691016420168
 30
0.0
 41
2.0
 42
2.0
 43
2.0
  0
SEQEND
  5
15F
  8
回08-記事
  6
CONTINUOUS
 62
     7
  0
INSERT
  5
160
  8
回07-寸法
  6
CONTINUOUS
 62
     5
 66
     1
  2
_OPEN
 10
1676.154243803642
 20
521.0691016420168
 30
0.0
 41
2.0
 42
2.0
 43
2.0
 50
180.0
  0
SEQEND
  5
161
  8
回08-記事
  6
CONTINUOUS
 62
     7
  0
INSERT
  5
162
  8
回07-寸法
  6
CONTINUOUS
 62
     5
 66
     1
  2
*X51
 10
0.0
 20
0.0
 30
0.0
  0
SEQEND
  5
4AD
  8
回08-記事
  6
CONTINUOUS
 62
     7
  0
POINT
  5
163
  8
DEFPOINTS
  6
CONTINUOUS
 62
     0
 10
1671.004243803642
 20
486.6614533055564
 30
0.0
  0
POINT
  5
164
  8
DEFPOINTS
  6
CONTINUOUS
 62
     0
 10
1676.154243803642
 20
491.8114533055564
 30
0.0
  0
POINT
  5
165
  8
DEFPOINTS
  6
CONTINUOUS
 62
     0
 10
1676.154243803642
 20
521.0691016420168
 30
0.0
  0
ENDBLK
  5
166
  8
0
 62
     7
  0
BLOCK
  8
0
  2
*D19
 70
     1
 10
0.0
 20
0.0
 30
0.0
  3
*D19
  1

  0
LINE
  5
148
  8
回07-寸法
  6
CONTINUOUS
 62
     5
 10
1499.104243803643
 20
485.1614533055564
 30
0.0
 11
1499.104243803643
 21
507.0358755337688
 31
0.0
  0
LINE
  5
149
  8
回07-寸法
  6
CONTINUOUS
 62
     5
 10
1492.454243803643
 20
491.8114533055564
 30
0.0
 11
1492.454243803643
 21
507.0358755337688
 31
0.0
  0
LINE
  5
14A
  8
回07-寸法
  6
CONTINUOUS
 62
     5
 10
1501.104243803643
 20
506.0358755337687
 30
0.0
 11
1503.104243803643
 21
506.0358755337687
 31
0.0
  0
LINE
  5
14B
  8
回07-寸法
  6
CONTINUOUS
 62
     5
 10
1490.454243803643
 20
506.0358755337687
 30
0.0
 11
1467.474716244588
 21
506.0358755337687
 31
0.0
  0
LINE
  5
14C
  8
回07-寸法
  6
CONTINUOUS
 62
     5
 10
1499.104243803643
 20
506.0358755337687
 30
0.0
 11
1492.454243803643
 21
506.0358755337687
 31
0.0
  0
INSERT
  5
14D
  8
回07-寸法
  6
CONTINUOUS
 62
     5
 66
     1
  2
_OPEN
 10
1499.104243803643
 20
506.0358755337687
 30
0.0
 41
2.0
 42
2.0
 43
2.0
 50
180.0
  0
SEQEND
  5
14E
  8
回08-記事
  6
CONTINUOUS
 62
     7
  0
INSERT
  5
14F
  8
回07-寸法
  6
CONTINUOUS
 62
     5
 66
     1
  2
_OPEN
 10
1492.454243803643
 20
506.0358755337687
 30
0.0
 41
2.0
 42
2.0
 43
2.0
  0
SEQEND
  5
150
  8
回08-記事
  6
CONTINUOUS
 62
     7
  0
TEXT
  5
151
  8
回07-寸法
  6
CONTINUOUS
 62
     5
 10
1467.614480024115
 20
506.6858755337687
 30
0.0
 40
3.0
  1
6.65 [0.262]
1001
ACAD
1000
MTEXTBEGIN
1070
    73
1070
     1
1070
    44
1040
1.0
1070
    74
1070
     0
1000
MTEXTEND
  0
POINT
  5
152
  8
DEFPOINTS
  6
CONTINUOUS
 62
     0
 10
1499.104243803643
 20
485.1614533055564
 30
0.0
  0
POINT
  5
153
  8
DEFPOINTS
  6
CONTINUOUS
 62
     0
 10
1492.454243803643
 20
491.8114533055564
 30
0.0
  0
POINT
  5
154
  8
DEFPOINTS
  6
CONTINUOUS
 62
     0
 10
1492.454243803643
 20
506.0358755337687
 30
0.0
  0
ENDBLK
  5
155
  8
0
 62
     7
  0
BLOCK
  8
0
  2
*D20
 70
     1
 10
0.0
 20
0.0
 30
0.0
  3
*D20
  1

  0
LINE
  5
137
  8
回07-寸法
  6
CONTINUOUS
 62
     5
 10
1498.104243803643
 20
486.1614533055564
 30
0.0
 11
1498.104243803643
 21
514.4181623762251
 31
0.0
  0
LINE
  5
138
  8
回07-寸法
  6
CONTINUOUS
 62
     5
 10
1492.454243803643
 20
491.8114533055564
 30
0.0
 11
1492.454243803643
 21
514.4181623762251
 31
0.0
  0
LINE
  5
139
  8
回07-寸法
  6
CONTINUOUS
 62
     5
 10
1500.104243803643
 20
513.4181623762251
 30
0.0
 11
1502.104243803643
 21
513.4181623762251
 31
0.0
  0
LINE
  5
13A
  8
回07-寸法
  6
CONTINUOUS
 62
     5
 10
1490.454243803643
 20
513.4181623762251
 30
0.0
 11
1467.654243803643
 21
513.4181623762251
 31
0.0
  0
LINE
  5
13B
  8
回07-寸法
  6
CONTINUOUS
 62
     5
 10
1498.104243803643
 20
513.4181623762251
 30
0.0
 11
1492.454243803643
 21
513.4181623762251
 31
0.0
  0
INSERT
  5
13C
  8
回07-寸法
  6
CONTINUOUS
 62
     5
 66
     1
  2
_OPEN
 10
1498.104243803643
 20
513.4181623762251
 30
0.0
 41
2.0
 42
2.0
 43
2.0
 50
180.0
  0
SEQEND
  5
13D
  8
回08-記事
  6
CONTINUOUS
 62
     7
  0
INSERT
  5
13E
  8
回07-寸法
  6
CONTINUOUS
 62
     5
 66
     1
  2
_OPEN
 10
1492.454243803643
 20
513.4181623762251
 30
0.0
 41
2.0
 42
2.0
 43
2.0
  0
SEQEND
  5
13F
  8
回08-記事
  6
CONTINUOUS
 62
     7
  0
TEXT
  5
140
  8
回07-寸法
  6
CONTINUOUS
 62
     5
 10
1467.704243803642
 20
514.0681623762251
 30
0.0
 40
3.0
  1
5.65 [0.222]
1001
ACAD
1000
MTEXTBEGIN
1070
    73
1070
     1
1070
    44
1040
1.0
1070
    74
1070
     0
1000
MTEXTEND
  0
POINT
  5
141
  8
DEFPOINTS
  6
CONTINUOUS
 62
     0
 10
1498.104243803643
 20
486.1614533055564
 30
0.0
  0
POINT
  5
142
  8
DEFPOINTS
  6
CONTINUOUS
 62
     0
 10
1492.454243803643
 20
491.8114533055564
 30
0.0
  0
POINT
  5
143
  8
DEFPOINTS
  6
CONTINUOUS
 62
     0
 10
1492.454243803643
 20
513.4181623762251
 30
0.0
  0
ENDBLK
  5
144
  8
0
 62
     7
  0
BLOCK
  8
0
  2
*D21
 70
     1
 10
0.0
 20
0.0
 30
0.0
  3
*D21
  1

  0
LINE
  5
126
  8
回07-寸法
  6
CONTINUOUS
 62
     5
 10
1497.604243803643
 20
486.6614533055564
 30
0.0
 11
1497.604243803643
 21
522.0691016420168
 31
0.0
  0
LINE
  5
127
  8
回07-寸法
  6
CONTINUOUS
 62
     5
 10
1492.454243803643
 20
491.8114533055564
 30
0.0
 11
1492.454243803643
 21
522.0691016420168
 31
0.0
  0
LINE
  5
128
  8
回07-寸法
  6
CONTINUOUS
 62
     5
 10
1499.604243803643
 20
521.0691016420168
 30
0.0
 11
1501.604243803643
 21
521.0691016420168
 31
0.0
  0
LINE
  5
129
  8
回07-寸法
  6
CONTINUOUS
 62
     5
 10
1490.454243803643
 20
521.0691016420168
 30
0.0
 11
1445.064223961123
 21
521.0691016420168
 31
0.0
  0
LINE
  5
12A
  8
回07-寸法
  6
CONTINUOUS
 62
     5
 10
1497.604243803643
 20
521.0691016420168
 30
0.0
 11
1492.454243803643
 21
521.0691016420168
 31
0.0
  0
INSERT
  5
12B
  8
回07-寸法
  6
CONTINUOUS
 62
     5
 66
     1
  2
_OPEN
 10
1497.604243803643
 20
521.0691016420168
 30
0.0
 41
2.0
 42
2.0
 43
2.0
 50
180.0
  0
SEQEND
  5
12C
  8
回08-記事
  6
CONTINUOUS
 62
     7
  0
INSERT
  5
12D
  8
回07-寸法
  6
CONTINUOUS
 62
     5
 66
     1
  2
_OPEN
 10
1492.454243803643
 20
521.0691016420168
 30
0.0
 41
2.0
 42
2.0
 43
2.0
  0
SEQEND
  5
12E
  8
回08-記事
  6
CONTINUOUS
 62
     7
  0
INSERT
  5
12F
  8
回07-寸法
  6
CONTINUOUS
 62
     5
 66
     1
  2
*X52
 10
0.0
 20
0.0
 30
0.0
  0
SEQEND
  5
4B3
  8
回08-記事
  6
CONTINUOUS
 62
     7
  0
POINT
  5
130
  8
DEFPOINTS
  6
CONTINUOUS
 62
     0
 10
1497.604243803643
 20
486.6614533055564
 30
0.0
  0
POINT
  5
131
  8
DEFPOINTS
  6
CONTINUOUS
 62
     0
 10
1492.454243803643
 20
491.8114533055564
 30
0.0
  0
POINT
  5
132
  8
DEFPOINTS
  6
CONTINUOUS
 62
     0
 10
1492.454243803643
 20
521.0691016420168
 30
0.0
  0
ENDBLK
  5
133
  8
0
 62
     7
  0
BLOCK
  8
0
  2
*D22
 70
     1
 10
0.0
 20
0.0
 30
0.0
  3
*D22
  1

  0
LINE
  5
119
  8
回07-寸法
  6
CONTINUOUS
 62
     5
 10
1492.454243803643
 20
491.8114533055564
 30
0.0
 11
1492.454243803643
 21
529.36937986279
 31
0.0
  0
LINE
  5
11A
  8
回07-寸法
  6
CONTINUOUS
 62
     5
 10
1676.154243803642
 20
491.8114533055564
 30
0.0
 11
1676.154243803642
 21
529.36937986279
 31
0.0
  0
LINE
  5
11B
  8
回07-寸法
  6
CONTINUOUS
 62
     5
 10
1494.454243803643
 20
528.3693798627901
 30
0.0
 11
1674.154243803642
 21
528.3693798627901
 31
0.0
  0
INSERT
  5
11C
  8
回07-寸法
  6
CONTINUOUS
 62
     5
  2
_OPEN
 10
1492.454243803643
 20
528.3693798627901
 30
0.0
 41
2.0
 42
2.0
 43
2.0
 50
180.0
  0
INSERT
  5
11D
  8
回07-寸法
  6
CONTINUOUS
 62
     5
  2
_OPEN
 10
1676.154243803642
 20
528.3693798627901
 30
0.0
 41
2.0
 42
2.0
 43
2.0
  0
INSERT
  5
11E
  8
回07-寸法
  6
CONTINUOUS
 62
     5
 66
     1
  2
*X53
 10
0.0
 20
0.0
 30
0.0
  0
SEQEND
  5
4BC
  8
回08-記事
  6
CONTINUOUS
 62
     7
  0
POINT
  5
11F
  8
DEFPOINTS
  6
CONTINUOUS
 62
     0
 10
1492.454243803643
 20
491.8114533055564
 30
0.0
  0
POINT
  5
120
  8
DEFPOINTS
  6
CONTINUOUS
 62
     0
 10
1676.154243803642
 20
491.8114533055564
 30
0.0
  0
POINT
  5
121
  8
DEFPOINTS
  6
CONTINUOUS
 62
     0
 10
1676.154243803642
 20
528.3693798627901
 30
0.0
  0
ENDBLK
  5
122
  8
0
 62
     7
  0
BLOCK
  8
0
  2
*D23
 70
     1
 10
0.0
 20
0.0
 30
0.0
  3
*D23
  1

  0
LINE
  5
10A
  8
回07-寸法
  6
CONTINUOUS
 62
     5
 10
1669.504243803643
 20
485.1614533055566
 30
0.0
 11
1715.31609283904
 21
485.1614533055566
 31
0.0
  0
LINE
  5
10B
  8
回07-寸法
  6
CONTINUOUS
 62
     5
 10
1669.504243803643
 20
357.3614533055565
 30
0.0
 11
1715.31609283904
 21
357.3614533055565
 31
0.0
  0
LINE
  5
10C
  8
回07-寸法
  6
CONTINUOUS
 62
     5
 10
1714.31609283904
 20
483.1614533055566
 30
0.0
 11
1714.31609283904
 21
359.3614533055565
 31
0.0
  0
INSERT
  5
10D
  8
回07-寸法
  6
CONTINUOUS
 62
     5
 66
     1
  2
_OPEN
 10
1714.31609283904
 20
485.1614533055566
 30
0.0
 41
2.0
 42
2.0
 43
2.0
 50
90.0
  0
SEQEND
  5
10E
  8
回08-記事
  6
CONTINUOUS
 62
     7
  0
INSERT
  5
10F
  8
回07-寸法
  6
CONTINUOUS
 62
     5
 66
     1
  2
_OPEN
 10
1714.31609283904
 20
357.3614533055565
 30
0.0
 41
2.0
 42
2.0
 43
2.0
 50
270.0
  0
SEQEND
  5
110
  8
回08-記事
  6
CONTINUOUS
 62
     7
  0
TEXT
  5
111
  8
回07-寸法
  6
CONTINUOUS
 62
     5
 10
1713.66609283904
 20
397.712043856737
 30
0.0
 40
3.0
  1
127.8 [5.031] (Active area)
 50
90.0
1001
ACAD
1000
MTEXTBEGIN
1070
    73
1070
     1
1070
    44
1040
1.0
1070
    74
1070
     0
1000
MTEXTEND
  0
POINT
  5
112
  8
DEFPOINTS
  6
CONTINUOUS
 62
     0
 10
1669.504243803643
 20
485.1614533055566
 30
0.0
  0
POINT
  5
113
  8
DEFPOINTS
  6
CONTINUOUS
 62
     0
 10
1669.504243803643
 20
357.3614533055565
 30
0.0
  0
POINT
  5
114
  8
DEFPOINTS
  6
CONTINUOUS
 62
     0
 10
1714.31609283904
 20
357.3614533055565
 30
0.0
  0
ENDBLK
  5
115
  8
0
 62
     7
  0
BLOCK
  8
0
  2
*D24
 70
     1
 10
0.0
 20
0.0
 30
0.0
  3
*D24
  1

  0
LINE
  5
FB
  8
回07-寸法
  6
CONTINUOUS
 62
     5
 10
1670.504243803643
 20
486.1614533055567
 30
0.0
 11
1724.821835633212
 21
486.1614533055567
 31
0.0
  0
LINE
  5
FC
  8
回07-寸法
  6
CONTINUOUS
 62
     5
 10
1670.504243803643
 20
356.3614533055565
 30
0.0
 11
1724.821835633212
 21
356.3614533055565
 31
0.0
  0
LINE
  5
FD
  8
回07-寸法
  6
CONTINUOUS
 62
     5
 10
1723.821835633213
 20
484.1614533055566
 30
0.0
 11
1723.821835633213
 21
358.3614533055565
 31
0.0
  0
INSERT
  5
FE
  8
回07-寸法
  6
CONTINUOUS
 62
     5
 66
     1
  2
_OPEN
 10
1723.821835633213
 20
486.1614533055567
 30
0.0
 41
2.0
 42
2.0
 43
2.0
 50
90.0
  0
SEQEND
  5
FF
  8
回08-記事
  6
CONTINUOUS
 62
     7
  0
INSERT
  5
100
  8
回07-寸法
  6
CONTINUOUS
 62
     5
 66
     1
  2
_OPEN
 10
1723.821835633213
 20
356.3614533055565
 30
0.0
 41
2.0
 42
2.0
 43
2.0
 50
270.0
  0
SEQEND
  5
101
  8
回08-記事
  6
CONTINUOUS
 62
     7
  0
TEXT
  5
102
  8
回07-寸法
  6
CONTINUOUS
 62
     5
 10
1722.517470103151
 20
396.9566283039465
 30
0.0
 40
3.0
  1
129.8 [5.110] (Viewing area)
 50
90.0
1001
ACAD
1000
MTEXTBEGIN
1070
    73
1070
     1
1070
    44
1040
1.0
1070
    74
1070
     0
1000
MTEXTEND
  0
POINT
  5
103
  8
DEFPOINTS
  6
CONTINUOUS
 62
     0
 10
1670.504243803643
 20
486.1614533055567
 30
0.0
  0
POINT
  5
104
  8
DEFPOINTS
  6
CONTINUOUS
 62
     0
 10
1670.504243803643
 20
356.3614533055565
 30
0.0
  0
POINT
  5
105
  8
DEFPOINTS
  6
CONTINUOUS
 62
     0
 10
1723.821835633213
 20
356.3614533055565
 30
0.0
  0
ENDBLK
  5
106
  8
0
 62
     7
  0
BLOCK
  8
0
  2
*D25
 70
     1
 10
0.0
 20
0.0
 30
0.0
  3
*D25
  1

  0
LINE
  5
EC
  8
回07-寸法
  6
CONTINUOUS
 62
     5
 10
1671.004243803643
 20
355.8614533055565
 30
0.0
 11
1734.327586097389
 21
355.8614533055565
 31
0.0
  0
LINE
  5
ED
  8
回07-寸法
  6
CONTINUOUS
 62
     5
 10
1671.004243803643
 20
486.6614533055567
 30
0.0
 11
1734.327586097389
 21
486.6614533055567
 31
0.0
  0
LINE
  5
EE
  8
回07-寸法
  6
CONTINUOUS
 62
     5
 10
1733.327586097389
 20
357.8614533055565
 30
0.0
 11
1733.327586097389
 21
484.6614533055566
 31
0.0
  0
INSERT
  5
EF
  8
回07-寸法
  6
CONTINUOUS
 62
     5
 66
     1
  2
_OPEN
 10
1733.327586097389
 20
355.8614533055565
 30
0.0
 41
2.0
 42
2.0
 43
2.0
 50
270.0
  0
SEQEND
  5
F0
  8
回08-記事
  6
CONTINUOUS
 62
     7
  0
INSERT
  5
F1
  8
回07-寸法
  6
CONTINUOUS
 62
     5
 66
     1
  2
_OPEN
 10
1733.327586097389
 20
486.6614533055567
 30
0.0
 41
2.0
 42
2.0
 43
2.0
 50
90.0
  0
SEQEND
  5
F2
  8
回08-記事
  6
CONTINUOUS
 62
     7
  0
TEXT
  5
F3
  8
回07-寸法
  6
CONTINUOUS
 62
     5
 10
1732.677586097389
 20
410.461453305556
 30
0.0
 40
3.0
  1
130.8 [5.150]
 50
90.0
1001
ACAD
1000
MTEXTBEGIN
1070
    73
1070
     1
1070
    44
1040
1.0
1070
    74
1070
     0
1000
MTEXTEND
  0
POINT
  5
F4
  8
DEFPOINTS
  6
CONTINUOUS
 62
     0
 10
1671.004243803643
 20
355.8614533055565
 30
0.0
  0
POINT
  5
F5
  8
DEFPOINTS
  6
CONTINUOUS
 62
     0
 10
1671.004243803643
 20
486.6614533055567
 30
0.0
  0
POINT
  5
F6
  8
DEFPOINTS
  6
CONTINUOUS
 62
     0
 10
1733.327586097389
 20
486.6614533055567
 30
0.0
  0
ENDBLK
  5
F7
  8
0
 62
     7
  0
BLOCK
  8
0
  2
*D26
 70
     1
 10
0.0
 20
0.0
 30
0.0
  3
*D26
  1

  0
LINE
  5
DB
  8
回07-寸法
  6
CONTINUOUS
 62
     5
 10
1669.504243803643
 20
485.1614533055566
 30
0.0
 11
1715.31609283904
 21
485.1614533055566
 31
0.0
  0
LINE
  5
DC
  8
回07-寸法
  6
CONTINUOUS
 62
     5
 10
1676.154243803643
 20
491.8114533055566
 30
0.0
 11
1715.31609283904
 21
491.8114533055566
 31
0.0
  0
LINE
  5
DD
  8
回07-寸法
  6
CONTINUOUS
 62
     5
 10
1714.31609283904
 20
483.1614533055566
 30
0.0
 11
1714.31609283904
 21
481.1614533055567
 31
0.0
  0
LINE
  5
DE
  8
回07-寸法
  6
CONTINUOUS
 62
     5
 10
1714.31609283904
 20
493.8114533055566
 30
0.0
 11
1714.31609283904
 21
519.0090911008321
 31
0.0
  0
LINE
  5
DF
  8
回07-寸法
  6
CONTINUOUS
 62
     5
 10
1714.31609283904
 20
485.1614533055566
 30
0.0
 11
1714.31609283904
 21
491.8114533055566
 31
0.0
  0
INSERT
  5
E0
  8
回07-寸法
  6
CONTINUOUS
 62
     5
 66
     1
  2
_OPEN
 10
1714.31609283904
 20
485.1614533055566
 30
0.0
 41
2.0
 42
2.0
 43
2.0
 50
90.0
  0
SEQEND
  5
E1
  8
回08-記事
  6
CONTINUOUS
 62
     7
  0
INSERT
  5
E2
  8
回07-寸法
  6
CONTINUOUS
 62
     5
 66
     1
  2
_OPEN
 10
1714.31609283904
 20
491.8114533055566
 30
0.0
 41
2.0
 42
2.0
 43
2.0
 50
270.0
  0
SEQEND
  5
E3
  8
回08-記事
  6
CONTINUOUS
 62
     7
  0
TEXT
  5
E4
  8
回07-寸法
  6
CONTINUOUS
 62
     5
 10
1713.666092839039
 20
495.8602722031937
 30
0.0
 40
3.0
  1
(6.65 [0.262])
 50
90.0
1001
ACAD
1000
MTEXTBEGIN
1070
    73
1070
     1
1070
    44
1040
1.0
1070
    74
1070
     0
1000
MTEXTEND
  0
POINT
  5
E5
  8
DEFPOINTS
  6
CONTINUOUS
 62
     0
 10
1669.504243803643
 20
485.1614533055566
 30
0.0
  0
POINT
  5
E6
  8
DEFPOINTS
  6
CONTINUOUS
 62
     0
 10
1676.154243803643
 20
491.8114533055566
 30
0.0
  0
POINT
  5
E7
  8
DEFPOINTS
  6
CONTINUOUS
 62
     0
 10
1714.31609283904
 20
491.8114533055566
 30
0.0
  0
ENDBLK
  5
E8
  8
0
 62
     7
  0
BLOCK
  8
0
  2
*D27
 70
     1
 10
0.0
 20
0.0
 30
0.0
  3
*D27
  1

  0
LINE
  5
CA
  8
回07-寸法
  6
CONTINUOUS
 62
     5
 10
1670.504243803643
 20
486.1614533055567
 30
0.0
 11
1724.821835633212
 21
486.1614533055567
 31
0.0
  0
LINE
  5
CB
  8
回07-寸法
  6
CONTINUOUS
 62
     5
 10
1676.154243803643
 20
491.8114533055566
 30
0.0
 11
1724.821835633212
 21
491.8114533055566
 31
0.0
  0
LINE
  5
CC
  8
回07-寸法
  6
CONTINUOUS
 62
     5
 10
1723.821835633213
 20
484.1614533055566
 30
0.0
 11
1723.821835633213
 21
482.1614533055567
 31
0.0
  0
LINE
  5
CD
  8
回07-寸法
  6
CONTINUOUS
 62
     5
 10
1723.821835633213
 20
493.8114533055566
 30
0.0
 11
1723.821835633213
 21
519.0090911008321
 31
0.0
  0
LINE
  5
CE
  8
回07-寸法
  6
CONTINUOUS
 62
     5
 10
1723.821835633213
 20
486.1614533055567
 30
0.0
 11
1723.821835633213
 21
491.8114533055566
 31
0.0
  0
INSERT
  5
CF
  8
回07-寸法
  6
CONTINUOUS
 62
     5
 66
     1
  2
_OPEN
 10
1723.821835633213
 20
486.1614533055567
 30
0.0
 41
2.0
 42
2.0
 43
2.0
 50
90.0
  0
SEQEND
  5
D0
  8
回08-記事
  6
CONTINUOUS
 62
     7
  0
INSERT
  5
D1
  8
回07-寸法
  6
CONTINUOUS
 62
     5
 66
     1
  2
_OPEN
 10
1723.821835633213
 20
491.8114533055566
 30
0.0
 41
2.0
 42
2.0
 43
2.0
 50
270.0
  0
SEQEND
  5
D2
  8
回08-記事
  6
CONTINUOUS
 62
     7
  0
TEXT
  5
D3
  8
回07-寸法
  6
CONTINUOUS
 62
     5
 10
1723.171835633212
 20
495.8602722031937
 30
0.0
 40
3.0
  1
(5.65 [0.222])
 50
90.0
1001
ACAD
1000
MTEXTBEGIN
1070
    73
1070
     1
1070
    44
1040
1.0
1070
    74
1070
     0
1000
MTEXTEND
  0
POINT
  5
D4
  8
DEFPOINTS
  6
CONTINUOUS
 62
     0
 10
1670.504243803643
 20
486.1614533055567
 30
0.0
  0
POINT
  5
D5
  8
DEFPOINTS
  6
CONTINUOUS
 62
     0
 10
1676.154243803643
 20
491.8114533055566
 30
0.0
  0
POINT
  5
D6
  8
DEFPOINTS
  6
CONTINUOUS
 62
     0
 10
1723.821835633213
 20
491.8114533055566
 30
0.0
  0
ENDBLK
  5
D7
  8
0
 62
     7
  0
BLOCK
  8
0
  2
*D28
 70
     1
 10
0.0
 20
0.0
 30
0.0
  3
*D28
  1

  0
LINE
  5
B9
  8
回07-寸法
  6
CONTINUOUS
 62
     5
 10
1671.004243803643
 20
486.6614533055567
 30
0.0
 11
1734.327586097389
 21
486.6614533055567
 31
0.0
  0
LINE
  5
BA
  8
回07-寸法
  6
CONTINUOUS
 62
     5
 10
1676.154243803643
 20
491.8114533055566
 30
0.0
 11
1734.327586097389
 21
491.8114533055566
 31
0.0
  0
LINE
  5
BB
  8
回07-寸法
  6
CONTINUOUS
 62
     5
 10
1733.327586097389
 20
484.6614533055566
 30
0.0
 11
1733.327586097389
 21
482.6614533055566
 31
0.0
  0
LINE
  5
BC
  8
回07-寸法
  6
CONTINUOUS
 62
     5
 10
1733.327586097389
 20
493.8114533055566
 30
0.0
 11
1733.327586097389
 21
539.2014731480762
 31
0.0
  0
LINE
  5
BD
  8
回07-寸法
  6
CONTINUOUS
 62
     5
 10
1733.327586097389
 20
486.6614533055567
 30
0.0
 11
1733.327586097389
 21
491.8114533055566
 31
0.0
  0
INSERT
  5
BE
  8
回07-寸法
  6
CONTINUOUS
 62
     5
 66
     1
  2
_OPEN
 10
1733.327586097389
 20
486.6614533055567
 30
0.0
 41
2.0
 42
2.0
 43
2.0
 50
90.0
  0
SEQEND
  5
BF
  8
回08-記事
  6
CONTINUOUS
 62
     7
  0
INSERT
  5
C0
  8
回07-寸法
  6
CONTINUOUS
 62
     5
 66
     1
  2
_OPEN
 10
1733.327586097389
 20
491.8114533055566
 30
0.0
 41
2.0
 42
2.0
 43
2.0
 50
270.0
  0
SEQEND
  5
C1
  8
回08-記事
  6
CONTINUOUS
 62
     7
  0
INSERT
  5
C2
  8
回07-寸法
  6
CONTINUOUS
 62
     5
 66
     1
  2
*X54
 10
0.0
 20
0.0
 30
0.0
  0
SEQEND
  5
4C2
  8
回08-記事
  6
CONTINUOUS
 62
     7
  0
POINT
  5
C3
  8
DEFPOINTS
  6
CONTINUOUS
 62
     0
 10
1671.004243803643
 20
486.6614533055567
 30
0.0
  0
POINT
  5
C4
  8
DEFPOINTS
  6
CONTINUOUS
 62
     0
 10
1676.154243803643
 20
491.8114533055566
 30
0.0
  0
POINT
  5
C5
  8
DEFPOINTS
  6
CONTINUOUS
 62
     0
 10
1733.327586097389
 20
491.8114533055566
 30
0.0
  0
ENDBLK
  5
C6
  8
0
 62
     7
  0
BLOCK
  8
0
  2
*D29
 70
     1
 10
0.0
 20
0.0
 30
0.0
  3
*D29
  1

  0
LINE
  5
A8
  8
回07-寸法
  6
CONTINUOUS
 62
     5
 10
1669.504243803643
 20
357.3614533055565
 30
0.0
 11
1715.31609283904
 21
357.3614533055565
 31
0.0
  0
LINE
  5
A9
  8
回07-寸法
  6
CONTINUOUS
 62
     5
 10
1676.154243803643
 20
350.7114533055566
 30
0.0
 11
1715.31609283904
 21
350.7114533055566
 31
0.0
  0
LINE
  5
AA
  8
回07-寸法
  6
CONTINUOUS
 62
     5
 10
1714.31609283904
 20
359.3614533055565
 30
0.0
 11
1714.31609283904
 21
361.3614533055565
 31
0.0
  0
LINE
  5
AB
  8
回07-寸法
  6
CONTINUOUS
 62
     5
 10
1714.31609283904
 20
348.7114533055566
 30
0.0
 11
1714.31609283904
 21
325.7319257465015
 31
0.0
  0
LINE
  5
AC
  8
回07-寸法
  6
CONTINUOUS
 62
     5
 10
1714.31609283904
 20
357.3614533055565
 30
0.0
 11
1714.31609283904
 21
350.7114533055566
 31
0.0
  0
INSERT
  5
AD
  8
回07-寸法
  6
CONTINUOUS
 62
     5
 66
     1
  2
_OPEN
 10
1714.31609283904
 20
357.3614533055565
 30
0.0
 41
2.0
 42
2.0
 43
2.0
 50
270.0
  0
SEQEND
  5
AE
  8
回08-記事
  6
CONTINUOUS
 62
     7
  0
INSERT
  5
AF
  8
回07-寸法
  6
CONTINUOUS
 62
     5
 66
     1
  2
_OPEN
 10
1714.31609283904
 20
350.7114533055566
 30
0.0
 41
2.0
 42
2.0
 43
2.0
 50
90.0
  0
SEQEND
  5
B0
  8
回08-記事
  6
CONTINUOUS
 62
     7
  0
TEXT
  5
B1
  8
回07-寸法
  6
CONTINUOUS
 62
     5
 10
1713.666092839039
 20
325.8716895260284
 30
0.0
 40
3.0
  1
6.65 [0.262]
 50
90.0
1001
ACAD
1000
MTEXTBEGIN
1070
    73
1070
     1
1070
    44
1040
1.0
1070
    74
1070
     0
1000
MTEXTEND
  0
POINT
  5
B2
  8
DEFPOINTS
  6
CONTINUOUS
 62
     0
 10
1669.504243803643
 20
357.3614533055565
 30
0.0
  0
POINT
  5
B3
  8
DEFPOINTS
  6
CONTINUOUS
 62
     0
 10
1676.154243803643
 20
350.7114533055566
 30
0.0
  0
POINT
  5
B4
  8
DEFPOINTS
  6
CONTINUOUS
 62
     0
 10
1714.31609283904
 20
350.7114533055566
 30
0.0
  0
ENDBLK
  5
B5
  8
0
 62
     7
  0
BLOCK
  8
0
  2
*D30
 70
     1
 10
0.0
 20
0.0
 30
0.0
  3
*D30
  1

  0
LINE
  5
97
  8
回07-寸法
  6
CONTINUOUS
 62
     5
 10
1670.504243803643
 20
356.3614533055565
 30
0.0
 11
1724.821835633212
 21
356.3614533055565
 31
0.0
  0
LINE
  5
98
  8
回07-寸法
  6
CONTINUOUS
 62
     5
 10
1676.154243803643
 20
350.7114533055566
 30
0.0
 11
1724.821835633212
 21
350.7114533055566
 31
0.0
  0
LINE
  5
99
  8
回07-寸法
  6
CONTINUOUS
 62
     5
 10
1723.821835633213
 20
358.3614533055565
 30
0.0
 11
1723.821835633213
 21
360.3614533055565
 31
0.0
  0
LINE
  5
9A
  8
回07-寸法
  6
CONTINUOUS
 62
     5
 10
1723.821835633213
 20
348.7114533055566
 30
0.0
 11
1723.821835633213
 21
325.9114533055566
 31
0.0
  0
LINE
  5
9B
  8
回07-寸法
  6
CONTINUOUS
 62
     5
 10
1723.821835633213
 20
356.3614533055565
 30
0.0
 11
1723.821835633213
 21
350.7114533055566
 31
0.0
  0
INSERT
  5
9C
  8
回07-寸法
  6
CONTINUOUS
 62
     5
 66
     1
  2
_OPEN
 10
1723.821835633213
 20
356.3614533055565
 30
0.0
 41
2.0
 42
2.0
 43
2.0
 50
270.0
  0
SEQEND
  5
9D
  8
回08-記事
  6
CONTINUOUS
 62
     7
  0
INSERT
  5
9E
  8
回07-寸法
  6
CONTINUOUS
 62
     5
 66
     1
  2
_OPEN
 10
1723.821835633213
 20
350.7114533055566
 30
0.0
 41
2.0
 42
2.0
 43
2.0
 50
90.0
  0
SEQEND
  5
9F
  8
回08-記事
  6
CONTINUOUS
 62
     7
  0
TEXT
  5
A0
  8
回07-寸法
  6
CONTINUOUS
 62
     5
 10
1723.171835633213
 20
325.961453305556
 30
0.0
 40
3.0
  1
5.65 [0.222]
 50
90.0
1001
ACAD
1000
MTEXTBEGIN
1070
    73
1070
     1
1070
    44
1040
1.0
1070
    74
1070
     0
1000
MTEXTEND
  0
POINT
  5
A1
  8
DEFPOINTS
  6
CONTINUOUS
 62
     0
 10
1670.504243803643
 20
356.3614533055565
 30
0.0
  0
POINT
  5
A2
  8
DEFPOINTS
  6
CONTINUOUS
 62
     0
 10
1676.154243803643
 20
350.7114533055566
 30
0.0
  0
POINT
  5
A3
  8
DEFPOINTS
  6
CONTINUOUS
 62
     0
 10
1723.821835633213
 20
350.7114533055566
 30
0.0
  0
ENDBLK
  5
A4
  8
0
 62
     7
  0
BLOCK
  8
0
  2
*D31
 70
     1
 10
0.0
 20
0.0
 30
0.0
  3
*D31
  1

  0
LINE
  5
86
  8
回07-寸法
  6
CONTINUOUS
 62
     5
 10
1671.004243803643
 20
355.8614533055565
 30
0.0
 11
1734.327586097389
 21
355.8614533055565
 31
0.0
  0
LINE
  5
87
  8
回07-寸法
  6
CONTINUOUS
 62
     5
 10
1676.154243803643
 20
350.7114533055566
 30
0.0
 11
1734.327586097389
 21
350.7114533055566
 31
0.0
  0
LINE
  5
88
  8
回07-寸法
  6
CONTINUOUS
 62
     5
 10
1733.327586097389
 20
357.8614533055565
 30
0.0
 11
1733.327586097389
 21
359.8614533055565
 31
0.0
  0
LINE
  5
89
  8
回07-寸法
  6
CONTINUOUS
 62
     5
 10
1733.327586097389
 20
348.7114533055566
 30
0.0
 11
1733.327586097389
 21
303.321433463037
 31
0.0
  0
LINE
  5
8A
  8
回07-寸法
  6
CONTINUOUS
 62
     5
 10
1733.327586097389
 20
355.8614533055565
 30
0.0
 11
1733.327586097389
 21
350.7114533055566
 31
0.0
  0
INSERT
  5
8B
  8
回07-寸法
  6
CONTINUOUS
 62
     5
 66
     1
  2
_OPEN
 10
1733.327586097389
 20
355.8614533055565
 30
0.0
 41
2.0
 42
2.0
 43
2.0
 50
270.0
  0
SEQEND
  5
8C
  8
回08-記事
  6
CONTINUOUS
 62
     7
  0
INSERT
  5
8D
  8
回07-寸法
  6
CONTINUOUS
 62
     5
 66
     1
  2
_OPEN
 10
1733.327586097389
 20
350.7114533055566
 30
0.0
 41
2.0
 42
2.0
 43
2.0
 50
90.0
  0
SEQEND
  5
8E
  8
回08-記事
  6
CONTINUOUS
 62
     7
  0
INSERT
  5
8F
  8
回07-寸法
  6
CONTINUOUS
 62
     5
 66
     1
  2
*X55
 10
0.0
 20
0.0
 30
0.0
  0
SEQEND
  5
4C8
  8
回08-記事
  6
CONTINUOUS
 62
     7
  0
POINT
  5
90
  8
DEFPOINTS
  6
CONTINUOUS
 62
     0
 10
1671.004243803643
 20
355.8614533055565
 30
0.0
  0
POINT
  5
91
  8
DEFPOINTS
  6
CONTINUOUS
 62
     0
 10
1676.154243803643
 20
350.7114533055566
 30
0.0
  0
POINT
  5
92
  8
DEFPOINTS
  6
CONTINUOUS
 62
     0
 10
1733.327586097389
 20
350.7114533055566
 30
0.0
  0
ENDBLK
  5
93
  8
0
 62
     7
  0
BLOCK
  8
0
  2
*D32
 70
     1
 10
0.0
 20
0.0
 30
0.0
  3
*D32
  1

  0
LINE
  5
78
  8
回07-寸法
  6
CONTINUOUS
 62
     5
 10
1676.154243803643
 20
350.7114533055566
 30
0.0
 11
1743.526697470462
 21
350.7114533055566
 31
0.0
  0
LINE
  5
79
  8
回07-寸法
  6
CONTINUOUS
 62
     5
 10
1676.154243803643
 20
491.8114533055566
 30
0.0
 11
1743.526697470462
 21
491.8114533055566
 31
0.0
  0
LINE
  5
7A
  8
回07-寸法
  6
CONTINUOUS
 62
     5
 10
1742.526697470462
 20
352.7114533055566
 30
0.0
 11
1742.526697470462
 21
489.8114533055566
 31
0.0
  0
INSERT
  5
7B
  8
回07-寸法
  6
CONTINUOUS
 62
     5
  2
_OPEN
 10
1742.526697470462
 20
350.7114533055566
 30
0.0
 41
2.0
 42
2.0
 43
2.0
 50
270.0
  0
INSERT
  5
7C
  8
回07-寸法
  6
CONTINUOUS
 62
     5
  2
_OPEN
 10
1742.526697470462
 20
491.8114533055566
 30
0.0
 41
2.0
 42
2.0
 43
2.0
 50
90.0
  0
INSERT
  5
7D
  8
回07-寸法
  6
CONTINUOUS
 62
     5
 66
     1
  2
*X56
 10
0.0
 20
0.0
 30
0.0
  0
SEQEND
  5
4D1
  8
回08-記事
  6
CONTINUOUS
 62
     7
  0
POINT
  5
7E
  8
DEFPOINTS
  6
CONTINUOUS
 62
     0
 10
1676.154243803643
 20
350.7114533055566
 30
0.0
  0
POINT
  5
80
  8
DEFPOINTS
  6
CONTINUOUS
 62
     0
 10
1676.154243803643
 20
491.8114533055566
 30
0.0
  0
POINT
  5
81
  8
DEFPOINTS
  6
CONTINUOUS
 62
     0
 10
1742.526697470462
 20
491.8114533055566
 30
0.0
  0
ENDBLK
  5
82
  8
0
 62
     7
  0
BLOCK
  8
0
  2
*D33
 70
     1
 10
0.0
 20
0.0
 30
0.0
  3
*D33
  1

  0
LINE
  5
34A
  8
回07-寸法
  6
CONTINUOUS
 62
     5
 10
1386.24177729573
 20
544.4411486301805
 30
0.0
 11
1363.645478606739
 21
544.4411486301805
 31
0.0
  0
LINE
  5
34B
  8
回07-寸法
  6
CONTINUOUS
 62
     5
 10
1386.24177729573
 20
524.4411486301799
 30
0.0
 11
1363.645478606739
 21
524.4411486301799
 31
0.0
  0
LINE
  5
34C
  8
回07-寸法
  6
CONTINUOUS
 62
     5
 10
1364.645478606739
 20
546.4411486301806
 30
0.0
 11
1364.645478606739
 21
548.4411486301805
 31
0.0
  0
LINE
  5
34D
  8
回07-寸法
  6
CONTINUOUS
 62
     5
 10
1364.645478606739
 20
522.4411486301798
 30
0.0
 11
1364.645478606739
 21
494.930055638697
 31
0.0
  0
LINE
  5
34E
  8
回07-寸法
  6
CONTINUOUS
 62
     5
 10
1364.645478606739
 20
544.4411486301805
 30
0.0
 11
1364.645478606739
 21
524.4411486301799
 31
0.0
  0
INSERT
  5
34F
  8
回07-寸法
  6
CONTINUOUS
 62
     5
 66
     1
  2
_OPEN
 10
1364.645478606739
 20
544.4411486301805
 30
0.0
 41
2.0
 42
2.0
 43
2.0
 50
270.0
  0
SEQEND
  5
350
  8
回08-記事
  6
CONTINUOUS
 62
     7
  0
INSERT
  5
351
  8
回07-寸法
  6
CONTINUOUS
 62
     5
 66
     1
  2
_OPEN
 10
1364.645478606739
 20
524.4411486301799
 30
0.0
 41
2.0
 42
2.0
 43
2.0
 50
90.0
  0
SEQEND
  5
352
  8
回08-記事
  6
CONTINUOUS
 62
     7
  0
INSERT
  5
353
  8
回07-寸法
  6
CONTINUOUS
 62
     5
 66
     1
  2
*X57
 10
0.0
 20
0.0
 30
0.0
  0
SEQEND
  5
4DA
  8
回08-記事
  6
CONTINUOUS
 62
     7
  0
POINT
  5
354
  8
DEFPOINTS
  6
CONTINUOUS
 62
     0
 10
1386.24177729573
 20
544.4411486301805
 30
0.0
  0
POINT
  5
355
  8
DEFPOINTS
  6
CONTINUOUS
 62
     0
 10
1386.24177729573
 20
524.4411486301799
 30
0.0
  0
POINT
  5
356
  8
DEFPOINTS
  6
CONTINUOUS
 62
     0
 10
1364.645478606739
 20
524.4411486301799
 30
0.0
  0
ENDBLK
  5
357
  8
0
 62
     7
  0
BLOCK
  8
0
  2
*D34
 70
     1
 10
0.0
 20
0.0
 30
0.0
  3
*D34
  1

  0
LINE
  5
339
  8
回07-寸法
  6
CONTINUOUS
 62
     5
 10
1384.24177729573
 20
540.4411486301805
 30
0.0
 11
1369.858964708914
 21
540.4411486301805
 31
0.0
  0
LINE
  5
33A
  8
回07-寸法
  6
CONTINUOUS
 62
     5
 10
1384.24177729573
 20
528.4411486301805
 30
0.0
 11
1369.858964708914
 21
528.4411486301805
 31
0.0
  0
LINE
  5
33B
  8
回07-寸法
  6
CONTINUOUS
 62
     5
 10
1370.858964708914
 20
542.4411486301806
 30
0.0
 11
1370.858964708914
 21
544.4411486301805
 31
0.0
  0
LINE
  5
33C
  8
回07-寸法
  6
CONTINUOUS
 62
     5
 10
1370.858964708914
 20
526.4411486301805
 30
0.0
 11
1370.858964708914
 21
509.5911486301808
 31
0.0
  0
LINE
  5
33D
  8
回07-寸法
  6
CONTINUOUS
 62
     5
 10
1370.858964708914
 20
540.4411486301805
 30
0.0
 11
1370.858964708914
 21
528.4411486301805
 31
0.0
  0
INSERT
  5
33E
  8
回07-寸法
  6
CONTINUOUS
 62
     5
 66
     1
  2
_OPEN
 10
1370.858964708914
 20
540.4411486301805
 30
0.0
 41
2.0
 42
2.0
 43
2.0
 50
270.0
  0
SEQEND
  5
33F
  8
回08-記事
  6
CONTINUOUS
 62
     7
  0
INSERT
  5
340
  8
回07-寸法
  6
CONTINUOUS
 62
     5
 66
     1
  2
_OPEN
 10
1370.858964708914
 20
528.4411486301805
 30
0.0
 41
2.0
 42
2.0
 43
2.0
 50
90.0
  0
SEQEND
  5
341
  8
回08-記事
  6
CONTINUOUS
 62
     7
  0
TEXT
  5
342
  8
回07-寸法
  6
CONTINUOUS
 62
     5
 10
1370.208964708914
 20
509.6411486301803
 30
0.0
 40
3.0
  1
3[0.118]
 50
90.0
1001
ACAD
1000
MTEXTBEGIN
1070
    73
1070
     1
1070
    44
1040
1.0
1070
    74
1070
     0
1000
MTEXTEND
  0
POINT
  5
343
  8
DEFPOINTS
  6
CONTINUOUS
 62
     0
 10
1384.24177729573
 20
540.4411486301805
 30
0.0
  0
POINT
  5
344
  8
DEFPOINTS
  6
CONTINUOUS
 62
     0
 10
1384.24177729573
 20
528.4411486301805
 30
0.0
  0
POINT
  5
345
  8
DEFPOINTS
  6
CONTINUOUS
 62
     0
 10
1370.858964708914
 20
528.4411486301805
 30
0.0
  0
ENDBLK
  5
346
  8
0
 62
     7
  0
BLOCK
  8
0
  2
*D35
 70
     1
 10
0.0
 20
0.0
 30
0.0
  3
*D35
  1

  0
LINE
  5
328
  8
回07-寸法
  6
CONTINUOUS
 62
     5
 10
1384.24177729573
 20
528.4411486301805
 30
0.0
 11
1376.010684340591
 21
528.4411486301805
 31
0.0
  0
LINE
  5
329
  8
回07-寸法
  6
CONTINUOUS
 62
     5
 10
1384.24177729573
 20
532.4411486301805
 30
0.0
 11
1376.010684340591
 21
532.4411486301805
 31
0.0
  0
LINE
  5
32A
  8
回07-寸法
  6
CONTINUOUS
 62
     5
 10
1377.01068434059
 20
534.4411486301805
 30
0.0
 11
1377.01068434059
 21
536.4411486301805
 31
0.0
  0
LINE
  5
32B
  8
回07-寸法
  6
CONTINUOUS
 62
     5
 10
1377.01068434059
 20
526.4411486301805
 30
0.0
 11
1377.01068434059
 21
509.2666055483461
 31
0.0
  0
LINE
  5
32C
  8
回07-寸法
  6
CONTINUOUS
 62
     5
 10
1377.01068434059
 20
532.4411486301805
 30
0.0
 11
1377.01068434059
 21
528.4411486301805
 31
0.0
  0
INSERT
  5
32D
  8
回07-寸法
  6
CONTINUOUS
 62
     5
 66
     1
  2
_OPEN
 10
1377.01068434059
 20
532.4411486301805
 30
0.0
 41
2.0
 42
2.0
 43
2.0
 50
270.0
  0
SEQEND
  5
32E
  8
回08-記事
  6
CONTINUOUS
 62
     7
  0
INSERT
  5
32F
  8
回07-寸法
  6
CONTINUOUS
 62
     5
 66
     1
  2
_OPEN
 10
1377.01068434059
 20
528.4411486301805
 30
0.0
 41
2.0
 42
2.0
 43
2.0
 50
90.0
  0
SEQEND
  5
330
  8
回08-記事
  6
CONTINUOUS
 62
     7
  0
TEXT
  5
331
  8
回07-寸法
  6
CONTINUOUS
 62
     5
 10
1376.360744246693
 20
509.3164314912967
 30
0.0
 40
3.0
  1
1[0.039]
 50
90.0
1001
ACAD
1000
MTEXTBEGIN
1070
    73
1070
     1
1070
    44
1040
1.0
1070
    74
1070
     0
1000
MTEXTEND
  0
POINT
  5
332
  8
DEFPOINTS
  6
CONTINUOUS
 62
     0
 10
1384.24177729573
 20
528.4411486301805
 30
0.0
  0
POINT
  5
333
  8
DEFPOINTS
  6
CONTINUOUS
 62
     0
 10
1384.24177729573
 20
532.4411486301805
 30
0.0
  0
POINT
  5
334
  8
DEFPOINTS
  6
CONTINUOUS
 62
     0
 10
1377.01068434059
 20
532.4411486301805
 30
0.0
  0
ENDBLK
  5
335
  8
0
 62
     7
  0
BLOCK
  8
0
  2
*D36
 70
     1
 10
0.0
 20
0.0
 30
0.0
  3
*D36
  1

  0
LINE
  5
316
  8
回08-記事
  6
CONTINUOUS
 62
     5
 10
1384.24177729573
 20
529.6411486301805
 30
0.0
 11
1380.984305998748
 21
529.6411486301805
 31
0.0
  0
LINE
  5
317
  8
回08-記事
  6
CONTINUOUS
 62
     5
 10
1384.24177729573
 20
527.2411486301805
 30
0.0
 11
1380.984305998748
 21
527.2411486301805
 31
0.0
  0
LINE
  5
318
  8
回08-記事
  6
CONTINUOUS
 62
     5
 10
1381.984305998748
 20
531.6411486301806
 30
0.0
 11
1381.984305998748
 21
533.6411486301805
 31
0.0
  0
LINE
  5
319
  8
回08-記事
  6
CONTINUOUS
 62
     5
 10
1381.984305998748
 20
525.2411486301805
 30
0.0
 11
1381.984305998748
 21
506.038786425456
 31
0.0
  0
LINE
  5
31A
  8
回08-記事
  6
CONTINUOUS
 62
     5
 10
1381.984305998748
 20
529.6411486301805
 30
0.0
 11
1381.984305998748
 21
527.2411486301805
 31
0.0
  0
INSERT
  5
31B
  8
回08-記事
  6
CONTINUOUS
 62
     5
 66
     1
  2
_OPEN
 10
1381.984305998748
 20
529.6411486301805
 30
0.0
 41
2.0
 42
2.0
 43
2.0
 50
270.0
  0
SEQEND
  5
31C
  8
回08-記事
  6
CONTINUOUS
 62
     7
  0
INSERT
  5
31D
  8
回08-記事
  6
CONTINUOUS
 62
     5
 66
     1
  2
_OPEN
 10
1381.984305998748
 20
527.2411486301805
 30
0.0
 41
2.0
 42
2.0
 43
2.0
 50
90.0
  0
SEQEND
  5
31E
  8
回08-記事
  6
CONTINUOUS
 62
     7
  0
TEXT
  5
31F
  8
回08-記事
  6
CONTINUOUS
 62
     5
 10
1381.334305998748
 20
506.0911486301798
 30
0.0
 40
3.0
  1
0.6[0.024]
 50
90.0
1001
ACAD
1000
MTEXTBEGIN
1070
    73
1070
     1
1070
    44
1040
1.0
1070
    74
1070
     0
1000
MTEXTEND
  0
POINT
  5
320
  8
DEFPOINTS
  6
CONTINUOUS
 62
     0
 10
1384.24177729573
 20
529.6411486301805
 30
0.0
  0
POINT
  5
321
  8
DEFPOINTS
  6
CONTINUOUS
 62
     0
 10
1384.24177729573
 20
527.2411486301805
 30
0.0
  0
POINT
  5
322
  8
DEFPOINTS
  6
CONTINUOUS
 62
     0
 10
1381.984305998748
 20
527.2411486301805
 30
0.0
  0
ENDBLK
  5
323
  8
0
 62
     7
  0
BLOCK
  8
回08-記事
  2
*X37
 70
     1
 10
0.0
 20
0.0
 30
0.0
  3
*X37
  1

  0
INSERT
  5
3B6
  8
回08-記事
  6
CONTINUOUS
 62
     5
  2
_OPEN
 10
1420.62139908632
 20
310.9258567420575
 30
0.0
 41
2.0
 42
2.0
 43
2.0
 50
42.94007859179692
  0
LINE
  5
3B7
  8
回08-記事
  6
CONTINUOUS
 62
     5
 10
1419.157265980211
 20
309.5633905048266
 30
0.0
 11
1410.122314013379
 21
301.1558099655667
 31
0.0
  0
LINE
  5
3B8
  8
回08-記事
  6
CONTINUOUS
 62
     5
 10
1410.122314013379
 20
301.1558099655667
 30
0.0
 11
1383.914814013379
 21
301.1558099655667
 31
0.0
  0
ENDBLK
  5
3BA
  8
回08-記事
  6
CONTINUOUS
 62
     7
  0
BLOCK
  8
回08-記事
  2
*X38
 70
     1
 10
0.0
 20
0.0
 30
0.0
  3
*X38
  1

  0
INSERT
  5
3BD
  8
回08-記事
  6
CONTINUOUS
 62
     5
  2
_OPEN
 10
1419.395723109402
 20
424.6312683157421
 30
0.0
 41
2.0
 42
2.0
 43
2.0
 50
236.6265780747898
  0
LINE
  5
3BE
  8
回08-記事
  6
CONTINUOUS
 62
     5
 10
1420.495909941186
 20
426.3014745710199
 30
0.0
 11
1423.25589624189
 21
430.4914414482307
 31
0.0
  0
LINE
  5
3BF
  8
回08-記事
  6
CONTINUOUS
 62
     5
 10
1423.25589624189
 20
430.4914414482307
 30
0.0
 11
1427.55589624189
 21
430.4914414482307
 31
0.0
  0
ENDBLK
  5
3C1
  8
回08-記事
  6
CONTINUOUS
 62
     7
  0
BLOCK
  8
回08-記事
  2
*X39
 70
     1
 10
0.0
 20
0.0
 30
0.0
  3
*X39
  1

  0
LINE
  5
3C9
  8
回08-記事
  6
CONTINUOUS
 62
     8
 10
1488.256487480983
 20
413.9214783686516
 30
0.0
 11
1488.416512544079
 21
413.7614533055553
 31
0.0
1001
ACAD
1010
0.0
1020
0.0
1030
0.0
  0
LINE
  5
3CA
  8
回08-記事
  6
CONTINUOUS
 62
     8
 10
1488.256487480983
 20
415.0440103837852
 30
0.0
 11
1489.539044559212
 21
413.7614533055555
 31
0.0
1001
ACAD
1010
0.0
1020
0.0
1030
0.0
  0
LINE
  5
3CB
  8
回08-記事
  6
CONTINUOUS
 62
     8
 10
1488.256487480983
 20
416.166542398919
 30
0.0
 11
1490.661576574346
 21
413.7614533055555
 31
0.0
1001
ACAD
1010
0.0
1020
0.0
1030
0.0
  0
LINE
  5
3CC
  8
回08-記事
  6
CONTINUOUS
 62
     8
 10
1488.256487480983
 20
417.2890744140527
 30
0.0
 11
1491.78410858948
 21
413.7614533055553
 31
0.0
1001
ACAD
1010
0.0
1020
0.0
1030
0.0
  0
LINE
  5
3CD
  8
回08-記事
  6
CONTINUOUS
 62
     8
 10
1488.256487480983
 20
418.4116064291865
 30
0.0
 11
1492.906640604614
 21
413.7614533055555
 31
0.0
1001
ACAD
1010
0.0
1020
0.0
1030
0.0
  0
LINE
  5
3CE
  8
回08-記事
  6
CONTINUOUS
 62
     8
 10
1488.256487480983
 20
419.5341384443203
 30
0.0
 11
1494.029172619747
 21
413.7614533055555
 31
0.0
1001
ACAD
1010
0.0
1020
0.0
1030
0.0
  0
LINE
  5
3CF
  8
回08-記事
  6
CONTINUOUS
 62
     8
 10
1488.651704634881
 20
420.2614533055558
 30
0.0
 11
1495.151704634881
 21
413.7614533055557
 31
0.0
1001
ACAD
1010
0.0
1020
0.0
1030
0.0
  0
LINE
  5
3D0
  8
回08-記事
  6
CONTINUOUS
 62
     8
 10
1489.774236650015
 20
420.2614533055557
 30
0.0
 11
1495.954243803642
 21
414.081446151928
 31
0.0
1001
ACAD
1010
0.0
1020
0.0
1030
0.0
  0
LINE
  5
3D1
  8
回08-記事
  6
CONTINUOUS
 62
     8
 10
1490.896768665148
 20
420.2614533055558
 30
0.0
 11
1495.954243803642
 21
415.2039781670618
 31
0.0
1001
ACAD
1010
0.0
1020
0.0
1030
0.0
  0
LINE
  5
3D2
  8
回08-記事
  6
CONTINUOUS
 62
     8
 10
1492.019300680282
 20
420.2614533055556
 30
0.0
 11
1495.954243803642
 21
416.3265101821957
 31
0.0
1001
ACAD
1010
0.0
1020
0.0
1030
0.0
  0
LINE
  5
3D3
  8
回08-記事
  6
CONTINUOUS
 62
     8
 10
1493.141832695416
 20
420.2614533055558
 30
0.0
 11
1495.954243803642
 21
417.4490421973293
 31
0.0
1001
ACAD
1010
0.0
1020
0.0
1030
0.0
  0
LINE
  5
3D4
  8
回08-記事
  6
CONTINUOUS
 62
     8
 10
1494.26436471055
 20
420.2614533055556
 30
0.0
 11
1495.954243803642
 21
418.5715742124632
 31
0.0
1001
ACAD
1010
0.0
1020
0.0
1030
0.0
  0
LINE
  5
3D5
  8
回08-記事
  6
CONTINUOUS
 62
     8
 10
1495.386896725683
 20
420.2614533055557
 30
0.0
 11
1495.954243803642
 21
419.6941062275969
 31
0.0
1001
ACAD
1010
0.0
1020
0.0
1030
0.0
  0
ENDBLK
  5
3D7
  8
回08-記事
  6
CONTINUOUS
 62
     7
  0
BLOCK
  8
回08-記事
  2
*X40
 70
     1
 10
0.0
 20
0.0
 30
0.0
  3
*X40
  1

  0
INSERT
  5
3DA
  8
回07-寸法
  6
CONTINUOUS
 62
     5
  2
_OPEN
 10
1675.363761701495
 20
371.2294968300495
 30
0.0
 41
2.0
 42
2.0
 43
2.0
 50
232.3731267617806
  0
LINE
  5
3DB
  8
回07-寸法
  6
CONTINUOUS
 62
     5
 10
1676.584795104704
 20
372.8135035940021
 30
0.0
 11
1678.590622389077
 21
375.4155978343538
 31
0.0
  0
LINE
  5
3DC
  8
回07-寸法
  6
CONTINUOUS
 62
     5
 10
1678.590622389077
 20
375.4155978343538
 30
0.0
 11
1695.490622389077
 21
375.4155978343538
 31
0.0
  0
ENDBLK
  5
3DE
  8
回08-記事
  6
CONTINUOUS
 62
     7
  0
BLOCK
  8
回08-記事
  2
*X41
 70
     1
 10
0.0
 20
0.0
 30
0.0
  3
*X41
  1

  0
INSERT
  5
3E1
  8
回07-寸法
  6
CONTINUOUS
 62
     5
  2
_OPEN
 10
1487.531769348
 20
429.2870121796187
 30
0.0
 41
2.0
 42
2.0
 43
2.0
 50
316.2992780126367
  0
LINE
  5
3E2
  8
回07-寸法
  6
CONTINUOUS
 62
     5
 10
1486.085852467992
 20
430.6687952219625
 30
0.0
 11
1484.5231696906
 21
432.1621649946098
 31
0.0
  0
LINE
  5
3E3
  8
回07-寸法
  6
CONTINUOUS
 62
     5
 10
1484.5231696906
 20
432.1621649946098
 30
0.0
 11
1474.5231696906
 21
432.1621649946098
 31
0.0
  0
ENDBLK
  5
3E5
  8
回08-記事
  6
CONTINUOUS
 62
     7
  0
BLOCK
  8
回08-記事
  2
*X42
 70
     1
 10
0.0
 20
0.0
 30
0.0
  3
*X42
  1

  0
INSERT
  5
3E8
  8
回07-寸法
  6
CONTINUOUS
 62
     5
  2
_OPEN
 10
1492.279022789763
 20
430.0233571269743
 30
0.0
 41
2.0
 42
2.0
 43
2.0
 50
304.4533960444851
  0
LINE
  5
3E9
  8
回07-寸法
  6
CONTINUOUS
 62
     5
 10
1491.147551366573
 20
431.6725303800031
 30
0.0
 11
1486.99208370765
 21
437.7293215427903
 31
0.0
  0
LINE
  5
3EA
  8
回07-寸法
  6
CONTINUOUS
 62
     5
 10
1486.99208370765
 20
437.7293215427903
 30
0.0
 11
1476.691420336969
 21
437.7293215427903
 31
0.0
  0
ENDBLK
  5
3EC
  8
回08-記事
  6
CONTINUOUS
 62
     7
  0
BLOCK
  8
回08-記事
  2
*X43
 70
     1
 10
0.0
 20
0.0
 30
0.0
  3
*X43
  1

  0
INSERT
  5
3EF
  8
回08-記事
  6
CONTINUOUS
 62
     5
  2
_OPEN
 10
1451.328905703365
 20
312.7084196002807
 30
0.0
 41
2.0
 42
2.0
 43
2.0
 50
247.6626868301214
  0
LINE
  5
3F0
  8
回08-記事
  6
CONTINUOUS
 62
     5
 10
1452.089022924247
 20
314.5583444124066
 30
0.0
 11
1458.630456339162
 21
330.4784678468995
 31
0.0
  0
LINE
  5
3F1
  8
回08-記事
  6
CONTINUOUS
 62
     5
 10
1458.630456339162
 20
330.4784678468995
 30
0.0
 11
1499.530456339162
 21
330.4784678468995
 31
0.0
  0
ENDBLK
  5
3F3
  8
回08-記事
  6
CONTINUOUS
 62
     7
  0
BLOCK
  8
回08-記事
  2
*X44
 70
     1
 10
0.0
 20
0.0
 30
0.0
  3
*X44
  1

  0
LINE
  5
3FB
  8
回08-記事
  6
CONTINUOUS
 62
     8
 10
1436.936117181244
 20
422.4068449510952
 30
0.0
 11
1437.790725535705
 21
423.2614533055564
 31
0.0
1001
ACAD
1010
0.0
1020
0.0
1030
0.0
  0
LINE
  5
3FC
  8
回08-記事
  6
CONTINUOUS
 62
     8
 10
1436.936117181244
 20
421.0598065329349
 30
0.0
 11
1439.137763953865
 21
423.2614533055564
 31
0.0
1001
ACAD
1010
0.0
1020
0.0
1030
0.0
  0
LINE
  5
3FD
  8
回08-記事
  6
CONTINUOUS
 62
     8
 10
1436.938285685757
 20
419.7149366192875
 30
0.0
 11
1440.484802372026
 21
423.2614533055564
 31
0.0
1001
ACAD
1010
0.0
1020
0.0
1030
0.0
  0
LINE
  5
3FE
  8
回08-記事
  6
CONTINUOUS
 62
     8
 10
1437.831840790186
 20
419.2614533055565
 30
0.0
 11
1441.831840790186
 21
423.2614533055564
 31
0.0
1001
ACAD
1010
0.0
1020
0.0
1030
0.0
  0
LINE
  5
3FF
  8
回08-記事
  6
CONTINUOUS
 62
     8
 10
1439.178879208347
 20
419.2614533055566
 30
0.0
 11
1443.178879208347
 21
423.2614533055566
 31
0.0
1001
ACAD
1010
0.0
1020
0.0
1030
0.0
  0
LINE
  5
400
  8
回08-記事
  6
CONTINUOUS
 62
     8
 10
1440.525917626507
 20
419.2614533055566
 30
0.0
 11
1444.525917626507
 21
423.2614533055566
 31
0.0
1001
ACAD
1010
0.0
1020
0.0
1030
0.0
  0
LINE
  5
401
  8
回08-記事
  6
CONTINUOUS
 62
     8
 10
1441.872956044668
 20
419.2614533055565
 30
0.0
 11
1445.872956044668
 21
423.2614533055567
 31
0.0
1001
ACAD
1010
0.0
1020
0.0
1030
0.0
  0
LINE
  5
402
  8
回08-記事
  6
CONTINUOUS
 62
     8
 10
1443.219994462828
 20
419.2614533055563
 30
0.0
 11
1447.219994462828
 21
423.2614533055563
 31
0.0
1001
ACAD
1010
0.0
1020
0.0
1030
0.0
  0
LINE
  5
403
  8
回08-記事
  6
CONTINUOUS
 62
     8
 10
1444.567032880988
 20
419.2614533055563
 30
0.0
 11
1448.567032880989
 21
423.2614533055564
 31
0.0
1001
ACAD
1010
0.0
1020
0.0
1030
0.0
  0
LINE
  5
404
  8
回08-記事
  6
CONTINUOUS
 62
     8
 10
1445.914071299149
 20
419.2614533055563
 30
0.0
 11
1449.914071299149
 21
423.2614533055564
 31
0.0
1001
ACAD
1010
0.0
1020
0.0
1030
0.0
  0
LINE
  5
405
  8
回08-記事
  6
CONTINUOUS
 62
     8
 10
1447.26110971731
 20
419.2614533055563
 30
0.0
 11
1451.26110971731
 21
423.2614533055564
 31
0.0
1001
ACAD
1010
0.0
1020
0.0
1030
0.0
  0
LINE
  5
406
  8
回08-記事
  6
CONTINUOUS
 62
     8
 10
1448.60814813547
 20
419.2614533055564
 30
0.0
 11
1452.60814813547
 21
423.2614533055565
 31
0.0
1001
ACAD
1010
0.0
1020
0.0
1030
0.0
  0
LINE
  5
407
  8
回08-記事
  6
CONTINUOUS
 62
     8
 10
1449.955186553631
 20
419.2614533055563
 30
0.0
 11
1453.955186553631
 21
423.2614533055564
 31
0.0
1001
ACAD
1010
0.0
1020
0.0
1030
0.0
  0
LINE
  5
408
  8
回08-記事
  6
CONTINUOUS
 62
     8
 10
1451.302224971791
 20
419.2614533055563
 30
0.0
 11
1455.302224971791
 21
423.2614533055564
 31
0.0
1001
ACAD
1010
0.0
1020
0.0
1030
0.0
  0
LINE
  5
409
  8
回08-記事
  6
CONTINUOUS
 62
     8
 10
1452.649263389952
 20
419.2614533055563
 30
0.0
 11
1456.649263389952
 21
423.2614533055564
 31
0.0
1001
ACAD
1010
0.0
1020
0.0
1030
0.0
  0
LINE
  5
40A
  8
回08-記事
  6
CONTINUOUS
 62
     8
 10
1453.996301808112
 20
419.2614533055565
 30
0.0
 11
1457.996301808112
 21
423.2614533055568
 31
0.0
1001
ACAD
1010
0.0
1020
0.0
1030
0.0
  0
LINE
  5
40B
  8
回08-記事
  6
CONTINUOUS
 62
     8
 10
1455.343340226272
 20
419.2614533055565
 30
0.0
 11
1459.343340226273
 21
423.2614533055565
 31
0.0
1001
ACAD
1010
0.0
1020
0.0
1030
0.0
  0
LINE
  5
40C
  8
回08-記事
  6
CONTINUOUS
 62
     8
 10
1456.690378644433
 20
419.2614533055563
 30
0.0
 11
1460.690378644433
 21
423.2614533055564
 31
0.0
1001
ACAD
1010
0.0
1020
0.0
1030
0.0
  0
LINE
  5
40D
  8
回08-記事
  6
CONTINUOUS
 62
     8
 10
1458.037417062594
 20
419.2614533055564
 30
0.0
 11
1462.037417062594
 21
423.2614533055565
 31
0.0
1001
ACAD
1010
0.0
1020
0.0
1030
0.0
  0
LINE
  5
40E
  8
回08-記事
  6
CONTINUOUS
 62
     8
 10
1459.384455480754
 20
419.2614533055565
 30
0.0
 11
1462.933687487357
 21
422.8106853121595
 31
0.0
1001
ACAD
1010
0.0
1020
0.0
1030
0.0
  0
LINE
  5
40F
  8
回08-記事
  6
CONTINUOUS
 62
     8
 10
1460.731493898915
 20
419.2614533055565
 30
0.0
 11
1462.936117181244
 21
421.466076587886
 31
0.0
1001
ACAD
1010
0.0
1020
0.0
1030
0.0
  0
LINE
  5
410
  8
回08-記事
  6
CONTINUOUS
 62
     8
 10
1462.078532317075
 20
419.2614533055566
 30
0.0
 11
1462.936117181244
 21
420.1190381697253
 31
0.0
1001
ACAD
1010
0.0
1020
0.0
1030
0.0
  0
ENDBLK
  5
412
  8
回08-記事
  6
CONTINUOUS
 62
     7
  0
BLOCK
  8
回08-記事
  2
*X45
 70
     1
 10
0.0
 20
0.0
 30
0.0
  3
*X45
  1

  0
INSERT
  5
41E
  8
回08-記事
  6
CONTINUOUS
 62
     5
  2
_OPEN
 10
1451.328905703365
 20
309.2829767520837
 30
0.0
 41
2.0
 42
2.0
 43
2.0
 50
101.4636412735499
  0
LINE
  5
41F
  8
回08-記事
  6
CONTINUOUS
 62
     5
 10
1451.726397811764
 20
307.3228747078624
 30
0.0
 11
1452.801391643196
 21
302.021894985265
 31
0.0
  0
LINE
  5
420
  8
回08-記事
  6
CONTINUOUS
 62
     5
 10
1452.801391643196
 20
302.021894985265
 30
0.0
 11
1474.501391643196
 21
302.021894985265
 31
0.0
  0
ENDBLK
  5
422
  8
回08-記事
  6
CONTINUOUS
 62
     7
  0
BLOCK
  8
回08-記事
  2
*X46
 70
     1
 10
0.0
 20
0.0
 30
0.0
  3
*X46
  1

  0
LINE
  5
434
  8
回08-記事
  6
CONTINUOUS
 62
     7
 10
1488.354243803643
 20
309.5808220353859
 30
0.0
 11
1488.699278510314
 21
309.9258567420575
 31
0.0
1001
ACAD
1010
0.0
1020
0.0
1030
0.0
  0
LINE
  5
435
  8
回08-記事
  6
CONTINUOUS
 62
     7
 10
1489.944342540582
 20
308.9258567420574
 30
0.0
 11
1490.944342540582
 21
309.9258567420575
 31
0.0
1001
ACAD
1010
0.0
1020
0.0
1030
0.0
  0
LINE
  5
436
  8
回08-記事
  6
CONTINUOUS
 62
     7
 10
1491.454243803643
 20
308.1906939748512
 30
0.0
 11
1492.454243803643
 21
309.1906939748513
 31
0.0
1001
ACAD
1010
0.0
1020
0.0
1030
0.0
  0
LINE
  5
437
  8
回08-記事
  6
CONTINUOUS
 62
     7
 10
1492.434470601116
 20
306.9258567420575
 30
0.0
 11
1493.434470601116
 21
307.9258567420575
 31
0.0
1001
ACAD
1010
0.0
1020
0.0
1030
0.0
  0
LINE
  5
438
  8
回08-記事
  6
CONTINUOUS
 62
     7
 10
1494.679534631384
 20
306.9258567420575
 30
0.0
 11
1495.679534631384
 21
307.9258567420575
 31
0.0
1001
ACAD
1010
0.0
1020
0.0
1030
0.0
  0
ENDBLK
  5
43A
  8
回08-記事
  6
CONTINUOUS
 62
     7
  0
BLOCK
  8
回08-記事
  2
*X47
 70
     1
 10
0.0
 20
0.0
 30
0.0
  3
*X47
  1

  0
TEXT
  5
485
  8
回07-寸法
  6
CONTINUOUS
 62
     5
 10
1688.500065627191
 20
274.2264391423446
 30
0.0
 40
3.0
  1
2.1
 50
90.0
  0
TEXT
  5
486
  8
回07-寸法
  6
CONTINUOUS
 62
     5
 10
1688.500065627191
 20
278.7264391423446
 30
0.0
 40
2.000099999999999
  1
±0.2
 50
90.0
  0
TEXT
  5
487
  8
回07-寸法
  6
CONTINUOUS
 62
     5
 10
1688.500065627191
 20
283.5266791423446
 30
0.0
 40
3.0
  1
[0.079
 50
90.0
  0
TEXT
  5
488
  8
回07-寸法
  6
CONTINUOUS
 62
     5
 10
1688.500065627191
 20
294.0375102479256
 30
0.0
 40
2.000099999999999
  1
±0.008
 50
90.0
  0
TEXT
  5
489
  8
回07-寸法
  6
CONTINUOUS
 62
     5
 10
1688.500065627191
 20
301.6378902479257
 30
0.0
 40
3.0
  1
]
 50
90.0
  0
ENDBLK
  5
48B
  8
回08-記事
  6
CONTINUOUS
 62
     7
  0
BLOCK
  8
回08-記事
  2
*X48
 70
     1
 10
0.0
 20
0.0
 30
0.0
  3
*X48
  1

  0
TEXT
  5
48E
  8
回07-寸法
  6
CONTINUOUS
 62
     5
 10
1407.327154686463
 20
317.4782189467817
 30
0.0
 40
3.0
  1
0.3
 50
90.0
  0
TEXT
  5
48F
  8
回07-寸法
  6
CONTINUOUS
 62
     5
 10
1407.327154686463
 20
322.5782189467816
 30
0.0
 40
2.000099999999999
  1
±0.05
 50
90.0
  0
TEXT
  5
490
  8
回07-寸法
  6
CONTINUOUS
 62
     5
 10
1407.327154686463
 20
328.7785289467815
 30
0.0
 40
3.0
  1
[0.012
 50
90.0
  0
TEXT
  5
491
  8
回07-寸法
  6
CONTINUOUS
 62
     5
 10
1407.327154686463
 20
338.6785289467816
 30
0.0
 40
2.000099999999999
  1
±0.002
 50
90.0
  0
TEXT
  5
492
  8
回07-寸法
  6
CONTINUOUS
 62
     5
 10
1407.327154686463
 20
346.2789089467817
 30
0.0
 40
3.0
  1
]
 50
90.0
  0
ENDBLK
  5
494
  8
回08-記事
  6
CONTINUOUS
 62
     7
  0
BLOCK
  8
回08-記事
  2
*X49
 70
     1
 10
0.0
 20
0.0
 30
0.0
  3
*X49
  1

  0
TEXT
  5
497
  8
回07-寸法
  6
CONTINUOUS
 62
     5
 10
1402.025959688059
 20
385.8407962570245
 30
0.0
 40
3.0
  1
5
 50
90.0
  0
TEXT
  5
498
  8
回07-寸法
  6
CONTINUOUS
 62
     5
 10
1402.025959688059
 20
387.9407962570244
 30
0.0
 40
2.1
  1
±0.1
 50
90.0
  0
TEXT
  5
499
  8
回07-寸法
  6
CONTINUOUS
 62
     5
 10
1402.025959688059
 20
392.5607962570243
 30
0.0
 40
3.0
  1
 [0.197
 50
90.0
  0
TEXT
  5
49A
  8
回07-寸法
  6
CONTINUOUS
 62
     5
 10
1402.025959688059
 20
404.2716273626052
 30
0.0
 40
2.1
  1
±0.004
 50
90.0
  0
TEXT
  5
49B
  8
回07-寸法
  6
CONTINUOUS
 62
     5
 10
1402.025959688059
 20
412.4616273626052
 30
0.0
 40
3.0
  1
]
 50
90.0
  0
ENDBLK
  5
49D
  8
回08-記事
  6
CONTINUOUS
 62
     7
  0
BLOCK
  8
回08-記事
  2
*X50
 70
     1
 10
0.0
 20
0.0
 30
0.0
  3
*X50
  1

  0
TEXT
  5
4A0
  8
回07-寸法
  6
CONTINUOUS
 62
     5
 10
1440.586599693809
 20
455.2015644457891
 30
0.0
 40
3.0
  1
75
  0
TEXT
  5
4A1
  8
回07-寸法
  6
CONTINUOUS
 62
     5
 10
1444.786599693809
 20
455.2015644457891
 30
0.0
 40
2.1
  1
±1
  0
TEXT
  5
4A2
  8
回07-寸法
  6
CONTINUOUS
 62
     5
 10
1447.306599693809
 20
455.2015644457891
 30
0.0
 40
3.0
  1
 [2.953
  0
TEXT
  5
4A3
  8
回07-寸法
  6
CONTINUOUS
 62
     5
 10
1459.617430799389
 20
455.2015644457891
 30
0.0
 40
2.1
  1
±0.039
  0
TEXT
  5
4A4
  8
回07-寸法
  6
CONTINUOUS
 62
     5
 10
1467.605012573296
 20
455.2015644457891
 30
0.0
 40
3.0
  1
]
  0
ENDBLK
  5
4A6
  8
回08-記事
  6
CONTINUOUS
 62
     7
  0
BLOCK
  8
回08-記事
  2
*X51
 70
     1
 10
0.0
 20
0.0
 30
0.0
  3
*X51
  1

  0
TEXT
  5
4A9
  8
回07-寸法
  6
CONTINUOUS
 62
     5
 10
1680.204243803642
 20
521.7191016420168
 30
0.0
 40
3.0
  1
5.15 [0.203]
  0
TEXT
  5
4AA
  8
回07-寸法
  6
CONTINUOUS
 62
     5
 10
1700.304243803642
 20
521.7191016420168
 30
0.0
 40
1.9689
  1
(INSULATION AREA)
  0
ENDBLK
  5
4AC
  8
回08-記事
  6
CONTINUOUS
 62
     7
  0
BLOCK
  8
回08-記事
  2
*X52
 70
     1
 10
0.0
 20
0.0
 30
0.0
  3
*X52
  1

  0
TEXT
  5
4AF
  8
回07-寸法
  6
CONTINUOUS
 62
     5
 10
1445.114223961123
 20
521.7191016420168
 30
0.0
 40
3.0
  1
5.15 [0.203]
  0
TEXT
  5
4B0
  8
回07-寸法
  6
CONTINUOUS
 62
     5
 10
1465.214223961123
 20
521.7191016420168
 30
0.0
 40
1.9689
  1
(INSULATION AREA)
  0
ENDBLK
  5
4B2
  8
回08-記事
  6
CONTINUOUS
 62
     7
  0
BLOCK
  8
回08-記事
  2
*X53
 70
     1
 10
0.0
 20
0.0
 30
0.0
  3
*X53
  1

  0
TEXT
  5
4B5
  8
回07-寸法
  6
CONTINUOUS
 62
     5
 10
1566.904243803643
 20
529.0193798627901
 30
0.0
 40
3.0
  1
183.7
  0
TEXT
  5
4B6
  8
回07-寸法
  6
CONTINUOUS
 62
     5
 10
1575.604243803643
 20
529.0193798627901
 30
0.0
 40
2.1
  1
±0.3
  0
TEXT
  5
4B7
  8
回07-寸法
  6
CONTINUOUS
 62
     5
 10
1580.644243803642
 20
529.0193798627901
 30
0.0
 40
3.0
  1
 [7.232
  0
TEXT
  5
4B8
  8
回07-寸法
  6
CONTINUOUS
 62
     5
 10
1592.944243803643
 20
529.0193798627901
 30
0.0
 40
2.1
  1
±0.012
  0
TEXT
  5
4B9
  8
回07-寸法
  6
CONTINUOUS
 62
     5
 10
1600.504243803642
 20
529.0193798627901
 30
0.0
 40
3.0
  1
]
  0
ENDBLK
  5
4BB
  8
回08-記事
  6
CONTINUOUS
 62
     7
  0
BLOCK
  8
回08-記事
  2
*X54
 70
     1
 10
0.0
 20
0.0
 30
0.0
  3
*X54
  1

  0
TEXT
  5
4BE
  8
回07-寸法
  6
CONTINUOUS
 62
     5
 10
1732.677586097388
 20
495.8614533055558
 30
0.0
 40
3.0
  1
5.15 [0.203]
 50
90.0
  0
TEXT
  5
4BF
  8
回07-寸法
  6
CONTINUOUS
 62
     5
 10
1732.677586097388
 20
515.9614533055558
 30
0.0
 40
1.9689
  1
(INSULATION AREA)
 50
90.0
  0
ENDBLK
  5
4C1
  8
回08-記事
  6
CONTINUOUS
 62
     7
  0
BLOCK
  8
回08-記事
  2
*X55
 70
     1
 10
0.0
 20
0.0
 30
0.0
  3
*X55
  1

  0
TEXT
  5
4C4
  8
回07-寸法
  6
CONTINUOUS
 62
     5
 10
1732.677586097389
 20
303.3714334630363
 30
0.0
 40
3.0
  1
5.15 [0.203]
 50
90.0
  0
TEXT
  5
4C5
  8
回07-寸法
  6
CONTINUOUS
 62
     5
 10
1732.677586097389
 20
323.4714334630362
 30
0.0
 40
1.9689
  1
(INSULATION AREA)
 50
90.0
  0
ENDBLK
  5
4C7
  8
回08-記事
  6
CONTINUOUS
 62
     7
  0
BLOCK
  8
回08-記事
  2
*X56
 70
     1
 10
0.0
 20
0.0
 30
0.0
  3
*X56
  1

  0
TEXT
  5
4CA
  8
回07-寸法
  6
CONTINUOUS
 62
     5
 10
1741.876697470462
 20
404.3114533055558
 30
0.0
 40
3.0
  1
141.1
 50
90.0
  0
TEXT
  5
4CB
  8
回07-寸法
  6
CONTINUOUS
 62
     5
 10
1741.876697470462
 20
412.1114533055559
 30
0.0
 40
2.1
  1
±0.3
 50
90.0
  0
TEXT
  5
4CC
  8
回07-寸法
  6
CONTINUOUS
 62
     5
 10
1741.876697470462
 20
417.1514533055558
 30
0.0
 40
3.0
  1
 [5.555
 50
90.0
  0
TEXT
  5
4CD
  8
回07-寸法
  6
CONTINUOUS
 62
     5
 10
1741.876697470462
 20
429.4514533055558
 30
0.0
 40
2.1
  1
±0.012
 50
90.0
  0
TEXT
  5
4CE
  8
回07-寸法
  6
CONTINUOUS
 62
     5
 10
1741.876697470462
 20
437.0114533055557
 30
0.0
 40
3.0
  1
]
 50
90.0
  0
ENDBLK
  5
4D0
  8
回08-記事
  6
CONTINUOUS
 62
     7
  0
BLOCK
  8
回08-記事
  2
*X57
 70
     1
 10
0.0
 20
0.0
 30
0.0
  3
*X57
  1

  0
TEXT
  5
4D3
  8
回07-寸法
  6
CONTINUOUS
 62
     5
 10
1363.995478606739
 20
494.9798815816473
 30
0.0
 40
3.0
  1
5
 50
90.0
  0
TEXT
  5
4D4
  8
回07-寸法
  6
CONTINUOUS
 62
     5
 10
1363.995478606739
 20
497.0798815816472
 30
0.0
 40
2.000099999999999
  1
±0.1
 50
90.0
  0
TEXT
  5
4D5
  8
回07-寸法
  6
CONTINUOUS
 62
     5
 10
1363.995478606739
 20
501.4801015816471
 30
0.0
 40
3.0
  1
[0.197
 50
90.0
  0
TEXT
  5
4D6
  8
回07-寸法
  6
CONTINUOUS
 62
     5
 10
1363.995478606739
 20
511.390932687228
 30
0.0
 40
2.000099999999999
  1
±0.004
 50
90.0
  0
TEXT
  5
4D7
  8
回07-寸法
  6
CONTINUOUS
 62
     5
 10
1363.995478606739
 20
519.1913226872282
 30
0.0
 40
3.0
  1
]
 50
90.0
  0
ENDBLK
  5
4D9
  8
回08-記事
  6
CONTINUOUS
 62
     7
  0
ENDSEC
  0
SECTION
  2
ENTITIES
  0
TEXT
  5
5E
  8
回03-記事
  6
CONTINUOUS
 62
     5
 10
1502.717009966555
 20
241.9484735836265
 30
0.0
 40
4.8
  1
without affecting product specification.
  0
TEXT
  5
60
  8
回03-記事
  6
CONTINUOUS
 62
     5
 10
1502.717009966555
 20
250.3681792978265
 30
0.0
 40
4.8
  1
Edges and corners of ITO glass may be chamfered 
  0
TEXT
  5
61
  8
回03-記事
  6
CONTINUOUS
 62
     5
 10
1502.717009966555
 20
258.7878850120263
 30
0.0
 40
4.8
  1
Unit: mm
  0
TEXT
  5
62
  8
回03-記事
  6
CONTINUOUS
 62
     5
 10
1502.717009966555
 20
267.207590726226
 30
0.0
 40
4.8
  1
EXCEPT WHERE INDICATED
  0
TEXT
  5
63
  8
回03-記事
  6
CONTINUOUS
 62
     5
 10
1502.717009966555
 20
275.6272964404258
 30
0.0
 40
4.8
  1
TOLERANCE=±0.5mm
  0
TEXT
  5
64
  8
回08-記事
  6
CONTINUOUS
 62
     5
 10
1383.464814013379
 20
302.4058099655667
 30
0.0
 40
3.0
  1
Trace Expose
1001
ACAD
1000
MTEXTBEGIN
1070
    73
1070
     1
1070
    44
1040
1.0
1070
    74
1070
     0
1000
MTEXTEND
  0
INSERT
  5
65
  8
回08-記事
  6
CONTINUOUS
 62
     8
 66
     1
  2
*X37
 10
0.0
 20
0.0
 30
0.0
  0
SEQEND
  5
3BB
  8
回08-記事
  6
CONTINUOUS
 62
     7
  0
TEXT
  5
66
  8
回08-記事
  6
CONTINUOUS
 62
     5
 10
1460.680456339162
 20
326.0153032595399
 30
0.0
 40
3.0
  1
QST-084A075H
1001
ACAD
1000
MTEXTBEGIN
1070
    73
1070
     1
1070
    44
1040
1.0
1070
    74
1070
     0
1000
MTEXTEND
  0
TEXT
  5
67
  8
回07-寸法
  6
CONTINUOUS
 62
     5
 10
1680.640622389077
 20
370.9441453622849
 30
0.0
 40
3.0
  1
QST-084A
1001
ACAD
1000
MTEXTBEGIN
1070
    73
1070
     1
1070
    44
1040
1.0
1070
    74
1070
     0
1000
MTEXTEND
  0
TEXT
  5
6C
  8
回08-記事
  6
CONTINUOUS
 62
     5
 10
1425.30589624189
 20
430.9914414482307
 30
0.0
 40
3.0
  1
A
1001
ACAD
1000
MTEXTBEGIN
1070
    73
1070
     1
1070
    44
1040
1.0
1070
    74
1070
     0
1000
MTEXTEND
  0
INSERT
  5
6D
  8
回08-記事
  6
CONTINUOUS
 62
     7
 66
     1
  2
*X38
 10
0.0
 20
0.0
 30
0.0
  0
SEQEND
  5
3C2
  8
回08-記事
  6
CONTINUOUS
 62
     7
  0
CIRCLE
  5
6E
  8
回08-記事
  6
CONTINUOUS
 62
     5
 10
1418.589185780796
 20
421.2614533055564
 30
0.0
 40
7.742816109002717
  0
POLYLINE
  5
6F
  8
回08-記事
  6
CONTINUOUS
 62
     8
 66
     1
 10
0.0
 20
0.0
 30
0.0
 70
     1
1001
ACAD
1000
ASC_BOUNDS
1002
{
1070
    19
1005
70
1002
}
  0
VERTEX
  5
3C3
  8
回08-記事
  6
CONTINUOUS
 62
     8
 10
1488.256487480983
 20
413.7614533055555
 30
0.0
  0
VERTEX
  5
3C5
  8
回08-記事
  6
CONTINUOUS
 62
     8
 10
1495.954243803642
 20
413.7614533055555
 30
0.0
  0
VERTEX
  5
3C6
  8
回08-記事
  6
CONTINUOUS
 62
     8
 10
1495.954243803642
 20
420.2614533055557
 30
0.0
  0
VERTEX
  5
3C7
  8
回08-記事
  6
CONTINUOUS
 62
     8
 10
1488.256487480983
 20
420.2614533055557
 30
0.0
  0
SEQEND
  5
3C4
  8
回08-記事
  6
CONTINUOUS
 62
     7
  0
INSERT
  5
70
  8
回08-記事
  6
CONTINUOUS
 62
     8
 66
     1
  2
*X39
 10
0.0
 20
0.0
 30
0.0
1001
ACAD
1010
0.0
1020
0.0
1030
0.0
  0
SEQEND
  5
3D8
  8
回08-記事
  6
CONTINUOUS
 62
     7
  0
TEXT
  5
71
  8
回08-記事
  6
CONTINUOUS
 62
     5
 10
1417.372537750084
 20
416.4588450478459
 30
0.0
 40
4.0
  1
1
 50
90.0
  0
TEXT
  5
72
  8
回08-記事
  6
CONTINUOUS
 62
     5
 10
1417.360048390011
 20
425.0011636721755
 30
0.0
 40
4.0
  1
4
 50
90.0
  0
TEXT
  5
73
  8
回07-寸法
  6
CONTINUOUS
 62
     5
 10
1680.640622389077
 20
375.9155978343538
 30
0.0
 40
3.0
  1
Part No.
1001
ACAD
1000
MTEXTBEGIN
1070
    73
1070
     1
1070
    44
1040
1.0
1070
    74
1070
     0
1000
MTEXTEND
  0
INSERT
  5
74
  8
回07-寸法
  6
CONTINUOUS
 62
     7
 66
     1
  2
*X40
 10
0.0
 20
0.0
 30
0.0
  0
SEQEND
  5
3DF
  8
回08-記事
  6
CONTINUOUS
 62
     7
  0
DIMENSION
  5
75
  8
回07-寸法
  6
CONTINUOUS
 62
     3
  2
*D32
 10
1742.526697470462
 20
491.8114533055566
 30
0.0
 11
1740.376697470462
 21
421.261453305556
 31
0.0
 70
     0
  3
DMC
 13
1676.154243803642
 23
350.7114533055565
 33
0.0
 14
1676.154243803642
 24
491.8114533055564
 34
0.0
 50
90.0
1001
ACAD
1000
DSTYLE
1002
{
1070
    47
1040
0.3
1070
    48
1040
0.3
1070
    71
1070
     1
1070
   170
1070
     1
1070
   371
1070
     9
1070
   372
1070
     9
1002
}
  0
DIMENSION
  5
83
  8
回07-寸法
  6
CONTINUOUS
 62
     7
  2
*D31
 10
1733.327586097389
 20
350.7114533055566
 30
0.0
 11
1731.177586097389
 21
325.0164433842962
 31
0.0
 70
     0
  1
<>{\H0.6563x;(INSULATION AREA)}
  3
DMC
 13
1671.004243803642
 23
355.8614533055564
 33
0.0
 14
1676.154243803642
 24
350.7114533055565
 34
0.0
 50
90.0
1001
ACAD
1000
DSTYLE
1002
{
1070
   170
1070
     1
1070
   371
1070
     9
1070
   372
1070
     9
1002
}
  0
DIMENSION
  5
94
  8
回07-寸法
  6
CONTINUOUS
 62
     7
  2
*D30
 10
1723.821835633213
 20
350.7114533055566
 30
0.0
 11
1721.671835633212
 21
336.3114533055561
 31
0.0
 70
     0
  3
DMC
 13
1670.504243803642
 23
356.3614533055564
 33
0.0
 14
1676.154243803642
 24
350.7114533055565
 34
0.0
 50
90.0
1001
ACAD
1000
DSTYLE
1002
{
1070
   170
1070
     1
1070
   371
1070
     9
1070
   372
1070
     9
1002
}
  0
DIMENSION
  5
A5
  8
回07-寸法
  6
CONTINUOUS
 62
     7
  2
*D29
 10
1714.31609283904
 20
350.7114533055566
 30
0.0
 11
1712.166092839039
 21
336.2216895260285
 31
0.0
 70
     0
  3
DMC
 13
1669.504243803643
 23
357.3614533055564
 33
0.0
 14
1676.154243803642
 24
350.7114533055565
 34
0.0
 50
90.0
1001
ACAD
1000
DSTYLE
1002
{
1070
   170
1070
     1
1070
   371
1070
     9
1070
   372
1070
     9
1002
}
  0
DIMENSION
  5
B6
  8
回07-寸法
  6
CONTINUOUS
 62
     7
  2
*D28
 10
1733.327586097389
 20
491.8114533055566
 30
0.0
 11
1731.177586097389
 21
517.5064632268158
 31
0.0
 70
     0
  1
<>{\H0.6563x;(INSULATION AREA)}
  3
DMC
 13
1671.004243803642
 23
486.6614533055564
 33
0.0
 14
1676.154243803642
 24
491.8114533055564
 34
0.0
 50
90.0
1001
ACAD
1000
DSTYLE
1002
{
1070
   170
1070
     1
1070
   371
1070
     9
1070
   372
1070
     9
1002
}
  0
DIMENSION
  5
C7
  8
回07-寸法
  6
CONTINUOUS
 62
     7
  2
*D27
 10
1723.821835633213
 20
491.8114533055566
 30
0.0
 11
1721.671835633212
 21
507.4102722031938
 31
0.0
 70
     0
  1
(<>)
  3
DMC
 13
1670.504243803642
 23
486.1614533055564
 33
0.0
 14
1676.154243803642
 24
491.8114533055564
 34
0.0
 50
90.0
1001
ACAD
1000
DSTYLE
1002
{
1070
   170
1070
     1
1070
   371
1070
     9
1070
   372
1070
     9
1002
}
  0
DIMENSION
  5
D8
  8
回07-寸法
  6
CONTINUOUS
 62
     7
  2
*D26
 10
1714.31609283904
 20
491.8114533055566
 30
0.0
 11
1712.166092839039
 21
507.4102722031938
 31
0.0
 70
     0
  1
(<>)
  3
DMC
 13
1669.504243803643
 23
485.1614533055564
 33
0.0
 14
1676.154243803642
 24
491.8114533055564
 34
0.0
 50
90.0
1001
ACAD
1000
DSTYLE
1002
{
1070
   170
1070
     1
1070
   371
1070
     9
1070
   372
1070
     9
1002
}
  0
DIMENSION
  5
E9
  8
回07-寸法
  6
CONTINUOUS
 62
     7
  2
*D25
 10
1733.327586097389
 20
486.6614533055567
 30
0.0
 11
1731.177586097389
 21
421.2614533055559
 31
0.0
 70
     0
  3
DMC
 13
1671.004243803642
 23
355.8614533055564
 33
0.0
 14
1671.004243803642
 24
486.6614533055564
 34
0.0
 50
90.0
1001
ACAD
1000
DSTYLE
1002
{
1070
   170
1070
     1
1070
   371
1070
     9
1070
   372
1070
     9
1002
}
  0
DIMENSION
  5
F8
  8
回07-寸法
  6
CONTINUOUS
 62
     7
  2
*D24
 10
1723.821835633213
 20
356.3614533055565
 30
0.0
 11
1721.317470103151
 21
421.2614533055559
 31
0.0
 70
     0
  1
<> (Viewing area)
  3
DMC
 13
1670.504243803642
 23
486.1614533055564
 33
0.0
 14
1670.504243803642
 24
356.3614533055564
 34
0.0
 50
90.0
1001
ACAD
1000
DSTYLE
1002
{
1070
   170
1070
     1
1070
   371
1070
     9
1070
   372
1070
     9
1002
}
  0
DIMENSION
  5
107
  8
回07-寸法
  6
CONTINUOUS
 62
     7
  2
*D23
 10
1714.31609283904
 20
357.3614533055565
 30
0.0
 11
1712.166092839039
 21
421.2614533055559
 31
0.0
 70
     0
  1
<> (Active area)
  3
DMC
 13
1669.504243803643
 23
485.1614533055564
 33
0.0
 14
1669.504243803643
 24
357.3614533055564
 34
0.0
 50
90.0
1001
ACAD
1000
DSTYLE
1002
{
1070
   170
1070
     1
1070
   371
1070
     9
1070
   372
1070
     9
1002
}
  0
DIMENSION
  5
116
  8
回07-寸法
  6
CONTINUOUS
 62
     3
  2
*D22
 10
1676.154243803642
 20
528.3693798627901
 30
0.0
 11
1584.304243803642
 21
530.51937986279
 31
0.0
 70
     0
  3
DMC
 13
1492.454243803643
 23
491.8114533055564
 33
0.0
 14
1676.154243803642
 24
491.8114533055564
 34
0.0
1001
ACAD
1000
DSTYLE
1002
{
1070
    47
1040
0.3
1070
    48
1040
0.3
1070
    71
1070
     1
1070
   170
1070
     1
1070
   371
1070
     9
1070
   372
1070
     9
1002
}
  0
DIMENSION
  5
123
  8
回07-寸法
  6
CONTINUOUS
 62
     5
  2
*D21
 10
1492.454243803643
 20
521.0691016420168
 30
0.0
 11
1466.759233882383
 21
523.2191016420168
 31
0.0
 70
     0
  1
<>{\H0.6563x;(INSULATION AREA)}
  3
DMC
 13
1497.604243803643
 23
486.6614533055564
 33
0.0
 14
1492.454243803643
 24
491.8114533055564
 34
0.0
1001
ACAD
1000
DSTYLE
1002
{
1070
   170
1070
     1
1070
   371
1070
     9
1070
   372
1070
     9
1002
}
  0
DIMENSION
  5
134
  8
回07-寸法
  6
CONTINUOUS
 62
     5
  2
*D20
 10
1492.454243803643
 20
513.4181623762251
 30
0.0
 11
1478.054243803643
 21
515.5681623762251
 31
0.0
 70
     0
  3
DMC
 13
1498.104243803643
 23
486.1614533055564
 33
0.0
 14
1492.454243803643
 24
491.8114533055564
 34
0.0
1001
ACAD
1000
DSTYLE
1002
{
1070
   170
1070
     1
1070
   371
1070
     9
1070
   372
1070
     9
1002
}
  0
DIMENSION
  5
145
  8
回07-寸法
  6
CONTINUOUS
 62
     5
  2
*D19
 10
1492.454243803643
 20
506.0358755337687
 30
0.0
 11
1477.964480024115
 21
508.1858755337687
 31
0.0
 70
     0
  3
DMC
 13
1499.104243803643
 23
485.1614533055564
 33
0.0
 14
1492.454243803643
 24
491.8114533055564
 34
0.0
1001
ACAD
1000
DSTYLE
1002
{
1070
   170
1070
     1
1070
   371
1070
     9
1070
   372
1070
     9
1002
}
  0
DIMENSION
  5
156
  8
回07-寸法
  6
CONTINUOUS
 62
     5
  2
*D18
 10
1676.154243803642
 20
521.0691016420168
 30
0.0
 11
1701.849253724902
 21
523.2191016420168
 31
0.0
 70
     0
  1
<>{\H0.6563x;(INSULATION AREA)}
  3
DMC
 13
1671.004243803642
 23
486.6614533055564
 33
0.0
 14
1676.154243803642
 24
491.8114533055564
 34
0.0
1001
ACAD
1000
DSTYLE
1002
{
1070
   170
1070
     1
1070
   371
1070
     9
1070
   372
1070
     9
1002
}
  0
DIMENSION
  5
167
  8
回07-寸法
  6
CONTINUOUS
 62
     5
  2
*D17
 10
1676.154243803642
 20
513.4181623762251
 30
0.0
 11
1691.75306270128
 21
515.5681623762251
 31
0.0
 70
     0
  1
(<>)
  3
DMC
 13
1670.504243803642
 23
486.1614533055564
 33
0.0
 14
1676.154243803642
 24
491.8114533055564
 34
0.0
1001
ACAD
1000
DSTYLE
1002
{
1070
   170
1070
     1
1070
   371
1070
     9
1070
   372
1070
     9
1002
}
  0
DIMENSION
  5
178
  8
回07-寸法
  6
CONTINUOUS
 62
     5
  2
*D16
 10
1676.154243803642
 20
506.0358755337687
 30
0.0
 11
1691.75306270128
 21
508.1858755337687
 31
0.0
 70
     0
  1
(<>)
  3
DMC
 13
1669.504243803643
 23
485.1614533055564
 33
0.0
 14
1676.154243803642
 24
491.8114533055564
 34
0.0
1001
ACAD
1000
DSTYLE
1002
{
1070
   170
1070
     1
1070
   371
1070
     9
1070
   372
1070
     9
1002
}
  0
DIMENSION
  5
189
  8
回07-寸法
  6
CONTINUOUS
 62
     5
  2
*D15
 10
1671.004243803642
 20
521.0691016420168
 30
0.0
 11
1584.304243803642
 21
523.2191016420168
 31
0.0
 70
     0
  3
DMC
 13
1497.604243803643
 23
486.6614533055564
 33
0.0
 14
1671.004243803642
 24
486.6614533055564
 34
0.0
1001
ACAD
1000
DSTYLE
1002
{
1070
   170
1070
     1
1070
   371
1070
     9
1070
   372
1070
     9
1002
}
  0
DIMENSION
  5
198
  8
回07-寸法
  6
CONTINUOUS
 62
     5
  2
*D14
 10
1670.504243803642
 20
513.4181623762251
 30
0.0
 11
1584.304243803642
 21
515.9225279062866
 31
0.0
 70
     0
  1
<> (Viewing area)
  3
DMC
 13
1498.104243803643
 23
486.1614533055564
 33
0.0
 14
1670.504243803642
 24
486.1614533055564
 34
0.0
1001
ACAD
1000
DSTYLE
1002
{
1070
   170
1070
     1
1070
   371
1070
     9
1070
   372
1070
     9
1002
}
  0
DIMENSION
  5
1A7
  8
回07-寸法
  6
CONTINUOUS
 62
     5
  2
*D13
 10
1669.504243803643
 20
506.0358755337687
 30
0.0
 11
1584.304243803642
 21
508.1866005722982
 31
0.0
 70
     0
  1
<> (Active area)
  3
DMC
 13
1499.104243803643
 23
485.1614533055564
 33
0.0
 14
1669.504243803643
 24
485.1614533055564
 34
0.0
1001
ACAD
1000
DSTYLE
1002
{
1070
   170
1070
     1
1070
   371
1070
     9
1070
   372
1070
     9
1002
}
  0
TEXT
  5
1B6
  8
回07-寸法
  6
CONTINUOUS
 62
     5
 10
1474.0731696906
 20
432.6621649946098
 30
0.0
 40
3.0
  1
4-R1
1001
ACAD
1000
MTEXTBEGIN
1070
    73
1070
     1
1070
    44
1040
1.0
1070
    74
1070
     0
1000
MTEXTEND
  0
INSERT
  5
1B7
  8
回07-寸法
  6
CONTINUOUS
 62
     5
 66
     1
  2
*X41
 10
0.0
 20
0.0
 30
0.0
  0
SEQEND
  5
3E6
  8
回08-記事
  6
CONTINUOUS
 62
     7
  0
TEXT
  5
1B8
  8
回07-寸法
  6
CONTINUOUS
 62
     5
 10
1476.241420336969
 20
438.2293215427903
 30
0.0
 40
3.0
  1
2-R2
1001
ACAD
1000
MTEXTBEGIN
1070
    73
1070
     1
1070
    44
1040
1.0
1070
    74
1070
     0
1000
MTEXTEND
  0
INSERT
  5
1B9
  8
回07-寸法
  6
CONTINUOUS
 62
     5
 66
     1
  2
*X42
 10
0.0
 20
0.0
 30
0.0
  0
SEQEND
  5
3ED
  8
回08-記事
  6
CONTINUOUS
 62
     7
  0
DIMENSION
  5
1BA
  8
回07-寸法
  6
CONTINUOUS
 62
     5
  2
*D12
 10
1469.3702036082
 20
429.2614533055567
 30
0.0
 11
1469.3702036082
 21
441.8614533055566
 31
0.0
 70
   128
  3
DMC
 13
1488.266487480983
 23
413.2614533055558
 33
0.0
 14
1488.266487480983
 24
429.2614533055564
 34
0.0
 50
90.0
1001
ACAD
1000
DSTYLE
1002
{
1070
   170
1070
     1
1070
   371
1070
     9
1070
   372
1070
     9
1002
}
  0
DIMENSION
  5
1CB
  8
回07-寸法
  6
CONTINUOUS
 62
     5
  2
*D11
 10
1482.331011218507
 20
393.3961668145967
 30
0.0
 11
1467.470528227024
 21
393.3961668145967
 31
0.0
 70
   128
  3
DMC
 13
1492.454243803643
 23
412.584328961088
 33
0.0
 14
1482.331011218507
 24
418.7614533055566
 34
0.0
1001
ACAD
1000
DSTYLE
1002
{
1070
   170
1070
     1
1070
   371
1070
     9
1070
   372
1070
     9
1002
}
  0
DIMENSION
  5
1DC
  8
回07-寸法
  6
CONTINUOUS
 62
     5
  2
*D10
 10
1487.853466977167
 20
399.2542735281786
 30
0.0
 11
1470.751699190211
 21
399.2542735281786
 31
0.0
 70
   128
  3
DMC
 13
1492.454243803643
 23
412.584328961088
 33
0.0
 14
1487.853466977167
 24
413.2614533055558
 34
0.0
1001
ACAD
1000
DSTYLE
1002
{
1070
   170
1070
     1
1070
   371
1070
     9
1070
   372
1070
     9
1002
}
  0
DIMENSION
  5
1ED
  8
回07-寸法
  6
CONTINUOUS
 62
     7
  2
*D9
 10
1492.454243803643
 20
454.5515644457891
 30
0.0
 11
1454.695806133553
 21
454.5515644457891
 31
0.0
 70
   128
  3
DMC
 13
1417.454243803643
 23
423.2614533055564
 33
0.0
 14
1492.454243803643
 24
429.938577650024
 34
0.0
1001
ACAD
1000
DSTYLE
1002
{
1070
    47
1040
1.0
1070
    48
1040
1.0
1070
    71
1070
     1
1070
   170
1070
     1
1070
   371
1070
     9
1070
   372
1070
     9
1002
}
  0
DIMENSION
  5
1FA
  8
回07-寸法
  6
CONTINUOUS
 62
     7
  2
*D8
 10
1402.67595968806
 20
423.7614533055566
 30
0.0
 11
1402.67595968806
 21
399.7512118098149
 31
0.0
 70
   128
  1
<>
  3
DMC
 13
1417.954243803643
 23
418.7614533055562
 33
0.0
 14
1417.954243803643
 24
423.7614533055564
 34
0.0
 50
90.0
1001
ACAD
1000
DSTYLE
1002
{
1070
    47
1040
0.1
1070
    48
1040
0.1
1070
    71
1070
     1
1070
   170
1070
     1
1070
   371
1070
     9
1070
   372
1070
     9
1002
}
  0
TEXT
  5
209
  8
回08-記事
  6
CONTINUOUS
 62
     5
 10
1460.680456339162
 20
330.9784678468996
 30
0.0
 40
3.0
  1
Tail information label
1001
ACAD
1000
MTEXTBEGIN
1070
    73
1070
     1
1070
    44
1040
1.0
1070
    74
1070
     0
1000
MTEXTEND
  0
INSERT
  5
20A
  8
回08-記事
  6
CONTINUOUS
 62
     5
 66
     1
  2
*X43
 10
0.0
 20
0.0
 30
0.0
  0
SEQEND
  5
3F4
  8
回08-記事
  6
CONTINUOUS
 62
     7
  0
POLYLINE
  5
20B
  8
回08-記事
  6
CONTINUOUS
 62
     7
 66
     1
 10
0.0
 20
0.0
 30
0.0
 70
     1
  0
VERTEX
  5
3F5
  8
回08-記事
  6
CONTINUOUS
 62
     7
 10
1442.601393480479
 20
312.9258567420575
 30
0.0
  0
VERTEX
  5
3F7
  8
回08-記事
  6
CONTINUOUS
 62
     7
 10
1468.601393480479
 20
312.9258567420575
 30
0.0
  0
VERTEX
  5
3F8
  8
回08-記事
  6
CONTINUOUS
 62
     7
 10
1468.601393480479
 20
311.9258567420575
 30
0.0
  0
VERTEX
  5
3F9
  8
回08-記事
  6
CONTINUOUS
 62
     7
 10
1442.601393480479
 20
311.9258567420575
 30
0.0
  0
SEQEND
  5
3F6
  8
回08-記事
  6
CONTINUOUS
 62
     7
  0
INSERT
  5
20C
  8
回08-記事
  6
CONTINUOUS
 62
     8
 66
     1
  2
*X44
 10
0.0
 20
0.0
 30
0.0
1001
ACAD
1010
0.0
1020
0.0
1030
0.0
  0
SEQEND
  5
413
  8
回08-記事
  6
CONTINUOUS
 62
     7
  0
POLYLINE
  5
20D
  8
回08-記事
  6
CONTINUOUS
 62
     8
 66
     1
 10
0.0
 20
0.0
 30
0.0
 70
     1
1001
ACAD
1000
ASC_BOUNDS
1002
{
1070
    19
1005
20C
1002
}
  0
VERTEX
  5
414
  8
回08-記事
  6
CONTINUOUS
 62
     8
 10
1437.436117181244
 20
423.2614533055564
 30
0.0
  0
VERTEX
  5
416
  8
回08-記事
  6
CONTINUOUS
 62
     8
 10
1462.436117181244
 20
423.2614533055564
 30
0.0
 42
-0.4142135623730951
  0
VERTEX
  5
417
  8
回08-記事
  6
CONTINUOUS
 62
     8
 10
1462.936117181244
 20
422.7614533055565
 30
0.0
  0
VERTEX
  5
418
  8
回08-記事
  6
CONTINUOUS
 62
     8
 10
1462.936117181244
 20
419.7614533055564
 30
0.0
 42
-0.4142135623730951
  0
VERTEX
  5
419
  8
回08-記事
  6
CONTINUOUS
 62
     8
 10
1462.436117181244
 20
419.2614533055564
 30
0.0
  0
VERTEX
  5
41A
  8
回08-記事
  6
CONTINUOUS
 62
     8
 10
1437.436117181244
 20
419.2614533055564
 30
0.0
 42
-0.4142135623730956
  0
VERTEX
  5
41B
  8
回08-記事
  6
CONTINUOUS
 62
     8
 10
1436.936117181244
 20
419.7614533055564
 30
0.0
  0
VERTEX
  5
41C
  8
回08-記事
  6
CONTINUOUS
 62
     8
 10
1436.936117181244
 20
422.7614533055565
 30
0.0
 42
-0.4142135623730951
  0
SEQEND
  5
415
  8
回08-記事
  6
CONTINUOUS
 62
     7
  0
ARC
  5
20E
  8
回05-ﾃｰﾙ
  6
BYBLOCK
 62
     7
 10
1490.954243803642
 20
411.261453305556
 30
0.0
 40
2.0
 50
41.40962210925127
 51
90.0
  0
LINE
  5
212
  8
回05-ﾃｰﾙ
  6
BYBLOCK
 62
     7
 10
1488.266487480983
 20
413.2614533055558
 30
0.0
 11
1490.954243803642
 21
413.2614533055558
 31
0.0
  0
ARC
  5
213
  8
回05-ﾃｰﾙ
  6
BYBLOCK
 62
     7
 10
1481.917990558845
 20
417.7614533055553
 30
0.0
 40
1.0
 50
45.11672702027765
 51
90.0
  0
ARC
  5
214
  8
回05-ﾃｰﾙ
  6
BYBLOCK
 62
     7
 10
1488.266487480982
 20
414.261453305556
 30
0.0
 40
1.0
 50
225.1435981442334
 51
270.0
  0
LINE
  5
215
  8
回05-ﾃｰﾙ
  6
BYBLOCK
 62
     7
 10
1482.623655305596
 20
418.4699991863513
 30
0.0
 11
1487.561155112465
 21
413.552576553277
 31
0.0
  0
ARC
  5
216
  8
回05-ﾃｰﾙ
  6
BYBLOCK
 62
     7
 10
1481.917990558845
 20
424.7614533055569
 30
0.0
 40
1.0
 50
270.0
 51
314.8832729797224
  0
ARC
  5
217
  8
回05-ﾃｰﾙ
  6
BYBLOCK
 62
     7
 10
1488.266487480982
 20
428.261453305556
 30
0.0
 40
1.0
 50
90.0
 51
134.8564018557666
  0
ARC
  5
218
  8
回05-ﾃｰﾙ
  6
BYBLOCK
 62
     7
 10
1490.954243803642
 20
431.261453305556
 30
0.0
 40
2.0
 50
270.0
 51
318.5903778907487
  0
LINE
  5
219
  8
回05-ﾃｰﾙ
  6
BYBLOCK
 62
     7
 10
1482.623655305596
 20
424.0529074247609
 30
0.0
 11
1487.561155112465
 21
428.9703300578351
 31
0.0
  0
LINE
  5
21A
  8
回05-ﾃｰﾙ
  6
BYBLOCK
 62
     7
 10
1488.266487480983
 20
429.2614533055564
 30
0.0
 11
1490.954243803642
 21
429.2614533055564
 31
0.0
  0
LINE
  5
21B
  8
回05-ﾃｰﾙ
  6
BYBLOCK
 62
     7
 10
1417.454243803643
 20
419.2614533055564
 30
0.0
 11
1417.454243803643
 21
423.2614533055564
 31
0.0
  0
ARC
  5
21C
  8
回05-ﾃｰﾙ
  6
BYBLOCK
 62
     7
 10
1417.954243803643
 20
423.2614533055564
 30
0.0
 40
0.5
 50
90.0
 51
180.0
  0
ARC
  5
21D
  8
回05-ﾃｰﾙ
  6
BYBLOCK
 62
     7
 10
1417.954243803643
 20
419.2614533055564
 30
0.0
 40
0.5
 50
180.0
 51
270.0
  0
LINE
  5
21E
  8
回05-ﾃｰﾙ
  6
BYBLOCK
 62
     7
 10
1417.954243803643
 20
423.7614533055564
 30
0.0
 11
1481.917990558845
 21
423.7614533055564
 31
0.0
  0
LINE
  5
21F
  8
回05-ﾃｰﾙ
  6
BYBLOCK
 62
     7
 10
1417.954243803643
 20
418.7614533055562
 30
0.0
 11
1481.917990558845
 21
418.7614533055562
 31
0.0
  0
TEXT
  5
220
  8
回04-下接
  6
CONTINUOUS
 62
     7
 10
1675.735190190162
 20
365.4745227820689
 30
0.0
 40
1.8
  1
QST-084A
 50
90.0
  0
TEXT
  5
224
  8
回08-記事
  6
CONTINUOUS
 62
     5
 10
1454.851391643196
 20
302.521894985265
 30
0.0
 40
3.0
  1
LOT LABEL
1001
ACAD
1000
MTEXTBEGIN
1070
    73
1070
     1
1070
    44
1040
1.0
1070
    74
1070
     0
1000
MTEXTEND
  0
INSERT
  5
225
  8
回08-記事
  6
CONTINUOUS
 62
     5
 66
     1
  2
*X45
 10
0.0
 20
0.0
 30
0.0
  0
SEQEND
  5
423
  8
回08-記事
  6
CONTINUOUS
 62
     7
  0
DIMENSION
  5
226
  8
回07-寸法
  6
CONTINUOUS
 62
     5
  2
*D7
 10
1675.654243803642
 20
322.6170161406456
 30
0.0
 11
1661.105424906005
 21
324.7670161406456
 31
0.0
 70
     0
  1
(<>)
  3
DMC
 13
1676.154243803642
 23
310.9258567420575
 33
0.0
 14
1675.654243803642
 24
313.4258567420575
 34
0.0
1001
ACAD
1000
DSTYLE
1002
{
1070
   170
1070
     1
1070
   371
1070
     9
1070
   372
1070
     9
1002
}
  0
DIMENSION
  5
237
  8
回07-寸法
  6
CONTINUOUS
 62
     5
  2
*D6
 10
1492.954243803643
 20
322.6170161406456
 30
0.0
 11
1507.503062701281
 21
324.7670161406456
 31
0.0
 70
     0
  1
(<>)
  3
DMC
 13
1492.454243803643
 23
310.9258567420575
 33
0.0
 14
1492.954243803643
 24
313.4258567420575
 34
0.0
1001
ACAD
1000
DSTYLE
1002
{
1070
   170
1070
     1
1070
   371
1070
     9
1070
   372
1070
     9
1002
}
  0
POLYLINE
  5
248
  8
回08-記事
  6
DASHED2
 62
     7
 66
     1
 10
0.0
 20
0.0
 30
0.0
 70
     1
  0
VERTEX
  5
424
  8
回08-記事
  6
DASHED2
 62
     7
 10
1497.604243803643
 20
355.8614533055564
 30
0.0
  0
VERTEX
  5
426
  8
回08-記事
  6
DASHED2
 62
     7
 10
1671.004243803642
 20
355.8614533055564
 30
0.0
  0
VERTEX
  5
427
  8
回08-記事
  6
DASHED2
 62
     7
 10
1671.004243803642
 20
486.6614533055564
 30
0.0
  0
VERTEX
  5
428
  8
回08-記事
  6
DASHED2
 62
     7
 10
1497.604243803643
 20
486.6614533055564
 30
0.0
  0
SEQEND
  5
425
  8
回08-記事
  6
CONTINUOUS
 62
     7
  0
DIMENSION
  5
24A
  8
回07-寸法
  6
CONTINUOUS
 62
     5
  2
*D5
 10
1407.572499184042
 20
421.2614533055566
 30
0.0
 11
1405.422499184042
 21
456.5364533055561
 31
0.0
 70
     0
  1
(<>)
  3
DMC
 13
1492.454243803643
 23
491.8114533055564
 33
0.0
 14
1419.198153751271
 24
421.2614533055564
 34
0.0
 50
90.0
1001
ACAD
1000
DSTYLE
1002
{
1070
   170
1070
     1
1070
   371
1070
     9
1070
   372
1070
     9
1002
}
  0
LINE
  5
259
  8
回08-記事
  6
CENTER2
 62
     5
 10
1584.304243803642
 20
489.3957195576704
 30
0.0
 11
1584.304243803642
 21
353.2757169477214
 31
0.0
  0
LINE
  5
25B
  8
回08-記事
  6
CONTINUOUS
 62
     5
 10
1421.041417052861
 20
312.56885914118
 30
0.0
 11
1430.071513404058
 21
318.5973304400838
 31
0.0
  0
TEXT
  5
25C
  8
回08-記事
  6
CONTINUOUS
 62
     5
 10
1497.953102565219
 20
299.2302518076309
 30
0.0
 40
3.0
  1
PROTECTION TAPE
  0
LINE
  5
25D
  8
回08-記事
  6
CONTINUOUS
 62
     5
 10
1492.434470601117
 20
306.9258567420575
 30
0.0
 11
1496.382776620194
 21
302.6887897399472
 31
0.0
  0
POLYLINE
  5
25E
  8
回08-記事
  6
CONTINUOUS
 62
     7
 66
     1
 10
0.0
 20
0.0
 30
0.0
1001
ACAD
1000
ASC_BOUNDS
1002
{
1070
    19
1005
25F
1002
}
  0
VERTEX
  5
429
  8
回08-記事
  6
CONTINUOUS
 62
     7
 10
1488.354243803643
 20
309.9258567420575
 30
0.0
  0
VERTEX
  5
42B
  8
回08-記事
  6
CONTINUOUS
 62
     7
 10
1492.454243803643
 20
309.9258567420575
 30
0.0
  0
VERTEX
  5
42C
  8
回08-記事
  6
CONTINUOUS
 62
     7
 10
1492.454243803643
 20
307.9258567420575
 30
0.0
  0
VERTEX
  5
42D
  8
回08-記事
  6
CONTINUOUS
 62
     7
 10
1496.554243803642
 20
307.9258567420575
 30
0.0
  0
VERTEX
  5
42E
  8
回08-記事
  6
CONTINUOUS
 62
     7
 10
1496.554243803642
 20
306.9258567420575
 30
0.0
  0
VERTEX
  5
42F
  8
回08-記事
  6
CONTINUOUS
 62
     7
 10
1491.454243803643
 20
306.9258567420575
 30
0.0
  0
VERTEX
  5
430
  8
回08-記事
  6
CONTINUOUS
 62
     7
 10
1491.454243803643
 20
308.9258567420575
 30
0.0
  0
VERTEX
  5
431
  8
回08-記事
  6
CONTINUOUS
 62
     7
 10
1488.354243803643
 20
308.9258567420575
 30
0.0
  0
VERTEX
  5
432
  8
回08-記事
  6
CONTINUOUS
 62
     7
 10
1488.354243803643
 20
309.9258567420575
 30
0.0
  0
SEQEND
  5
42A
  8
回08-記事
  6
CONTINUOUS
 62
     7
  0
INSERT
  5
25F
  8
回08-記事
  6
CONTINUOUS
 62
     7
 66
     1
  2
*X46
 10
0.0
 20
0.0
 30
0.0
1001
ACAD
1010
0.0
1020
0.0
1030
0.0
  0
SEQEND
  5
43B
  8
回08-記事
  6
CONTINUOUS
 62
     7
  0
LINE
  5
260
  8
回08-記事
  6
CONTINUOUS
 62
     5
 10
1484.145932890192
 20
312.6629375868211
 30
0.0
 11
1481.084847205447
 21
296.4150898642274
 31
0.0
  0
TEXT
  5
261
  8
回08-記事
  6
CONTINUOUS
 62
     5
 10
1479.599076529962
 20
291.1446736597045
 30
0.0
 40
3.0
  1
REINFORCEMENT FILM
  0
LINE
  5
262
  8
回08-記事
  6
CONTINUOUS
 62
     5
 10
1479.210645383149
 20
310.5927221435564
 30
0.0
 11
1481.084847205447
 21
296.4150898642274
 31
0.0
  0
TEXT
  5
263
  8
回08-記事
  6
CONTINUOUS
 62
     5
 10
1430.816810397096
 20
318.011414861661
 30
0.0
 40
3.0
  1
STIFFENER
  0
TEXT
  5
264
  8
回08-記事
  6
CONTINUOUS
 62
     5
 10
1461.207030192914
 20
318.6011829736472
 30
0.0
 40
3.0
  1
TAIL
  0
LINE
  5
265
  8
回08-記事
  6
CONTINUOUS
 62
     5
 10
1460.29249222742
 20
311.5535085279462
 30
0.0
 11
1462.158382360265
 21
317.5235228752736
 31
0.0
  0
LINE
  5
266
  8
回08-記事
  6
CONTINUOUS
 62
     5
 10
1589.316898396439
 20
308.8023693278811
 30
0.0
 11
1591.626743770634
 21
301.3963037593585
 31
0.0
  0
TEXT
  5
267
  8
回08-記事
  6
CONTINUOUS
 62
     5
 10
1590.762454440562
 20
296.7686607310262
 30
0.0
 40
3.0
  1
ITO GLASS
  0
TEXT
  5
268
  8
回08-記事
  6
CONTINUOUS
 62
     5
 10
1580.32313714102
 20
320.097018601935
 30
0.0
 40
3.0
  1
ITO FILM (ANTI-GLARE(ANR))
  0
LINE
  5
269
  8
回08-記事
  6
CONTINUOUS
 62
     5
 10
1579.408599175525
 20
313.049344156234
 30
0.0
 11
1581.27448930837
 21
319.0193585035614
 31
0.0
  0
DIMENSION
  5
26A
  8
回07-寸法
  6
CONTINUOUS
 62
     7
  2
*D4
 10
1417.454243803643
 20
301.5965510187048
 30
0.0
 11
1434.009485299384
 21
301.5965510187048
 31
0.0
 70
   128
  3
DMC
 13
1422.454243803643
 23
309.9258567420575
 33
0.0
 14
1417.454243803643
 24
310.9258567420575
 34
0.0
 50
180.0
1001
ACAD
1000
DSTYLE
1002
{
1070
   170
1070
     1
1070
   371
1070
     9
1070
   372
1070
     9
1002
}
  0
DIMENSION
  5
27B
  8
回07-寸法
  6
CONTINUOUS
 62
     7
  2
*D3
 10
1417.454243803643
 20
325.2746865583158
 30
0.0
 11
1441.408304197022
 21
325.2746865583158
 31
0.0
 70
   128
  1
(<>)
  3
DMC
 13
1427.454243803643
 23
313.4258567420575
 33
0.0
 14
1417.454243803643
 24
313.4258567420575
 34
0.0
 50
180.0
1001
ACAD
1000
DSTYLE
1002
{
1070
   170
1070
     1
1070
   371
1070
     9
1070
   372
1070
     9
1002
}
  0
DIMENSION
  5
28C
  8
回07-寸法
  6
CONTINUOUS
 62
     7
  2
*D2
 10
1407.977154686463
 20
313.4258567420576
 30
0.0
 11
1405.827154686463
 21
332.4773828444194
 31
0.0
 70
     0
  1
0.3{\H0.6667x;±0.05}[0.012{\H0.6667x;±0.002}]
  3
DMC
 13
1417.454243803643
 23
310.9258567420575
 33
0.0
 14
1417.454243803643
 24
313.4258567420575
 34
0.0
 50
90.0
1001
ACAD
1000
DSTYLE
1002
{
1070
   170
1070
     1
1070
   371
1070
     9
1070
   372
1070
     9
1002
}
  0
POLYLINE
  5
29D
  8
回08-記事
  6
CONTINUOUS
 62
     7
 66
     1
 10
0.0
 20
0.0
 30
0.0
 70
     1
  0
VERTEX
  5
43C
  8
回08-記事
  6
CONTINUOUS
 62
     7
 10
1442.601393480479
 20
309.9258567420575
 30
0.0
  0
VERTEX
  5
43E
  8
回08-記事
  6
CONTINUOUS
 62
     7
 10
1468.601393480479
 20
309.9258567420575
 30
0.0
  0
VERTEX
  5
43F
  8
回08-記事
  6
CONTINUOUS
 62
     7
 10
1468.601393480479
 20
308.9258567420575
 30
0.0
  0
VERTEX
  5
440
  8
回08-記事
  6
CONTINUOUS
 62
     7
 10
1442.601393480479
 20
308.9258567420575
 30
0.0
  0
SEQEND
  5
43D
  8
回08-記事
  6
CONTINUOUS
 62
     7
  0
DIMENSION
  5
29E
  8
回07-寸法
  6
CONTINUOUS
 62
     7
  2
*D1
 10
1689.150065627192
 20
313.4258567420577
 30
0.0
 11
1689.150065627191
 21
288.5321646951352
 31
0.0
 70
   128
  1
2.1{\H0.6667x;±0.2}[0.079{\H0.6667x;±0.008}]
  3
DMC
 13
1676.154243803642
 23
307.9258567420575
 33
0.0
 14
1675.481502115505
 24
313.4258567420575
 34
0.0
 50
90.0
1001
ACAD
1000
DSTYLE
1002
{
1070
   170
1070
     1
1070
   371
1070
     9
1070
   372
1070
     9
1002
}
  0
POLYLINE
  5
2AF
  8
回08-記事
  6
CONTINUOUS
 62
     7
 66
     1
 10
0.0
 20
0.0
 30
0.0
 70
     1
  0
VERTEX
  5
441
  8
回08-記事
  6
CONTINUOUS
 62
     7
 10
1483.154243803643
 20
312.9258567420575
 30
0.0
  0
VERTEX
  5
443
  8
回08-記事
  6
CONTINUOUS
 62
     7
 10
1492.954243803643
 20
312.9258567420575
 30
0.0
  0
VERTEX
  5
444
  8
回08-記事
  6
CONTINUOUS
 62
     7
 10
1492.954243803643
 20
311.9258567420575
 30
0.0
  0
VERTEX
  5
445
  8
回08-記事
  6
CONTINUOUS
 62
     7
 10
1483.154243803643
 20
311.9258567420575
 30
0.0
  0
SEQEND
  5
442
  8
回08-記事
  6
CONTINUOUS
 62
     7
  0
POLYLINE
  5
2B0
  8
回08-記事
  6
CONTINUOUS
 62
     7
 66
     1
 10
0.0
 20
0.0
 30
0.0
 70
     1
  0
VERTEX
  5
446
  8
回08-記事
  6
CONTINUOUS
 62
     7
 10
1417.454243803643
 20
311.9258567420575
 30
0.0
  0
VERTEX
  5
448
  8
回08-記事
  6
CONTINUOUS
 62
     7
 10
1427.454243803643
 20
311.9258567420575
 30
0.0
  0
VERTEX
  5
449
  8
回08-記事
  6
CONTINUOUS
 62
     7
 10
1427.454243803643
 20
313.4258567420575
 30
0.0
  0
VERTEX
  5
44A
  8
回08-記事
  6
CONTINUOUS
 62
     7
 10
1417.454243803643
 20
313.4258567420575
 30
0.0
  0
SEQEND
  5
447
  8
回08-記事
  6
CONTINUOUS
 62
     7
  0
POLYLINE
  5
2B1
  8
回08-記事
  6
CONTINUOUS
 62
     7
 66
     1
 10
0.0
 20
0.0
 30
0.0
 70
     1
  0
VERTEX
  5
44B
  8
回08-記事
  6
CONTINUOUS
 62
     7
 10
1422.454243803643
 20
309.9258567420575
 30
0.0
  0
VERTEX
  5
44D
  8
回08-記事
  6
CONTINUOUS
 62
     7
 10
1492.454243803643
 20
309.9258567420575
 30
0.0
  0
VERTEX
  5
44E
  8
回08-記事
  6
CONTINUOUS
 62
     7
 10
1492.454243803643
 20
310.9258567420575
 30
0.0
  0
VERTEX
  5
44F
  8
回08-記事
  6
CONTINUOUS
 62
     7
 10
1422.454243803643
 20
310.9258567420575
 30
0.0
  0
SEQEND
  5
44C
  8
回08-記事
  6
CONTINUOUS
 62
     7
  0
ARC
  5
2B2
  8
回08-記事
  6
CONTINUOUS
 62
     7
 10
1669.431502115505
 20
310.9258567420575
 30
0.0
 40
0.5
 50
0.0
 51
180.0
  0
ARC
  5
2B3
  8
回08-記事
  6
CONTINUOUS
 62
     7
 10
1665.431502115505
 20
310.9258567420575
 30
0.0
 40
0.5
 50
0.0
 51
180.0
  0
ARC
  5
2B4
  8
回08-記事
  6
CONTINUOUS
 62
     7
 10
1661.431502115506
 20
310.9258567420575
 30
0.0
 40
0.5
 50
0.0
 51
180.0
  0
ARC
  5
2B5
  8
回08-記事
  6
CONTINUOUS
 62
     7
 10
1657.431502115506
 20
310.9258567420575
 30
0.0
 40
0.5
 50
0.0
 51
180.0
  0
ARC
  5
2B6
  8
回08-記事
  6
CONTINUOUS
 62
     7
 10
1653.431502115506
 20
310.9258567420575
 30
0.0
 40
0.5
 50
0.0
 51
180.0
  0
ARC
  5
2B7
  8
回08-記事
  6
CONTINUOUS
 62
     7
 10
1649.431502115505
 20
310.9258567420575
 30
0.0
 40
0.5
 50
0.0
 51
180.0
  0
ARC
  5
2B8
  8
回08-記事
  6
CONTINUOUS
 62
     7
 10
1645.431502115506
 20
310.9258567420575
 30
0.0
 40
0.5
 50
0.0
 51
180.0
  0
ARC
  5
2B9
  8
回08-記事
  6
CONTINUOUS
 62
     7
 10
1641.431502115506
 20
310.9258567420575
 30
0.0
 40
0.5
 50
0.0
 51
180.0
  0
ARC
  5
2BA
  8
回08-記事
  6
CONTINUOUS
 62
     7
 10
1637.431502115506
 20
310.9258567420575
 30
0.0
 40
0.5
 50
0.0
 51
180.0
  0
ARC
  5
2BB
  8
回08-記事
  6
CONTINUOUS
 62
     7
 10
1633.431502115505
 20
310.9258567420575
 30
0.0
 40
0.5
 50
0.0
 51
180.0
  0
ARC
  5
2BC
  8
回08-記事
  6
CONTINUOUS
 62
     7
 10
1629.431502115506
 20
310.9258567420575
 30
0.0
 40
0.5
 50
0.0
 51
180.0
  0
ARC
  5
2BD
  8
回08-記事
  6
CONTINUOUS
 62
     7
 10
1625.431502115506
 20
310.9258567420575
 30
0.0
 40
0.5
 50
0.0
 51
180.0
  0
ARC
  5
2BE
  8
回08-記事
  6
CONTINUOUS
 62
     7
 10
1621.431502115506
 20
310.9258567420575
 30
0.0
 40
0.5
 50
0.0
 51
180.0
  0
ARC
  5
2BF
  8
回08-記事
  6
CONTINUOUS
 62
     7
 10
1617.431502115505
 20
310.9258567420575
 30
0.0
 40
0.5
 50
0.0
 51
180.0
  0
ARC
  5
2C0
  8
回08-記事
  6
CONTINUOUS
 62
     7
 10
1613.431502115506
 20
310.9258567420575
 30
0.0
 40
0.5
 50
0.0
 51
180.0
  0
ARC
  5
2C1
  8
回08-記事
  6
CONTINUOUS
 62
     7
 10
1609.431502115506
 20
310.9258567420575
 30
0.0
 40
0.5
 50
0.0
 51
180.0
  0
ARC
  5
2C2
  8
回08-記事
  6
CONTINUOUS
 62
     7
 10
1605.431502115506
 20
310.9258567420575
 30
0.0
 40
0.5
 50
0.0
 51
180.0
  0
ARC
  5
2C3
  8
回08-記事
  6
CONTINUOUS
 62
     7
 10
1601.431502115505
 20
310.9258567420575
 30
0.0
 40
0.5
 50
0.0
 51
180.0
  0
ARC
  5
2C4
  8
回08-記事
  6
CONTINUOUS
 62
     7
 10
1597.431502115506
 20
310.9258567420575
 30
0.0
 40
0.5
 50
0.0
 51
180.0
  0
ARC
  5
2C5
  8
回08-記事
  6
CONTINUOUS
 62
     7
 10
1593.431502115505
 20
310.9258567420575
 30
0.0
 40
0.5
 50
0.0
 51
180.0
  0
ARC
  5
2C6
  8
回08-記事
  6
CONTINUOUS
 62
     7
 10
1589.431502115505
 20
310.9258567420575
 30
0.0
 40
0.5
 50
0.0
 51
180.0
  0
ARC
  5
2C7
  8
回08-記事
  6
CONTINUOUS
 62
     7
 10
1585.431502115505
 20
310.9258567420575
 30
0.0
 40
0.5
 50
0.0
 51
180.0
  0
ARC
  5
2C8
  8
回08-記事
  6
CONTINUOUS
 62
     7
 10
1581.431502115505
 20
310.9258567420575
 30
0.0
 40
0.5
 50
0.0
 51
180.0
  0
ARC
  5
2C9
  8
回08-記事
  6
CONTINUOUS
 62
     7
 10
1577.431502115505
 20
310.9258567420575
 30
0.0
 40
0.5
 50
0.0
 51
180.0
  0
ARC
  5
2CA
  8
回08-記事
  6
CONTINUOUS
 62
     7
 10
1573.431502115505
 20
310.9258567420575
 30
0.0
 40
0.5
 50
0.0
 51
180.0
  0
ARC
  5
2CB
  8
回08-記事
  6
CONTINUOUS
 62
     7
 10
1569.431502115505
 20
310.9258567420575
 30
0.0
 40
0.5
 50
0.0
 51
180.0
  0
ARC
  5
2CC
  8
回08-記事
  6
CONTINUOUS
 62
     7
 10
1565.431502115505
 20
310.9258567420575
 30
0.0
 40
0.5
 50
0.0
 51
180.0
  0
ARC
  5
2CD
  8
回08-記事
  6
CONTINUOUS
 62
     7
 10
1561.431502115505
 20
310.9258567420575
 30
0.0
 40
0.5
 50
0.0
 51
180.0
  0
ARC
  5
2CE
  8
回08-記事
  6
CONTINUOUS
 62
     7
 10
1557.431502115505
 20
310.9258567420575
 30
0.0
 40
0.5
 50
0.0
 51
180.0
  0
ARC
  5
2CF
  8
回08-記事
  6
CONTINUOUS
 62
     7
 10
1553.431502115505
 20
310.9258567420575
 30
0.0
 40
0.5
 50
0.0
 51
180.0
  0
ARC
  5
2D0
  8
回08-記事
  6
CONTINUOUS
 62
     7
 10
1549.431502115505
 20
310.9258567420575
 30
0.0
 40
0.5
 50
0.0
 51
180.0
  0
ARC
  5
2D1
  8
回08-記事
  6
CONTINUOUS
 62
     7
 10
1545.431502115505
 20
310.9258567420575
 30
0.0
 40
0.5
 50
0.0
 51
180.0
  0
ARC
  5
2D2
  8
回08-記事
  6
CONTINUOUS
 62
     7
 10
1541.431502115505
 20
310.9258567420575
 30
0.0
 40
0.5
 50
0.0
 51
180.0
  0
ARC
  5
2D3
  8
回08-記事
  6
CONTINUOUS
 62
     7
 10
1537.431502115505
 20
310.9258567420575
 30
0.0
 40
0.5
 50
0.0
 51
180.0
  0
ARC
  5
2D4
  8
回08-記事
  6
CONTINUOUS
 62
     7
 10
1533.431502115505
 20
310.9258567420575
 30
0.0
 40
0.5
 50
0.0
 51
180.0
  0
ARC
  5
2D5
  8
回08-記事
  6
CONTINUOUS
 62
     7
 10
1529.431502115505
 20
310.9258567420575
 30
0.0
 40
0.5
 50
0.0
 51
180.0
  0
ARC
  5
2D6
  8
回08-記事
  6
CONTINUOUS
 62
     7
 10
1525.431502115505
 20
310.9258567420575
 30
0.0
 40
0.5
 50
0.0
 51
180.0
  0
ARC
  5
2D7
  8
回08-記事
  6
CONTINUOUS
 62
     7
 10
1521.431502115505
 20
310.9258567420575
 30
0.0
 40
0.5
 50
0.0
 51
180.0
  0
ARC
  5
2D8
  8
回08-記事
  6
CONTINUOUS
 62
     7
 10
1517.431502115505
 20
310.9258567420575
 30
0.0
 40
0.5
 50
0.0
 51
180.0
  0
ARC
  5
2D9
  8
回08-記事
  6
CONTINUOUS
 62
     7
 10
1513.431502115505
 20
310.9258567420575
 30
0.0
 40
0.5
 50
0.0
 51
180.0
  0
ARC
  5
2DA
  8
回08-記事
  6
CONTINUOUS
 62
     7
 10
1509.431502115505
 20
310.9258567420575
 30
0.0
 40
0.5
 50
0.0
 51
180.0
  0
ARC
  5
2DB
  8
回08-記事
  6
CONTINUOUS
 62
     7
 10
1505.431502115505
 20
310.9258567420575
 30
0.0
 40
0.5
 50
0.0
 51
180.0
  0
ARC
  5
2DC
  8
回08-記事
  6
CONTINUOUS
 62
     7
 10
1501.431502115505
 20
310.9258567420575
 30
0.0
 40
0.5
 50
0.0
 51
180.0
  0
POLYLINE
  5
2DD
  8
回08-記事
  6
CONTINUOUS
 62
     7
 66
     1
 10
0.0
 20
0.0
 30
0.0
 70
     1
  0
VERTEX
  5
450
  8
回08-記事
  6
CONTINUOUS
 62
     7
 10
1671.004243803642
 20
311.9258567420575
 30
0.0
  0
VERTEX
  5
452
  8
回08-記事
  6
CONTINUOUS
 62
     7
 10
1675.654243803642
 20
311.9258567420575
 30
0.0
  0
VERTEX
  5
453
  8
回08-記事
  6
CONTINUOUS
 62
     7
 10
1675.654243803642
 20
310.9258567420575
 30
0.0
  0
VERTEX
  5
454
  8
回08-記事
  6
CONTINUOUS
 62
     7
 10
1671.004243803642
 20
310.9258567420575
 30
0.0
  0
SEQEND
  5
451
  8
回08-記事
  6
CONTINUOUS
 62
     7
  0
POLYLINE
  5
2DE
  8
回08-記事
  6
CONTINUOUS
 62
     7
 66
     1
 10
0.0
 20
0.0
 30
0.0
 70
     1
  0
VERTEX
  5
455
  8
回08-記事
  6
CONTINUOUS
 62
     7
 10
1495.154243803642
 20
311.9258567420575
 30
0.0
  0
VERTEX
  5
457
  8
回08-記事
  6
CONTINUOUS
 62
     7
 10
1497.554243803643
 20
311.9258567420575
 30
0.0
  0
VERTEX
  5
458
  8
回08-記事
  6
CONTINUOUS
 62
     7
 10
1497.554243803643
 20
310.9258567420575
 30
0.0
  0
VERTEX
  5
459
  8
回08-記事
  6
CONTINUOUS
 62
     7
 10
1495.154243803642
 20
310.9258567420575
 30
0.0
  0
SEQEND
  5
456
  8
回08-記事
  6
CONTINUOUS
 62
     7
  0
POLYLINE
  5
2DF
  8
回08-記事
  6
CONTINUOUS
 62
     7
 66
     1
 10
0.0
 20
0.0
 30
0.0
 70
     1
  0
VERTEX
  5
45A
  8
回08-記事
  6
CONTINUOUS
 62
     7
 10
1417.454243803643
 20
311.9258567420575
 30
0.0
  0
VERTEX
  5
45C
  8
回08-記事
  6
CONTINUOUS
 62
     7
 10
1495.154243803642
 20
311.9258567420575
 30
0.0
  0
VERTEX
  5
45D
  8
回08-記事
  6
CONTINUOUS
 62
     7
 10
1495.154243803642
 20
310.9258567420575
 30
0.0
  0
VERTEX
  5
45E
  8
回08-記事
  6
CONTINUOUS
 62
     7
 10
1417.454243803643
 20
310.9258567420575
 30
0.0
  0
SEQEND
  5
45B
  8
回08-記事
  6
CONTINUOUS
 62
     7
  0
POLYLINE
  5
2E0
  8
回08-記事
  6
CONTINUOUS
 62
     7
 66
     1
 10
0.0
 20
0.0
 30
0.0
 70
     1
  0
VERTEX
  5
45F
  8
回08-記事
  6
CONTINUOUS
 62
     7
 10
1676.154243803642
 20
310.9258567420575
 30
0.0
  0
VERTEX
  5
461
  8
回08-記事
  6
CONTINUOUS
 62
     7
 10
1492.454243803643
 20
310.9258567420575
 30
0.0
  0
VERTEX
  5
462
  8
回08-記事
  6
CONTINUOUS
 62
     7
 10
1492.454243803643
 20
307.9258567420575
 30
0.0
  0
VERTEX
  5
463
  8
回08-記事
  6
CONTINUOUS
 62
     7
 10
1676.154243803642
 20
307.9258567420575
 30
0.0
  0
SEQEND
  5
460
  8
回08-記事
  6
CONTINUOUS
 62
     7
  0
POLYLINE
  5
2E1
  8
回08-記事
  6
CONTINUOUS
 62
     7
 66
     1
 10
0.0
 20
0.0
 30
0.0
 70
     1
  0
VERTEX
  5
464
  8
回08-記事
  6
CONTINUOUS
 62
     7
 10
1492.954243803643
 20
313.4258567420575
 30
0.0
  0
VERTEX
  5
466
  8
回08-記事
  6
CONTINUOUS
 62
     7
 10
1675.654243803642
 20
313.4258567420575
 30
0.0
  0
VERTEX
  5
467
  8
回08-記事
  6
CONTINUOUS
 62
     7
 10
1675.654243803642
 20
311.9258567420575
 30
0.0
  0
VERTEX
  5
468
  8
回08-記事
  6
CONTINUOUS
 62
     7
 10
1492.954243803643
 20
311.9258567420575
 30
0.0
  0
SEQEND
  5
465
  8
回08-記事
  6
CONTINUOUS
 62
     7
  0
TEXT
  5
2E2
  8
回07-寸法
  6
CONTINUOUS
 62
     5
 10
1574.147764922191
 20
359.5598857996545
 30
0.0
 40
5.0
  1
YD
  0
TEXT
  5
2E3
  8
回07-寸法
  6
CONTINUOUS
 62
     5
 10
1574.147764922191
 20
477.3035117570837
 30
0.0
 40
5.0
  1
YU
  0
TEXT
  5
2E4
  8
回07-寸法
  6
CONTINUOUS
 62
     5
 10
1659.782757596154
 20
423.8496214554491
 30
0.0
 40
5.0
  1
XR
  0
TEXT
  5
2E5
  8
回07-寸法
  6
CONTINUOUS
 62
     5
 10
1500.709846483317
 20
423.8496214554491
 30
0.0
 40
5.0
  1
XL
  0
LINE
  5
2E6
  8
回08-記事
  6
CENTER2
 62
     5
 10
1679.411178534592
 20
421.2614533055564
 30
0.0
 11
1419.198153751271
 21
421.2614533055564
 31
0.0
  0
POLYLINE
  5
2E7
  8
回08-記事
  6
CONTINUOUS
 62
     7
 66
     1
 10
0.0
 20
0.0
 30
0.0
 70
     1
  0
VERTEX
  5
469
  8
回08-記事
  6
CONTINUOUS
 62
     7
 10
1498.104243803643
 20
356.3614533055564
 30
0.0
  0
VERTEX
  5
46B
  8
回08-記事
  6
CONTINUOUS
 62
     7
 10
1670.504243803642
 20
356.3614533055564
 30
0.0
  0
VERTEX
  5
46C
  8
回08-記事
  6
CONTINUOUS
 62
     7
 10
1670.504243803642
 20
486.1614533055564
 30
0.0
  0
VERTEX
  5
46D
  8
回08-記事
  6
CONTINUOUS
 62
     7
 10
1498.104243803643
 20
486.1614533055564
 30
0.0
  0
SEQEND
  5
46A
  8
回08-記事
  6
CONTINUOUS
 62
     7
  0
POLYLINE
  5
2E8
  8
回08-記事
  6
CONTINUOUS
 62
     7
 66
     1
 10
0.0
 20
0.0
 30
0.0
 70
     1
  0
VERTEX
  5
46E
  8
回08-記事
  6
CONTINUOUS
 62
     7
 10
1499.104243803643
 20
357.3614533055564
 30
0.0
  0
VERTEX
  5
470
  8
回08-記事
  6
CONTINUOUS
 62
     7
 10
1669.504243803643
 20
357.3614533055564
 30
0.0
  0
VERTEX
  5
471
  8
回08-記事
  6
CONTINUOUS
 62
     7
 10
1669.504243803643
 20
485.1614533055564
 30
0.0
  0
VERTEX
  5
472
  8
回08-記事
  6
CONTINUOUS
 62
     7
 10
1499.104243803643
 20
485.1614533055564
 30
0.0
  0
SEQEND
  5
46F
  8
回08-記事
  6
CONTINUOUS
 62
     7
  0
POLYLINE
  5
2E9
  8
回04-下接
  6
CONTINUOUS
 62
     7
 66
     1
 10
0.0
 20
0.0
 30
0.0
 70
     1
  0
VERTEX
  5
473
  8
回04-下接
  6
CONTINUOUS
 62
     7
 10
1492.454243803643
 20
350.7114533055565
 30
0.0
  0
VERTEX
  5
475
  8
回04-下接
  6
CONTINUOUS
 62
     7
 10
1676.154243803642
 20
350.7114533055565
 30
0.0
  0
VERTEX
  5
476
  8
回04-下接
  6
CONTINUOUS
 62
     7
 10
1676.154243803642
 20
491.8114533055564
 30
0.0
  0
VERTEX
  5
477
  8
回04-下接
  6
CONTINUOUS
 62
     7
 10
1492.454243803643
 20
491.8114533055564
 30
0.0
  0
SEQEND
  5
474
  8
回08-記事
  6
CONTINUOUS
 62
     7
  0
TEXT
  5
2EA
  8
回08-記事
  6
CONTINUOUS
 62
     5
 10
1766.042335560031
 20
451.0128257266492
 30
0.0
 40
4.341093749999999
  1
PIN ASSIGNMENT
  0
LINE
  5
2EB
  8
回08-記事
  6
CONTINUOUS
 62
     5
 10
1792.669828742582
 20
467.7536908745812
 30
0.0
 11
1768.670063169276
 21
467.7536908745812
 31
0.0
  0
TEXT
  5
2EC
  8
回08-記事
  6
CONTINUOUS
 62
     5
 10
1763.762945795696
 20
510.0440256970633
 30
0.0
 40
4.571383918725
  1
4
  0
TEXT
  5
2ED
  8
回08-記事
  6
CONTINUOUS
 62
     5
 10
1806.886992565839
 20
477.6340302054875
 30
0.0
 40
3.999960928884373
  1
XR
  0
LINE
  5
2EE
  8
回08-記事
  6
CONTINUOUS
 62
     5
 10
1810.383941427642
 20
483.4678230951984
 30
0.0
 11
1810.383941427642
 21
512.0389725872296
 31
0.0
  0
LINE
  5
2EF
  8
回08-記事
  6
CONTINUOUS
 62
     5
 10
1806.669691993677
 20
483.4678230951984
 30
0.0
 11
1810.383941427642
 21
483.4678230951984
 31
0.0
  0
LINE
  5
2F0
  8
回08-記事
  6
CONTINUOUS
 62
     5
 10
1799.184050826765
 20
484.9535228687841
 30
0.0
 11
1801.241173590192
 21
480.8392773419313
 31
0.0
  0
LINE
  5
2F1
  8
回08-記事
  6
CONTINUOUS
 62
     5
 10
1797.126928063339
 20
480.8392773419313
 30
0.0
 11
1799.184050826765
 21
484.9535228687841
 31
0.0
  0
LINE
  5
2F2
  8
回08-記事
  6
CONTINUOUS
 62
     5
 10
1801.241173590192
 20
480.8392773419313
 30
0.0
 11
1803.298296353618
 21
484.9535228687841
 31
0.0
  0
LINE
  5
2F3
  8
回08-記事
  6
CONTINUOUS
 62
     5
 10
1803.298296353618
 20
484.9535228687841
 30
0.0
 11
1805.355419117044
 21
480.8392773419313
 31
0.0
  0
LINE
  5
2F4
  8
回08-記事
  6
CONTINUOUS
 62
     5
 10
1805.355419117044
 20
480.8392773419313
 30
0.0
 11
1806.669691993677
 21
483.4678230951984
 31
0.0
  0
LINE
  5
2F5
  8
回08-記事
  6
CONTINUOUS
 62
     5
 10
1788.898437009634
 20
480.8392773419313
 30
0.0
 11
1790.95555977306
 21
484.9535228687841
 31
0.0
  0
LINE
  5
2F6
  8
回08-記事
  6
CONTINUOUS
 62
     5
 10
1784.784191482781
 20
480.8392773419313
 30
0.0
 11
1786.841314246208
 21
484.9535228687841
 31
0.0
  0
LINE
  5
2F7
  8
回08-記事
  6
CONTINUOUS
 62
     5
 10
1786.841314246208
 20
484.9535228687841
 30
0.0
 11
1788.898437009634
 21
480.8392773419313
 31
0.0
  0
LINE
  5
2F8
  8
回08-記事
  6
CONTINUOUS
 62
     5
 10
1790.612705979156
 20
485.1249497657361
 30
0.0
 11
1794.726951506008
 21
483.0678270023099
 31
0.0
  0
LINE
  5
2F9
  8
回08-記事
  6
CONTINUOUS
 62
     5
 10
1790.612705979156
 20
489.2391952925889
 30
0.0
 11
1794.726951506008
 21
487.1820725291625
 31
0.0
  0
LINE
  5
2FA
  8
回08-記事
  6
CONTINUOUS
 62
     5
 10
1790.612705979156
 20
489.2391952925889
 30
0.0
 11
1794.726951506008
 21
491.296318056015
 31
0.0
  0
LINE
  5
2FB
  8
回08-記事
  6
CONTINUOUS
 62
     5
 10
1790.612705979156
 20
485.1249497657361
 30
0.0
 11
1794.726951506008
 21
487.1820725291625
 31
0.0
  0
LINE
  5
2FC
  8
回08-記事
  6
CONTINUOUS
 62
     5
 10
1790.612705979156
 20
476.8964587120308
 30
0.0
 11
1794.726951506008
 21
478.9535814754578
 31
0.0
  0
LINE
  5
2FD
  8
回08-記事
  6
CONTINUOUS
 62
     5
 10
1790.612705979156
 20
481.0107042388835
 30
0.0
 11
1794.726951506008
 21
478.9535814754578
 31
0.0
  0
LINE
  5
2FE
  8
回08-記事
  6
CONTINUOUS
 62
     5
 10
1790.612705979156
 20
481.0107042388835
 30
0.0
 11
1794.726951506008
 21
483.0678270023099
 31
0.0
  0
LINE
  5
2FF
  8
回08-記事
  6
CONTINUOUS
 62
     5
 10
1792.669828742582
 20
492.3248794377282
 30
0.0
 11
1794.726951506008
 21
491.296318056015
 31
0.0
  0
LINE
  5
300
  8
回08-記事
  6
CONTINUOUS
 62
     5
 10
1790.95555977306
 20
484.9535228687841
 30
0.0
 11
1793.012682536487
 21
480.8392773419313
 31
0.0
  0
LINE
  5
301
  8
回08-記事
  6
CONTINUOUS
 62
     5
 10
1793.012682536487
 20
480.8392773419313
 30
0.0
 11
1795.069805299913
 21
484.9535228687841
 31
0.0
  0
LINE
  5
302
  8
回08-記事
  6
CONTINUOUS
 62
     5
 10
1792.669828742582
 20
492.3248794377282
 30
0.0
 11
1792.669828742582
 21
495.7534173767718
 31
0.0
  0
TEXT
  5
303
  8
回08-記事
  6
CONTINUOUS
 62
     5
 10
1773.495706014646
 20
484.0005353497871
 30
0.0
 40
3.999960928884373
  1
XL
  0
LINE
  5
304
  8
回08-記事
  6
CONTINUOUS
 62
     5
 10
1781.412795842722
 20
482.3249771155173
 30
0.0
 11
1782.727068719355
 21
484.9535228687841
 31
0.0
  0
LINE
  5
305
  8
回08-記事
  6
CONTINUOUS
 62
     5
 10
1782.727068719355
 20
484.9535228687841
 30
0.0
 11
1784.784191482781
 21
480.8392773419313
 31
0.0
  0
LINE
  5
306
  8
回08-記事
  6
CONTINUOUS
 62
     5
 10
1790.612705979156
 20
472.7822131851787
 30
0.0
 11
1794.726951506008
 21
474.839335948605
 31
0.0
  0
LINE
  5
307
  8
回08-記事
  6
CONTINUOUS
 62
     5
 10
1790.612705979156
 20
472.7822131851787
 30
0.0
 11
1792.669828742582
 21
471.7536518034655
 31
0.0
  0
LINE
  5
308
  8
回08-記事
  6
CONTINUOUS
 62
     5
 10
1792.669828742582
 20
467.7536908745812
 30
0.0
 11
1792.669828742582
 21
471.7536518034655
 31
0.0
  0
TEXT
  5
309
  8
回08-記事
  6
CONTINUOUS
 62
     5
 10
1782.162145178601
 20
469.3830360279569
 30
0.0
 40
3.999960928884373
  1
YD
  0
LINE
  5
30A
  8
回08-記事
  6
CONTINUOUS
 62
     5
 10
1790.612705979156
 20
476.8964587120308
 30
0.0
 11
1794.726951506008
 21
474.839335948605
 31
0.0
  0
TEXT
  5
30B
  8
回08-記事
  6
CONTINUOUS
 62
     5
 10
1764.201444042643
 20
465.1997035017477
 30
0.0
 40
4.571383918725
  1
1
  0
TEXT
  5
30C
  8
回08-記事
  6
CONTINUOUS
 62
     5
 10
1763.850904393614
 20
479.7264887113693
 30
0.0
 40
4.571383918725
  1
2
  0
TEXT
  5
30D
  8
回08-記事
  6
CONTINUOUS
 62
     5
 10
1764.024166474935
 20
493.6109253462258
 30
0.0
 40
4.571383918725
  1
3
  0
LINE
  5
30E
  8
回08-記事
  6
CONTINUOUS
 62
     5
 10
1768.670063169276
 20
495.7534173767718
 30
0.0
 11
1792.669828742582
 21
495.7534173767718
 31
0.0
  0
LINE
  5
30F
  8
回08-記事
  6
CONTINUOUS
 62
     5
 10
1768.670063169276
 20
482.3249771155173
 30
0.0
 11
1781.412795842722
 21
482.3249771155173
 31
0.0
  0
TEXT
  5
310
  8
回08-記事
  6
CONTINUOUS
 62
     5
 10
1793.792352501815
 20
497.0782791217543
 30
0.0
 40
3.999960928884373
  1
YU
  0
LINE
  5
311
  8
回08-記事
  6
CONTINUOUS
 62
     5
 10
1795.069805299913
 20
484.9535228687841
 30
0.0
 11
1797.126928063339
 21
480.8392773419313
 31
0.0
  0
LINE
  5
312
  8
回08-記事
  6
CONTINUOUS
 62
     5
 10
1768.670063169276
 20
512.0389725872296
 30
0.0
 11
1810.383941427642
 21
512.0389725872296
 31
0.0
  0
DIMENSION
  5
313
  8
回08-記事
  6
CONTINUOUS
 62
     7
  2
*D36
 10
1381.984305998748
 20
527.2411486301805
 30
0.0
 11
1379.834305998748
 21
514.6399675278177
 31
0.0
 70
     0
  1
0.6[0.024]
  3
DMC
 13
1384.241777295729
 23
529.6411486301804
 33
0.0
 14
1384.241777295729
 24
527.2411486301803
 34
0.0
 50
90.0
1001
ACAD
1000
DSTYLE
1002
{
1070
   170
1070
     1
1070
   371
1070
     9
1070
   372
1070
     9
1002
}
  0
LINE
  5
324
  8
回08-記事
  6
CONTINUOUS
 62
     7
 10
1404.241777295729
 20
544.4411486301805
 30
0.0
 11
1404.241777295729
 21
524.4411486301799
 31
0.0
  0
DIMENSION
  5
325
  8
回07-寸法
  6
CONTINUOUS
 62
     7
  2
*D35
 10
1377.01068434059
 20
532.4411486301805
 30
0.0
 11
1377.01068434059
 21
515.9218470440871
 31
0.0
 70
   128
  1
1[0.039]
  3
DMC
 13
1384.241777295729
 23
528.4411486301803
 33
0.0
 14
1384.241777295729
 24
532.4411486301803
 34
0.0
 50
90.0
1001
ACAD
1000
DSTYLE
1002
{
1070
   144
1040
0.25
1070
    47
1040
0.2
1070
    48
1040
0.2
1070
   371
1070
     9
1070
   372
1070
     9
1002
}
  0
DIMENSION
  5
336
  8
回07-寸法
  6
CONTINUOUS
 62
     7
  2
*D34
 10
1370.858964708914
 20
528.4411486301805
 30
0.0
 11
1370.858964708914
 21
515.9411486301803
 31
0.0
 70
   128
  1
3[0.118]
  3
DMC
 13
1384.241777295729
 23
540.4411486301803
 33
0.0
 14
1384.241777295729
 24
528.4411486301803
 34
0.0
 50
90.0
1001
ACAD
1000
DSTYLE
1002
{
1070
   144
1040
0.25
1070
    47
1040
0.2
1070
    48
1040
0.2
1070
   371
1070
     9
1070
   372
1070
     9
1002
}
  0
DIMENSION
  5
347
  8
回07-寸法
  6
CONTINUOUS
 62
     7
  2
*D33
 10
1364.645478606739
 20
524.4411486301799
 30
0.0
 11
1362.495478606739
 21
507.6856021344379
 31
0.0
 70
     0
  1
5{\H0.6667x;±0.1}[0.197{\H0.6667x;±0.004}]
  3
DMC
 13
1386.241777295729
 23
544.4411486301803
 33
0.0
 14
1386.241777295729
 24
524.4411486301796
 34
0.0
 50
90.0
1001
ACAD
1000
DSTYLE
1002
{
1070
   147
1040
0.5
1070
    72
1070
     0
1070
    71
1070
     1
1070
   144
1040
0.25
1070
    47
1040
0.1
1070
    48
1040
0.1
1070
   371
1070
     9
1070
   372
1070
     9
1002
}
  0
TEXT
  5
358
  8
ACC
  6
CONTINUOUS
 62
     7
 10
1388.883101805415
 20
546.0394081541345
 30
0.0
 40
4.0
  1
4
 50
90.0
  0
TEXT
  5
35C
  8
ACC
  6
CONTINUOUS
 62
     7
 10
1388.883101805415
 20
520.5680160157664
 30
0.0
 40
4.0
  1
1
 50
90.0
  0
POLYLINE
  5
35D
  8
ACC
  6
CONTINUOUS
 62
     8
 66
     1
 10
0.0
 20
0.0
 30
0.0
 40
2.399999999999999
 41
2.399999999999999
  0
VERTEX
  5
478
  8
ACC
  6
CONTINUOUS
 62
     8
 10
1384.241777295729
 20
532.4411486301803
 30
0.0
  0
VERTEX
  5
47A
  8
ACC
  6
CONTINUOUS
 62
     8
 10
1404.241777295729
 20
532.4411486301803
 30
0.0
  0
SEQEND
  5
479
  8
回08-記事
  6
CONTINUOUS
 62
     7
  0
POLYLINE
  5
35E
  8
ACC
  6
CONTINUOUS
 62
     8
 66
     1
 10
0.0
 20
0.0
 30
0.0
 40
2.399999999999999
 41
2.399999999999999
  0
VERTEX
  5
47B
  8
ACC
  6
CONTINUOUS
 62
     8
 10
1384.241777295729
 20
528.4411486301803
 30
0.0
  0
VERTEX
  5
47D
  8
ACC
  6
CONTINUOUS
 62
     8
 10
1404.241777295729
 20
528.4411486301803
 30
0.0
  0
SEQEND
  5
47C
  8
回08-記事
  6
CONTINUOUS
 62
     7
  0
POLYLINE
  5
35F
  8
ACC
  6
CONTINUOUS
 62
     8
 66
     1
 10
0.0
 20
0.0
 30
0.0
 40
2.399999999999999
 41
2.399999999999999
  0
VERTEX
  5
47E
  8
ACC
  6
CONTINUOUS
 62
     8
 10
1384.241777295729
 20
540.4411486301803
 30
0.0
  0
VERTEX
  5
480
  8
ACC
  6
CONTINUOUS
 62
     8
 10
1404.241777295729
 20
540.4411486301803
 30
0.0
  0
SEQEND
  5
47F
  8
回08-記事
  6
CONTINUOUS
 62
     7
  0
POLYLINE
  5
360
  8
ACC
  6
CONTINUOUS
 62
     8
 66
     1
 10
0.0
 20
0.0
 30
0.0
 40
2.399999999999999
 41
2.399999999999999
  0
VERTEX
  5
481
  8
ACC
  6
CONTINUOUS
 62
     8
 10
1384.241777295729
 20
536.4411486301803
 30
0.0
  0
VERTEX
  5
483
  8
ACC
  6
CONTINUOUS
 62
     8
 10
1404.241777295729
 20
536.4411486301803
 30
0.0
  0
SEQEND
  5
482
  8
回08-記事
  6
CONTINUOUS
 62
     7
  0
LINE
  5
361
  8
ACC
  6
BYBLOCK
 62
     8
 10
1384.241777295729
 20
526.4411486301803
 30
0.0
 11
1384.241777295729
 21
542.4411486301807
 31
0.0
  0
ARC
  5
362
  8
ACC
  6
BYBLOCK
 62
     8
 10
1386.241777295729
 20
542.4411486301807
 30
0.0
 40
2.0
 50
90.0
 51
180.0
  0
ARC
  5
363
  8
ACC
  6
BYBLOCK
 62
     8
 10
1386.241777295729
 20
526.4411486301803
 30
0.0
 40
2.0
 50
180.0
 51
270.0
  0
LINE
  5
364
  8
ACC
  6
BYBLOCK
 62
     8
 10
1386.241777295729
 20
544.4411486301803
 30
0.0
 11
1410.22998954126
 21
544.4411486301803
 31
0.0
  0
LINE
  5
365
  8
ACC
  6
BYBLOCK
 62
     8
 10
1386.241777295729
 20
524.4411486301796
 30
0.0
 11
1410.22998954126
 21
524.4411486301796
 31
0.0
  0
TEXT
  5
366
  8
回08-記事
  6
CONTINUOUS
 62
     5
 10
1375.962017252367
 20
556.4382217575555
 30
0.0
 40
4.341093749999999
  1
SECTION A
  0
TEXT
  5
367
  8
回91-枠英2
 10
1773.514003781619
 20
244.8970133413546
 30
0.0
 40
5.0
  1
Oct/06/2023
 72
     1
 11
1792.514003781619
 21
244.8970133413546
 31
0.0
  0
TEXT
  5
36B
  8
回91-枠英2
  6
CONTINUOUS
 62
     7
 10
1787.464733886851
 20
255.8364502569771
 30
0.0
 40
3.0
  1
DATE
  0
TEXT
  5
36C
  8
回91-枠英2
 10
1797.370450556706
 20
576.974884918493
 30
0.0
 40
3.6
  1
H
  0
LINE
  5
36D
  8
回91-枠英2
 10
1767.014003781619
 20
581.1397041050472
 30
0.0
 11
1767.014003781619
 21
576.6397041050472
 31
0.0
  0
LINE
  5
36E
  8
回91-枠英2
 10
1834.514003781619
 20
507.339704105047
 30
0.0
 11
1830.014003781619
 21
507.339704105047
 31
0.0
  0
TEXT
  5
36F
  8
回91-枠英2
 10
1831.00663385194
 20
470.6995226713206
 30
0.0
 40
3.6
  1
2
  0
LINE
  5
370
  8
回91-枠英2
 10
1834.514003781619
 20
438.0397041050469
 30
0.0
 11
1830.014003781619
 21
438.0397041050469
 31
0.0
  0
TEXT
  5
371
  8
回91-枠英2
 10
1831.277982684912
 20
539.9995226713204
 30
0.0
 40
3.6
  1
1
  0
TEXT
  5
372
  8
回91-枠英2
 10
1831.00170109216
 20
401.3995226713205
 30
0.0
 40
3.6
  1
3
  0
LINE
  5
373
  8
回91-枠英2
 10
1834.514003781619
 20
368.7397041050472
 30
0.0
 11
1830.014003781619
 21
368.7397041050472
 31
0.0
  0
TEXT
  5
374
  8
回91-枠英2
 10
1830.935918184087
 20
332.0995226713203
 30
0.0
 40
3.6
  1
4
  0
LINE
  5
375
  8
回91-枠英2
 10
1834.514003781619
 20
299.439704105047
 30
0.0
 11
1830.014003781619
 21
299.439704105047
 31
0.0
  0
TEXT
  5
376
  8
回91-枠英2
 10
1830.935918184087
 20
262.7995226713206
 30
0.0
 40
3.6
  1
5
  0
TEXT
  5
377
  8
回91-枠英2
 10
1797.370450556706
 20
225.974884918493
 30
0.0
 40
3.6
  1
H
  0
LINE
  5
378
  8
回91-枠英2
 10
1767.014003781619
 20
230.1397041050473
 30
0.0
 11
1767.014003781619
 21
225.6397041050473
 31
0.0
  0
TEXT
  5
379
  8
回91-枠英2
 10
1772.639003781619
 20
232.6774119422394
 30
0.0
 40
5.0
  1
DMC Co., Ltd.
 72
     1
 11
1792.514003781619
 21
232.6774119422394
 31
0.0
  0
LINE
  5
37A
  8
回91-枠英2
 10
1834.514003781619
 20
225.6397041050473
 30
0.0
 11
1834.514003781619
 21
581.1397041050472
 31
0.0
  0
LINE
  5
37B
  8
回91-枠英2
 10
1830.014003781619
 20
576.6397041050472
 30
0.0
 11
1830.014003781619
 21
230.1397041050473
 31
0.0
  0
TEXT
  5
37C
  8
回91-枠英2
 10
1734.370450556706
 20
576.974884918493
 30
0.0
 40
3.6
  1
G
  0
LINE
  5
37D
  8
回91-枠英2
 10
1704.014003781619
 20
581.1397041050472
 30
0.0
 11
1704.014003781619
 21
576.6397041050472
 31
0.0
  0
TEXT
  5
37E
  8
回91-枠英2
 10
1671.370450556706
 20
576.974884918493
 30
0.0
 40
3.6
  1
F
  0
LINE
  5
37F
  8
回91-枠英2
 10
1641.014003781618
 20
581.1397041050472
 30
0.0
 11
1641.014003781618
 21
576.6397041050472
 31
0.0
  0
TEXT
  5
380
  8
回91-枠英2
 10
1608.370450556706
 20
576.974884918493
 30
0.0
 40
3.6
  1
E
  0
LINE
  5
381
  8
回91-枠英2
 10
1578.014003781619
 20
581.1397041050472
 30
0.0
 11
1578.014003781619
 21
576.6397041050472
 31
0.0
  0
TEXT
  5
382
  8
回91-枠英2
 10
1545.370450556706
 20
576.974884918493
 30
0.0
 40
3.6
  1
D
  0
LINE
  5
383
  8
回91-枠英2
 10
1515.014003781619
 20
581.1397041050472
 30
0.0
 11
1515.014003781619
 21
576.6397041050472
 31
0.0
  0
TEXT
  5
384
  8
回91-枠英2
 10
1482.370450556706
 20
576.974884918493
 30
0.0
 40
3.6
  1
C
  0
LINE
  5
385
  8
回91-枠英2
 10
1452.014003781619
 20
581.1397041050472
 30
0.0
 11
1452.014003781619
 21
576.6397041050472
 31
0.0
  0
TEXT
  5
386
  8
回91-枠英2
 10
1419.370450556706
 20
576.974884918493
 30
0.0
 40
3.6
  1
B
  0
LINE
  5
387
  8
回91-枠英2
 10
1389.014003781619
 20
581.1397041050472
 30
0.0
 11
1389.014003781619
 21
576.6397041050472
 31
0.0
  0
TEXT
  5
388
  8
回91-枠英2
 10
1356.370450556706
 20
576.974884918493
 30
0.0
 40
3.6
  1
A
  0
LINE
  5
389
  8
回91-枠英2
 10
1326.014003781619
 20
507.339704105047
 30
0.0
 11
1321.514003781619
 21
507.339704105047
 31
0.0
  0
TEXT
  5
38A
  8
回91-枠英2
 10
1322.506633851941
 20
470.6995226713206
 30
0.0
 40
3.6
  1
2
  0
LINE
  5
38B
  8
回91-枠英2
 10
1326.014003781619
 20
438.0397041050469
 30
0.0
 11
1321.514003781619
 21
438.0397041050469
 31
0.0
  0
TEXT
  5
38C
  8
回91-枠英2
 10
1322.777982684912
 20
539.9995226713204
 30
0.0
 40
3.6
  1
1
  0
TEXT
  5
38D
  8
回91-枠英2
 10
1699.514003781619
 20
247.6315863002792
 30
0.0
 40
5.0
  1
QST-084A075H
 72
     1
 11
1722.514003781619
 21
247.6315863002792
 31
0.0
  0
TEXT
  5
38E
  8
回91-枠英2
 10
1713.064003781619
 20
256.0869570244104
 30
0.0
 40
3.0
  1
PART　No.
 72
     1
 11
1722.514003781619
 21
256.0869570244104
 31
0.0
  0
TEXT
  5
38F
  8
回91-枠英2
 10
1734.370450556706
 20
225.974884918493
 30
0.0
 40
3.6
  1
G
  0
LINE
  5
390
  8
回91-枠英2
 10
1693.014003781619
 20
235.1397041050473
 30
0.0
 11
1752.014003781618
 21
235.1397041050473
 31
0.0
  0
TEXT
  5
391
  8
回91-枠英2
 10
1699.173413230437
 20
236.2897348364331
 30
0.0
 40
3.0
  1
STANDARD TOUCHSCREEN
 72
     1
 11
1722.514003781619
 21
236.2897348364331
 31
0.0
  0
TEXT
  5
392
  8
回91-枠英2
 10
1705.933902320269
 20
231.2897348364332
 30
0.0
 40
3.0
  1
CIRCUIT　DRAWING
 72
     1
 11
1722.514003781619
 21
231.2897348364332
 31
0.0
  0
LINE
  5
393
  8
回91-枠英2
 10
1755.014003781619
 20
260.1397041050473
 30
0.0
 11
1755.014003781619
 21
230.1397041050473
 31
0.0
  0
TEXT
  5
394
  8
回91-枠英2
 10
1717.714003781619
 20
240.8833237946224
 30
0.0
 40
3.0
  1
TYPE
 72
     1
 11
1722.514003781619
 21
240.8833237946224
 31
0.0
  0
LINE
  5
395
  8
回91-枠英2
 10
1704.014003781619
 20
230.1397041050473
 30
0.0
 11
1704.014003781619
 21
225.6397041050473
 31
0.0
  0
TEXT
  5
396
  8
回91-枠英2
 10
1671.370450556706
 20
225.974884918493
 30
0.0
 40
3.6
  1
F
  0
LINE
  5
397
  8
回91-枠英2
 10
1690.014003781619
 20
260.1397041050473
 30
0.0
 11
1690.014003781619
 21
230.1397041050473
 31
0.0
  0
LINE
  5
398
  8
回91-枠英2
 10
1641.014003781618
 20
230.1397041050473
 30
0.0
 11
1641.014003781618
 21
225.6397041050473
 31
0.0
  0
TEXT
  5
399
  8
回91-枠英2
 10
1608.370450556706
 20
225.974884918493
 30
0.0
 40
3.6
  1
E
  0
LINE
  5
39A
  8
回91-枠英2
 10
1578.014003781619
 20
230.1397041050473
 30
0.0
 11
1578.014003781619
 21
225.6397041050473
 31
0.0
  0
TEXT
  5
39B
  8
回91-枠英2
 10
1545.370450556706
 20
225.974884918493
 30
0.0
 40
3.6
  1
D
  0
LINE
  5
39C
  8
回91-枠英2
 10
1690.014003781619
 20
245.1397041050473
 30
0.0
 11
1755.014003781619
 21
245.1397041050473
 31
0.0
  0
LINE
  5
39D
  8
回91-枠英2
 10
1515.014003781619
 20
230.1397041050473
 30
0.0
 11
1515.014003781619
 21
225.6397041050473
 31
0.0
  0
TEXT
  5
39E
  8
回91-枠英2
 10
1482.370450556706
 20
225.974884918493
 30
0.0
 40
3.6
  1
C
  0
LINE
  5
39F
  8
回91-枠英2
 10
1452.014003781619
 20
230.1397041050473
 30
0.0
 11
1452.014003781619
 21
225.6397041050473
 31
0.0
  0
TEXT
  5
3A0
  8
回91-枠英2
 10
1419.370450556706
 20
225.974884918493
 30
0.0
 40
3.6
  1
B
  0
TEXT
  5
3A1
  8
回91-枠英2
 10
1322.50170109216
 20
401.3995226713205
 30
0.0
 40
3.6
  1
3
  0
LINE
  5
3A2
  8
回91-枠英2
 10
1326.014003781619
 20
368.7397041050472
 30
0.0
 11
1321.514003781619
 21
368.7397041050472
 31
0.0
  0
TEXT
  5
3A3
  8
回91-枠英2
 10
1322.435918184087
 20
332.0995226713203
 30
0.0
 40
3.6
  1
4
  0
LINE
  5
3A4
  8
回91-枠英2
 10
1389.014003781619
 20
230.1397041050473
 30
0.0
 11
1389.014003781619
 21
225.6397041050473
 31
0.0
  0
TEXT
  5
3A5
  8
回91-枠英2
 10
1356.370450556706
 20
225.974884918493
 30
0.0
 40
3.6
  1
A
  0
LINE
  5
3A6
  8
回91-枠英2
 10
1326.014003781619
 20
299.439704105047
 30
0.0
 11
1321.514003781619
 21
299.439704105047
 31
0.0
  0
TEXT
  5
3A7
  8
回91-枠英2
 10
1322.435918184087
 20
262.7995226713206
 30
0.0
 40
3.6
  1
5
  0
LINE
  5
3A8
  8
回91-枠英2
 10
1321.514003781619
 20
225.6397041050473
 30
0.0
 11
1321.514003781619
 21
581.1397041050472
 31
0.0
  0
LINE
  5
3A9
  8
回91-枠英2
 10
1326.014003781619
 20
576.6397041050472
 30
0.0
 11
1326.014003781619
 21
230.1397041050473
 31
0.0
  0
LINE
  5
3AA
  8
回91-枠英2
 10
1326.014003781619
 20
230.1397041050473
 30
0.0
 11
1830.014003781619
 21
230.1397041050473
 31
0.0
  0
LINE
  5
3AB
  8
回91-枠英2
 10
1834.514003781619
 20
225.6397041050473
 30
0.0
 11
1321.514003781619
 21
225.6397041050473
 31
0.0
  0
LINE
  5
3AC
  8
回91-枠英2
 10
1834.514003781619
 20
581.1397041050472
 30
0.0
 11
1321.514003781619
 21
581.1397041050472
 31
0.0
  0
LINE
  5
3AD
  8
回91-枠英2
 10
1326.014003781619
 20
576.6397041050472
 30
0.0
 11
1830.014003781619
 21
576.6397041050472
 31
0.0
  0
LINE
  5
3AE
  8
回91-枠英2
 10
1690.014003781619
 20
240.1397041050473
 30
0.0
 11
1830.014003781619
 21
240.1397041050473
 31
0.0
  0
LINE
  5
3AF
  8
回91-枠英2
 10
1690.014003781619
 20
260.1397041050473
 30
0.0
 11
1830.014003781619
 21
260.1397041050473
 31
0.0
  0
LINE
  5
3B0
  8
回91-枠英2
 10
1690.014003781619
 20
255.1397041050473
 30
0.0
 11
1830.014003781619
 21
255.1397041050473
 31
0.0
  0
ENDSEC
  0
EOF
