  0
SECTION
  2
HEADER
  9
$ACADVER
  1
AC1009
  9
$INSBASE
 10
0.0
 20
0.0
 30
0.0
  9
$EXTMIN
 10
1320.296855310049
 20
-513.0097667544024
 30
0.0
  9
$EXTMAX
 10
2802.257233667032
 20
604.0889236548955
 30
0.0
  9
$LIMMIN
 10
0.0
 20
0.0
  9
$LIMMAX
 10
3000.0
 20
2500.0
  9
$ORTHOMODE
 70
     0
  9
$REGENMODE
 70
     1
  9
$FILLMODE
 70
     1
  9
$QTEXTMODE
 70
     0
  9
$MIRRTEXT
 70
     1
  9
$DRAGMODE
 70
     2
  9
$LTSCALE
 40
0.5
  9
$OSMODE
 70
    37
  9
$ATTMODE
 70
     1
  9
$TEXTSIZE
 40
3.0
  9
$TRACEWID
 40
1.0
  9
$TEXTSTYLE
  7
STANDARD
  9
$CLAYER
  8
回08-記事
  9
$CELTYPE
  6
CONTINUOUS
  9
$CECOLOR
 62
     7
  9
$DIMSCALE
 40
1.0
  9
$DIMASZ
 40
2.0
  9
$DIMEXO
 40
0.0
  9
$DIMDLI
 40
0.0
  9
$DIMRND
 40
0.0
  9
$DIMDLE
 40
0.0
  9
$DIMEXE
 40
1.0
  9
$DIMTP
 40
0.0
  9
$DIMTM
 40
0.0
  9
$DIMTXT
 40
3.0
  9
$DIMCEN
 40
2.0
  9
$DIMTSZ
 40
0.0
  9
$DIMTOL
 70
     0
  9
$DIMLIM
 70
     0
  9
$DIMTIH
 70
     0
  9
$DIMTOH
 70
     0
  9
$DIMSE1
 70
     0
  9
$DIMSE2
 70
     0
  9
$DIMTAD
 70
     3
  9
$DIMZIN
 70
     8
  9
$DIMBLK
  1
OPEN
  9
$DIMASO
 70
     1
  9
$DIMSHO
 70
     1
  9
$DIMPOST
  1

  9
$DIMAPOST
  1

  9
$DIMALT
 70
     1
  9
$DIMALTD
 70
     3
  9
$DIMALTF
 40
0.03937007874016
  9
$DIMLFAC
 40
1.0
  9
$DIMTOFL
 70
     1
  9
$DIMTVP
 40
0.0
  9
$DIMTIX
 70
     0
  9
$DIMSOXD
 70
     0
  9
$DIMSAH
 70
     0
  9
$DIMBLK1
  1

  9
$DIMBLK2
  1

  9
$DIMSTYLE
  2
DMC
  9
$DIMCLRD
 70
     5
  9
$DIMCLRE
 70
     5
  9
$DIMCLRT
 70
     5
  9
$DIMTFAC
 40
0.7
  9
$DIMGAP
 40
0.5
  9
$LUNITS
 70
     2
  9
$LUPREC
 70
     4
  9
$SKETCHINC
 40
1.0
  9
$FILLETRAD
 40
0.0
  9
$AUNITS
 70
     0
  9
$AUPREC
 70
     0
  9
$MENU
  1
.
  9
$ELEVATION
 40
0.0
  9
$PELEVATION
 40
0.0
  9
$THICKNESS
 40
0.0
  9
$LIMCHECK
 70
     0
  9
$BLIPMODE
 70
     0
  9
$CHAMFERA
 40
1.0
  9
$CHAMFERB
 40
1.0
  9
$SKPOLY
 70
     0
  9
$TDCREATE
 40
2451810.404221065
  9
$TDUPDATE
 40
2460224.583799769
  9
$TDINDWG
 40
3.807763530
  9
$TDUSRTIMER
 40
3.807762836
  9
$USRTIMER
 70
     1
  9
$ANGBASE
 50
0.0
  9
$ANGDIR
 70
     0
  9
$PDMODE
 70
     0
  9
$PDSIZE
 40
0.0
  9
$PLINEWID
 40
0.2
  9
$COORDS
 70
     0
  9
$SPLFRAME
 70
     0
  9
$SPLINETYPE
 70
     6
  9
$SPLINESEGS
 70
     8
  9
$ATTDIA
 70
     1
  9
$ATTREQ
 70
     1
  9
$HANDLING
 70
     1
  9
$HANDSEED
  5
4E1
  9
$SURFTAB1
 70
     6
  9
$SURFTAB2
 70
     6
  9
$SURFTYPE
 70
     6
  9
$SURFU
 70
     6
  9
$SURFV
 70
     6
  9
$UCSNAME
  2

  9
$UCSORG
 10
0.0
 20
0.0
 30
0.0
  9
$UCSXDIR
 10
1.0
 20
0.0
 30
0.0
  9
$UCSYDIR
 10
0.0
 20
1.0
 30
0.0
  9
$PUCSNAME
  2

  9
$PUCSORG
 10
0.0
 20
0.0
 30
0.0
  9
$PUCSXDIR
 10
1.0
 20
0.0
 30
0.0
  9
$PUCSYDIR
 10
0.0
 20
1.0
 30
0.0
  9
$USERI1
 70
     0
  9
$USERI2
 70
     0
  9
$USERI3
 70
     0
  9
$USERI4
 70
     0
  9
$USERI5
 70
     0
  9
$USERR1
 40
0.0
  9
$USERR2
 40
0.0
  9
$USERR3
 40
0.0
  9
$USERR4
 40
0.0
  9
$USERR5
 40
0.0
  9
$WORLDVIEW
 70
     1
  9
$SHADEDGE
 70
     3
  9
$SHADEDIF
 70
    70
  9
$TILEMODE
 70
     1
  9
$MAXACTVP
 70
    64
  9
$PLIMCHECK
 70
     0
  9
$PEXTMIN
 10
1.000000000000000E+20
 20
1.000000000000000E+20
 30
1.000000000000000E+20
  9
$PEXTMAX
 10
-1.000000000000000E+20
 20
-1.000000000000000E+20
 30
-1.000000000000000E+20
  9
$PLIMMIN
 10
0.0
 20
0.0
  9
$PLIMMAX
 10
420.0
 20
297.0
  9
$UNITMODE
 70
     0
  9
$VISRETAIN
 70
     1
  9
$PLINEGEN
 70
     0
  9
$PSLTSCALE
 70
     1
  0
ENDSEC
  0
SECTION
  2
TABLES
  0
TABLE
  2
VPORT
 70
     1
  0
VPORT
  2
*ACTIVE
 70
     0
 10
0.0
 20
0.0
 11
1.0
 21
1.0
 12
2223.634544590141
 22
385.6215718023145
 13
0.0
 23
0.0
 14
10.0
 24
10.0
 15
10.0
 25
10.0
 16
0.0
 26
0.0
 36
1.0
 17
0.0
 27
0.0
 37
0.0
 40
526.6082861419548
 41
2.216284987277353
 42
50.0
 43
0.0
 44
0.0
 50
0.0
 51
0.0
 71
     0
 72
   500
 73
     1
 74
     1
 75
     0
 76
     0
 77
     0
 78
     0
  0
ENDTAB
  0
TABLE
  2
LTYPE
 70
     3
  0
LTYPE
  2
CONTINUOUS
 70
     0
  3
Solid line
 72
    65
 73
     0
 40
0.0
  0
LTYPE
  2
DASHED2
 70
     0
  3
Dashed (.5x) _ _ _ _ _ _ _ _ _ _ _ _ _ _ _ _ _
 72
    65
 73
     2
 40
9.524999999999998
 49
6.349999999999999
 49
-3.174999999999999
  0
LTYPE
  2
CENTER2
 70
     0
  3
Center (.5x) ___ _ ___ _ ___ _ ___ _ ___ _ ___
 72
    65
 73
     4
 40
28.575
 49
19.05
 49
-3.174999999999999
 49
3.174999999999999
 49
-3.174999999999999
  0
ENDTAB
  0
TABLE
  2
LAYER
 70
     9
  0
LAYER
  2
0
 70
     0
 62
     7
  6
CONTINUOUS
  0
LAYER
  2
DEFPOINTS
 70
     0
 62
     7
  6
CONTINUOUS
  0
LAYER
  2
回04-下接
 70
     0
 62
     7
  6
CONTINUOUS
  0
LAYER
  2
回08-記事
 70
     0
 62
     7
  6
CONTINUOUS
  0
LAYER
  2
ACC
 70
     0
 62
     7
  6
CONTINUOUS
  0
LAYER
  2
回05-ﾃｰﾙ
 70
     0
 62
     7
  6
CONTINUOUS
  0
LAYER
  2
回07-寸法
 70
     0
 62
     7
  6
CONTINUOUS
  0
LAYER
  2
回91-枠英2
 70
     0
 62
     7
  6
CONTINUOUS
  0
LAYER
  2
回03-記事
 70
     0
 62
     7
  6
CONTINUOUS
  0
ENDTAB
  0
TABLE
  2
STYLE
 70
     1
  0
STYLE
  2
STANDARD
 70
     0
 40
3.0
 41
1.0
 50
0.0
 71
     0
 42
3.0
  3
isocp.shx
  4
bigfont.shx
  0
ENDTAB
  0
TABLE
  2
VIEW
 70
     0
  0
ENDTAB
  0
TABLE
  2
UCS
 70
     0
  0
ENDTAB
  0
TABLE
  2
APPID
 70
     3
  0
APPID
  2
ACAD
 70
     0
  0
APPID
  2
ACAECLAYERSTANDARD
 70
     0
  0
APPID
  2
ACAD_NAV_VCDISPLAY
 70
     0
  0
ENDTAB
  0
TABLE
  2
DIMSTYLE
 70
     1
  0
DIMSTYLE
  2
DMC
 70
     0
  3

  4

  5
OPEN
  6

  7

 40
1.0
 41
2.0
 42
0.0
 43
0.0
 44
1.0
 45
0.0
 46
0.0
 47
0.0
 48
0.0
140
3.0
141
2.0
142
0.0
143
0.03937007874016
144
1.0
145
0.0
146
0.7
147
0.5
 71
     0
 72
     0
 73
     0
 74
     0
 75
     0
 76
     0
 77
     3
 78
     8
170
     0
171
     3
172
     1
173
     0
174
     0
175
     0
176
     5
177
     5
178
     5
  0
ENDTAB
  0
ENDSEC
  0
SECTION
  2
BLOCKS
  0
BLOCK
  8
0
  2
$MODEL_SPACE
 70
     0
 10
0.0
 20
0.0
 30
0.0
  3
$MODEL_SPACE
  1

  0
ENDBLK
  8
0
  5
20
  0
BLOCK
 67
     1
  8
0
  2
$PAPER_SPACE
 70
     0
 10
0.0
 20
0.0
 30
0.0
  3
$PAPER_SPACE
  1

  0
ENDBLK
  5
25
 67
     1
  8
0
  0
BLOCK
  8
0
  2
_OPEN
 70
     0
 10
0.0
 20
0.0
 30
0.0
  3
_OPEN
  1

  0
LINE
  5
14
  8
0
  6
CONTINUOUS
 62
     0
 10
-1.0
 20
0.1666666666666666
 30
0.0
 11
0.0
 21
0.0
 31
0.0
  0
LINE
  5
15
  8
0
  6
CONTINUOUS
 62
     0
 10
-1.0
 20
-0.1666666666666666
 30
0.0
 11
0.0
 21
0.0
 31
0.0
  0
LINE
  5
16
  8
0
  6
CONTINUOUS
 62
     0
 10
0.0
 20
0.0
 30
0.0
 11
-1.0
 21
0.0
 31
0.0
  0
ENDBLK
  5
17
  8
0
  0
BLOCK
  8
0
  2
*D1
 70
     1
 10
0.0
 20
0.0
 30
0.0
  3
*D1
  1

  0
LINE
  5
74
  8
回07-寸法
  6
CONTINUOUS
 62
     5
 10
2263.934009824131
 20
494.4290471971826
 30
0.0
 11
2325.865904346551
 21
494.4290471971826
 31
0.0
  0
LINE
  5
75
  8
回07-寸法
  6
CONTINUOUS
 62
     5
 10
2263.934009824131
 20
365.8290471971826
 30
0.0
 11
2325.865904346551
 21
365.8290471971826
 31
0.0
  0
LINE
  5
76
  8
回07-寸法
  6
CONTINUOUS
 62
     5
 10
2324.86590434655
 20
492.4290471971826
 30
0.0
 11
2324.86590434655
 21
367.8290471971826
 31
0.0
  0
INSERT
  5
77
  8
回07-寸法
  6
CONTINUOUS
 62
     5
  2
_OPEN
 10
2324.86590434655
 20
494.4290471971826
 30
0.0
 41
2.0
 42
2.0
 43
2.0
 50
90.0
  0
INSERT
  5
78
  8
回07-寸法
  6
CONTINUOUS
 62
     5
  2
_OPEN
 10
2324.86590434655
 20
365.8290471971826
 30
0.0
 41
2.0
 42
2.0
 43
2.0
 50
270.0
  0
INSERT
  5
79
  8
回07-寸法
  6
CONTINUOUS
 62
     5
 66
     1
  2
*X47
 10
0.0
 20
0.0
 30
0.0
  0
SEQEND
  5
485
  8
回08-記事
  6
CONTINUOUS
 62
     7
  0
POINT
  5
7A
  8
DEFPOINTS
  6
CONTINUOUS
 62
     0
 10
2263.934009824131
 20
494.4290471971826
 30
0.0
  0
POINT
  5
7C
  8
DEFPOINTS
  6
CONTINUOUS
 62
     0
 10
2263.934009824131
 20
365.8290471971826
 30
0.0
  0
POINT
  5
7D
  8
DEFPOINTS
  6
CONTINUOUS
 62
     0
 10
2324.86590434655
 20
365.8290471971826
 30
0.0
  0
ENDBLK
  5
7E
  8
0
 62
     7
  0
BLOCK
  8
0
  2
*D2
 70
     1
 10
0.0
 20
0.0
 30
0.0
  3
*D2
  1

  0
LINE
  5
355
  8
回07-寸法
  6
CONTINUOUS
 62
     5
 10
1984.58313415429
 20
544.4411486301805
 30
0.0
 11
1961.9868354653
 21
544.4411486301805
 31
0.0
  0
LINE
  5
356
  8
回07-寸法
  6
CONTINUOUS
 62
     5
 10
1984.58313415429
 20
524.4411486301799
 30
0.0
 11
1961.9868354653
 21
524.4411486301799
 31
0.0
  0
LINE
  5
357
  8
回07-寸法
  6
CONTINUOUS
 62
     5
 10
1962.9868354653
 20
546.4411486301806
 30
0.0
 11
1962.9868354653
 21
548.4411486301805
 31
0.0
  0
LINE
  5
358
  8
回07-寸法
  6
CONTINUOUS
 62
     5
 10
1962.9868354653
 20
522.4411486301798
 30
0.0
 11
1962.9868354653
 21
494.9300556386971
 31
0.0
  0
LINE
  5
359
  8
回07-寸法
  6
CONTINUOUS
 62
     5
 10
1962.9868354653
 20
544.4411486301805
 30
0.0
 11
1962.9868354653
 21
524.4411486301799
 31
0.0
  0
INSERT
  5
35A
  8
回07-寸法
  6
CONTINUOUS
 62
     5
 66
     1
  2
_OPEN
 10
1962.9868354653
 20
544.4411486301805
 30
0.0
 41
2.0
 42
2.0
 43
2.0
 50
270.0
  0
SEQEND
  5
35B
  8
回08-記事
  6
CONTINUOUS
 62
     7
  0
INSERT
  5
35C
  8
回07-寸法
  6
CONTINUOUS
 62
     5
 66
     1
  2
_OPEN
 10
1962.9868354653
 20
524.4411486301799
 30
0.0
 41
2.0
 42
2.0
 43
2.0
 50
90.0
  0
SEQEND
  5
35D
  8
回08-記事
  6
CONTINUOUS
 62
     7
  0
INSERT
  5
35E
  8
回07-寸法
  6
CONTINUOUS
 62
     5
 66
     1
  2
*X48
 10
0.0
 20
0.0
 30
0.0
  0
SEQEND
  5
48E
  8
回08-記事
  6
CONTINUOUS
 62
     7
  0
POINT
  5
35F
  8
DEFPOINTS
  6
CONTINUOUS
 62
     0
 10
1984.58313415429
 20
544.4411486301805
 30
0.0
  0
POINT
  5
360
  8
DEFPOINTS
  6
CONTINUOUS
 62
     0
 10
1984.58313415429
 20
524.4411486301799
 30
0.0
  0
POINT
  5
361
  8
DEFPOINTS
  6
CONTINUOUS
 62
     0
 10
1962.9868354653
 20
524.4411486301799
 30
0.0
  0
ENDBLK
  5
362
  8
0
 62
     7
  0
BLOCK
  8
0
  2
*D3
 70
     1
 10
0.0
 20
0.0
 30
0.0
  3
*D3
  1

  0
LINE
  5
344
  8
回07-寸法
  6
CONTINUOUS
 62
     5
 10
1982.58313415429
 20
540.4411486301805
 30
0.0
 11
1968.200321567474
 21
540.4411486301805
 31
0.0
  0
LINE
  5
345
  8
回07-寸法
  6
CONTINUOUS
 62
     5
 10
1982.58313415429
 20
528.4411486301805
 30
0.0
 11
1968.200321567474
 21
528.4411486301805
 31
0.0
  0
LINE
  5
346
  8
回07-寸法
  6
CONTINUOUS
 62
     5
 10
1969.200321567473
 20
542.4411486301806
 30
0.0
 11
1969.200321567473
 21
544.4411486301805
 31
0.0
  0
LINE
  5
347
  8
回07-寸法
  6
CONTINUOUS
 62
     5
 10
1969.200321567473
 20
526.4411486301805
 30
0.0
 11
1969.200321567473
 21
509.591148630181
 31
0.0
  0
LINE
  5
348
  8
回07-寸法
  6
CONTINUOUS
 62
     5
 10
1969.200321567473
 20
540.4411486301805
 30
0.0
 11
1969.200321567473
 21
528.4411486301805
 31
0.0
  0
INSERT
  5
349
  8
回07-寸法
  6
CONTINUOUS
 62
     5
 66
     1
  2
_OPEN
 10
1969.200321567473
 20
540.4411486301805
 30
0.0
 41
2.0
 42
2.0
 43
2.0
 50
270.0
  0
SEQEND
  5
34A
  8
回08-記事
  6
CONTINUOUS
 62
     7
  0
INSERT
  5
34B
  8
回07-寸法
  6
CONTINUOUS
 62
     5
 66
     1
  2
_OPEN
 10
1969.200321567473
 20
528.4411486301805
 30
0.0
 41
2.0
 42
2.0
 43
2.0
 50
90.0
  0
SEQEND
  5
34C
  8
回08-記事
  6
CONTINUOUS
 62
     7
  0
TEXT
  5
34D
  8
回07-寸法
  6
CONTINUOUS
 62
     5
 10
1968.550321567473
 20
509.6411486301803
 30
0.0
 40
3.0
  1
3[0.118]
 50
90.0
1001
ACAD
1000
MTEXTBEGIN
1070
    73
1070
     1
1070
    44
1040
1.0
1070
    74
1070
     0
1000
MTEXTEND
  0
POINT
  5
34E
  8
DEFPOINTS
  6
CONTINUOUS
 62
     0
 10
1982.58313415429
 20
540.4411486301805
 30
0.0
  0
POINT
  5
34F
  8
DEFPOINTS
  6
CONTINUOUS
 62
     0
 10
1982.58313415429
 20
528.4411486301805
 30
0.0
  0
POINT
  5
350
  8
DEFPOINTS
  6
CONTINUOUS
 62
     0
 10
1969.200321567473
 20
528.4411486301805
 30
0.0
  0
ENDBLK
  5
351
  8
0
 62
     7
  0
BLOCK
  8
0
  2
*D4
 70
     1
 10
0.0
 20
0.0
 30
0.0
  3
*D4
  1

  0
LINE
  5
333
  8
回07-寸法
  6
CONTINUOUS
 62
     5
 10
1982.58313415429
 20
528.4411486301805
 30
0.0
 11
1974.352041199151
 21
528.4411486301805
 31
0.0
  0
LINE
  5
334
  8
回07-寸法
  6
CONTINUOUS
 62
     5
 10
1982.58313415429
 20
532.4411486301805
 30
0.0
 11
1974.352041199151
 21
532.4411486301805
 31
0.0
  0
LINE
  5
335
  8
回07-寸法
  6
CONTINUOUS
 62
     5
 10
1975.35204119915
 20
534.4411486301805
 30
0.0
 11
1975.35204119915
 21
536.4411486301805
 31
0.0
  0
LINE
  5
336
  8
回07-寸法
  6
CONTINUOUS
 62
     5
 10
1975.35204119915
 20
526.4411486301805
 30
0.0
 11
1975.35204119915
 21
509.2666055483463
 31
0.0
  0
LINE
  5
337
  8
回07-寸法
  6
CONTINUOUS
 62
     5
 10
1975.35204119915
 20
532.4411486301805
 30
0.0
 11
1975.35204119915
 21
528.4411486301805
 31
0.0
  0
INSERT
  5
338
  8
回07-寸法
  6
CONTINUOUS
 62
     5
 66
     1
  2
_OPEN
 10
1975.35204119915
 20
532.4411486301805
 30
0.0
 41
2.0
 42
2.0
 43
2.0
 50
270.0
  0
SEQEND
  5
339
  8
回08-記事
  6
CONTINUOUS
 62
     7
  0
INSERT
  5
33A
  8
回07-寸法
  6
CONTINUOUS
 62
     5
 66
     1
  2
_OPEN
 10
1975.35204119915
 20
528.4411486301805
 30
0.0
 41
2.0
 42
2.0
 43
2.0
 50
90.0
  0
SEQEND
  5
33B
  8
回08-記事
  6
CONTINUOUS
 62
     7
  0
TEXT
  5
33C
  8
回07-寸法
  6
CONTINUOUS
 62
     5
 10
1974.702101105252
 20
509.3164314912967
 30
0.0
 40
3.0
  1
1[0.039]
 50
90.0
1001
ACAD
1000
MTEXTBEGIN
1070
    73
1070
     1
1070
    44
1040
1.0
1070
    74
1070
     0
1000
MTEXTEND
  0
POINT
  5
33D
  8
DEFPOINTS
  6
CONTINUOUS
 62
     0
 10
1982.58313415429
 20
528.4411486301805
 30
0.0
  0
POINT
  5
33E
  8
DEFPOINTS
  6
CONTINUOUS
 62
     0
 10
1982.58313415429
 20
532.4411486301805
 30
0.0
  0
POINT
  5
33F
  8
DEFPOINTS
  6
CONTINUOUS
 62
     0
 10
1975.35204119915
 20
532.4411486301805
 30
0.0
  0
ENDBLK
  5
340
  8
0
 62
     7
  0
BLOCK
  8
0
  2
*D5
 70
     1
 10
0.0
 20
0.0
 30
0.0
  3
*D5
  1

  0
LINE
  5
321
  8
回08-記事
  6
CONTINUOUS
 62
     5
 10
1982.58313415429
 20
529.6411486301805
 30
0.0
 11
1979.325662857308
 21
529.6411486301805
 31
0.0
  0
LINE
  5
322
  8
回08-記事
  6
CONTINUOUS
 62
     5
 10
1982.58313415429
 20
527.2411486301805
 30
0.0
 11
1979.325662857308
 21
527.2411486301805
 31
0.0
  0
LINE
  5
323
  8
回08-記事
  6
CONTINUOUS
 62
     5
 10
1980.325662857308
 20
531.6411486301806
 30
0.0
 11
1980.325662857308
 21
533.6411486301805
 31
0.0
  0
LINE
  5
324
  8
回08-記事
  6
CONTINUOUS
 62
     5
 10
1980.325662857308
 20
525.2411486301805
 30
0.0
 11
1980.325662857308
 21
506.0387864254562
 31
0.0
  0
LINE
  5
325
  8
回08-記事
  6
CONTINUOUS
 62
     5
 10
1980.325662857308
 20
529.6411486301805
 30
0.0
 11
1980.325662857308
 21
527.2411486301805
 31
0.0
  0
INSERT
  5
326
  8
回08-記事
  6
CONTINUOUS
 62
     5
 66
     1
  2
_OPEN
 10
1980.325662857308
 20
529.6411486301805
 30
0.0
 41
2.0
 42
2.0
 43
2.0
 50
270.0
  0
SEQEND
  5
327
  8
回08-記事
  6
CONTINUOUS
 62
     7
  0
INSERT
  5
328
  8
回08-記事
  6
CONTINUOUS
 62
     5
 66
     1
  2
_OPEN
 10
1980.325662857308
 20
527.2411486301805
 30
0.0
 41
2.0
 42
2.0
 43
2.0
 50
90.0
  0
SEQEND
  5
329
  8
回08-記事
  6
CONTINUOUS
 62
     7
  0
TEXT
  5
32A
  8
回08-記事
  6
CONTINUOUS
 62
     5
 10
1979.675662857308
 20
506.0911486301799
 30
0.0
 40
3.0
  1
0.6[0.024]
 50
90.0
1001
ACAD
1000
MTEXTBEGIN
1070
    73
1070
     1
1070
    44
1040
1.0
1070
    74
1070
     0
1000
MTEXTEND
  0
POINT
  5
32B
  8
DEFPOINTS
  6
CONTINUOUS
 62
     0
 10
1982.58313415429
 20
529.6411486301805
 30
0.0
  0
POINT
  5
32C
  8
DEFPOINTS
  6
CONTINUOUS
 62
     0
 10
1982.58313415429
 20
527.2411486301805
 30
0.0
  0
POINT
  5
32D
  8
DEFPOINTS
  6
CONTINUOUS
 62
     0
 10
1980.325662857308
 20
527.2411486301805
 30
0.0
  0
ENDBLK
  5
32E
  8
0
 62
     7
  0
BLOCK
  8
0
  2
*D6
 70
     1
 10
0.0
 20
0.0
 30
0.0
  3
*D6
  1

  0
LINE
  5
227
  8
回07-寸法
  6
CONTINUOUS
 62
     5
 10
1993.83400982413
 20
316.2533587447276
 30
0.0
 11
1993.83400982413
 21
304.7329011107477
 31
0.0
  0
LINE
  5
228
  8
回07-寸法
  6
CONTINUOUS
 62
     5
 10
1998.83400982413
 20
315.2533587447276
 30
0.0
 11
1998.83400982413
 21
304.7329011107477
 31
0.0
  0
LINE
  5
229
  8
回07-寸法
  6
CONTINUOUS
 62
     5
 10
1991.83400982413
 20
305.7329011107477
 30
0.0
 11
1989.83400982413
 21
305.7329011107477
 31
0.0
  0
LINE
  5
22A
  8
回07-寸法
  6
CONTINUOUS
 62
     5
 10
2000.834009824131
 20
305.7329011107477
 30
0.0
 11
2017.944492815614
 21
305.7329011107477
 31
0.0
  0
LINE
  5
22B
  8
回07-寸法
  6
CONTINUOUS
 62
     5
 10
1993.83400982413
 20
305.7329011107477
 30
0.0
 11
1998.83400982413
 21
305.7329011107477
 31
0.0
  0
INSERT
  5
22C
  8
回07-寸法
  6
CONTINUOUS
 62
     5
 66
     1
  2
_OPEN
 10
1993.83400982413
 20
305.7329011107477
 30
0.0
 41
2.0
 42
2.0
 43
2.0
  0
SEQEND
  5
22D
  8
回08-記事
  6
CONTINUOUS
 62
     7
  0
INSERT
  5
22E
  8
回07-寸法
  6
CONTINUOUS
 62
     5
 66
     1
  2
_OPEN
 10
1998.83400982413
 20
305.7329011107477
 30
0.0
 41
2.0
 42
2.0
 43
2.0
 50
180.0
  0
SEQEND
  5
22F
  8
回08-記事
  6
CONTINUOUS
 62
     7
  0
TEXT
  5
230
  8
回07-寸法
  6
CONTINUOUS
 62
     5
 10
2002.883835767082
 20
306.3828412046453
 30
0.0
 40
3.0
  1
5 [0.197]
1001
ACAD
1000
MTEXTBEGIN
1070
    73
1070
     1
1070
    44
1040
1.0
1070
    74
1070
     0
1000
MTEXTEND
  0
POINT
  5
231
  8
DEFPOINTS
  6
CONTINUOUS
 62
     0
 10
1993.83400982413
 20
316.2533587447276
 30
0.0
  0
POINT
  5
232
  8
DEFPOINTS
  6
CONTINUOUS
 62
     0
 10
1998.83400982413
 20
315.2533587447276
 30
0.0
  0
POINT
  5
233
  8
DEFPOINTS
  6
CONTINUOUS
 62
     0
 10
1998.83400982413
 20
305.7329011107477
 30
0.0
  0
ENDBLK
  5
234
  8
0
 62
     7
  0
BLOCK
  8
0
  2
*D7
 70
     1
 10
0.0
 20
0.0
 30
0.0
  3
*D7
  1

  0
LINE
  5
216
  8
回07-寸法
  6
CONTINUOUS
 62
     5
 10
2003.834009824131
 20
318.7533587447276
 30
0.0
 11
2003.834009824131
 21
327.3972947444038
 31
0.0
  0
LINE
  5
217
  8
回07-寸法
  6
CONTINUOUS
 62
     5
 10
1993.83400982413
 20
318.7533587447276
 30
0.0
 11
1993.83400982413
 21
327.3972947444038
 31
0.0
  0
LINE
  5
218
  8
回07-寸法
  6
CONTINUOUS
 62
     5
 10
1991.83400982413
 20
326.3972947444038
 30
0.0
 11
1989.83400982413
 21
326.3972947444038
 31
0.0
  0
LINE
  5
219
  8
回07-寸法
  6
CONTINUOUS
 62
     5
 10
2005.83400982413
 20
326.3972947444038
 30
0.0
 11
2027.742130610889
 21
326.3972947444038
 31
0.0
  0
LINE
  5
21A
  8
回07-寸法
  6
CONTINUOUS
 62
     5
 10
1993.83400982413
 20
326.3972947444038
 30
0.0
 11
2003.834009824131
 21
326.3972947444038
 31
0.0
  0
INSERT
  5
21B
  8
回07-寸法
  6
CONTINUOUS
 62
     5
 66
     1
  2
_OPEN
 10
1993.83400982413
 20
326.3972947444038
 30
0.0
 41
2.0
 42
2.0
 43
2.0
  0
SEQEND
  5
21C
  8
回08-記事
  6
CONTINUOUS
 62
     7
  0
INSERT
  5
21D
  8
回07-寸法
  6
CONTINUOUS
 62
     5
 66
     1
  2
_OPEN
 10
2003.834009824131
 20
326.3972947444038
 30
0.0
 41
2.0
 42
2.0
 43
2.0
 50
180.0
  0
SEQEND
  5
21E
  8
回08-記事
  6
CONTINUOUS
 62
     7
  0
TEXT
  5
21F
  8
回07-寸法
  6
CONTINUOUS
 62
     5
 10
2007.88265466472
 20
327.0472348383015
 30
0.0
 40
3.0
  1
(10 [0.394])
1001
ACAD
1000
MTEXTBEGIN
1070
    73
1070
     1
1070
    44
1040
1.0
1070
    74
1070
     0
1000
MTEXTEND
  0
POINT
  5
220
  8
DEFPOINTS
  6
CONTINUOUS
 62
     0
 10
2003.834009824131
 20
318.7533587447276
 30
0.0
  0
POINT
  5
221
  8
DEFPOINTS
  6
CONTINUOUS
 62
     0
 10
1993.83400982413
 20
318.7533587447276
 30
0.0
  0
POINT
  5
222
  8
DEFPOINTS
  6
CONTINUOUS
 62
     0
 10
1993.83400982413
 20
326.3972947444038
 30
0.0
  0
ENDBLK
  5
223
  8
0
 62
     7
  0
BLOCK
  8
0
  2
*D8
 70
     1
 10
0.0
 20
0.0
 30
0.0
  3
*D8
  1

  0
LINE
  5
205
  8
回07-寸法
  6
CONTINUOUS
 62
     5
 10
1993.834009824131
 20
316.2533587447277
 30
0.0
 11
1983.049559076832
 21
316.2533587447277
 31
0.0
  0
LINE
  5
206
  8
回07-寸法
  6
CONTINUOUS
 62
     5
 10
1993.834009824131
 20
318.7533587447277
 30
0.0
 11
1983.049559076832
 21
318.7533587447277
 31
0.0
  0
LINE
  5
207
  8
回07-寸法
  6
CONTINUOUS
 62
     5
 10
1984.049559076832
 20
314.2533587447277
 30
0.0
 11
1984.049559076832
 21
312.2533587447277
 31
0.0
  0
LINE
  5
208
  8
回07-寸法
  6
CONTINUOUS
 62
     5
 10
1984.049559076832
 20
320.7533587447277
 30
0.0
 11
1984.049559076832
 21
353.8725098729591
 31
0.0
  0
LINE
  5
209
  8
回07-寸法
  6
CONTINUOUS
 62
     5
 10
1984.049559076832
 20
316.2533587447277
 30
0.0
 11
1984.049559076832
 21
318.7533587447277
 31
0.0
  0
INSERT
  5
20A
  8
回07-寸法
  6
CONTINUOUS
 62
     5
 66
     1
  2
_OPEN
 10
1984.049559076832
 20
316.2533587447277
 30
0.0
 41
2.0
 42
2.0
 43
2.0
 50
90.0
  0
SEQEND
  5
20B
  8
回08-記事
  6
CONTINUOUS
 62
     7
  0
INSERT
  5
20C
  8
回07-寸法
  6
CONTINUOUS
 62
     5
 66
     1
  2
_OPEN
 10
1984.049559076832
 20
318.7533587447277
 30
0.0
 41
2.0
 42
2.0
 43
2.0
 50
270.0
  0
SEQEND
  5
20D
  8
回08-記事
  6
CONTINUOUS
 62
     7
  0
INSERT
  5
20E
  8
回07-寸法
  6
CONTINUOUS
 62
     5
 66
     1
  2
*X49
 10
0.0
 20
0.0
 30
0.0
  0
SEQEND
  5
497
  8
回08-記事
  6
CONTINUOUS
 62
     7
  0
POINT
  5
20F
  8
DEFPOINTS
  6
CONTINUOUS
 62
     0
 10
1993.834009824131
 20
316.2533587447277
 30
0.0
  0
POINT
  5
210
  8
DEFPOINTS
  6
CONTINUOUS
 62
     0
 10
1993.834009824131
 20
318.7533587447277
 30
0.0
  0
POINT
  5
211
  8
DEFPOINTS
  6
CONTINUOUS
 62
     0
 10
1984.049559076832
 20
318.7533587447277
 30
0.0
  0
ENDBLK
  5
212
  8
0
 62
     7
  0
BLOCK
  8
0
  2
*D9
 70
     1
 10
0.0
 20
0.0
 30
0.0
  3
*D9
  1

  0
LINE
  5
1F2
  8
回07-寸法
  6
CONTINUOUS
 62
     5
 10
2263.934009824131
 20
313.7533587447277
 30
0.0
 11
2275.043804525748
 21
313.7533587447277
 31
0.0
  0
LINE
  5
1F3
  8
回07-寸法
  6
CONTINUOUS
 62
     5
 10
2263.634009824131
 20
318.7533587447277
 30
0.0
 11
2275.043804525748
 21
318.7533587447277
 31
0.0
  0
LINE
  5
1F4
  8
回07-寸法
  6
CONTINUOUS
 62
     5
 10
2274.043804525748
 20
311.7533587447277
 30
0.0
 11
2274.043804525748
 21
309.7533587447277
 31
0.0
  0
LINE
  5
1F5
  8
回07-寸法
  6
CONTINUOUS
 62
     5
 10
2274.043804525748
 20
320.7533587447277
 30
0.0
 11
2274.043804525748
 21
351.5406428385727
 31
0.0
  0
LINE
  5
1F6
  8
回07-寸法
  6
CONTINUOUS
 62
     5
 10
2274.043804525748
 20
313.7533587447277
 30
0.0
 11
2274.043804525748
 21
318.7533587447277
 31
0.0
  0
INSERT
  5
1F7
  8
回07-寸法
  6
CONTINUOUS
 62
     5
 66
     1
  2
_OPEN
 10
2274.043804525748
 20
313.7533587447277
 30
0.0
 41
2.0
 42
2.0
 43
2.0
 50
90.0
  0
SEQEND
  5
1F8
  8
回08-記事
  6
CONTINUOUS
 62
     7
  0
INSERT
  5
1F9
  8
回07-寸法
  6
CONTINUOUS
 62
     5
 66
     1
  2
_OPEN
 10
2274.043804525748
 20
318.7533587447277
 30
0.0
 41
2.0
 42
2.0
 43
2.0
 50
270.0
  0
SEQEND
  5
1FA
  8
回08-記事
  6
CONTINUOUS
 62
     7
  0
INSERT
  5
1FB
  8
回07-寸法
  6
CONTINUOUS
 62
     5
 66
     1
  2
*X50
 10
0.0
 20
0.0
 30
0.0
  0
SEQEND
  5
4A0
  8
回08-記事
  6
CONTINUOUS
 62
     7
  0
POINT
  5
1FC
  8
DEFPOINTS
  6
CONTINUOUS
 62
     0
 10
2263.934009824131
 20
313.7533587447277
 30
0.0
  0
POINT
  5
1FD
  8
DEFPOINTS
  6
CONTINUOUS
 62
     0
 10
2263.634009824131
 20
318.7533587447277
 30
0.0
  0
POINT
  5
1FE
  8
DEFPOINTS
  6
CONTINUOUS
 62
     0
 10
2274.043804525748
 20
318.7533587447277
 30
0.0
  0
ENDBLK
  5
1FF
  8
0
 62
     7
  0
BLOCK
  8
0
  2
*D10
 70
     1
 10
0.0
 20
0.0
 30
0.0
  3
*D10
  1

  0
LINE
  5
1DC
  8
回07-寸法
  6
CONTINUOUS
 62
     5
 10
2069.034009824131
 20
316.2533587447276
 30
0.0
 11
2069.034009824131
 21
326.2376633466709
 31
0.0
  0
LINE
  5
1DD
  8
回07-寸法
  6
CONTINUOUS
 62
     5
 10
2069.334009824131
 20
318.7533587447276
 30
0.0
 11
2069.334009824131
 21
326.2376633466709
 31
0.0
  0
LINE
  5
1DE
  8
回07-寸法
  6
CONTINUOUS
 62
     5
 10
2067.03400982413
 20
325.2376633466708
 30
0.0
 11
2065.034009824131
 21
325.2376633466708
 31
0.0
  0
LINE
  5
1DF
  8
回07-寸法
  6
CONTINUOUS
 62
     5
 10
2071.334009824131
 20
325.2376633466708
 30
0.0
 11
2093.831647619406
 21
325.2376633466708
 31
0.0
  0
LINE
  5
1E0
  8
回07-寸法
  6
CONTINUOUS
 62
     5
 10
2069.034009824131
 20
325.2376633466708
 30
0.0
 11
2069.334009824131
 21
325.2376633466708
 31
0.0
  0
INSERT
  5
1E1
  8
回07-寸法
  6
CONTINUOUS
 62
     5
 66
     1
  2
_OPEN
 10
2069.034009824131
 20
325.2376633466708
 30
0.0
 41
2.0
 42
2.0
 43
2.0
  0
SEQEND
  5
1E2
  8
回08-記事
  6
CONTINUOUS
 62
     7
  0
INSERT
  5
1E3
  8
回07-寸法
  6
CONTINUOUS
 62
     5
 66
     1
  2
_OPEN
 10
2069.334009824131
 20
325.2376633466708
 30
0.0
 41
2.0
 42
2.0
 43
2.0
 50
180.0
  0
SEQEND
  5
1E4
  8
回08-記事
  6
CONTINUOUS
 62
     7
  0
TEXT
  5
1E5
  8
回07-寸法
  6
CONTINUOUS
 62
     5
 10
2073.382828721769
 20
325.8876633466708
 30
0.0
 40
3.0
  1
(0.3 [0.012])
1001
ACAD
1000
MTEXTBEGIN
1070
    73
1070
     1
1070
    44
1040
1.0
1070
    74
1070
     0
1000
MTEXTEND
  0
POINT
  5
1E6
  8
DEFPOINTS
  6
CONTINUOUS
 62
     0
 10
2069.034009824131
 20
316.2533587447276
 30
0.0
  0
POINT
  5
1E7
  8
DEFPOINTS
  6
CONTINUOUS
 62
     0
 10
2069.334009824131
 20
318.7533587447276
 30
0.0
  0
POINT
  5
1E8
  8
DEFPOINTS
  6
CONTINUOUS
 62
     0
 10
2069.334009824131
 20
325.2376633466708
 30
0.0
  0
ENDBLK
  5
1E9
  8
0
 62
     7
  0
BLOCK
  8
0
  2
*D11
 70
     1
 10
0.0
 20
0.0
 30
0.0
  3
*D11
  1

  0
LINE
  5
1CB
  8
回07-寸法
  6
CONTINUOUS
 62
     5
 10
2263.93400982413
 20
316.2533587447276
 30
0.0
 11
2263.93400982413
 21
326.2376633466709
 31
0.0
  0
LINE
  5
1CC
  8
回07-寸法
  6
CONTINUOUS
 62
     5
 10
2263.63400982413
 20
318.7533587447276
 30
0.0
 11
2263.63400982413
 21
326.2376633466709
 31
0.0
  0
LINE
  5
1CD
  8
回07-寸法
  6
CONTINUOUS
 62
     5
 10
2265.93400982413
 20
325.2376633466708
 30
0.0
 11
2267.93400982413
 21
325.2376633466708
 31
0.0
  0
LINE
  5
1CE
  8
回07-寸法
  6
CONTINUOUS
 62
     5
 10
2261.63400982413
 20
325.2376633466708
 30
0.0
 11
2239.136372028854
 21
325.2376633466708
 31
0.0
  0
LINE
  5
1CF
  8
回07-寸法
  6
CONTINUOUS
 62
     5
 10
2263.93400982413
 20
325.2376633466708
 30
0.0
 11
2263.63400982413
 21
325.2376633466708
 31
0.0
  0
INSERT
  5
1D0
  8
回07-寸法
  6
CONTINUOUS
 62
     5
 66
     1
  2
_OPEN
 10
2263.93400982413
 20
325.2376633466708
 30
0.0
 41
2.0
 42
2.0
 43
2.0
 50
180.0
  0
SEQEND
  5
1D1
  8
回08-記事
  6
CONTINUOUS
 62
     7
  0
INSERT
  5
1D2
  8
回07-寸法
  6
CONTINUOUS
 62
     5
 66
     1
  2
_OPEN
 10
2263.63400982413
 20
325.2376633466708
 30
0.0
 41
2.0
 42
2.0
 43
2.0
  0
SEQEND
  5
1D3
  8
回08-記事
  6
CONTINUOUS
 62
     7
  0
TEXT
  5
1D4
  8
回07-寸法
  6
CONTINUOUS
 62
     5
 10
2239.185190926493
 20
325.8876633466708
 30
0.0
 40
3.0
  1
(0.3 [0.012])
1001
ACAD
1000
MTEXTBEGIN
1070
    73
1070
     1
1070
    44
1040
1.0
1070
    74
1070
     0
1000
MTEXTEND
  0
POINT
  5
1D5
  8
DEFPOINTS
  6
CONTINUOUS
 62
     0
 10
2263.93400982413
 20
316.2533587447276
 30
0.0
  0
POINT
  5
1D6
  8
DEFPOINTS
  6
CONTINUOUS
 62
     0
 10
2263.63400982413
 20
318.7533587447276
 30
0.0
  0
POINT
  5
1D7
  8
DEFPOINTS
  6
CONTINUOUS
 62
     0
 10
2263.63400982413
 20
325.2376633466708
 30
0.0
  0
ENDBLK
  5
1D8
  8
0
 62
     7
  0
BLOCK
  8
0
  2
*D12
 70
     1
 10
0.0
 20
0.0
 30
0.0
  3
*D12
  1

  0
LINE
  5
1A6
  8
回07-寸法
  6
CONTINUOUS
 62
     5
 10
2075.534009824131
 20
486.0290471971825
 30
0.0
 11
2075.534009824131
 21
512.1289533835204
 31
0.0
  0
LINE
  5
1A7
  8
回07-寸法
  6
CONTINUOUS
 62
     5
 10
2259.43400982413
 20
486.0290471971825
 30
0.0
 11
2259.43400982413
 21
512.1289533835204
 31
0.0
  0
LINE
  5
1A8
  8
回07-寸法
  6
CONTINUOUS
 62
     5
 10
2077.53400982413
 20
511.1289533835203
 30
0.0
 11
2257.43400982413
 21
511.1289533835203
 31
0.0
  0
INSERT
  5
1A9
  8
回07-寸法
  6
CONTINUOUS
 62
     5
 66
     1
  2
_OPEN
 10
2075.534009824131
 20
511.1289533835203
 30
0.0
 41
2.0
 42
2.0
 43
2.0
 50
180.0
  0
SEQEND
  5
1AA
  8
回08-記事
  6
CONTINUOUS
 62
     7
  0
INSERT
  5
1AB
  8
回07-寸法
  6
CONTINUOUS
 62
     5
 66
     1
  2
_OPEN
 10
2259.43400982413
 20
511.1289533835203
 30
0.0
 41
2.0
 42
2.0
 43
2.0
  0
SEQEND
  5
1AC
  8
回08-記事
  6
CONTINUOUS
 62
     7
  0
TEXT
  5
1AD
  8
回07-寸法
  6
CONTINUOUS
 62
     5
 10
2144.379184822521
 20
511.7789533835203
 30
0.0
 40
3.0
  1
183.9 [7.240](Active area)
1001
ACAD
1000
MTEXTBEGIN
1070
    73
1070
     1
1070
    44
1040
1.0
1070
    74
1070
     0
1000
MTEXTEND
  0
POINT
  5
1AE
  8
DEFPOINTS
  6
CONTINUOUS
 62
     0
 10
2075.534009824131
 20
486.0290471971825
 30
0.0
  0
POINT
  5
1AF
  8
DEFPOINTS
  6
CONTINUOUS
 62
     0
 10
2259.43400982413
 20
486.0290471971825
 30
0.0
  0
POINT
  5
1B0
  8
DEFPOINTS
  6
CONTINUOUS
 62
     0
 10
2259.43400982413
 20
511.1289533835203
 30
0.0
  0
ENDBLK
  5
1B1
  8
0
 62
     7
  0
BLOCK
  8
0
  2
*D13
 70
     1
 10
0.0
 20
0.0
 30
0.0
  3
*D13
  1

  0
LINE
  5
197
  8
回07-寸法
  6
CONTINUOUS
 62
     5
 10
2074.53400982413
 20
487.6290471971824
 30
0.0
 11
2074.53400982413
 21
520.2105842313492
 31
0.0
  0
LINE
  5
198
  8
回07-寸法
  6
CONTINUOUS
 62
     5
 10
2260.43400982413
 20
487.6290471971824
 30
0.0
 11
2260.43400982413
 21
520.2105842313492
 31
0.0
  0
LINE
  5
199
  8
回07-寸法
  6
CONTINUOUS
 62
     5
 10
2076.53400982413
 20
519.2105842313492
 30
0.0
 11
2258.43400982413
 21
519.2105842313492
 31
0.0
  0
INSERT
  5
19A
  8
回07-寸法
  6
CONTINUOUS
 62
     5
 66
     1
  2
_OPEN
 10
2074.53400982413
 20
519.2105842313492
 30
0.0
 41
2.0
 42
2.0
 43
2.0
 50
180.0
  0
SEQEND
  5
19B
  8
回08-記事
  6
CONTINUOUS
 62
     7
  0
INSERT
  5
19C
  8
回07-寸法
  6
CONTINUOUS
 62
     5
 66
     1
  2
_OPEN
 10
2260.43400982413
 20
519.2105842313492
 30
0.0
 41
2.0
 42
2.0
 43
2.0
  0
SEQEND
  5
19D
  8
回08-記事
  6
CONTINUOUS
 62
     7
  0
TEXT
  5
19E
  8
回07-寸法
  6
CONTINUOUS
 62
     5
 10
2143.773769269731
 20
520.5141648167789
 30
0.0
 40
3.0
  1
185.9 [7.319](Viewing area)
1001
ACAD
1000
MTEXTBEGIN
1070
    73
1070
     1
1070
    44
1040
1.0
1070
    74
1070
     0
1000
MTEXTEND
  0
POINT
  5
19F
  8
DEFPOINTS
  6
CONTINUOUS
 62
     0
 10
2074.53400982413
 20
487.6290471971824
 30
0.0
  0
POINT
  5
1A0
  8
DEFPOINTS
  6
CONTINUOUS
 62
     0
 10
2260.43400982413
 20
487.6290471971824
 30
0.0
  0
POINT
  5
1A1
  8
DEFPOINTS
  6
CONTINUOUS
 62
     0
 10
2260.43400982413
 20
519.2105842313492
 30
0.0
  0
ENDBLK
  5
1A2
  8
0
 62
     7
  0
BLOCK
  8
0
  2
*D14
 70
     1
 10
0.0
 20
0.0
 30
0.0
  3
*D14
  1

  0
LINE
  5
188
  8
回07-寸法
  6
CONTINUOUS
 62
     5
 10
2074.03400982413
 20
488.1290471971824
 30
0.0
 11
2074.03400982413
 21
528.6167596667303
 31
0.0
  0
LINE
  5
189
  8
回07-寸法
  6
CONTINUOUS
 62
     5
 10
2260.93400982413
 20
488.1290471971824
 30
0.0
 11
2260.93400982413
 21
528.6167596667303
 31
0.0
  0
LINE
  5
18A
  8
回07-寸法
  6
CONTINUOUS
 62
     5
 10
2076.03400982413
 20
527.6167596667303
 30
0.0
 11
2258.93400982413
 21
527.6167596667303
 31
0.0
  0
INSERT
  5
18B
  8
回07-寸法
  6
CONTINUOUS
 62
     5
 66
     1
  2
_OPEN
 10
2074.03400982413
 20
527.6167596667303
 30
0.0
 41
2.0
 42
2.0
 43
2.0
 50
180.0
  0
SEQEND
  5
18C
  8
回08-記事
  6
CONTINUOUS
 62
     7
  0
INSERT
  5
18D
  8
回07-寸法
  6
CONTINUOUS
 62
     5
 66
     1
  2
_OPEN
 10
2260.93400982413
 20
527.6167596667303
 30
0.0
 41
2.0
 42
2.0
 43
2.0
  0
SEQEND
  5
18E
  8
回08-記事
  6
CONTINUOUS
 62
     7
  0
TEXT
  5
18F
  8
回07-寸法
  6
CONTINUOUS
 62
     5
 10
2156.37859427134
 20
528.2667596667303
 30
0.0
 40
3.0
  1
186.9 [7.358]
1001
ACAD
1000
MTEXTBEGIN
1070
    73
1070
     1
1070
    44
1040
1.0
1070
    74
1070
     0
1000
MTEXTEND
  0
POINT
  5
190
  8
DEFPOINTS
  6
CONTINUOUS
 62
     0
 10
2074.03400982413
 20
488.1290471971824
 30
0.0
  0
POINT
  5
191
  8
DEFPOINTS
  6
CONTINUOUS
 62
     0
 10
2260.93400982413
 20
488.1290471971824
 30
0.0
  0
POINT
  5
192
  8
DEFPOINTS
  6
CONTINUOUS
 62
     0
 10
2260.93400982413
 20
527.6167596667303
 30
0.0
  0
ENDBLK
  5
193
  8
0
 62
     7
  0
BLOCK
  8
0
  2
*D15
 70
     1
 10
0.0
 20
0.0
 30
0.0
  3
*D15
  1

  0
LINE
  5
17B
  8
回07-寸法
  6
CONTINUOUS
 62
     5
 10
2069.034009824131
 20
494.4290471971823
 30
0.0
 11
2069.034009824131
 21
536.8297695362532
 31
0.0
  0
LINE
  5
17C
  8
回07-寸法
  6
CONTINUOUS
 62
     5
 10
2263.93400982413
 20
494.4290471971823
 30
0.0
 11
2263.93400982413
 21
536.8297695362532
 31
0.0
  0
LINE
  5
17D
  8
回07-寸法
  6
CONTINUOUS
 62
     5
 10
2071.03400982413
 20
535.8297695362532
 30
0.0
 11
2261.93400982413
 21
535.8297695362532
 31
0.0
  0
INSERT
  5
17E
  8
回07-寸法
  6
CONTINUOUS
 62
     5
  2
_OPEN
 10
2069.034009824131
 20
535.8297695362532
 30
0.0
 41
2.0
 42
2.0
 43
2.0
 50
180.0
  0
INSERT
  5
17F
  8
回07-寸法
  6
CONTINUOUS
 62
     5
  2
_OPEN
 10
2263.93400982413
 20
535.8297695362532
 30
0.0
 41
2.0
 42
2.0
 43
2.0
  0
INSERT
  5
180
  8
回07-寸法
  6
CONTINUOUS
 62
     5
 66
     1
  2
*X51
 10
0.0
 20
0.0
 30
0.0
  0
SEQEND
  5
4A9
  8
回08-記事
  6
CONTINUOUS
 62
     7
  0
POINT
  5
181
  8
DEFPOINTS
  6
CONTINUOUS
 62
     0
 10
2069.034009824131
 20
494.4290471971823
 30
0.0
  0
POINT
  5
182
  8
DEFPOINTS
  6
CONTINUOUS
 62
     0
 10
2263.93400982413
 20
494.4290471971823
 30
0.0
  0
POINT
  5
183
  8
DEFPOINTS
  6
CONTINUOUS
 62
     0
 10
2263.93400982413
 20
535.8297695362532
 30
0.0
  0
ENDBLK
  5
184
  8
0
 62
     7
  0
BLOCK
  8
0
  2
*D16
 70
     1
 10
0.0
 20
0.0
 30
0.0
  3
*D16
  1

  0
LINE
  5
16A
  8
回07-寸法
  6
CONTINUOUS
 62
     5
 10
2075.534009824131
 20
486.0290471971825
 30
0.0
 11
2075.534009824131
 21
512.1289533835204
 31
0.0
  0
LINE
  5
16B
  8
回07-寸法
  6
CONTINUOUS
 62
     5
 10
2069.034009824131
 20
494.4290471971823
 30
0.0
 11
2069.034009824131
 21
512.1289533835204
 31
0.0
  0
LINE
  5
16C
  8
回07-寸法
  6
CONTINUOUS
 62
     5
 10
2077.53400982413
 20
511.1289533835203
 30
0.0
 11
2079.534009824131
 21
511.1289533835203
 31
0.0
  0
LINE
  5
16D
  8
回07-寸法
  6
CONTINUOUS
 62
     5
 10
2067.03400982413
 20
511.1289533835203
 30
0.0
 11
2046.154482265075
 21
511.1289533835203
 31
0.0
  0
LINE
  5
16E
  8
回07-寸法
  6
CONTINUOUS
 62
     5
 10
2075.534009824131
 20
511.1289533835203
 30
0.0
 11
2069.034009824131
 21
511.1289533835203
 31
0.0
  0
INSERT
  5
16F
  8
回07-寸法
  6
CONTINUOUS
 62
     5
 66
     1
  2
_OPEN
 10
2075.534009824131
 20
511.1289533835203
 30
0.0
 41
2.0
 42
2.0
 43
2.0
 50
180.0
  0
SEQEND
  5
170
  8
回08-記事
  6
CONTINUOUS
 62
     7
  0
INSERT
  5
171
  8
回07-寸法
  6
CONTINUOUS
 62
     5
 66
     1
  2
_OPEN
 10
2069.034009824131
 20
511.1289533835203
 30
0.0
 41
2.0
 42
2.0
 43
2.0
  0
SEQEND
  5
172
  8
回08-記事
  6
CONTINUOUS
 62
     7
  0
TEXT
  5
173
  8
回07-寸法
  6
CONTINUOUS
 62
     5
 10
2046.294246044602
 20
511.7789533835203
 30
0.0
 40
3.0
  1
6.5 [0.256]
1001
ACAD
1000
MTEXTBEGIN
1070
    73
1070
     1
1070
    44
1040
1.0
1070
    74
1070
     0
1000
MTEXTEND
  0
POINT
  5
174
  8
DEFPOINTS
  6
CONTINUOUS
 62
     0
 10
2075.534009824131
 20
486.0290471971825
 30
0.0
  0
POINT
  5
175
  8
DEFPOINTS
  6
CONTINUOUS
 62
     0
 10
2069.034009824131
 20
494.4290471971823
 30
0.0
  0
POINT
  5
176
  8
DEFPOINTS
  6
CONTINUOUS
 62
     0
 10
2069.034009824131
 20
511.1289533835203
 30
0.0
  0
ENDBLK
  5
177
  8
0
 62
     7
  0
BLOCK
  8
0
  2
*D17
 70
     1
 10
0.0
 20
0.0
 30
0.0
  3
*D17
  1

  0
LINE
  5
159
  8
回07-寸法
  6
CONTINUOUS
 62
     5
 10
2074.53400982413
 20
487.6290471971824
 30
0.0
 11
2074.53400982413
 21
520.2105842313492
 31
0.0
  0
LINE
  5
15A
  8
回07-寸法
  6
CONTINUOUS
 62
     5
 10
2069.034009824131
 20
494.4290471971823
 30
0.0
 11
2069.034009824131
 21
520.2105842313492
 31
0.0
  0
LINE
  5
15B
  8
回07-寸法
  6
CONTINUOUS
 62
     5
 10
2076.53400982413
 20
519.2105842313492
 30
0.0
 11
2078.53400982413
 21
519.2105842313492
 31
0.0
  0
LINE
  5
15C
  8
回07-寸法
  6
CONTINUOUS
 62
     5
 10
2067.03400982413
 20
519.2105842313492
 30
0.0
 11
2046.934009824131
 21
519.2105842313492
 31
0.0
  0
LINE
  5
15D
  8
回07-寸法
  6
CONTINUOUS
 62
     5
 10
2074.53400982413
 20
519.2105842313492
 30
0.0
 11
2069.034009824131
 21
519.2105842313492
 31
0.0
  0
INSERT
  5
15E
  8
回07-寸法
  6
CONTINUOUS
 62
     5
 66
     1
  2
_OPEN
 10
2074.53400982413
 20
519.2105842313492
 30
0.0
 41
2.0
 42
2.0
 43
2.0
 50
180.0
  0
SEQEND
  5
15F
  8
回08-記事
  6
CONTINUOUS
 62
     7
  0
INSERT
  5
160
  8
回07-寸法
  6
CONTINUOUS
 62
     5
 66
     1
  2
_OPEN
 10
2069.034009824131
 20
519.2105842313492
 30
0.0
 41
2.0
 42
2.0
 43
2.0
  0
SEQEND
  5
161
  8
回08-記事
  6
CONTINUOUS
 62
     7
  0
TEXT
  5
162
  8
回07-寸法
  6
CONTINUOUS
 62
     5
 10
2046.98400982413
 20
519.8605842313492
 30
0.0
 40
3.0
  1
5.5 [0.217]
1001
ACAD
1000
MTEXTBEGIN
1070
    73
1070
     1
1070
    44
1040
1.0
1070
    74
1070
     0
1000
MTEXTEND
  0
POINT
  5
163
  8
DEFPOINTS
  6
CONTINUOUS
 62
     0
 10
2074.53400982413
 20
487.6290471971824
 30
0.0
  0
POINT
  5
164
  8
DEFPOINTS
  6
CONTINUOUS
 62
     0
 10
2069.034009824131
 20
494.4290471971823
 30
0.0
  0
POINT
  5
165
  8
DEFPOINTS
  6
CONTINUOUS
 62
     0
 10
2069.034009824131
 20
519.2105842313492
 30
0.0
  0
ENDBLK
  5
166
  8
0
 62
     7
  0
BLOCK
  8
0
  2
*D18
 70
     1
 10
0.0
 20
0.0
 30
0.0
  3
*D18
  1

  0
LINE
  5
148
  8
回07-寸法
  6
CONTINUOUS
 62
     5
 10
2074.03400982413
 20
488.1290471971824
 30
0.0
 11
2074.03400982413
 21
528.6167596667303
 31
0.0
  0
LINE
  5
149
  8
回07-寸法
  6
CONTINUOUS
 62
     5
 10
2069.034009824131
 20
494.4290471971823
 30
0.0
 11
2069.034009824131
 21
528.6167596667303
 31
0.0
  0
LINE
  5
14A
  8
回07-寸法
  6
CONTINUOUS
 62
     5
 10
2076.03400982413
 20
527.6167596667303
 30
0.0
 11
2078.034009824131
 21
527.6167596667303
 31
0.0
  0
LINE
  5
14B
  8
回07-寸法
  6
CONTINUOUS
 62
     5
 10
2067.03400982413
 20
527.6167596667303
 30
0.0
 11
2026.733506990128
 21
527.6167596667303
 31
0.0
  0
LINE
  5
14C
  8
回07-寸法
  6
CONTINUOUS
 62
     5
 10
2074.03400982413
 20
527.6167596667303
 30
0.0
 11
2069.034009824131
 21
527.6167596667303
 31
0.0
  0
INSERT
  5
14D
  8
回07-寸法
  6
CONTINUOUS
 62
     5
 66
     1
  2
_OPEN
 10
2074.03400982413
 20
527.6167596667303
 30
0.0
 41
2.0
 42
2.0
 43
2.0
 50
180.0
  0
SEQEND
  5
14E
  8
回08-記事
  6
CONTINUOUS
 62
     7
  0
INSERT
  5
14F
  8
回07-寸法
  6
CONTINUOUS
 62
     5
 66
     1
  2
_OPEN
 10
2069.034009824131
 20
527.6167596667303
 30
0.0
 41
2.0
 42
2.0
 43
2.0
  0
SEQEND
  5
150
  8
回08-記事
  6
CONTINUOUS
 62
     7
  0
INSERT
  5
151
  8
回07-寸法
  6
CONTINUOUS
 62
     5
 66
     1
  2
*X52
 10
0.0
 20
0.0
 30
0.0
  0
SEQEND
  5
4AF
  8
回08-記事
  6
CONTINUOUS
 62
     7
  0
POINT
  5
152
  8
DEFPOINTS
  6
CONTINUOUS
 62
     0
 10
2074.03400982413
 20
488.1290471971824
 30
0.0
  0
POINT
  5
153
  8
DEFPOINTS
  6
CONTINUOUS
 62
     0
 10
2069.034009824131
 20
494.4290471971823
 30
0.0
  0
POINT
  5
154
  8
DEFPOINTS
  6
CONTINUOUS
 62
     0
 10
2069.034009824131
 20
527.6167596667303
 30
0.0
  0
ENDBLK
  5
155
  8
0
 62
     7
  0
BLOCK
  8
0
  2
*D19
 70
     1
 10
0.0
 20
0.0
 30
0.0
  3
*D19
  1

  0
LINE
  5
137
  8
回07-寸法
  6
CONTINUOUS
 62
     5
 10
2259.43400982413
 20
486.0290471971825
 30
0.0
 11
2259.43400982413
 21
512.1289533835204
 31
0.0
  0
LINE
  5
138
  8
回07-寸法
  6
CONTINUOUS
 62
     5
 10
2263.93400982413
 20
494.4290471971823
 30
0.0
 11
2263.93400982413
 21
512.1289533835204
 31
0.0
  0
LINE
  5
139
  8
回07-寸法
  6
CONTINUOUS
 62
     5
 10
2257.43400982413
 20
511.1289533835203
 30
0.0
 11
2255.43400982413
 21
511.1289533835203
 31
0.0
  0
LINE
  5
13A
  8
回07-寸法
  6
CONTINUOUS
 62
     5
 10
2265.93400982413
 20
511.1289533835203
 30
0.0
 11
2288.731647619405
 21
511.1289533835203
 31
0.0
  0
LINE
  5
13B
  8
回07-寸法
  6
CONTINUOUS
 62
     5
 10
2259.43400982413
 20
511.1289533835203
 30
0.0
 11
2263.93400982413
 21
511.1289533835203
 31
0.0
  0
INSERT
  5
13C
  8
回07-寸法
  6
CONTINUOUS
 62
     5
 66
     1
  2
_OPEN
 10
2259.43400982413
 20
511.1289533835203
 30
0.0
 41
2.0
 42
2.0
 43
2.0
  0
SEQEND
  5
13D
  8
回08-記事
  6
CONTINUOUS
 62
     7
  0
INSERT
  5
13E
  8
回07-寸法
  6
CONTINUOUS
 62
     5
 66
     1
  2
_OPEN
 10
2263.93400982413
 20
511.1289533835203
 30
0.0
 41
2.0
 42
2.0
 43
2.0
 50
180.0
  0
SEQEND
  5
13F
  8
回08-記事
  6
CONTINUOUS
 62
     7
  0
TEXT
  5
140
  8
回07-寸法
  6
CONTINUOUS
 62
     5
 10
2267.982828721768
 20
511.7789533835203
 30
0.0
 40
3.0
  1
(4.5 [0.177])
1001
ACAD
1000
MTEXTBEGIN
1070
    73
1070
     1
1070
    44
1040
1.0
1070
    74
1070
     0
1000
MTEXTEND
  0
POINT
  5
141
  8
DEFPOINTS
  6
CONTINUOUS
 62
     0
 10
2259.43400982413
 20
486.0290471971825
 30
0.0
  0
POINT
  5
142
  8
DEFPOINTS
  6
CONTINUOUS
 62
     0
 10
2263.93400982413
 20
494.4290471971823
 30
0.0
  0
POINT
  5
143
  8
DEFPOINTS
  6
CONTINUOUS
 62
     0
 10
2263.93400982413
 20
511.1289533835203
 30
0.0
  0
ENDBLK
  5
144
  8
0
 62
     7
  0
BLOCK
  8
0
  2
*D20
 70
     1
 10
0.0
 20
0.0
 30
0.0
  3
*D20
  1

  0
LINE
  5
126
  8
回07-寸法
  6
CONTINUOUS
 62
     5
 10
2260.43400982413
 20
487.6290471971824
 30
0.0
 11
2260.43400982413
 21
520.2105842313492
 31
0.0
  0
LINE
  5
127
  8
回07-寸法
  6
CONTINUOUS
 62
     5
 10
2263.93400982413
 20
494.4290471971823
 30
0.0
 11
2263.93400982413
 21
520.2105842313492
 31
0.0
  0
LINE
  5
128
  8
回07-寸法
  6
CONTINUOUS
 62
     5
 10
2258.43400982413
 20
519.2105842313492
 30
0.0
 11
2256.43400982413
 21
519.2105842313492
 31
0.0
  0
LINE
  5
129
  8
回07-寸法
  6
CONTINUOUS
 62
     5
 10
2265.93400982413
 20
519.2105842313492
 30
0.0
 11
2288.431647619406
 21
519.2105842313492
 31
0.0
  0
LINE
  5
12A
  8
回07-寸法
  6
CONTINUOUS
 62
     5
 10
2260.43400982413
 20
519.2105842313492
 30
0.0
 11
2263.93400982413
 21
519.2105842313492
 31
0.0
  0
INSERT
  5
12B
  8
回07-寸法
  6
CONTINUOUS
 62
     5
 66
     1
  2
_OPEN
 10
2260.43400982413
 20
519.2105842313492
 30
0.0
 41
2.0
 42
2.0
 43
2.0
  0
SEQEND
  5
12C
  8
回08-記事
  6
CONTINUOUS
 62
     7
  0
INSERT
  5
12D
  8
回07-寸法
  6
CONTINUOUS
 62
     5
 66
     1
  2
_OPEN
 10
2263.93400982413
 20
519.2105842313492
 30
0.0
 41
2.0
 42
2.0
 43
2.0
 50
180.0
  0
SEQEND
  5
12E
  8
回08-記事
  6
CONTINUOUS
 62
     7
  0
TEXT
  5
12F
  8
回07-寸法
  6
CONTINUOUS
 62
     5
 10
2267.982828721768
 20
519.8605842313492
 30
0.0
 40
3.0
  1
(3.5 [0.138])
1001
ACAD
1000
MTEXTBEGIN
1070
    73
1070
     1
1070
    44
1040
1.0
1070
    74
1070
     0
1000
MTEXTEND
  0
POINT
  5
130
  8
DEFPOINTS
  6
CONTINUOUS
 62
     0
 10
2260.43400982413
 20
487.6290471971824
 30
0.0
  0
POINT
  5
131
  8
DEFPOINTS
  6
CONTINUOUS
 62
     0
 10
2263.93400982413
 20
494.4290471971823
 30
0.0
  0
POINT
  5
132
  8
DEFPOINTS
  6
CONTINUOUS
 62
     0
 10
2263.93400982413
 20
519.2105842313492
 30
0.0
  0
ENDBLK
  5
133
  8
0
 62
     7
  0
BLOCK
  8
0
  2
*D21
 70
     1
 10
0.0
 20
0.0
 30
0.0
  3
*D21
  1

  0
LINE
  5
115
  8
回07-寸法
  6
CONTINUOUS
 62
     5
 10
2260.93400982413
 20
488.1290471971824
 30
0.0
 11
2260.93400982413
 21
528.6167596667303
 31
0.0
  0
LINE
  5
116
  8
回07-寸法
  6
CONTINUOUS
 62
     5
 10
2263.93400982413
 20
494.4290471971823
 30
0.0
 11
2263.93400982413
 21
528.6167596667303
 31
0.0
  0
LINE
  5
117
  8
回07-寸法
  6
CONTINUOUS
 62
     5
 10
2258.93400982413
 20
527.6167596667303
 30
0.0
 11
2256.93400982413
 21
527.6167596667303
 31
0.0
  0
LINE
  5
118
  8
回07-寸法
  6
CONTINUOUS
 62
     5
 10
2265.93400982413
 20
527.6167596667303
 30
0.0
 11
2305.62402966665
 21
527.6167596667303
 31
0.0
  0
LINE
  5
119
  8
回07-寸法
  6
CONTINUOUS
 62
     5
 10
2260.93400982413
 20
527.6167596667303
 30
0.0
 11
2263.93400982413
 21
527.6167596667303
 31
0.0
  0
INSERT
  5
11A
  8
回07-寸法
  6
CONTINUOUS
 62
     5
 66
     1
  2
_OPEN
 10
2260.93400982413
 20
527.6167596667303
 30
0.0
 41
2.0
 42
2.0
 43
2.0
  0
SEQEND
  5
11B
  8
回08-記事
  6
CONTINUOUS
 62
     7
  0
INSERT
  5
11C
  8
回07-寸法
  6
CONTINUOUS
 62
     5
 66
     1
  2
_OPEN
 10
2263.93400982413
 20
527.6167596667303
 30
0.0
 41
2.0
 42
2.0
 43
2.0
 50
180.0
  0
SEQEND
  5
11D
  8
回08-記事
  6
CONTINUOUS
 62
     7
  0
INSERT
  5
11E
  8
回07-寸法
  6
CONTINUOUS
 62
     5
 66
     1
  2
*X53
 10
0.0
 20
0.0
 30
0.0
  0
SEQEND
  5
4B5
  8
回08-記事
  6
CONTINUOUS
 62
     7
  0
POINT
  5
11F
  8
DEFPOINTS
  6
CONTINUOUS
 62
     0
 10
2260.93400982413
 20
488.1290471971824
 30
0.0
  0
POINT
  5
120
  8
DEFPOINTS
  6
CONTINUOUS
 62
     0
 10
2263.93400982413
 20
494.4290471971823
 30
0.0
  0
POINT
  5
121
  8
DEFPOINTS
  6
CONTINUOUS
 62
     0
 10
2263.93400982413
 20
527.6167596667303
 30
0.0
  0
ENDBLK
  5
122
  8
0
 62
     7
  0
BLOCK
  8
0
  2
*D22
 70
     1
 10
0.0
 20
0.0
 30
0.0
  3
*D22
  1

  0
LINE
  5
106
  8
回07-寸法
  6
CONTINUOUS
 62
     5
 10
2259.434009824131
 20
486.0290471971827
 30
0.0
 11
2296.86179177823
 21
486.0290471971827
 31
0.0
  0
LINE
  5
107
  8
回07-寸法
  6
CONTINUOUS
 62
     5
 10
2259.434009824131
 20
374.3290471971826
 30
0.0
 11
2296.86179177823
 21
374.3290471971826
 31
0.0
  0
LINE
  5
108
  8
回07-寸法
  6
CONTINUOUS
 62
     5
 10
2295.86179177823
 20
484.0290471971827
 30
0.0
 11
2295.86179177823
 21
376.3290471971826
 31
0.0
  0
INSERT
  5
109
  8
回07-寸法
  6
CONTINUOUS
 62
     5
 66
     1
  2
_OPEN
 10
2295.86179177823
 20
486.0290471971827
 30
0.0
 41
2.0
 42
2.0
 43
2.0
 50
90.0
  0
SEQEND
  5
10A
  8
回08-記事
  6
CONTINUOUS
 62
     7
  0
INSERT
  5
10B
  8
回07-寸法
  6
CONTINUOUS
 62
     5
 66
     1
  2
_OPEN
 10
2295.86179177823
 20
374.3290471971826
 30
0.0
 41
2.0
 42
2.0
 43
2.0
 50
270.0
  0
SEQEND
  5
10C
  8
回08-記事
  6
CONTINUOUS
 62
     7
  0
TEXT
  5
10D
  8
回07-寸法
  6
CONTINUOUS
 62
     5
 10
2295.211851684332
 20
407.6742221955726
 30
0.0
 40
3.0
  1
111.7 [4.398](Active area)
 50
90.0
1001
ACAD
1000
MTEXTBEGIN
1070
    73
1070
     1
1070
    44
1040
1.0
1070
    74
1070
     0
1000
MTEXTEND
  0
POINT
  5
10E
  8
DEFPOINTS
  6
CONTINUOUS
 62
     0
 10
2259.434009824131
 20
486.0290471971827
 30
0.0
  0
POINT
  5
10F
  8
DEFPOINTS
  6
CONTINUOUS
 62
     0
 10
2259.434009824131
 20
374.3290471971826
 30
0.0
  0
POINT
  5
110
  8
DEFPOINTS
  6
CONTINUOUS
 62
     0
 10
2295.86179177823
 20
374.3290471971826
 30
0.0
  0
ENDBLK
  5
111
  8
0
 62
     7
  0
BLOCK
  8
0
  2
*D23
 70
     1
 10
0.0
 20
0.0
 30
0.0
  3
*D23
  1

  0
LINE
  5
F7
  8
回07-寸法
  6
CONTINUOUS
 62
     5
 10
2260.434009824131
 20
372.7290471971827
 30
0.0
 11
2306.275402483998
 21
372.7290471971827
 31
0.0
  0
LINE
  5
F8
  8
回07-寸法
  6
CONTINUOUS
 62
     5
 10
2260.434009824131
 20
487.6290471971826
 30
0.0
 11
2306.275402483998
 21
487.6290471971826
 31
0.0
  0
LINE
  5
F9
  8
回07-寸法
  6
CONTINUOUS
 62
     5
 10
2305.275402483998
 20
374.7290471971827
 30
0.0
 11
2305.275402483998
 21
485.6290471971826
 31
0.0
  0
INSERT
  5
FA
  8
回07-寸法
  6
CONTINUOUS
 62
     5
 66
     1
  2
_OPEN
 10
2305.275402483998
 20
372.7290471971827
 30
0.0
 41
2.0
 42
2.0
 43
2.0
 50
270.0
  0
SEQEND
  5
FB
  8
回08-記事
  6
CONTINUOUS
 62
     7
  0
INSERT
  5
FC
  8
回07-寸法
  6
CONTINUOUS
 62
     5
 66
     1
  2
_OPEN
 10
2305.275402483998
 20
487.6290471971826
 30
0.0
 41
2.0
 42
2.0
 43
2.0
 50
90.0
  0
SEQEND
  5
FD
  8
回08-記事
  6
CONTINUOUS
 62
     7
  0
TEXT
  5
FE
  8
回07-寸法
  6
CONTINUOUS
 62
     5
 10
2303.971036953936
 20
406.0242221955729
 30
0.0
 40
3.0
  1
114.9 [4.524](Viewing area)
 50
90.0
1001
ACAD
1000
MTEXTBEGIN
1070
    73
1070
     1
1070
    44
1040
1.0
1070
    74
1070
     0
1000
MTEXTEND
  0
POINT
  5
FF
  8
DEFPOINTS
  6
CONTINUOUS
 62
     0
 10
2260.434009824131
 20
372.7290471971827
 30
0.0
  0
POINT
  5
100
  8
DEFPOINTS
  6
CONTINUOUS
 62
     0
 10
2260.434009824131
 20
487.6290471971826
 30
0.0
  0
POINT
  5
101
  8
DEFPOINTS
  6
CONTINUOUS
 62
     0
 10
2305.275402483998
 20
487.6290471971826
 30
0.0
  0
ENDBLK
  5
102
  8
0
 62
     7
  0
BLOCK
  8
0
  2
*D24
 70
     1
 10
0.0
 20
0.0
 30
0.0
  3
*D24
  1

  0
LINE
  5
E8
  8
回07-寸法
  6
CONTINUOUS
 62
     5
 10
2260.934009824131
 20
372.2290471971827
 30
0.0
 11
2315.689020859771
 21
372.2290471971827
 31
0.0
  0
LINE
  5
E9
  8
回07-寸法
  6
CONTINUOUS
 62
     5
 10
2260.934009824131
 20
488.1290471971826
 30
0.0
 11
2315.689020859771
 21
488.1290471971826
 31
0.0
  0
LINE
  5
EA
  8
回07-寸法
  6
CONTINUOUS
 62
     5
 10
2314.689020859771
 20
374.2290471971827
 30
0.0
 11
2314.689020859771
 21
486.1290471971826
 31
0.0
  0
INSERT
  5
EB
  8
回07-寸法
  6
CONTINUOUS
 62
     5
 66
     1
  2
_OPEN
 10
2314.689020859771
 20
372.2290471971827
 30
0.0
 41
2.0
 42
2.0
 43
2.0
 50
270.0
  0
SEQEND
  5
EC
  8
回08-記事
  6
CONTINUOUS
 62
     7
  0
INSERT
  5
ED
  8
回07-寸法
  6
CONTINUOUS
 62
     5
 66
     1
  2
_OPEN
 10
2314.689020859771
 20
488.1290471971826
 30
0.0
 41
2.0
 42
2.0
 43
2.0
 50
90.0
  0
SEQEND
  5
EE
  8
回08-記事
  6
CONTINUOUS
 62
     7
  0
TEXT
  5
EF
  8
回07-寸法
  6
CONTINUOUS
 62
     5
 10
2314.03902085977
 20
419.2236316443915
 30
0.0
 40
3.0
  1
115.9 [4.563]
 50
90.0
1001
ACAD
1000
MTEXTBEGIN
1070
    73
1070
     1
1070
    44
1040
1.0
1070
    74
1070
     0
1000
MTEXTEND
  0
POINT
  5
F0
  8
DEFPOINTS
  6
CONTINUOUS
 62
     0
 10
2260.934009824131
 20
372.2290471971827
 30
0.0
  0
POINT
  5
F1
  8
DEFPOINTS
  6
CONTINUOUS
 62
     0
 10
2260.934009824131
 20
488.1290471971826
 30
0.0
  0
POINT
  5
F2
  8
DEFPOINTS
  6
CONTINUOUS
 62
     0
 10
2314.689020859771
 20
488.1290471971826
 30
0.0
  0
ENDBLK
  5
F3
  8
0
 62
     7
  0
BLOCK
  8
0
  2
*D25
 70
     1
 10
0.0
 20
0.0
 30
0.0
  3
*D25
  1

  0
LINE
  5
D7
  8
回07-寸法
  6
CONTINUOUS
 62
     5
 10
2259.434009824131
 20
374.3290471971826
 30
0.0
 11
2296.861791778229
 21
374.3290471971826
 31
0.0
  0
LINE
  5
D8
  8
回07-寸法
  6
CONTINUOUS
 62
     5
 10
2263.934009824131
 20
365.8290471971826
 30
0.0
 11
2296.861791778229
 21
365.8290471971826
 31
0.0
  0
LINE
  5
D9
  8
回07-寸法
  6
CONTINUOUS
 62
     5
 10
2295.861791778229
 20
376.3290471971826
 30
0.0
 11
2295.861791778229
 21
378.3290471971826
 31
0.0
  0
LINE
  5
DA
  8
回07-寸法
  6
CONTINUOUS
 62
     5
 10
2295.861791778229
 20
363.8290471971826
 30
0.0
 11
2295.861791778229
 21
343.1290471971826
 31
0.0
  0
LINE
  5
DB
  8
回07-寸法
  6
CONTINUOUS
 62
     5
 10
2295.861791778229
 20
374.3290471971826
 30
0.0
 11
2295.861791778229
 21
365.8290471971826
 31
0.0
  0
INSERT
  5
DC
  8
回07-寸法
  6
CONTINUOUS
 62
     5
 66
     1
  2
_OPEN
 10
2295.861791778229
 20
374.3290471971826
 30
0.0
 41
2.0
 42
2.0
 43
2.0
 50
270.0
  0
SEQEND
  5
DD
  8
回08-記事
  6
CONTINUOUS
 62
     7
  0
INSERT
  5
DE
  8
回07-寸法
  6
CONTINUOUS
 62
     5
 66
     1
  2
_OPEN
 10
2295.861791778229
 20
365.8290471971826
 30
0.0
 41
2.0
 42
2.0
 43
2.0
 50
90.0
  0
SEQEND
  5
DF
  8
回08-記事
  6
CONTINUOUS
 62
     7
  0
TEXT
  5
E0
  8
回07-寸法
  6
CONTINUOUS
 62
     5
 10
2295.211791778228
 20
343.1790471971822
 30
0.0
 40
3.0
  1
8.5 [0.335]
 50
90.0
1001
ACAD
1000
MTEXTBEGIN
1070
    73
1070
     1
1070
    44
1040
1.0
1070
    74
1070
     0
1000
MTEXTEND
  0
POINT
  5
E1
  8
DEFPOINTS
  6
CONTINUOUS
 62
     0
 10
2259.434009824131
 20
374.3290471971826
 30
0.0
  0
POINT
  5
E2
  8
DEFPOINTS
  6
CONTINUOUS
 62
     0
 10
2263.934009824131
 20
365.8290471971826
 30
0.0
  0
POINT
  5
E3
  8
DEFPOINTS
  6
CONTINUOUS
 62
     0
 10
2295.861791778229
 20
365.8290471971826
 30
0.0
  0
ENDBLK
  5
E4
  8
0
 62
     7
  0
BLOCK
  8
0
  2
*D26
 70
     1
 10
0.0
 20
0.0
 30
0.0
  3
*D26
  1

  0
LINE
  5
C6
  8
回07-寸法
  6
CONTINUOUS
 62
     5
 10
2260.434009824131
 20
372.7290471971827
 30
0.0
 11
2306.275402483997
 21
372.7290471971827
 31
0.0
  0
LINE
  5
C7
  8
回07-寸法
  6
CONTINUOUS
 62
     5
 10
2263.934009824131
 20
365.8290471971826
 30
0.0
 11
2306.275402483997
 21
365.8290471971826
 31
0.0
  0
LINE
  5
C8
  8
回07-寸法
  6
CONTINUOUS
 62
     5
 10
2305.275402483997
 20
374.7290471971827
 30
0.0
 11
2305.275402483997
 21
376.7290471971827
 31
0.0
  0
LINE
  5
C9
  8
回07-寸法
  6
CONTINUOUS
 62
     5
 10
2305.275402483997
 20
363.8290471971826
 30
0.0
 11
2305.275402483997
 21
342.9390366466447
 31
0.0
  0
LINE
  5
CA
  8
回07-寸法
  6
CONTINUOUS
 62
     5
 10
2305.275402483997
 20
372.7290471971827
 30
0.0
 11
2305.275402483997
 21
365.8290471971826
 31
0.0
  0
INSERT
  5
CB
  8
回07-寸法
  6
CONTINUOUS
 62
     5
 66
     1
  2
_OPEN
 10
2305.275402483997
 20
372.7290471971827
 30
0.0
 41
2.0
 42
2.0
 43
2.0
 50
270.0
  0
SEQEND
  5
CC
  8
回08-記事
  6
CONTINUOUS
 62
     7
  0
INSERT
  5
CD
  8
回07-寸法
  6
CONTINUOUS
 62
     5
 66
     1
  2
_OPEN
 10
2305.275402483997
 20
365.8290471971826
 30
0.0
 41
2.0
 42
2.0
 43
2.0
 50
90.0
  0
SEQEND
  5
CE
  8
回08-記事
  6
CONTINUOUS
 62
     7
  0
TEXT
  5
CF
  8
回07-寸法
  6
CONTINUOUS
 62
     5
 10
2304.625402483996
 20
343.0786263691227
 30
0.0
 40
3.0
  1
6.9 [0.272]
 50
90.0
1001
ACAD
1000
MTEXTBEGIN
1070
    73
1070
     1
1070
    44
1040
1.0
1070
    74
1070
     0
1000
MTEXTEND
  0
POINT
  5
D0
  8
DEFPOINTS
  6
CONTINUOUS
 62
     0
 10
2260.434009824131
 20
372.7290471971827
 30
0.0
  0
POINT
  5
D1
  8
DEFPOINTS
  6
CONTINUOUS
 62
     0
 10
2263.934009824131
 20
365.8290471971826
 30
0.0
  0
POINT
  5
D2
  8
DEFPOINTS
  6
CONTINUOUS
 62
     0
 10
2305.275402483997
 20
365.8290471971826
 30
0.0
  0
ENDBLK
  5
D3
  8
0
 62
     7
  0
BLOCK
  8
0
  2
*D27
 70
     1
 10
0.0
 20
0.0
 30
0.0
  3
*D27
  1

  0
LINE
  5
B5
  8
回07-寸法
  6
CONTINUOUS
 62
     5
 10
2260.934009824131
 20
372.2290471971827
 30
0.0
 11
2315.689020859769
 21
372.2290471971827
 31
0.0
  0
LINE
  5
B6
  8
回07-寸法
  6
CONTINUOUS
 62
     5
 10
2263.934009824131
 20
365.8290471971826
 30
0.0
 11
2315.689020859769
 21
365.8290471971826
 31
0.0
  0
LINE
  5
B7
  8
回07-寸法
  6
CONTINUOUS
 62
     5
 10
2314.689020859769
 20
374.2290471971827
 30
0.0
 11
2314.689020859769
 21
376.2290471971827
 31
0.0
  0
LINE
  5
B8
  8
回07-寸法
  6
CONTINUOUS
 62
     5
 10
2314.689020859769
 20
363.8290471971826
 30
0.0
 11
2314.689020859769
 21
319.4594997956078
 31
0.0
  0
LINE
  5
B9
  8
回07-寸法
  6
CONTINUOUS
 62
     5
 10
2314.689020859769
 20
372.2290471971827
 30
0.0
 11
2314.689020859769
 21
365.8290471971826
 31
0.0
  0
INSERT
  5
BA
  8
回07-寸法
  6
CONTINUOUS
 62
     5
 66
     1
  2
_OPEN
 10
2314.689020859769
 20
372.2290471971827
 30
0.0
 41
2.0
 42
2.0
 43
2.0
 50
270.0
  0
SEQEND
  5
BB
  8
回08-記事
  6
CONTINUOUS
 62
     7
  0
INSERT
  5
BC
  8
回07-寸法
  6
CONTINUOUS
 62
     5
 66
     1
  2
_OPEN
 10
2314.689020859769
 20
365.8290471971826
 30
0.0
 41
2.0
 42
2.0
 43
2.0
 50
90.0
  0
SEQEND
  5
BD
  8
回08-記事
  6
CONTINUOUS
 62
     7
  0
INSERT
  5
BE
  8
回07-寸法
  6
CONTINUOUS
 62
     5
 66
     1
  2
*X54
 10
0.0
 20
0.0
 30
0.0
  0
SEQEND
  5
4BB
  8
回08-記事
  6
CONTINUOUS
 62
     7
  0
POINT
  5
BF
  8
DEFPOINTS
  6
CONTINUOUS
 62
     0
 10
2260.934009824131
 20
372.2290471971827
 30
0.0
  0
POINT
  5
C0
  8
DEFPOINTS
  6
CONTINUOUS
 62
     0
 10
2263.934009824131
 20
365.8290471971826
 30
0.0
  0
POINT
  5
C1
  8
DEFPOINTS
  6
CONTINUOUS
 62
     0
 10
2314.689020859769
 20
365.8290471971826
 30
0.0
  0
ENDBLK
  5
C2
  8
0
 62
     7
  0
BLOCK
  8
0
  2
*D28
 70
     1
 10
0.0
 20
0.0
 30
0.0
  3
*D28
  1

  0
LINE
  5
A4
  8
回07-寸法
  6
CONTINUOUS
 62
     5
 10
2259.434009824131
 20
486.0290471971827
 30
0.0
 11
2296.861791778229
 21
486.0290471971827
 31
0.0
  0
LINE
  5
A5
  8
回07-寸法
  6
CONTINUOUS
 62
     5
 10
2263.934009824131
 20
494.4290471971826
 30
0.0
 11
2296.861791778229
 21
494.4290471971826
 31
0.0
  0
LINE
  5
A6
  8
回07-寸法
  6
CONTINUOUS
 62
     5
 10
2295.861791778229
 20
484.0290471971827
 30
0.0
 11
2295.861791778229
 21
482.0290471971827
 31
0.0
  0
LINE
  5
A7
  8
回07-寸法
  6
CONTINUOUS
 62
     5
 10
2295.861791778229
 20
496.4290471971826
 30
0.0
 11
2295.861791778229
 21
519.2266849924589
 31
0.0
  0
LINE
  5
A8
  8
回07-寸法
  6
CONTINUOUS
 62
     5
 10
2295.861791778229
 20
486.0290471971827
 30
0.0
 11
2295.861791778229
 21
494.4290471971826
 31
0.0
  0
INSERT
  5
A9
  8
回07-寸法
  6
CONTINUOUS
 62
     5
 66
     1
  2
_OPEN
 10
2295.861791778229
 20
486.0290471971827
 30
0.0
 41
2.0
 42
2.0
 43
2.0
 50
90.0
  0
SEQEND
  5
AA
  8
回08-記事
  6
CONTINUOUS
 62
     7
  0
INSERT
  5
AB
  8
回07-寸法
  6
CONTINUOUS
 62
     5
 66
     1
  2
_OPEN
 10
2295.861791778229
 20
494.4290471971826
 30
0.0
 41
2.0
 42
2.0
 43
2.0
 50
270.0
  0
SEQEND
  5
AC
  8
回08-記事
  6
CONTINUOUS
 62
     7
  0
TEXT
  5
AD
  8
回07-寸法
  6
CONTINUOUS
 62
     5
 10
2295.211791778228
 20
498.4778660948204
 30
0.0
 40
3.0
  1
(8.4 [0.331])
 50
90.0
1001
ACAD
1000
MTEXTBEGIN
1070
    73
1070
     1
1070
    44
1040
1.0
1070
    74
1070
     0
1000
MTEXTEND
  0
POINT
  5
AE
  8
DEFPOINTS
  6
CONTINUOUS
 62
     0
 10
2259.434009824131
 20
486.0290471971827
 30
0.0
  0
POINT
  5
AF
  8
DEFPOINTS
  6
CONTINUOUS
 62
     0
 10
2263.934009824131
 20
494.4290471971826
 30
0.0
  0
POINT
  5
B0
  8
DEFPOINTS
  6
CONTINUOUS
 62
     0
 10
2295.861791778229
 20
494.4290471971826
 30
0.0
  0
ENDBLK
  5
B1
  8
0
 62
     7
  0
BLOCK
  8
0
  2
*D29
 70
     1
 10
0.0
 20
0.0
 30
0.0
  3
*D29
  1

  0
LINE
  5
93
  8
回07-寸法
  6
CONTINUOUS
 62
     5
 10
2260.434009824131
 20
487.6290471971826
 30
0.0
 11
2306.275402483997
 21
487.6290471971826
 31
0.0
  0
LINE
  5
94
  8
回07-寸法
  6
CONTINUOUS
 62
     5
 10
2263.934009824131
 20
494.4290471971826
 30
0.0
 11
2306.275402483997
 21
494.4290471971826
 31
0.0
  0
LINE
  5
95
  8
回07-寸法
  6
CONTINUOUS
 62
     5
 10
2305.275402483997
 20
485.6290471971826
 30
0.0
 11
2305.275402483997
 21
483.6290471971826
 31
0.0
  0
LINE
  5
96
  8
回07-寸法
  6
CONTINUOUS
 62
     5
 10
2305.275402483997
 20
496.4290471971826
 30
0.0
 11
2305.275402483997
 21
519.5266849924591
 31
0.0
  0
LINE
  5
97
  8
回07-寸法
  6
CONTINUOUS
 62
     5
 10
2305.275402483997
 20
487.6290471971826
 30
0.0
 11
2305.275402483997
 21
494.4290471971826
 31
0.0
  0
INSERT
  5
98
  8
回07-寸法
  6
CONTINUOUS
 62
     5
 66
     1
  2
_OPEN
 10
2305.275402483997
 20
487.6290471971826
 30
0.0
 41
2.0
 42
2.0
 43
2.0
 50
90.0
  0
SEQEND
  5
99
  8
回08-記事
  6
CONTINUOUS
 62
     7
  0
INSERT
  5
9A
  8
回07-寸法
  6
CONTINUOUS
 62
     5
 66
     1
  2
_OPEN
 10
2305.275402483997
 20
494.4290471971826
 30
0.0
 41
2.0
 42
2.0
 43
2.0
 50
270.0
  0
SEQEND
  5
9B
  8
回08-記事
  6
CONTINUOUS
 62
     7
  0
TEXT
  5
9C
  8
回07-寸法
  6
CONTINUOUS
 62
     5
 10
2304.625402483996
 20
498.4778660948204
 30
0.0
 40
3.0
  1
(6.8 [0.268])
 50
90.0
1001
ACAD
1000
MTEXTBEGIN
1070
    73
1070
     1
1070
    44
1040
1.0
1070
    74
1070
     0
1000
MTEXTEND
  0
POINT
  5
9D
  8
DEFPOINTS
  6
CONTINUOUS
 62
     0
 10
2260.434009824131
 20
487.6290471971826
 30
0.0
  0
POINT
  5
9E
  8
DEFPOINTS
  6
CONTINUOUS
 62
     0
 10
2263.934009824131
 20
494.4290471971826
 30
0.0
  0
POINT
  5
9F
  8
DEFPOINTS
  6
CONTINUOUS
 62
     0
 10
2305.275402483997
 20
494.4290471971826
 30
0.0
  0
ENDBLK
  5
A0
  8
0
 62
     7
  0
BLOCK
  8
0
  2
*D30
 70
     1
 10
0.0
 20
0.0
 30
0.0
  3
*D30
  1

  0
LINE
  5
82
  8
回07-寸法
  6
CONTINUOUS
 62
     5
 10
2260.934009824131
 20
488.1290471971826
 30
0.0
 11
2315.689020859769
 21
488.1290471971826
 31
0.0
  0
LINE
  5
83
  8
回07-寸法
  6
CONTINUOUS
 62
     5
 10
2263.934009824131
 20
494.4290471971826
 30
0.0
 11
2315.689020859769
 21
494.4290471971826
 31
0.0
  0
LINE
  5
84
  8
回07-寸法
  6
CONTINUOUS
 62
     5
 10
2314.689020859769
 20
486.1290471971826
 30
0.0
 11
2314.689020859769
 21
484.1290471971826
 31
0.0
  0
LINE
  5
85
  8
回07-寸法
  6
CONTINUOUS
 62
     5
 10
2314.689020859769
 20
496.4290471971826
 30
0.0
 11
2314.689020859769
 21
540.7985945987583
 31
0.0
  0
LINE
  5
86
  8
回07-寸法
  6
CONTINUOUS
 62
     5
 10
2314.689020859769
 20
488.1290471971826
 30
0.0
 11
2314.689020859769
 21
494.4290471971826
 31
0.0
  0
INSERT
  5
87
  8
回07-寸法
  6
CONTINUOUS
 62
     5
 66
     1
  2
_OPEN
 10
2314.689020859769
 20
488.1290471971826
 30
0.0
 41
2.0
 42
2.0
 43
2.0
 50
90.0
  0
SEQEND
  5
88
  8
回08-記事
  6
CONTINUOUS
 62
     7
  0
INSERT
  5
89
  8
回07-寸法
  6
CONTINUOUS
 62
     5
 66
     1
  2
_OPEN
 10
2314.689020859769
 20
494.4290471971826
 30
0.0
 41
2.0
 42
2.0
 43
2.0
 50
270.0
  0
SEQEND
  5
8A
  8
回08-記事
  6
CONTINUOUS
 62
     7
  0
INSERT
  5
8B
  8
回07-寸法
  6
CONTINUOUS
 62
     5
 66
     1
  2
*X55
 10
0.0
 20
0.0
 30
0.0
  0
SEQEND
  5
4C1
  8
回08-記事
  6
CONTINUOUS
 62
     7
  0
POINT
  5
8C
  8
DEFPOINTS
  6
CONTINUOUS
 62
     0
 10
2260.934009824131
 20
488.1290471971826
 30
0.0
  0
POINT
  5
8D
  8
DEFPOINTS
  6
CONTINUOUS
 62
     0
 10
2263.934009824131
 20
494.4290471971826
 30
0.0
  0
POINT
  5
8E
  8
DEFPOINTS
  6
CONTINUOUS
 62
     0
 10
2314.689020859769
 20
494.4290471971826
 30
0.0
  0
ENDBLK
  5
8F
  8
0
 62
     7
  0
BLOCK
  8
0
  2
*D31
 70
     1
 10
0.0
 20
0.0
 30
0.0
  3
*D31
  1

  0
LINE
  5
2CA
  8
回07-寸法
  6
CONTINUOUS
 62
     5
 10
2069.034009824131
 20
439.1254818218969
 30
0.0
 11
2069.034009824131
 21
455.6299586508539
 31
0.0
  0
LINE
  5
2CB
  8
回07-寸法
  6
CONTINUOUS
 62
     5
 10
1994.034009824131
 20
432.1790471971824
 30
0.0
 11
1994.034009824131
 21
455.6299586508539
 31
0.0
  0
LINE
  5
2CC
  8
回07-寸法
  6
CONTINUOUS
 62
     5
 10
2067.03400982413
 20
454.6299586508539
 30
0.0
 11
1996.03400982413
 21
454.6299586508539
 31
0.0
  0
INSERT
  5
2CD
  8
回07-寸法
  6
CONTINUOUS
 62
     5
  2
_OPEN
 10
2069.034009824131
 20
454.6299586508539
 30
0.0
 41
2.0
 42
2.0
 43
2.0
  0
INSERT
  5
2CE
  8
回07-寸法
  6
CONTINUOUS
 62
     5
  2
_OPEN
 10
1994.034009824131
 20
454.6299586508539
 30
0.0
 41
2.0
 42
2.0
 43
2.0
 50
180.0
  0
INSERT
  5
2CF
  8
回07-寸法
  6
CONTINUOUS
 62
     5
 66
     1
  2
*X56
 10
0.0
 20
0.0
 30
0.0
  0
SEQEND
  5
4CA
  8
回08-記事
  6
CONTINUOUS
 62
     7
  0
POINT
  5
2D0
  8
DEFPOINTS
  6
CONTINUOUS
 62
     0
 10
2069.034009824131
 20
439.1254818218969
 30
0.0
  0
POINT
  5
2D1
  8
DEFPOINTS
  6
CONTINUOUS
 62
     0
 10
1994.034009824131
 20
432.1790471971824
 30
0.0
  0
POINT
  5
2D2
  8
DEFPOINTS
  6
CONTINUOUS
 62
     0
 10
1994.034009824131
 20
454.6299586508539
 30
0.0
  0
ENDBLK
  5
2D3
  8
0
 62
     7
  0
BLOCK
  8
0
  2
*D32
 70
     1
 10
0.0
 20
0.0
 30
0.0
  3
*D32
  1

  0
LINE
  5
2BB
  8
回07-寸法
  6
CONTINUOUS
 62
     5
 10
2069.034009824131
 20
365.8290471971826
 30
0.0
 11
1983.784814314364
 21
365.8290471971826
 31
0.0
  0
LINE
  5
2BC
  8
回07-寸法
  6
CONTINUOUS
 62
     5
 10
1991.834009824131
 20
430.1790471971826
 30
0.0
 11
1983.784814314364
 21
430.1790471971826
 31
0.0
  0
LINE
  5
2BD
  8
回07-寸法
  6
CONTINUOUS
 62
     5
 10
1984.784814314364
 20
367.8290471971826
 30
0.0
 11
1984.784814314364
 21
428.1790471971826
 31
0.0
  0
INSERT
  5
2BE
  8
回07-寸法
  6
CONTINUOUS
 62
     5
 66
     1
  2
_OPEN
 10
1984.784814314364
 20
365.8290471971826
 30
0.0
 41
2.0
 42
2.0
 43
2.0
 50
270.0
  0
SEQEND
  5
2BF
  8
回08-記事
  6
CONTINUOUS
 62
     7
  0
INSERT
  5
2C0
  8
回07-寸法
  6
CONTINUOUS
 62
     5
 66
     1
  2
_OPEN
 10
1984.784814314364
 20
430.1790471971826
 30
0.0
 41
2.0
 42
2.0
 43
2.0
 50
90.0
  0
SEQEND
  5
2C1
  8
回08-記事
  6
CONTINUOUS
 62
     7
  0
TEXT
  5
2C2
  8
回07-寸法
  6
CONTINUOUS
 62
     5
 10
1984.134814314364
 20
385.254047197182
 30
0.0
 40
3.0
  1
(64.35 [2.533])
 50
90.0
1001
ACAD
1000
MTEXTBEGIN
1070
    73
1070
     1
1070
    44
1040
1.0
1070
    74
1070
     0
1000
MTEXTEND
  0
POINT
  5
2C3
  8
DEFPOINTS
  6
CONTINUOUS
 62
     0
 10
2069.034009824131
 20
365.8290471971826
 30
0.0
  0
POINT
  5
2C4
  8
DEFPOINTS
  6
CONTINUOUS
 62
     0
 10
1991.834009824131
 20
430.1790471971826
 30
0.0
  0
POINT
  5
2C5
  8
DEFPOINTS
  6
CONTINUOUS
 62
     0
 10
1984.784814314364
 20
430.1790471971826
 30
0.0
  0
ENDBLK
  5
2C6
  8
0
 62
     7
  0
BLOCK
  8
0
  2
*D33
 70
     1
 10
0.0
 20
0.0
 30
0.0
  3
*D33
  1

  0
LINE
  5
2AA
  8
回07-寸法
  6
CONTINUOUS
 62
     5
 10
2064.646253501471
 20
422.1790471971822
 30
0.0
 11
2045.148864652862
 21
422.1790471971822
 31
0.0
  0
LINE
  5
2AB
  8
回07-寸法
  6
CONTINUOUS
 62
     5
 10
2064.646253501471
 20
438.1790471971822
 30
0.0
 11
2045.148864652862
 21
438.1790471971822
 31
0.0
  0
LINE
  5
2AC
  8
回07-寸法
  6
CONTINUOUS
 62
     5
 10
2046.148864652862
 20
440.1790471971821
 30
0.0
 11
2046.148864652862
 21
442.1790471971822
 31
0.0
  0
LINE
  5
2AD
  8
回07-寸法
  6
CONTINUOUS
 62
     5
 10
2046.148864652862
 20
420.1790471971821
 30
0.0
 11
2046.148864652862
 21
400.9790471971822
 31
0.0
  0
LINE
  5
2AE
  8
回07-寸法
  6
CONTINUOUS
 62
     5
 10
2046.148864652862
 20
438.1790471971822
 30
0.0
 11
2046.148864652862
 21
422.1790471971822
 31
0.0
  0
INSERT
  5
2AF
  8
回07-寸法
  6
CONTINUOUS
 62
     5
 66
     1
  2
_OPEN
 10
2046.148864652862
 20
438.1790471971822
 30
0.0
 41
2.0
 42
2.0
 43
2.0
 50
270.0
  0
SEQEND
  5
2B0
  8
回08-記事
  6
CONTINUOUS
 62
     7
  0
INSERT
  5
2B1
  8
回07-寸法
  6
CONTINUOUS
 62
     5
 66
     1
  2
_OPEN
 10
2046.148864652862
 20
422.1790471971822
 30
0.0
 41
2.0
 42
2.0
 43
2.0
 50
90.0
  0
SEQEND
  5
2B2
  8
回08-記事
  6
CONTINUOUS
 62
     7
  0
TEXT
  5
2B3
  8
回07-寸法
  6
CONTINUOUS
 62
     5
 10
2045.498864652862
 20
401.0290471971813
 30
0.0
 40
3.0
  1
16 [0.630]
 50
90.0
1001
ACAD
1000
MTEXTBEGIN
1070
    73
1070
     1
1070
    44
1040
1.0
1070
    74
1070
     0
1000
MTEXTEND
  0
POINT
  5
2B4
  8
DEFPOINTS
  6
CONTINUOUS
 62
     0
 10
2064.646253501471
 20
422.1790471971822
 30
0.0
  0
POINT
  5
2B5
  8
DEFPOINTS
  6
CONTINUOUS
 62
     0
 10
2064.646253501471
 20
438.1790471971822
 30
0.0
  0
POINT
  5
2B6
  8
DEFPOINTS
  6
CONTINUOUS
 62
     0
 10
2046.148864652862
 20
438.1790471971822
 30
0.0
  0
ENDBLK
  5
2B7
  8
0
 62
     7
  0
BLOCK
  8
0
  2
*D34
 70
     1
 10
0.0
 20
0.0
 30
0.0
  3
*D34
  1

  0
LINE
  5
29B
  8
回07-寸法
  6
CONTINUOUS
 62
     5
 10
1994.534009824132
 20
427.6790471971824
 30
0.0
 11
1978.808553068672
 21
427.6790471971824
 31
0.0
  0
LINE
  5
29C
  8
回07-寸法
  6
CONTINUOUS
 62
     5
 10
1994.534009824132
 20
432.6790471971825
 30
0.0
 11
1978.808553068672
 21
432.6790471971825
 31
0.0
  0
LINE
  5
29D
  8
回07-寸法
  6
CONTINUOUS
 62
     5
 10
1979.808553068671
 20
425.6790471971823
 30
0.0
 11
1979.808553068671
 21
423.6790471971824
 31
0.0
  0
LINE
  5
29E
  8
回07-寸法
  6
CONTINUOUS
 62
     5
 10
1979.808553068671
 20
434.6790471971826
 30
0.0
 11
1979.808553068671
 21
465.6495301886661
 31
0.0
  0
LINE
  5
29F
  8
回07-寸法
  6
CONTINUOUS
 62
     5
 10
1979.808553068671
 20
427.6790471971824
 30
0.0
 11
1979.808553068671
 21
432.6790471971825
 31
0.0
  0
INSERT
  5
2A0
  8
回07-寸法
  6
CONTINUOUS
 62
     5
  2
_OPEN
 10
1979.808553068671
 20
427.6790471971824
 30
0.0
 41
2.0
 42
2.0
 43
2.0
 50
90.0
  0
INSERT
  5
2A1
  8
回07-寸法
  6
CONTINUOUS
 62
     5
  2
_OPEN
 10
1979.808553068671
 20
432.6790471971825
 30
0.0
 41
2.0
 42
2.0
 43
2.0
 50
270.0
  0
INSERT
  5
2A2
  8
回07-寸法
  6
CONTINUOUS
 62
     5
 66
     1
  2
*X57
 10
0.0
 20
0.0
 30
0.0
  0
SEQEND
  5
4D3
  8
回08-記事
  6
CONTINUOUS
 62
     7
  0
POINT
  5
2A3
  8
DEFPOINTS
  6
CONTINUOUS
 62
     0
 10
1994.534009824132
 20
427.6790471971824
 30
0.0
  0
POINT
  5
2A4
  8
DEFPOINTS
  6
CONTINUOUS
 62
     0
 10
1994.534009824132
 20
432.6790471971825
 30
0.0
  0
POINT
  5
2A5
  8
DEFPOINTS
  6
CONTINUOUS
 62
     0
 10
1979.808553068671
 20
432.6790471971825
 30
0.0
  0
ENDBLK
  5
2A6
  8
0
 62
     7
  0
BLOCK
  8
0
  2
*D35
 70
     1
 10
0.0
 20
0.0
 30
0.0
  3
*D35
  1

  0
LINE
  5
28A
  8
回07-寸法
  6
CONTINUOUS
 62
     5
 10
2069.034009824131
 20
439.1254818218969
 30
0.0
 11
2069.034009824131
 21
445.4212483505121
 31
0.0
  0
LINE
  5
28B
  8
回07-寸法
  6
CONTINUOUS
 62
     5
 10
2064.233232997654
 20
438.1790471971823
 30
0.0
 11
2064.233232997654
 21
445.4212483505121
 31
0.0
  0
LINE
  5
28C
  8
回07-寸法
  6
CONTINUOUS
 62
     5
 10
2071.03400982413
 20
444.421248350512
 30
0.0
 11
2073.03400982413
 21
444.421248350512
 31
0.0
  0
LINE
  5
28D
  8
回07-寸法
  6
CONTINUOUS
 62
     5
 10
2062.233232997654
 20
444.421248350512
 30
0.0
 11
2038.805631685391
 21
444.421248350512
 31
0.0
  0
LINE
  5
28E
  8
回07-寸法
  6
CONTINUOUS
 62
     5
 10
2069.034009824131
 20
444.421248350512
 30
0.0
 11
2064.233232997654
 21
444.421248350512
 31
0.0
  0
INSERT
  5
28F
  8
回07-寸法
  6
CONTINUOUS
 62
     5
 66
     1
  2
_OPEN
 10
2069.034009824131
 20
444.421248350512
 30
0.0
 41
2.0
 42
2.0
 43
2.0
 50
180.0
  0
SEQEND
  5
290
  8
回08-記事
  6
CONTINUOUS
 62
     7
  0
INSERT
  5
291
  8
回07-寸法
  6
CONTINUOUS
 62
     5
 66
     1
  2
_OPEN
 10
2064.233232997654
 20
444.421248350512
 30
0.0
 41
2.0
 42
2.0
 43
2.0
  0
SEQEND
  5
292
  8
回08-記事
  6
CONTINUOUS
 62
     7
  0
TEXT
  5
293
  8
回07-寸法
  6
CONTINUOUS
 62
     5
 10
2038.855457628342
 20
445.0711884444097
 30
0.0
 40
3.0
  1
4.8 [0.189]
1001
ACAD
1000
MTEXTBEGIN
1070
    73
1070
     1
1070
    44
1040
1.0
1070
    74
1070
     0
1000
MTEXTEND
  0
POINT
  5
294
  8
DEFPOINTS
  6
CONTINUOUS
 62
     0
 10
2069.034009824131
 20
439.1254818218969
 30
0.0
  0
POINT
  5
295
  8
DEFPOINTS
  6
CONTINUOUS
 62
     0
 10
2064.233232997654
 20
438.1790471971823
 30
0.0
  0
POINT
  5
296
  8
DEFPOINTS
  6
CONTINUOUS
 62
     0
 10
2064.233232997654
 20
444.421248350512
 30
0.0
  0
ENDBLK
  5
297
  8
0
 62
     7
  0
BLOCK
  8
0
  2
*D36
 70
     1
 10
0.0
 20
0.0
 30
0.0
  3
*D36
  1

  0
LINE
  5
279
  8
回07-寸法
  6
CONTINUOUS
 62
     5
 10
2069.034009824131
 20
439.1254818218969
 30
0.0
 11
2069.034009824131
 21
450.5699899586486
 31
0.0
  0
LINE
  5
27A
  8
回07-寸法
  6
CONTINUOUS
 62
     5
 10
2058.710777238996
 20
432.6790471971828
 30
0.0
 11
2058.710777238996
 21
450.5699899586486
 31
0.0
  0
LINE
  5
27B
  8
回07-寸法
  6
CONTINUOUS
 62
     5
 10
2071.03400982413
 20
449.5699899586486
 30
0.0
 11
2073.03400982413
 21
449.5699899586486
 31
0.0
  0
LINE
  5
27C
  8
回07-寸法
  6
CONTINUOUS
 62
     5
 10
2056.710777238996
 20
449.5699899586486
 30
0.0
 11
2032.110777238996
 21
449.5699899586486
 31
0.0
  0
LINE
  5
27D
  8
回07-寸法
  6
CONTINUOUS
 62
     5
 10
2069.034009824131
 20
449.5699899586486
 30
0.0
 11
2058.710777238996
 21
449.5699899586486
 31
0.0
  0
INSERT
  5
27E
  8
回07-寸法
  6
CONTINUOUS
 62
     5
 66
     1
  2
_OPEN
 10
2069.034009824131
 20
449.5699899586486
 30
0.0
 41
2.0
 42
2.0
 43
2.0
 50
180.0
  0
SEQEND
  5
27F
  8
回08-記事
  6
CONTINUOUS
 62
     7
  0
INSERT
  5
280
  8
回07-寸法
  6
CONTINUOUS
 62
     5
 66
     1
  2
_OPEN
 10
2058.710777238996
 20
449.5699899586486
 30
0.0
 41
2.0
 42
2.0
 43
2.0
  0
SEQEND
  5
281
  8
回08-記事
  6
CONTINUOUS
 62
     7
  0
TEXT
  5
282
  8
回07-寸法
  6
CONTINUOUS
 62
     5
 10
2032.160777238996
 20
450.2199899586486
 30
0.0
 40
3.0
  1
10.32 [0.406]
1001
ACAD
1000
MTEXTBEGIN
1070
    73
1070
     1
1070
    44
1040
1.0
1070
    74
1070
     0
1000
MTEXTEND
  0
POINT
  5
283
  8
DEFPOINTS
  6
CONTINUOUS
 62
     0
 10
2069.034009824131
 20
439.1254818218969
 30
0.0
  0
POINT
  5
284
  8
DEFPOINTS
  6
CONTINUOUS
 62
     0
 10
2058.710777238996
 20
432.6790471971828
 30
0.0
  0
POINT
  5
285
  8
DEFPOINTS
  6
CONTINUOUS
 62
     0
 10
2058.710777238996
 20
449.5699899586486
 30
0.0
  0
ENDBLK
  5
286
  8
0
 62
     7
  0
BLOCK
  8
回08-記事
  2
*X37
 70
     1
 10
0.0
 20
0.0
 30
0.0
  3
*X37
  1

  0
INSERT
  5
3C1
  8
回08-記事
  6
CONTINUOUS
 62
     5
  2
_OPEN
 10
2030.422645535256
 20
318.0359216029508
 30
0.0
 41
2.0
 42
2.0
 43
2.0
 50
247.6626868301214
  0
LINE
  5
3C2
  8
回08-記事
  6
CONTINUOUS
 62
     5
 10
2031.182762756138
 20
319.8858464150767
 30
0.0
 11
2037.724196171053
 21
335.8059698495696
 31
0.0
  0
LINE
  5
3C3
  8
回08-記事
  6
CONTINUOUS
 62
     5
 10
2037.724196171053
 20
335.8059698495696
 30
0.0
 11
2078.624196171053
 21
335.8059698495696
 31
0.0
  0
ENDBLK
  5
3C5
  8
回08-記事
  6
CONTINUOUS
 62
     7
  0
BLOCK
  8
回08-記事
  2
*X38
 70
     1
 10
0.0
 20
0.0
 30
0.0
  3
*X38
  1

  0
INSERT
  5
3C8
  8
回08-記事
  6
CONTINUOUS
 62
     5
  2
_OPEN
 10
1996.264339624291
 20
316.2533587447276
 30
0.0
 41
2.0
 42
2.0
 43
2.0
 50
51.21690932717168
  0
LINE
  5
3C9
  8
回08-記事
  6
CONTINUOUS
 62
     5
 10
1995.011592057923
 20
314.6943130318123
 30
0.0
 11
1987.62987442907
 21
305.5077573902927
 31
0.0
  0
LINE
  5
3CA
  8
回08-記事
  6
CONTINUOUS
 62
     5
 10
1987.62987442907
 20
305.5077573902927
 30
0.0
 11
1961.42237442907
 21
305.5077573902927
 31
0.0
  0
ENDBLK
  5
3CC
  8
回08-記事
  6
CONTINUOUS
 62
     7
  0
BLOCK
  8
回08-記事
  2
*X39
 70
     1
 10
0.0
 20
0.0
 30
0.0
  3
*X39
  1

  0
INSERT
  5
3CF
  8
回07-寸法
  6
CONTINUOUS
 62
     5
  2
_OPEN
 10
1998.925642486119
 20
433.3906038713528
 30
0.0
 41
2.0
 42
2.0
 43
2.0
 50
248.7274020409226
  0
LINE
  5
3D0
  8
回07-寸法
  6
CONTINUOUS
 62
     5
 10
1999.651253690479
 20
435.2543335674479
 30
0.0
 11
2001.286245180983
 21
439.4538031668759
 31
0.0
  0
LINE
  5
3D1
  8
回07-寸法
  6
CONTINUOUS
 62
     5
 10
2001.286245180983
 20
439.4538031668759
 30
0.0
 11
2005.586245180984
 21
439.4538031668759
 31
0.0
  0
ENDBLK
  5
3D3
  8
回08-記事
  6
CONTINUOUS
 62
     7
  0
BLOCK
  8
回08-記事
  2
*X40
 70
     1
 10
0.0
 20
0.0
 30
0.0
  3
*X40
  1

  0
INSERT
  5
3E0
  8
回08-記事
  6
CONTINUOUS
 62
     5
  2
_OPEN
 10
2238.743023127462
 20
366.6337233022125
 30
0.0
 41
2.0
 42
2.0
 43
2.0
 50
57.58442055524846
  0
LINE
  5
3E1
  8
回08-記事
  6
CONTINUOUS
 62
     5
 10
2237.670910410313
 20
364.9453589097525
 30
0.0
 11
2234.877112952974
 21
360.5456833240926
 31
0.0
  0
LINE
  5
3E2
  8
回08-記事
  6
CONTINUOUS
 62
     5
 10
2234.877112952974
 20
360.5456833240926
 30
0.0
 11
2217.977112952974
 21
360.5456833240926
 31
0.0
  0
ENDBLK
  5
3E4
  8
回08-記事
  6
CONTINUOUS
 62
     7
  0
BLOCK
  8
回08-記事
  2
*X41
 70
     1
 10
0.0
 20
0.0
 30
0.0
  3
*X41
  1

  0
INSERT
  5
3E7
  8
回08-記事
  6
CONTINUOUS
 62
     5
  2
_OPEN
 10
2024.509826860211
 20
314.6226976876294
 30
0.0
 41
1.999999999999999
 42
1.999999999999999
 43
2.0
 50
101.7339134603719
  0
LINE
  5
3E8
  8
回08-記事
  6
CONTINUOUS
 62
     5
 10
2024.916560586798
 20
312.6644924696666
 30
0.0
 11
2026.123691996276
 21
306.8528007650136
 31
0.0
  0
LINE
  5
3E9
  8
回08-記事
  6
CONTINUOUS
 62
     5
 10
2026.123691996276
 20
306.8528007650136
 30
0.0
 11
2047.823691996276
 21
306.8528007650136
 31
0.0
  0
ENDBLK
  5
3EB
  8
回08-記事
  6
CONTINUOUS
 62
     7
  0
BLOCK
  8
回08-記事
  2
*X42
 70
     1
 10
0.0
 20
0.0
 30
0.0
  3
*X42
  1

  0
LINE
  5
401
  8
回08-記事
  6
CONTINUOUS
 62
     8
 10
2019.00732929817
 20
427.9290471971823
 30
0.0
 11
2017.511988472245
 21
429.4243880231067
 31
0.0
1001
ACAD
1010
0.0
1020
0.0
1030
0.0
  0
LINE
  5
402
  8
回08-記事
  6
CONTINUOUS
 62
     8
 10
2021.658979727619
 20
427.9290471971823
 30
0.0
 11
2017.529140817724
 21
432.058886107078
 31
0.0
1001
ACAD
1010
0.0
1020
0.0
1030
0.0
  0
LINE
  5
403
  8
回08-記事
  6
CONTINUOUS
 62
     8
 10
2024.310630157069
 20
427.9290471971825
 30
0.0
 11
2019.810630157069
 21
432.4290471971825
 31
0.0
1001
ACAD
1010
0.0
1020
0.0
1030
0.0
  0
LINE
  5
404
  8
回08-記事
  6
CONTINUOUS
 62
     8
 10
2026.962280586518
 20
427.9290471971825
 30
0.0
 11
2022.462280586518
 21
432.4290471971825
 31
0.0
1001
ACAD
1010
0.0
1020
0.0
1030
0.0
  0
LINE
  5
405
  8
回08-記事
  6
CONTINUOUS
 62
     8
 10
2029.613931015968
 20
427.9290471971825
 30
0.0
 11
2025.113931015968
 21
432.4290471971824
 31
0.0
1001
ACAD
1010
0.0
1020
0.0
1030
0.0
  0
LINE
  5
406
  8
回08-記事
  6
CONTINUOUS
 62
     8
 10
2032.265581445417
 20
427.9290471971825
 30
0.0
 11
2027.765581445418
 21
432.4290471971824
 31
0.0
1001
ACAD
1010
0.0
1020
0.0
1030
0.0
  0
LINE
  5
407
  8
回08-記事
  6
CONTINUOUS
 62
     8
 10
2034.917231874867
 20
427.9290471971825
 30
0.0
 11
2030.417231874867
 21
432.4290471971824
 31
0.0
1001
ACAD
1010
0.0
1020
0.0
1030
0.0
  0
LINE
  5
408
  8
回08-記事
  6
CONTINUOUS
 62
     8
 10
2037.568882304316
 20
427.9290471971823
 30
0.0
 11
2033.068882304316
 21
432.4290471971824
 31
0.0
1001
ACAD
1010
0.0
1020
0.0
1030
0.0
  0
LINE
  5
409
  8
回08-記事
  6
CONTINUOUS
 62
     8
 10
2040.220532733767
 20
427.9290471971822
 30
0.0
 11
2035.720532733766
 21
432.4290471971824
 31
0.0
1001
ACAD
1010
0.0
1020
0.0
1030
0.0
  0
LINE
  5
40A
  8
回08-記事
  6
CONTINUOUS
 62
     8
 10
2042.872183163216
 20
427.9290471971823
 30
0.0
 11
2038.372183163216
 21
432.4290471971822
 31
0.0
1001
ACAD
1010
0.0
1020
0.0
1030
0.0
  0
LINE
  5
40B
  8
回08-記事
  6
CONTINUOUS
 62
     8
 10
2043.511988472245
 20
429.9408923176024
 30
0.0
 11
2041.023833592666
 21
432.4290471971822
 31
0.0
1001
ACAD
1010
0.0
1020
0.0
1030
0.0
  0
ENDBLK
  5
40D
  8
回08-記事
  6
CONTINUOUS
 62
     7
  0
BLOCK
  8
回08-記事
  2
*X43
 70
     1
 10
0.0
 20
0.0
 30
0.0
  3
*X43
  1

  0
LINE
  5
41A
  8
回08-記事
  6
CONTINUOUS
 62
     7
 10
2065.445631216928
 20
314.2533587447276
 30
0.0
 11
2066.445631216928
 21
315.2533587447277
 31
0.0
1001
ACAD
1010
0.0
1020
0.0
1030
0.0
  0
LINE
  5
41B
  8
回08-記事
  6
CONTINUOUS
 62
     7
 10
2067.690695247195
 20
314.2533587447277
 30
0.0
 11
2068.690695247195
 21
315.253358744728
 31
0.0
1001
ACAD
1010
0.0
1020
0.0
1030
0.0
  0
LINE
  5
41C
  8
回08-記事
  6
CONTINUOUS
 62
     7
 10
2068.435759277463
 20
312.753358744728
 30
0.0
 11
2069.435759277463
 21
313.7533587447279
 31
0.0
1001
ACAD
1010
0.0
1020
0.0
1030
0.0
  0
LINE
  5
41D
  8
回08-記事
  6
CONTINUOUS
 62
     7
 10
2070.68082330773
 20
312.7533587447278
 30
0.0
 11
2071.68082330773
 21
313.7533587447273
 31
0.0
1001
ACAD
1010
0.0
1020
0.0
1030
0.0
  0
LINE
  5
41E
  8
回08-記事
  6
CONTINUOUS
 62
     7
 10
2072.925887337998
 20
312.7533587447278
 30
0.0
 11
2073.13400982413
 21
312.9614812308598
 31
0.0
1001
ACAD
1010
0.0
1020
0.0
1030
0.0
  0
ENDBLK
  5
420
  8
回08-記事
  6
CONTINUOUS
 62
     7
  0
BLOCK
  8
回08-記事
  2
*X44
 70
     1
 10
0.0
 20
0.0
 30
0.0
  3
*X44
  1

  0
INSERT
  5
44B
  8
回07-寸法
  6
CONTINUOUS
 62
     5
  2
_OPEN
 10
2064.264728110624
 20
422.2546888380272
 30
0.0
 41
1.999999999999999
 42
1.999999999999999
 43
2.0
 50
72.28833896500046
  0
LINE
  5
44C
  8
回07-寸法
  6
CONTINUOUS
 62
     5
 10
2063.656274223457
 20
420.3494896706981
 30
0.0
 11
2062.637409750181
 21
417.1592072400196
 31
0.0
  0
LINE
  5
44D
  8
回07-寸法
  6
CONTINUOUS
 62
     5
 10
2062.637409750181
 20
417.1592072400196
 30
0.0
 11
2052.637409750181
 21
417.1592072400196
 31
0.0
  0
ENDBLK
  5
44F
  8
回08-記事
  6
CONTINUOUS
 62
     7
  0
BLOCK
  8
回08-記事
  2
*X45
 70
     1
 10
0.0
 20
0.0
 30
0.0
  3
*X45
  1

  0
INSERT
  5
452
  8
回07-寸法
  6
CONTINUOUS
 62
     5
  2
_OPEN
 10
2068.748223386503
 20
421.593260759555
 30
0.0
 41
1.999999999999999
 42
1.999999999999999
 43
2.0
 50
77.26569167618862
  0
LINE
  5
453
  8
回07-寸法
  6
CONTINUOUS
 62
     5
 10
2068.307362769769
 20
419.6424553062581
 30
0.0
 11
2066.622931858889
 21
412.1888591311422
 31
0.0
  0
LINE
  5
454
  8
回07-寸法
  6
CONTINUOUS
 62
     5
 10
2066.622931858889
 20
412.1888591311422
 30
0.0
 11
2056.322268488208
 21
412.1888591311422
 31
0.0
  0
ENDBLK
  5
456
  8
回08-記事
  6
CONTINUOUS
 62
     7
  0
BLOCK
  8
回08-記事
  2
*X46
 70
     1
 10
0.0
 20
0.0
 30
0.0
  3
*X46
  1

  0
LINE
  5
45E
  8
回08-記事
  6
CONTINUOUS
 62
     8
 10
2064.93400982413
 20
427.7550239831254
 30
0.0
 11
2066.108033038187
 21
428.9290471971822
 31
0.0
1001
ACAD
1010
0.0
1020
0.0
1030
0.0
  0
LINE
  5
45F
  8
回08-記事
  6
CONTINUOUS
 62
     8
 10
2064.93400982413
 20
425.5099599528586
 30
0.0
 11
2068.353097068454
 21
428.9290471971821
 31
0.0
1001
ACAD
1010
0.0
1020
0.0
1030
0.0
  0
LINE
  5
460
  8
回08-記事
  6
CONTINUOUS
 62
     8
 10
2064.93400982413
 20
423.2648959225908
 30
0.0
 11
2070.598161098721
 21
428.9290471971821
 31
0.0
1001
ACAD
1010
0.0
1020
0.0
1030
0.0
  0
LINE
  5
461
  8
回08-記事
  6
CONTINUOUS
 62
     8
 10
2066.843225128988
 20
422.9290471971821
 30
0.0
 11
2072.843225128988
 21
428.9290471971821
 31
0.0
1001
ACAD
1010
0.0
1020
0.0
1030
0.0
  0
LINE
  5
462
  8
回08-記事
  6
CONTINUOUS
 62
     8
 10
2069.088289159255
 20
422.929047197182
 30
0.0
 11
2073.13400982413
 21
426.9747678620563
 31
0.0
1001
ACAD
1010
0.0
1020
0.0
1030
0.0
  0
LINE
  5
463
  8
回08-記事
  6
CONTINUOUS
 62
     8
 10
2071.333353189523
 20
422.9290471971821
 30
0.0
 11
2073.13400982413
 21
424.7297038317892
 31
0.0
1001
ACAD
1010
0.0
1020
0.0
1030
0.0
  0
ENDBLK
  5
465
  8
回08-記事
  6
CONTINUOUS
 62
     7
  0
BLOCK
  8
回08-記事
  2
*X47
 70
     1
 10
0.0
 20
0.0
 30
0.0
  3
*X47
  1

  0
TEXT
  5
47E
  8
回07-寸法
  6
CONTINUOUS
 62
     5
 10
2324.21590434655
 20
412.7290471971821
 30
0.0
 40
3.0
  1
128.6
 50
90.0
  0
TEXT
  5
47F
  8
回07-寸法
  6
CONTINUOUS
 62
     5
 10
2324.21590434655
 20
421.4290471971819
 30
0.0
 40
2.1
  1
±0.3
 50
90.0
  0
TEXT
  5
480
  8
回07-寸法
  6
CONTINUOUS
 62
     5
 10
2324.21590434655
 20
426.4690471971818
 30
0.0
 40
3.0
  1
 [5.063
 50
90.0
  0
TEXT
  5
481
  8
回07-寸法
  6
CONTINUOUS
 62
     5
 10
2324.21590434655
 20
438.769047197182
 30
0.0
 40
2.1
  1
±0.012
 50
90.0
  0
TEXT
  5
482
  8
回07-寸法
  6
CONTINUOUS
 62
     5
 10
2324.21590434655
 20
446.329047197182
 30
0.0
 40
3.0
  1
]
 50
90.0
  0
ENDBLK
  5
484
  8
回08-記事
  6
CONTINUOUS
 62
     7
  0
BLOCK
  8
回08-記事
  2
*X48
 70
     1
 10
0.0
 20
0.0
 30
0.0
  3
*X48
  1

  0
TEXT
  5
487
  8
回07-寸法
  6
CONTINUOUS
 62
     5
 10
1962.336835465299
 20
494.979881581647
 30
0.0
 40
3.0
  1
5
 50
90.0
  0
TEXT
  5
488
  8
回07-寸法
  6
CONTINUOUS
 62
     5
 10
1962.336835465299
 20
497.0798815816469
 30
0.0
 40
2.000099999999999
  1
±0.1
 50
90.0
  0
TEXT
  5
489
  8
回07-寸法
  6
CONTINUOUS
 62
     5
 10
1962.336835465299
 20
501.480101581647
 30
0.0
 40
3.0
  1
[0.197
 50
90.0
  0
TEXT
  5
48A
  8
回07-寸法
  6
CONTINUOUS
 62
     5
 10
1962.336835465299
 20
511.3909326872279
 30
0.0
 40
2.000099999999999
  1
±0.004
 50
90.0
  0
TEXT
  5
48B
  8
回07-寸法
  6
CONTINUOUS
 62
     5
 10
1962.336835465299
 20
519.1913226872279
 30
0.0
 40
3.0
  1
]
 50
90.0
  0
ENDBLK
  5
48D
  8
回08-記事
  6
CONTINUOUS
 62
     7
  0
BLOCK
  8
回08-記事
  2
*X49
 70
     1
 10
0.0
 20
0.0
 30
0.0
  3
*X49
  1

  0
TEXT
  5
490
  8
回07-寸法
  6
CONTINUOUS
 62
     5
 10
1983.399559076831
 20
323.8218198729585
 30
0.0
 40
3.0
  1
0.3
 50
90.0
  0
TEXT
  5
491
  8
回07-寸法
  6
CONTINUOUS
 62
     5
 10
1983.399559076831
 20
328.9218198729584
 30
0.0
 40
2.000099999999999
  1
±0.05
 50
90.0
  0
TEXT
  5
492
  8
回07-寸法
  6
CONTINUOUS
 62
     5
 10
1983.399559076831
 20
335.1221298729583
 30
0.0
 40
3.0
  1
[0.012
 50
90.0
  0
TEXT
  5
493
  8
回07-寸法
  6
CONTINUOUS
 62
     5
 10
1983.399559076831
 20
345.0221298729584
 30
0.0
 40
2.000099999999999
  1
±0.002
 50
90.0
  0
TEXT
  5
494
  8
回07-寸法
  6
CONTINUOUS
 62
     5
 10
1983.399559076831
 20
352.6225098729585
 30
0.0
 40
3.0
  1
]
 50
90.0
  0
ENDBLK
  5
496
  8
回08-記事
  6
CONTINUOUS
 62
     7
  0
BLOCK
  8
回08-記事
  2
*X50
 70
     1
 10
0.0
 20
0.0
 30
0.0
  3
*X50
  1

  0
TEXT
  5
499
  8
回07-寸法
  6
CONTINUOUS
 62
     5
 10
2273.393804525747
 20
322.8412752388595
 30
0.0
 40
3.0
  1
2.1
 50
90.0
  0
TEXT
  5
49A
  8
回07-寸法
  6
CONTINUOUS
 62
     5
 10
2273.393804525747
 20
327.3412752388594
 30
0.0
 40
2.000099999999999
  1
±0.2
 50
90.0
  0
TEXT
  5
49B
  8
回07-寸法
  6
CONTINUOUS
 62
     5
 10
2273.393804525747
 20
332.1415152388595
 30
0.0
 40
3.0
  1
[0.079
 50
90.0
  0
TEXT
  5
49C
  8
回07-寸法
  6
CONTINUOUS
 62
     5
 10
2273.393804525747
 20
342.6523463444405
 30
0.0
 40
2.000099999999999
  1
±0.008
 50
90.0
  0
TEXT
  5
49D
  8
回07-寸法
  6
CONTINUOUS
 62
     5
 10
2273.393804525747
 20
350.2527263444404
 30
0.0
 40
3.0
  1
]
 50
90.0
  0
ENDBLK
  5
49F
  8
回08-記事
  6
CONTINUOUS
 62
     7
  0
BLOCK
  8
回08-記事
  2
*X51
 70
     1
 10
0.0
 20
0.0
 30
0.0
  3
*X51
  1

  0
TEXT
  5
4A2
  8
回07-寸法
  6
CONTINUOUS
 62
     5
 10
2148.92317871855
 20
536.4797695362532
 30
0.0
 40
3.0
  1
194.9
  0
TEXT
  5
4A3
  8
回07-寸法
  6
CONTINUOUS
 62
     5
 10
2157.944840929712
 20
536.4797695362532
 30
0.0
 40
2.1
  1
±0.3
  0
TEXT
  5
4A4
  8
回07-寸法
  6
CONTINUOUS
 62
     5
 10
2162.984840929711
 20
536.4797695362532
 30
0.0
 40
3.0
  1
 [7.673
  0
TEXT
  5
4A5
  8
回07-寸法
  6
CONTINUOUS
 62
     5
 10
2175.284840929712
 20
536.4797695362532
 30
0.0
 40
2.1
  1
±0.012
  0
TEXT
  5
4A6
  8
回07-寸法
  6
CONTINUOUS
 62
     5
 10
2182.844840929712
 20
536.4797695362532
 30
0.0
 40
3.0
  1
]
  0
ENDBLK
  5
4A8
  8
回08-記事
  6
CONTINUOUS
 62
     7
  0
BLOCK
  8
回08-記事
  2
*X52
 70
     1
 10
0.0
 20
0.0
 30
0.0
  3
*X52
  1

  0
TEXT
  5
4AB
  8
回07-寸法
  6
CONTINUOUS
 62
     5
 10
2026.783332933079
 20
528.2666997606281
 30
0.0
 40
3.0
  1
5 [0.197]
  0
TEXT
  5
4AC
  8
回07-寸法
  6
CONTINUOUS
 62
     5
 10
2041.79416403866
 20
528.2666997606281
 30
0.0
 40
1.9689
  1
(INSULATION AREA)
  0
ENDBLK
  5
4AE
  8
回08-記事
  6
CONTINUOUS
 62
     7
  0
BLOCK
  8
回08-記事
  2
*X53
 70
     1
 10
0.0
 20
0.0
 30
0.0
  3
*X53
  1

  0
TEXT
  5
4B1
  8
回07-寸法
  6
CONTINUOUS
 62
     5
 10
2267.984009824131
 20
528.2667596667303
 30
0.0
 40
3.0
  1
3 [0.118]
  0
TEXT
  5
4B2
  8
回07-寸法
  6
CONTINUOUS
 62
     5
 10
2282.38400982413
 20
528.2667596667303
 30
0.0
 40
1.9689
  1
(INSULATION AREA)
  0
ENDBLK
  5
4B4
  8
回08-記事
  6
CONTINUOUS
 62
     7
  0
BLOCK
  8
回08-記事
  2
*X54
 70
     1
 10
0.0
 20
0.0
 30
0.0
  3
*X54
  1

  0
TEXT
  5
4B7
  8
回07-寸法
  6
CONTINUOUS
 62
     5
 10
2314.039020859769
 20
319.5992635751347
 30
0.0
 40
3.0
  1
6.4 [0.252]
 50
90.0
  0
TEXT
  5
4B8
  8
回07-寸法
  6
CONTINUOUS
 62
     5
 10
2314.039020859769
 20
338.4992635751348
 30
0.0
 40
1.9689
  1
(INSULATION AREA)
 50
90.0
  0
ENDBLK
  5
4BA
  8
回08-記事
  6
CONTINUOUS
 62
     7
  0
BLOCK
  8
回08-記事
  2
*X55
 70
     1
 10
0.0
 20
0.0
 30
0.0
  3
*X55
  1

  0
TEXT
  5
4BD
  8
回07-寸法
  6
CONTINUOUS
 62
     5
 10
2314.039020859769
 20
498.5688109767102
 30
0.0
 40
3.0
  1
6.3 [0.248]
 50
90.0
  0
TEXT
  5
4BE
  8
回07-寸法
  6
CONTINUOUS
 62
     5
 10
2314.039020859769
 20
517.4688109767102
 30
0.0
 40
1.9689
  1
(INSULATION AREA)
 50
90.0
  0
ENDBLK
  5
4C0
  8
回08-記事
  6
CONTINUOUS
 62
     7
  0
BLOCK
  8
回08-記事
  2
*X56
 70
     1
 10
0.0
 20
0.0
 30
0.0
  3
*X56
  1

  0
TEXT
  5
4C3
  8
回07-寸法
  6
CONTINUOUS
 62
     5
 10
2017.424803384386
 20
455.2799586508539
 30
0.0
 40
3.0
  1
75
  0
TEXT
  5
4C4
  8
回07-寸法
  6
CONTINUOUS
 62
     5
 10
2021.624803384387
 20
455.2799586508539
 30
0.0
 40
2.1
  1
±1
  0
TEXT
  5
4C5
  8
回07-寸法
  6
CONTINUOUS
 62
     5
 10
2024.144803384387
 20
455.2799586508539
 30
0.0
 40
3.0
  1
 [2.953
  0
TEXT
  5
4C6
  8
回07-寸法
  6
CONTINUOUS
 62
     5
 10
2036.455634489968
 20
455.2799586508539
 30
0.0
 40
2.1
  1
±0.039
  0
TEXT
  5
4C7
  8
回07-寸法
  6
CONTINUOUS
 62
     5
 10
2044.443216263874
 20
455.2799586508539
 30
0.0
 40
3.0
  1
]
  0
ENDBLK
  5
4C9
  8
回08-記事
  6
CONTINUOUS
 62
     7
  0
BLOCK
  8
回08-記事
  2
*X57
 70
     1
 10
0.0
 20
0.0
 30
0.0
  3
*X57
  1

  0
TEXT
  5
4CC
  8
回07-寸法
  6
CONTINUOUS
 62
     5
 10
1979.158553068671
 20
437.7788731401335
 30
0.0
 40
3.0
  1
5
 50
90.0
  0
TEXT
  5
4CD
  8
回07-寸法
  6
CONTINUOUS
 62
     5
 10
1979.158553068671
 20
439.8788731401334
 30
0.0
 40
2.1
  1
±0.1
 50
90.0
  0
TEXT
  5
4CE
  8
回07-寸法
  6
CONTINUOUS
 62
     5
 10
1979.158553068671
 20
444.4988731401333
 30
0.0
 40
3.0
  1
 [0.197
 50
90.0
  0
TEXT
  5
4CF
  8
回07-寸法
  6
CONTINUOUS
 62
     5
 10
1979.158553068671
 20
456.2097042457142
 30
0.0
 40
2.1
  1
±0.004
 50
90.0
  0
TEXT
  5
4D0
  8
回07-寸法
  6
CONTINUOUS
 62
     5
 10
1979.158553068671
 20
464.3997042457142
 30
0.0
 40
3.0
  1
]
 50
90.0
  0
ENDBLK
  5
4D2
  8
回08-記事
  6
CONTINUOUS
 62
     7
  0
ENDSEC
  0
SECTION
  2
ENTITIES
  0
TEXT
  5
5E
  8
回03-記事
  6
CONTINUOUS
 62
     5
 10
2109.988033086384
 20
242.7656160221844
 30
0.0
 40
4.8
  1
without affecting product specification.
  0
TEXT
  5
60
  8
回03-記事
  6
CONTINUOUS
 62
     5
 10
2109.988033086384
 20
251.1853217363843
 30
0.0
 40
4.8
  1
Edges and corners of ITO glass may be chamfered 
  0
TEXT
  5
61
  8
回03-記事
  6
CONTINUOUS
 62
     5
 10
2109.988033086384
 20
259.6050274505842
 30
0.0
 40
4.8
  1
Unit: mm
  0
TEXT
  5
62
  8
回03-記事
  6
CONTINUOUS
 62
     5
 10
2109.988033086384
 20
268.0247331647839
 30
0.0
 40
4.8
  1
EXCEPT WHERE INDICATED
  0
TEXT
  5
63
  8
回03-記事
  6
CONTINUOUS
 62
     5
 10
2109.988033086384
 20
276.4444388789836
 30
0.0
 40
4.8
  1
TOLERANCE=±0.5mm
  0
TEXT
  5
64
  8
回08-記事
  6
CONTINUOUS
 62
     5
 10
2039.774196171053
 20
336.3059698495697
 30
0.0
 40
3.0
  1
Tail information label
1001
ACAD
1000
MTEXTBEGIN
1070
    73
1070
     1
1070
    44
1040
1.0
1070
    74
1070
     0
1000
MTEXTEND
  0
INSERT
  5
65
  8
回08-記事
  6
CONTINUOUS
 62
     5
 66
     1
  2
*X37
 10
0.0
 20
0.0
 30
0.0
  0
SEQEND
  5
3C6
  8
回08-記事
  6
CONTINUOUS
 62
     7
  0
TEXT
  5
66
  8
回08-記事
  6
CONTINUOUS
 62
     5
 10
1960.97237442907
 20
306.7577573902927
 30
0.0
 40
3.0
  1
Trace Expose
1001
ACAD
1000
MTEXTBEGIN
1070
    73
1070
     1
1070
    44
1040
1.0
1070
    74
1070
     0
1000
MTEXTEND
  0
INSERT
  5
67
  8
回08-記事
  6
CONTINUOUS
 62
     8
 66
     1
  2
*X38
 10
0.0
 20
0.0
 30
0.0
  0
SEQEND
  5
3CD
  8
回08-記事
  6
CONTINUOUS
 62
     7
  0
CIRCLE
  5
68
  8
回08-記事
  6
CONTINUOUS
 62
     5
 10
1994.968951801284
 20
430.1790471971823
 30
0.0
 40
7.742816109002717
  0
TEXT
  5
69
  8
回08-記事
  6
CONTINUOUS
 62
     5
 10
2040.827964447382
 20
330.9710402400133
 30
0.0
 40
3.0
  1
QST-085WA075H
1001
ACAD
1000
MTEXTBEGIN
1070
    73
1070
     1
1070
    44
1040
1.0
1070
    74
1070
     0
1000
MTEXTEND
  0
TEXT
  5
6A
  8
回07-寸法
  6
CONTINUOUS
 62
     5
 10
2003.336245180983
 20
439.953803166876
 30
0.0
 40
3.0
  1
A
1001
ACAD
1000
MTEXTBEGIN
1070
    73
1070
     1
1070
    44
1040
1.0
1070
    74
1070
     0
1000
MTEXTEND
  0
INSERT
  5
6F
  8
回07-寸法
  6
CONTINUOUS
 62
     7
 66
     1
  2
*X39
 10
0.0
 20
0.0
 30
0.0
  0
SEQEND
  5
3D4
  8
回08-記事
  6
CONTINUOUS
 62
     7
  0
POLYLINE
  5
70
  8
回07-寸法
  6
CONTINUOUS
 62
     7
 66
     1
 10
0.0
 20
0.0
 30
0.0
 70
     1
  0
VERTEX
  5
3D5
  8
回07-寸法
  6
CONTINUOUS
 62
     7
 10
2017.511988472245
 20
317.2533587447276
 30
0.0
  0
VERTEX
  5
3D7
  8
回07-寸法
  6
CONTINUOUS
 62
     7
 10
2043.511988472245
 20
317.2533587447276
 30
0.0
  0
VERTEX
  5
3D8
  8
回07-寸法
  6
CONTINUOUS
 62
     7
 10
2043.511988472245
 20
318.2533587447276
 30
0.0
  0
VERTEX
  5
3D9
  8
回07-寸法
  6
CONTINUOUS
 62
     7
 10
2017.511988472245
 20
318.2533587447276
 30
0.0
  0
SEQEND
  5
3D6
  8
回08-記事
  6
CONTINUOUS
 62
     7
  0
DIMENSION
  5
71
  8
回07-寸法
  6
CONTINUOUS
 62
     3
  2
*D1
 10
2324.86590434655
 20
365.8290471971826
 30
0.0
 11
2322.71590434655
 21
430.1290471971817
 31
0.0
 70
     0
  3
DMC
 13
2263.93400982413
 23
494.4290471971823
 33
0.0
 14
2263.93400982413
 24
365.8290471971825
 34
0.0
 50
90.0
1001
ACAD
1000
DSTYLE
1002
{
1070
    47
1040
0.3
1070
    48
1040
0.3
1070
    71
1070
     1
1070
   170
1070
     1
1070
   371
1070
     9
1070
   372
1070
     9
1002
}
  0
DIMENSION
  5
7F
  8
回07-寸法
  6
CONTINUOUS
 62
     7
  2
*D30
 10
2314.689020859769
 20
494.4290471971826
 30
0.0
 11
2314.689020859769
 21
519.61382089797
 31
0.0
 70
   128
  1
<>{\H0.6563x;(INSULATION AREA)}
  3
DMC
 13
2260.93400982413
 23
488.1290471971824
 33
0.0
 14
2263.93400982413
 24
494.4290471971823
 34
0.0
 50
90.0
1001
ACAD
1000
DSTYLE
1002
{
1070
   170
1070
     1
1070
   371
1070
     9
1070
   372
1070
     9
1002
}
  0
DIMENSION
  5
90
  8
回07-寸法
  6
CONTINUOUS
 62
     7
  2
*D29
 10
2305.275402483997
 20
494.4290471971826
 30
0.0
 11
2305.275402483996
 21
508.9778660948204
 31
0.0
 70
   128
  1
(<>)
  3
DMC
 13
2260.43400982413
 23
487.6290471971824
 33
0.0
 14
2263.93400982413
 24
494.4290471971823
 34
0.0
 50
90.0
1001
ACAD
1000
DSTYLE
1002
{
1070
   170
1070
     1
1070
   371
1070
     9
1070
   372
1070
     9
1002
}
  0
DIMENSION
  5
A1
  8
回07-寸法
  6
CONTINUOUS
 62
     7
  2
*D28
 10
2295.861791778229
 20
494.4290471971826
 30
0.0
 11
2295.861791778229
 21
508.8278660948204
 31
0.0
 70
   128
  1
(<>)
  3
DMC
 13
2259.43400982413
 23
486.0290471971825
 33
0.0
 14
2263.93400982413
 24
494.4290471971823
 34
0.0
 50
90.0
1001
ACAD
1000
DSTYLE
1002
{
1070
   170
1070
     1
1070
   371
1070
     9
1070
   372
1070
     9
1002
}
  0
DIMENSION
  5
B2
  8
回07-寸法
  6
CONTINUOUS
 62
     7
  2
*D27
 10
2314.689020859769
 20
365.8290471971826
 30
0.0
 11
2314.689020859769
 21
340.6442734963945
 31
0.0
 70
   128
  1
<>{\H0.6563x;(INSULATION AREA)}
  3
DMC
 13
2260.93400982413
 23
372.2290471971826
 33
0.0
 14
2263.93400982413
 24
365.8290471971825
 34
0.0
 50
90.0
1001
ACAD
1000
DSTYLE
1002
{
1070
   170
1070
     1
1070
   371
1070
     9
1070
   372
1070
     9
1002
}
  0
DIMENSION
  5
C3
  8
回07-寸法
  6
CONTINUOUS
 62
     7
  2
*D26
 10
2305.275402483997
 20
365.8290471971826
 30
0.0
 11
2305.275402483996
 21
352.384041921913
 31
0.0
 70
   128
  3
DMC
 13
2260.43400982413
 23
372.7290471971826
 33
0.0
 14
2263.93400982413
 24
365.8290471971825
 34
0.0
 50
90.0
1001
ACAD
1000
DSTYLE
1002
{
1070
   170
1070
     1
1070
   371
1070
     9
1070
   372
1070
     9
1002
}
  0
DIMENSION
  5
D4
  8
回07-寸法
  6
CONTINUOUS
 62
     7
  2
*D25
 10
2295.861791778229
 20
365.8290471971826
 30
0.0
 11
2295.861791778229
 21
352.4790471971819
 31
0.0
 70
   128
  3
DMC
 13
2259.43400982413
 23
374.3290471971825
 33
0.0
 14
2263.93400982413
 24
365.8290471971825
 34
0.0
 50
90.0
1001
ACAD
1000
DSTYLE
1002
{
1070
   170
1070
     1
1070
   371
1070
     9
1070
   372
1070
     9
1002
}
  0
DIMENSION
  5
E5
  8
回07-寸法
  6
CONTINUOUS
 62
     7
  2
*D24
 10
2314.689020859771
 20
488.1290471971826
 30
0.0
 11
2312.53902085977
 21
430.1790471971819
 31
0.0
 70
     0
  3
DMC
 13
2260.93400982413
 23
372.2290471971826
 33
0.0
 14
2260.93400982413
 24
488.1290471971824
 34
0.0
 50
90.0
1001
ACAD
1000
DSTYLE
1002
{
1070
   170
1070
     1
1070
   371
1070
     9
1070
   372
1070
     9
1002
}
  0
DIMENSION
  5
F4
  8
回07-寸法
  6
CONTINUOUS
 62
     7
  2
*D23
 10
2305.275402483998
 20
487.6290471971826
 30
0.0
 11
2302.771036953936
 21
430.1790471971819
 31
0.0
 70
     0
  1
<>(Viewing area)
  3
DMC
 13
2260.43400982413
 23
372.7290471971826
 33
0.0
 14
2260.43400982413
 24
487.6290471971824
 34
0.0
 50
90.0
1001
ACAD
1000
DSTYLE
1002
{
1070
   170
1070
     1
1070
   371
1070
     9
1070
   372
1070
     9
1002
}
  0
DIMENSION
  5
103
  8
回07-寸法
  6
CONTINUOUS
 62
     7
  2
*D22
 10
2295.86179177823
 20
374.3290471971826
 30
0.0
 11
2293.7110667397
 21
430.1790471971819
 31
0.0
 70
     0
  1
<>(Active area)
  3
DMC
 13
2259.43400982413
 23
486.0290471971825
 33
0.0
 14
2259.43400982413
 24
374.3290471971825
 34
0.0
 50
90.0
1001
ACAD
1000
DSTYLE
1002
{
1070
   170
1070
     1
1070
   371
1070
     9
1070
   372
1070
     9
1002
}
  0
DIMENSION
  5
112
  8
回07-寸法
  6
CONTINUOUS
 62
     7
  2
*D21
 10
2263.93400982413
 20
527.6167596667303
 30
0.0
 11
2286.77901974539
 21
529.7667596667302
 31
0.0
 70
     0
  1
<>{\H0.6563x;(INSULATION AREA)}
  3
DMC
 13
2260.93400982413
 23
488.1290471971824
 33
0.0
 14
2263.93400982413
 24
494.4290471971823
 34
0.0
1001
ACAD
1000
DSTYLE
1002
{
1070
   170
1070
     1
1070
   371
1070
     9
1070
   372
1070
     9
1002
}
  0
DIMENSION
  5
123
  8
回07-寸法
  6
CONTINUOUS
 62
     7
  2
*D20
 10
2263.93400982413
 20
519.2105842313492
 30
0.0
 11
2278.182828721768
 21
521.3605842313492
 31
0.0
 70
     0
  1
(<>)
  3
DMC
 13
2260.43400982413
 23
487.6290471971824
 33
0.0
 14
2263.93400982413
 24
494.4290471971823
 34
0.0
1001
ACAD
1000
DSTYLE
1002
{
1070
   170
1070
     1
1070
   371
1070
     9
1070
   372
1070
     9
1002
}
  0
DIMENSION
  5
134
  8
回07-寸法
  6
CONTINUOUS
 62
     7
  2
*D19
 10
2263.93400982413
 20
511.1289533835203
 30
0.0
 11
2278.332828721768
 21
513.2789533835204
 31
0.0
 70
     0
  1
(<>)
  3
DMC
 13
2259.43400982413
 23
486.0290471971825
 33
0.0
 14
2263.93400982413
 24
494.4290471971823
 34
0.0
1001
ACAD
1000
DSTYLE
1002
{
1070
   170
1070
     1
1070
   371
1070
     9
1070
   372
1070
     9
1002
}
  0
DIMENSION
  5
145
  8
回07-寸法
  6
CONTINUOUS
 62
     7
  2
*D18
 10
2069.034009824131
 20
527.6167596667303
 30
0.0
 11
2045.883758407129
 21
529.7674847052599
 31
0.0
 70
     0
  1
<>{\H0.6563x;(INSULATION AREA)}
  3
DMC
 13
2074.03400982413
 23
488.1290471971824
 33
0.0
 14
2069.034009824131
 24
494.4290471971823
 34
0.0
1001
ACAD
1000
DSTYLE
1002
{
1070
   170
1070
     1
1070
   371
1070
     9
1070
   372
1070
     9
1002
}
  0
DIMENSION
  5
156
  8
回07-寸法
  6
CONTINUOUS
 62
     7
  2
*D17
 10
2069.034009824131
 20
519.2105842313492
 30
0.0
 11
2055.98400982413
 21
519.2105842313492
 31
0.0
 70
   128
  3
DMC
 13
2074.53400982413
 23
487.6290471971824
 33
0.0
 14
2069.034009824131
 24
494.4290471971823
 34
0.0
1001
ACAD
1000
DSTYLE
1002
{
1070
   170
1070
     1
1070
   371
1070
     9
1070
   372
1070
     9
1002
}
  0
DIMENSION
  5
167
  8
回07-寸法
  6
CONTINUOUS
 62
     7
  2
*D16
 10
2069.034009824131
 20
511.1289533835203
 30
0.0
 11
2055.594246044603
 21
511.1289533835203
 31
0.0
 70
   128
  3
DMC
 13
2075.534009824131
 23
486.0290471971825
 33
0.0
 14
2069.034009824131
 24
494.4290471971823
 34
0.0
1001
ACAD
1000
DSTYLE
1002
{
1070
   170
1070
     1
1070
   371
1070
     9
1070
   372
1070
     9
1002
}
  0
DIMENSION
  5
178
  8
回07-寸法
  6
CONTINUOUS
 62
     3
  2
*D15
 10
2263.93400982413
 20
535.8297695362532
 30
0.0
 11
2166.48400982413
 21
537.9797695362532
 31
0.0
 70
     0
  3
DMC
 13
2069.034009824131
 23
494.4290471971823
 33
0.0
 14
2263.93400982413
 24
494.4290471971823
 34
0.0
1001
ACAD
1000
DSTYLE
1002
{
1070
    47
1040
0.3
1070
    48
1040
0.3
1070
    71
1070
     1
1070
   170
1070
     1
1070
   371
1070
     9
1070
   372
1070
     9
1002
}
  0
DIMENSION
  5
185
  8
回07-寸法
  6
CONTINUOUS
 62
     7
  2
*D14
 10
2260.93400982413
 20
527.6167596667303
 30
0.0
 11
2167.48400982413
 21
529.7667596667302
 31
0.0
 70
     0
  3
DMC
 13
2074.03400982413
 23
488.1290471971824
 33
0.0
 14
2260.93400982413
 24
488.1290471971824
 34
0.0
1001
ACAD
1000
DSTYLE
1002
{
1070
   170
1070
     1
1070
   371
1070
     9
1070
   372
1070
     9
1002
}
  0
DIMENSION
  5
194
  8
回07-寸法
  6
CONTINUOUS
 62
     7
  2
*D13
 10
2260.43400982413
 20
519.2105842313492
 30
0.0
 11
2167.48400982413
 21
521.7149497614107
 31
0.0
 70
     0
  1
<>(Viewing area)
  3
DMC
 13
2074.53400982413
 23
487.6290471971824
 33
0.0
 14
2260.43400982413
 24
487.6290471971824
 34
0.0
1001
ACAD
1000
DSTYLE
1002
{
1070
   170
1070
     1
1070
   371
1070
     9
1070
   372
1070
     9
1002
}
  0
DIMENSION
  5
1A3
  8
回07-寸法
  6
CONTINUOUS
 62
     7
  2
*D12
 10
2259.43400982413
 20
511.1289533835203
 30
0.0
 11
2167.48400982413
 21
513.2789533835204
 31
0.0
 70
     0
  1
<>(Active area)
  3
DMC
 13
2075.534009824131
 23
486.0290471971825
 33
0.0
 14
2259.43400982413
 24
486.0290471971825
 34
0.0
1001
ACAD
1000
DSTYLE
1002
{
1070
   170
1070
     1
1070
   371
1070
     9
1070
   372
1070
     9
1002
}
  0
POLYLINE
  5
1B2
  8
回08-記事
  6
CONTINUOUS
 62
     7
 66
     1
 10
0.0
 20
0.0
 30
0.0
 70
     1
  0
VERTEX
  5
3DA
  8
回08-記事
  6
CONTINUOUS
 62
     7
 10
2075.534009824131
 20
374.3290471971825
 30
0.0
  0
VERTEX
  5
3DC
  8
回08-記事
  6
CONTINUOUS
 62
     7
 10
2259.43400982413
 20
374.3290471971825
 30
0.0
  0
VERTEX
  5
3DD
  8
回08-記事
  6
CONTINUOUS
 62
     7
 10
2259.43400982413
 20
486.0290471971825
 30
0.0
  0
VERTEX
  5
3DE
  8
回08-記事
  6
CONTINUOUS
 62
     7
 10
2075.534009824131
 20
486.0290471971825
 30
0.0
  0
SEQEND
  5
3DB
  8
回08-記事
  6
CONTINUOUS
 62
     7
  0
TEXT
  5
1B3
  8
回08-記事
  6
CONTINUOUS
 62
     5
 10
2216.616719467093
 20
356.3931476874725
 30
0.0
 40
3.0
  1
QST-085WA
  0
TEXT
  5
1B4
  8
回08-記事
  6
CONTINUOUS
 62
     5
 10
2217.527112952974
 20
361.0456833240926
 30
0.0
 40
3.0
  1
Pert No.
1001
ACAD
1000
MTEXTBEGIN
1070
    73
1070
     1
1070
    44
1040
1.0
1070
    74
1070
     0
1000
MTEXTEND
  0
INSERT
  5
1B5
  8
回08-記事
  6
CONTINUOUS
 62
     5
 66
     1
  2
*X40
 10
0.0
 20
0.0
 30
0.0
  0
SEQEND
  5
3E5
  8
回08-記事
  6
CONTINUOUS
 62
     7
  0
TEXT
  5
1B6
  8
回08-記事
  6
CONTINUOUS
 62
     7
 10
2234.722275151616
 20
366.4244308027658
 30
0.0
 40
1.3
  1
QST-085WA
  0
TEXT
  5
1B7
  8
回08-記事
  6
CONTINUOUS
 62
     5
 10
2073.31502949555
 20
305.3585475673742
 30
0.0
 40
3.0
  1
PROTECTION TAPE
  0
LINE
  5
1B8
  8
回08-記事
  6
CONTINUOUS
 62
     5
 10
2072.151413184203
 20
308.7614048688063
 30
0.0
 11
2068.444860861695
 21
313.3623830405429
 31
0.0
  0
TEXT
  5
1B9
  8
回08-記事
  6
CONTINUOUS
 62
     5
 10
2009.101458412244
 20
320.5694601006442
 30
0.0
 40
3.0
  1
STIFFENER
  0
LINE
  5
1BA
  8
回08-記事
  6
CONTINUOUS
 62
     5
 10
2003.36256742384
 20
318.0476590459055
 30
0.0
 11
2008.007665044065
 21
320.7320548029409
 31
0.0
  0
LINE
  5
1BB
  8
回08-記事
  6
CONTINUOUS
 62
     5
 10
2060.483515047737
 20
317.94803785812
 30
0.0
 11
2051.446214296007
 21
299.5471993797
 31
0.0
  0
TEXT
  5
1BC
  8
回08-記事
  6
CONTINUOUS
 62
     5
 10
2048.645918834776
 20
294.3219681045639
 30
0.0
 40
3.0
  1
REINFORCEMENT FILM
  0
LINE
  5
1BD
  8
回08-記事
  6
CONTINUOUS
 62
     5
 10
2054.889831163821
 20
315.8812417700381
 30
0.0
 11
2051.446214296007
 21
299.5471993797
 31
0.0
  0
TEXT
  5
1BE
  8
回08-記事
  6
CONTINUOUS
 62
     5
 10
2049.873813509996
 20
323.1391439446695
 30
0.0
 40
3.0
  1
TAIL
  0
LINE
  5
1BF
  8
回08-記事
  6
CONTINUOUS
 62
     5
 10
2048.947727213365
 20
316.9696651732827
 30
0.0
 11
2050.469150290851
 21
322.2135134091102
 31
0.0
  0
TEXT
  5
1C0
  8
回08-記事
  6
CONTINUOUS
 62
     5
 10
2173.432437340906
 20
305.5521810008274
 30
0.0
 40
3.0
  1
ITO GLASS
  0
TEXT
  5
1C1
  8
回08-記事
  6
CONTINUOUS
 62
     5
 10
2168.537425452413
 20
323.1391439446695
 30
0.0
 40
3.0
  1
ITO FILM (ANTI-GLARE(ANR))
  0
LINE
  5
1C2
  8
回08-記事
  6
CONTINUOUS
 62
     5
 10
2173.300140278493
 20
314.5440131040657
 30
0.0
 11
2174.358523637538
 21
309.9158647342163
 31
0.0
  0
LINE
  5
1C3
  8
回08-記事
  6
CONTINUOUS
 62
     5
 10
2167.611339155782
 20
318.312644943501
 30
0.0
 11
2169.132762233268
 21
322.2135134091102
 31
0.0
  0
TEXT
  5
1C4
  8
回08-記事
  6
CONTINUOUS
 62
     5
 10
2028.173691996276
 20
307.3528007650136
 30
0.0
 40
3.0
  1
LOT LABEL
1001
ACAD
1000
MTEXTBEGIN
1070
    73
1070
     1
1070
    44
1040
1.0
1070
    74
1070
     0
1000
MTEXTEND
  0
INSERT
  5
1C5
  8
回08-記事
  6
CONTINUOUS
 62
     5
 66
     1
  2
*X41
 10
0.0
 20
0.0
 30
0.0
  0
SEQEND
  5
3EC
  8
回08-記事
  6
CONTINUOUS
 62
     7
  0
POLYLINE
  5
1C6
  8
回08-記事
  6
DASHED2
 62
     7
 66
     1
 10
0.0
 20
0.0
 30
0.0
 70
     1
  0
VERTEX
  5
3ED
  8
回08-記事
  6
DASHED2
 62
     7
 10
2074.03400982413
 20
372.2290471971826
 30
0.0
  0
VERTEX
  5
3EF
  8
回08-記事
  6
DASHED2
 62
     7
 10
2260.93400982413
 20
372.2290471971826
 30
0.0
  0
VERTEX
  5
3F0
  8
回08-記事
  6
DASHED2
 62
     7
 10
2260.93400982413
 20
488.1290471971824
 30
0.0
  0
VERTEX
  5
3F1
  8
回08-記事
  6
DASHED2
 62
     7
 10
2074.03400982413
 20
488.1290471971824
 30
0.0
  0
SEQEND
  5
3EE
  8
回08-記事
  6
CONTINUOUS
 62
     7
  0
DIMENSION
  5
1C8
  8
回07-寸法
  6
CONTINUOUS
 62
     5
  2
*D11
 10
2263.63400982413
 20
325.2376633466708
 30
0.0
 11
2249.385190926492
 21
327.3876633466708
 31
0.0
 70
     0
  1
(<>)
  3
DMC
 13
2263.93400982413
 23
316.2533587447276
 33
0.0
 14
2263.63400982413
 24
318.7533587447276
 34
0.0
1001
ACAD
1000
DSTYLE
1002
{
1070
   170
1070
     1
1070
   371
1070
     9
1070
   372
1070
     9
1002
}
  0
DIMENSION
  5
1D9
  8
回07-寸法
  6
CONTINUOUS
 62
     5
  2
*D10
 10
2069.334009824131
 20
325.2376633466708
 30
0.0
 11
2083.582828721768
 21
327.3876633466708
 31
0.0
 70
     0
  1
(<>)
  3
DMC
 13
2069.034009824131
 23
316.2533587447276
 33
0.0
 14
2069.334009824131
 24
318.7533587447276
 34
0.0
1001
ACAD
1000
DSTYLE
1002
{
1070
   170
1070
     1
1070
   371
1070
     9
1070
   372
1070
     9
1002
}
  0
POLYLINE
  5
1EA
  8
回07-寸法
  6
CONTINUOUS
 62
     7
 66
     1
 10
0.0
 20
0.0
 30
0.0
 70
     1
  0
VERTEX
  5
3F2
  8
回07-寸法
  6
CONTINUOUS
 62
     7
 10
2017.511988472245
 20
315.2533587447276
 30
0.0
  0
VERTEX
  5
3F4
  8
回07-寸法
  6
CONTINUOUS
 62
     7
 10
2043.511988472245
 20
315.2533587447276
 30
0.0
  0
VERTEX
  5
3F5
  8
回07-寸法
  6
CONTINUOUS
 62
     7
 10
2043.511988472245
 20
314.2533587447276
 30
0.0
  0
VERTEX
  5
3F6
  8
回07-寸法
  6
CONTINUOUS
 62
     7
 10
2017.511988472245
 20
314.2533587447276
 30
0.0
  0
SEQEND
  5
3F3
  8
回08-記事
  6
CONTINUOUS
 62
     7
  0
POLYLINE
  5
1EB
  8
回08-記事
  6
CONTINUOUS
 62
     8
 66
     1
 10
0.0
 20
0.0
 30
0.0
 70
     1
1001
ACAD
1000
ASC_BOUNDS
1002
{
1070
    19
1005
1EC
1002
}
  0
VERTEX
  5
3F7
  8
回08-記事
  6
CONTINUOUS
 62
     8
 10
2018.011988472245
 20
427.9290471971823
 30
0.0
  0
VERTEX
  5
3F9
  8
回08-記事
  6
CONTINUOUS
 62
     8
 10
2043.011988472246
 20
427.9290471971823
 30
0.0
 42
0.4142135623730951
  0
VERTEX
  5
3FA
  8
回08-記事
  6
CONTINUOUS
 62
     8
 10
2043.511988472245
 20
428.4290471971823
 30
0.0
  0
VERTEX
  5
3FB
  8
回08-記事
  6
CONTINUOUS
 62
     8
 10
2043.511988472245
 20
431.9290471971823
 30
0.0
 42
0.4142135623730951
  0
VERTEX
  5
3FC
  8
回08-記事
  6
CONTINUOUS
 62
     8
 10
2043.011988472246
 20
432.4290471971823
 30
0.0
  0
VERTEX
  5
3FD
  8
回08-記事
  6
CONTINUOUS
 62
     8
 10
2018.011988472245
 20
432.4290471971823
 30
0.0
 42
0.4142135623730951
  0
VERTEX
  5
3FE
  8
回08-記事
  6
CONTINUOUS
 62
     8
 10
2017.511988472245
 20
431.9290471971823
 30
0.0
  0
VERTEX
  5
3FF
  8
回08-記事
  6
CONTINUOUS
 62
     8
 10
2017.511988472245
 20
428.4290471971823
 30
0.0
 42
0.4142135623730971
  0
SEQEND
  5
3F8
  8
回08-記事
  6
CONTINUOUS
 62
     7
  0
INSERT
  5
1EC
  8
回08-記事
  6
CONTINUOUS
 62
     8
 66
     1
  2
*X42
 10
0.0
 20
0.0
 30
0.0
1001
ACAD
1010
0.0
1020
0.0
1030
0.0
  0
SEQEND
  5
40E
  8
回08-記事
  6
CONTINUOUS
 62
     7
  0
TEXT
  5
1ED
  8
回08-記事
  6
CONTINUOUS
 62
     5
 10
1993.592739383624
 20
433.5787752907797
 30
0.0
 40
3.0
  1
4
 50
90.0
  0
TEXT
  5
1EE
  8
回08-記事
  6
CONTINUOUS
 62
     5
 10
1993.592739383624
 20
425.3744505036823
 30
0.0
 40
3.0
  1
1
 50
90.0
  0
DIMENSION
  5
1EF
  8
回07-寸法
  6
CONTINUOUS
 62
    40
  2
*D9
 10
2274.043804525748
 20
318.7533587447277
 30
0.0
 11
2271.893804525747
 21
337.1470007916496
 31
0.0
 70
     0
  1
2.1{\H0.6667x;±0.2}[0.079{\H0.6667x;±0.008}]
  3
DMC
 13
2263.93400982413
 23
313.7533587447276
 33
0.0
 14
2263.63400982413
 24
318.7533587447276
 34
0.0
 50
90.0
1001
ACAD
1000
DSTYLE
1002
{
1070
   170
1070
     1
1070
   371
1070
     9
1070
   372
1070
     9
1002
}
  0
POLYLINE
  5
200
  8
回08-記事
  6
CONTINUOUS
 62
     7
 66
     1
 10
0.0
 20
0.0
 30
0.0
1001
ACAD
1000
ASC_BOUNDS
1002
{
1070
    19
1005
201
1002
}
  0
VERTEX
  5
40F
  8
回08-記事
  6
CONTINUOUS
 62
     7
 10
2064.93400982413
 20
314.2533587447276
 30
0.0
  0
VERTEX
  5
411
  8
回08-記事
  6
CONTINUOUS
 62
     7
 10
2068.034009824131
 20
314.2533587447276
 30
0.0
  0
VERTEX
  5
412
  8
回08-記事
  6
CONTINUOUS
 62
     7
 10
2068.034009824131
 20
312.7533587447276
 30
0.0
  0
VERTEX
  5
413
  8
回08-記事
  6
CONTINUOUS
 62
     7
 10
2073.13400982413
 20
312.7533587447276
 30
0.0
  0
VERTEX
  5
414
  8
回08-記事
  6
CONTINUOUS
 62
     7
 10
2073.13400982413
 20
313.7533587447276
 30
0.0
  0
VERTEX
  5
415
  8
回08-記事
  6
CONTINUOUS
 62
     7
 10
2069.034009824131
 20
313.7533587447276
 30
0.0
  0
VERTEX
  5
416
  8
回08-記事
  6
CONTINUOUS
 62
     7
 10
2069.034009824131
 20
315.2533587447276
 30
0.0
  0
VERTEX
  5
417
  8
回08-記事
  6
CONTINUOUS
 62
     7
 10
2064.93400982413
 20
315.2533587447276
 30
0.0
  0
VERTEX
  5
418
  8
回08-記事
  6
CONTINUOUS
 62
     7
 10
2064.93400982413
 20
314.2533587447276
 30
0.0
  0
SEQEND
  5
410
  8
回08-記事
  6
CONTINUOUS
 62
     7
  0
INSERT
  5
201
  8
回08-記事
  6
CONTINUOUS
 62
     7
 66
     1
  2
*X43
 10
0.0
 20
0.0
 30
0.0
1001
ACAD
1010
0.0
1020
0.0
1030
0.0
  0
SEQEND
  5
421
  8
回08-記事
  6
CONTINUOUS
 62
     7
  0
DIMENSION
  5
202
  8
回07-寸法
  6
CONTINUOUS
 62
     7
  2
*D8
 10
1984.049559076832
 20
318.7533587447277
 30
0.0
 11
1984.049559076831
 21
338.8209837705963
 31
0.0
 70
   128
  1
0.3{\H0.6667x;±0.05}[0.012{\H0.6667x;±0.002}]
  3
DMC
 13
1993.83400982413
 23
316.2533587447276
 33
0.0
 14
1993.83400982413
 24
318.7533587447276
 34
0.0
 50
90.0
1001
ACAD
1000
DSTYLE
1002
{
1070
   170
1070
     1
1070
   371
1070
     9
1070
   372
1070
     9
1002
}
  0
DIMENSION
  5
213
  8
回07-寸法
  6
CONTINUOUS
 62
     7
  2
*D7
 10
1993.83400982413
 20
326.3972947444038
 30
0.0
 11
2017.78807021751
 21
326.3972947444038
 31
0.0
 70
   128
  1
(<>)
  3
DMC
 13
2003.834009824131
 23
318.7533587447276
 33
0.0
 14
1993.83400982413
 24
318.7533587447276
 34
0.0
1001
ACAD
1000
DSTYLE
1002
{
1070
   170
1070
     1
1070
   371
1070
     9
1070
   372
1070
     9
1002
}
  0
DIMENSION
  5
224
  8
回07-寸法
  6
CONTINUOUS
 62
     7
  2
*D6
 10
1998.83400982413
 20
305.7329011107477
 30
0.0
 11
2010.389251319872
 21
305.7329011107477
 31
0.0
 70
   128
  3
DMC
 13
1993.83400982413
 23
316.2533587447276
 33
0.0
 14
1998.83400982413
 24
315.2533587447276
 34
0.0
1001
ACAD
1000
DSTYLE
1002
{
1070
   170
1070
     1
1070
   371
1070
     9
1070
   372
1070
     9
1002
}
  0
ARC
  5
235
  8
回08-記事
  6
CONTINUOUS
 62
     7
 10
2257.572489649749
 20
316.2533587447276
 30
0.0
 40
0.5
 50
0.0
 51
180.0
  0
ARC
  5
236
  8
回08-記事
  6
CONTINUOUS
 62
     7
 10
2254.072489649749
 20
316.2533587447276
 30
0.0
 40
0.5
 50
0.0
 51
180.0
  0
ARC
  5
237
  8
回08-記事
  6
CONTINUOUS
 62
     7
 10
2250.572489649749
 20
316.2533587447276
 30
0.0
 40
0.5
 50
0.0
 51
180.0
  0
ARC
  5
238
  8
回08-記事
  6
CONTINUOUS
 62
     7
 10
2247.072489649749
 20
316.2533587447276
 30
0.0
 40
0.5
 50
0.0
 51
180.0
  0
ARC
  5
239
  8
回08-記事
  6
CONTINUOUS
 62
     7
 10
2243.572489649749
 20
316.2533587447276
 30
0.0
 40
0.5
 50
0.0
 51
180.0
  0
ARC
  5
23A
  8
回08-記事
  6
CONTINUOUS
 62
     7
 10
2240.072489649749
 20
316.2533587447276
 30
0.0
 40
0.5
 50
0.0
 51
180.0
  0
ARC
  5
23B
  8
回08-記事
  6
CONTINUOUS
 62
     7
 10
2236.572489649748
 20
316.2533587447276
 30
0.0
 40
0.5
 50
0.0
 51
180.0
  0
ARC
  5
23C
  8
回08-記事
  6
CONTINUOUS
 62
     7
 10
2233.072489649749
 20
316.2533587447276
 30
0.0
 40
0.5
 50
0.0
 51
180.0
  0
ARC
  5
23D
  8
回08-記事
  6
CONTINUOUS
 62
     7
 10
2229.572489649749
 20
316.2533587447276
 30
0.0
 40
0.5
 50
0.0
 51
180.0
  0
ARC
  5
23E
  8
回08-記事
  6
CONTINUOUS
 62
     7
 10
2226.072489649749
 20
316.2533587447276
 30
0.0
 40
0.5
 50
0.0
 51
180.0
  0
ARC
  5
23F
  8
回08-記事
  6
CONTINUOUS
 62
     7
 10
2222.572489649749
 20
316.2533587447276
 30
0.0
 40
0.5
 50
0.0
 51
180.0
  0
ARC
  5
240
  8
回08-記事
  6
CONTINUOUS
 62
     7
 10
2219.072489649748
 20
316.2533587447276
 30
0.0
 40
0.5
 50
0.0
 51
180.0
  0
ARC
  5
241
  8
回08-記事
  6
CONTINUOUS
 62
     7
 10
2215.572489649749
 20
316.2533587447276
 30
0.0
 40
0.5
 50
0.0
 51
180.0
  0
ARC
  5
242
  8
回08-記事
  6
CONTINUOUS
 62
     7
 10
2212.072489649749
 20
316.2533587447276
 30
0.0
 40
0.5
 50
0.0
 51
180.0
  0
ARC
  5
243
  8
回08-記事
  6
CONTINUOUS
 62
     7
 10
2208.572489649748
 20
316.2533587447276
 30
0.0
 40
0.5
 50
0.0
 51
180.0
  0
ARC
  5
244
  8
回08-記事
  6
CONTINUOUS
 62
     7
 10
2205.072489649749
 20
316.2533587447276
 30
0.0
 40
0.5
 50
0.0
 51
180.0
  0
ARC
  5
245
  8
回08-記事
  6
CONTINUOUS
 62
     7
 10
2201.572489649748
 20
316.2533587447276
 30
0.0
 40
0.5
 50
0.0
 51
180.0
  0
ARC
  5
246
  8
回08-記事
  6
CONTINUOUS
 62
     7
 10
2198.072489649749
 20
316.2533587447276
 30
0.0
 40
0.5
 50
0.0
 51
180.0
  0
ARC
  5
247
  8
回08-記事
  6
CONTINUOUS
 62
     7
 10
2194.572489649749
 20
316.2533587447276
 30
0.0
 40
0.5
 50
0.0
 51
180.0
  0
ARC
  5
248
  8
回08-記事
  6
CONTINUOUS
 62
     7
 10
2191.072489649749
 20
316.2533587447276
 30
0.0
 40
0.5
 50
0.0
 51
180.0
  0
ARC
  5
249
  8
回08-記事
  6
CONTINUOUS
 62
     7
 10
2187.572489649749
 20
316.2533587447276
 30
0.0
 40
0.5
 50
0.0
 51
180.0
  0
ARC
  5
24A
  8
回08-記事
  6
CONTINUOUS
 62
     7
 10
2184.072489649749
 20
316.2533587447276
 30
0.0
 40
0.5
 50
0.0
 51
180.0
  0
ARC
  5
24B
  8
回08-記事
  6
CONTINUOUS
 62
     7
 10
2180.572489649749
 20
316.2533587447276
 30
0.0
 40
0.5
 50
0.0
 51
180.0
  0
ARC
  5
24C
  8
回08-記事
  6
CONTINUOUS
 62
     7
 10
2177.072489649749
 20
316.2533587447276
 30
0.0
 40
0.5
 50
0.0
 51
180.0
  0
ARC
  5
24D
  8
回08-記事
  6
CONTINUOUS
 62
     7
 10
2173.572489649749
 20
316.2533587447276
 30
0.0
 40
0.5
 50
0.0
 51
180.0
  0
ARC
  5
24E
  8
回08-記事
  6
CONTINUOUS
 62
     7
 10
2170.072489649749
 20
316.2533587447276
 30
0.0
 40
0.5
 50
0.0
 51
180.0
  0
ARC
  5
24F
  8
回08-記事
  6
CONTINUOUS
 62
     7
 10
2166.572489649749
 20
316.2533587447276
 30
0.0
 40
0.5
 50
0.0
 51
180.0
  0
ARC
  5
250
  8
回08-記事
  6
CONTINUOUS
 62
     7
 10
2163.072489649749
 20
316.2533587447276
 30
0.0
 40
0.5
 50
0.0
 51
180.0
  0
ARC
  5
251
  8
回08-記事
  6
CONTINUOUS
 62
     7
 10
2159.572489649749
 20
316.2533587447276
 30
0.0
 40
0.5
 50
0.0
 51
180.0
  0
ARC
  5
252
  8
回08-記事
  6
CONTINUOUS
 62
     7
 10
2156.072489649749
 20
316.2533587447276
 30
0.0
 40
0.5
 50
0.0
 51
180.0
  0
ARC
  5
253
  8
回08-記事
  6
CONTINUOUS
 62
     7
 10
2152.572489649749
 20
316.2533587447276
 30
0.0
 40
0.5
 50
0.0
 51
180.0
  0
ARC
  5
254
  8
回08-記事
  6
CONTINUOUS
 62
     7
 10
2149.072489649749
 20
316.2533587447276
 30
0.0
 40
0.5
 50
0.0
 51
180.0
  0
ARC
  5
255
  8
回08-記事
  6
CONTINUOUS
 62
     7
 10
2145.572489649749
 20
316.2533587447276
 30
0.0
 40
0.5
 50
0.0
 51
180.0
  0
ARC
  5
256
  8
回08-記事
  6
CONTINUOUS
 62
     7
 10
2142.072489649748
 20
316.2533587447276
 30
0.0
 40
0.5
 50
0.0
 51
180.0
  0
ARC
  5
257
  8
回08-記事
  6
CONTINUOUS
 62
     7
 10
2138.572489649749
 20
316.2533587447276
 30
0.0
 40
0.5
 50
0.0
 51
180.0
  0
ARC
  5
258
  8
回08-記事
  6
CONTINUOUS
 62
     7
 10
2135.072489649749
 20
316.2533587447276
 30
0.0
 40
0.5
 50
0.0
 51
180.0
  0
ARC
  5
259
  8
回08-記事
  6
CONTINUOUS
 62
     7
 10
2131.572489649748
 20
316.2533587447276
 30
0.0
 40
0.5
 50
0.0
 51
180.0
  0
ARC
  5
25A
  8
回08-記事
  6
CONTINUOUS
 62
     7
 10
2128.072489649749
 20
316.2533587447276
 30
0.0
 40
0.5
 50
0.0
 51
180.0
  0
ARC
  5
25B
  8
回08-記事
  6
CONTINUOUS
 62
     7
 10
2124.572489649748
 20
316.2533587447276
 30
0.0
 40
0.5
 50
0.0
 51
180.0
  0
ARC
  5
25C
  8
回08-記事
  6
CONTINUOUS
 62
     7
 10
2121.072489649749
 20
316.2533587447276
 30
0.0
 40
0.5
 50
0.0
 51
180.0
  0
ARC
  5
25D
  8
回08-記事
  6
CONTINUOUS
 62
     7
 10
2117.572489649749
 20
316.2533587447276
 30
0.0
 40
0.5
 50
0.0
 51
180.0
  0
ARC
  5
25E
  8
回08-記事
  6
CONTINUOUS
 62
     7
 10
2114.072489649748
 20
316.2533587447276
 30
0.0
 40
0.5
 50
0.0
 51
180.0
  0
ARC
  5
25F
  8
回08-記事
  6
CONTINUOUS
 62
     7
 10
2110.572489649749
 20
316.2533587447276
 30
0.0
 40
0.5
 50
0.0
 51
180.0
  0
ARC
  5
260
  8
回08-記事
  6
CONTINUOUS
 62
     7
 10
2107.072489649749
 20
316.2533587447276
 30
0.0
 40
0.5
 50
0.0
 51
180.0
  0
ARC
  5
261
  8
回08-記事
  6
CONTINUOUS
 62
     7
 10
2103.572489649749
 20
316.2533587447276
 30
0.0
 40
0.5
 50
0.0
 51
180.0
  0
ARC
  5
262
  8
回08-記事
  6
CONTINUOUS
 62
     7
 10
2100.072489649749
 20
316.2533587447276
 30
0.0
 40
0.5
 50
0.0
 51
180.0
  0
ARC
  5
263
  8
回08-記事
  6
CONTINUOUS
 62
     7
 10
2096.572489649749
 20
316.2533587447276
 30
0.0
 40
0.5
 50
0.0
 51
180.0
  0
ARC
  5
264
  8
回08-記事
  6
CONTINUOUS
 62
     7
 10
2093.072489649749
 20
316.2533587447276
 30
0.0
 40
0.5
 50
0.0
 51
180.0
  0
ARC
  5
265
  8
回08-記事
  6
CONTINUOUS
 62
     7
 10
2089.572489649749
 20
316.2533587447276
 30
0.0
 40
0.5
 50
0.0
 51
180.0
  0
ARC
  5
266
  8
回08-記事
  6
CONTINUOUS
 62
     7
 10
2086.072489649749
 20
316.2533587447276
 30
0.0
 40
0.5
 50
0.0
 51
180.0
  0
ARC
  5
267
  8
回08-記事
  6
CONTINUOUS
 62
     7
 10
2082.572489649749
 20
316.2533587447276
 30
0.0
 40
0.5
 50
0.0
 51
180.0
  0
ARC
  5
268
  8
回08-記事
  6
CONTINUOUS
 62
     7
 10
2079.072489649749
 20
316.2533587447276
 30
0.0
 40
0.5
 50
0.0
 51
180.0
  0
ARC
  5
269
  8
回08-記事
  6
CONTINUOUS
 62
     7
 10
2075.572489649749
 20
316.2533587447276
 30
0.0
 40
0.5
 50
0.0
 51
180.0
  0
POLYLINE
  5
26A
  8
回08-記事
  6
CONTINUOUS
 62
     7
 66
     1
 10
0.0
 20
0.0
 30
0.0
 70
     1
  0
VERTEX
  5
422
  8
回08-記事
  6
CONTINUOUS
 62
     7
 10
2059.534009824131
 20
318.2533587447276
 30
0.0
  0
VERTEX
  5
424
  8
回08-記事
  6
CONTINUOUS
 62
     7
 10
2069.334009824131
 20
318.2533587447276
 30
0.0
  0
VERTEX
  5
425
  8
回08-記事
  6
CONTINUOUS
 62
     7
 10
2069.334009824131
 20
317.2533587447276
 30
0.0
  0
VERTEX
  5
426
  8
回08-記事
  6
CONTINUOUS
 62
     7
 10
2059.534009824131
 20
317.2533587447276
 30
0.0
  0
SEQEND
  5
423
  8
回08-記事
  6
CONTINUOUS
 62
     7
  0
POLYLINE
  5
26B
  8
回08-記事
  6
CONTINUOUS
 62
     7
 66
     1
 10
0.0
 20
0.0
 30
0.0
 70
     1
  0
VERTEX
  5
427
  8
回08-記事
  6
CONTINUOUS
 62
     7
 10
1993.83400982413
 20
318.7533587447276
 30
0.0
  0
VERTEX
  5
429
  8
回08-記事
  6
CONTINUOUS
 62
     7
 10
2003.834009824131
 20
318.7533587447276
 30
0.0
  0
VERTEX
  5
42A
  8
回08-記事
  6
CONTINUOUS
 62
     7
 10
2003.834009824131
 20
317.2533587447276
 30
0.0
  0
VERTEX
  5
42B
  8
回08-記事
  6
CONTINUOUS
 62
     7
 10
1993.83400982413
 20
317.2533587447276
 30
0.0
  0
SEQEND
  5
428
  8
回08-記事
  6
CONTINUOUS
 62
     7
  0
POLYLINE
  5
26C
  8
回08-記事
  6
CONTINUOUS
 62
     7
 66
     1
 10
0.0
 20
0.0
 30
0.0
 70
     1
  0
VERTEX
  5
42C
  8
回08-記事
  6
CONTINUOUS
 62
     7
 10
1998.83400982413
 20
316.2533587447276
 30
0.0
  0
VERTEX
  5
42E
  8
回08-記事
  6
CONTINUOUS
 62
     7
 10
2069.034009824131
 20
316.2533587447276
 30
0.0
  0
VERTEX
  5
42F
  8
回08-記事
  6
CONTINUOUS
 62
     7
 10
2069.034009824131
 20
315.2533587447276
 30
0.0
  0
VERTEX
  5
430
  8
回08-記事
  6
CONTINUOUS
 62
     7
 10
1998.83400982413
 20
315.2533587447276
 30
0.0
  0
SEQEND
  5
42D
  8
回08-記事
  6
CONTINUOUS
 62
     7
  0
POLYLINE
  5
26D
  8
回08-記事
  6
CONTINUOUS
 62
     7
 66
     1
 10
0.0
 20
0.0
 30
0.0
 70
     1
  0
VERTEX
  5
431
  8
回08-記事
  6
CONTINUOUS
 62
     7
 10
2260.93400982413
 20
317.2533587447276
 30
0.0
  0
VERTEX
  5
433
  8
回08-記事
  6
CONTINUOUS
 62
     7
 10
2263.63400982413
 20
317.2533587447276
 30
0.0
  0
VERTEX
  5
434
  8
回08-記事
  6
CONTINUOUS
 62
     7
 10
2263.63400982413
 20
316.2533587447276
 30
0.0
  0
VERTEX
  5
435
  8
回08-記事
  6
CONTINUOUS
 62
     7
 10
2260.93400982413
 20
316.2533587447276
 30
0.0
  0
SEQEND
  5
432
  8
回08-記事
  6
CONTINUOUS
 62
     7
  0
POLYLINE
  5
26E
  8
回08-記事
  6
CONTINUOUS
 62
     7
 66
     1
 10
0.0
 20
0.0
 30
0.0
 70
     1
  0
VERTEX
  5
436
  8
回08-記事
  6
CONTINUOUS
 62
     7
 10
2072.33400982413
 20
317.2533587447276
 30
0.0
  0
VERTEX
  5
438
  8
回08-記事
  6
CONTINUOUS
 62
     7
 10
2074.03400982413
 20
317.2533587447276
 30
0.0
  0
VERTEX
  5
439
  8
回08-記事
  6
CONTINUOUS
 62
     7
 10
2074.03400982413
 20
316.2533587447276
 30
0.0
  0
VERTEX
  5
43A
  8
回08-記事
  6
CONTINUOUS
 62
     7
 10
2072.33400982413
 20
316.2533587447276
 30
0.0
  0
SEQEND
  5
437
  8
回08-記事
  6
CONTINUOUS
 62
     7
  0
POLYLINE
  5
26F
  8
回08-記事
  6
CONTINUOUS
 62
     7
 66
     1
 10
0.0
 20
0.0
 30
0.0
 70
     1
  0
VERTEX
  5
43B
  8
回08-記事
  6
CONTINUOUS
 62
     7
 10
1993.83400982413
 20
317.2533587447276
 30
0.0
  0
VERTEX
  5
43D
  8
回08-記事
  6
CONTINUOUS
 62
     7
 10
2072.33400982413
 20
317.2533587447276
 30
0.0
  0
VERTEX
  5
43E
  8
回08-記事
  6
CONTINUOUS
 62
     7
 10
2072.33400982413
 20
316.2533587447276
 30
0.0
  0
VERTEX
  5
43F
  8
回08-記事
  6
CONTINUOUS
 62
     7
 10
1993.83400982413
 20
316.2533587447276
 30
0.0
  0
SEQEND
  5
43C
  8
回08-記事
  6
CONTINUOUS
 62
     7
  0
POLYLINE
  5
270
  8
回08-記事
  6
CONTINUOUS
 62
     7
 66
     1
 10
0.0
 20
0.0
 30
0.0
 70
     1
  0
VERTEX
  5
440
  8
回08-記事
  6
CONTINUOUS
 62
     7
 10
2263.63400982413
 20
318.7533587447276
 30
0.0
  0
VERTEX
  5
442
  8
回08-記事
  6
CONTINUOUS
 62
     7
 10
2069.334009824131
 20
318.7533587447276
 30
0.0
  0
VERTEX
  5
443
  8
回08-記事
  6
CONTINUOUS
 62
     7
 10
2069.334009824131
 20
317.2533587447276
 30
0.0
  0
VERTEX
  5
444
  8
回08-記事
  6
CONTINUOUS
 62
     7
 10
2263.63400982413
 20
317.2533587447276
 30
0.0
  0
SEQEND
  5
441
  8
回08-記事
  6
CONTINUOUS
 62
     7
  0
POLYLINE
  5
271
  8
回08-記事
  6
CONTINUOUS
 62
     7
 66
     1
 10
0.0
 20
0.0
 30
0.0
 70
     1
  0
VERTEX
  5
445
  8
回08-記事
  6
CONTINUOUS
 62
     7
 10
2069.034009824131
 20
313.7533587447276
 30
0.0
  0
VERTEX
  5
447
  8
回08-記事
  6
CONTINUOUS
 62
     7
 10
2263.93400982413
 20
313.7533587447276
 30
0.0
  0
VERTEX
  5
448
  8
回08-記事
  6
CONTINUOUS
 62
     7
 10
2263.93400982413
 20
316.2533587447276
 30
0.0
  0
VERTEX
  5
449
  8
回08-記事
  6
CONTINUOUS
 62
     7
 10
2069.034009824131
 20
316.2533587447276
 30
0.0
  0
SEQEND
  5
446
  8
回08-記事
  6
CONTINUOUS
 62
     7
  0
TEXT
  5
272
  8
回07-寸法
  6
CONTINUOUS
 62
     5
 10
2052.187409750182
 20
417.6592072400196
 30
0.0
 40
3.0
  1
4-R1
1001
ACAD
1000
MTEXTBEGIN
1070
    73
1070
     1
1070
    44
1040
1.0
1070
    74
1070
     0
1000
MTEXTEND
  0
INSERT
  5
273
  8
回07-寸法
  6
CONTINUOUS
 62
     5
 66
     1
  2
*X44
 10
0.0
 20
0.0
 30
0.0
  0
SEQEND
  5
450
  8
回08-記事
  6
CONTINUOUS
 62
     7
  0
TEXT
  5
274
  8
回07-寸法
  6
CONTINUOUS
 62
     5
 10
2055.872268488208
 20
412.6888591311422
 30
0.0
 40
3.0
  1
2-R2
1001
ACAD
1000
MTEXTBEGIN
1070
    73
1070
     1
1070
    44
1040
1.0
1070
    74
1070
     0
1000
MTEXTEND
  0
INSERT
  5
275
  8
回07-寸法
  6
CONTINUOUS
 62
     5
 66
     1
  2
*X45
 10
0.0
 20
0.0
 30
0.0
  0
SEQEND
  5
457
  8
回08-記事
  6
CONTINUOUS
 62
     7
  0
DIMENSION
  5
276
  8
回07-寸法
  6
CONTINUOUS
 62
     5
  2
*D36
 10
2058.710777238996
 20
449.5699899586486
 30
0.0
 11
2043.410777238996
 21
451.7199899586485
 31
0.0
 70
     0
  3
DMC
 13
2069.034009824131
 23
439.1254818218969
 33
0.0
 14
2058.710777238996
 24
432.6790471971828
 34
0.0
1001
ACAD
1000
DSTYLE
1002
{
1070
   170
1070
     1
1070
   371
1070
     9
1070
   372
1070
     9
1002
}
  0
DIMENSION
  5
287
  8
回07-寸法
  6
CONTINUOUS
 62
     5
  2
*D35
 10
2064.233232997654
 20
444.421248350512
 30
0.0
 11
2048.010873181132
 21
444.421248350512
 31
0.0
 70
   128
  3
DMC
 13
2069.034009824131
 23
439.1254818218969
 33
0.0
 14
2064.233232997654
 24
438.1790471971823
 34
0.0
1001
ACAD
1000
DSTYLE
1002
{
1070
   170
1070
     1
1070
   371
1070
     9
1070
   372
1070
     9
1002
}
  0
DIMENSION
  5
298
  8
回07-寸法
  6
CONTINUOUS
 62
     7
  2
*D34
 10
1979.808553068671
 20
432.6790471971825
 30
0.0
 11
1979.808553068671
 21
451.689288692924
 31
0.0
 70
   128
  1
<>
  3
DMC
 13
1994.53400982413
 23
427.6790471971821
 33
0.0
 14
1994.53400982413
 24
432.6790471971824
 34
0.0
 50
90.0
1001
ACAD
1000
DSTYLE
1002
{
1070
    47
1040
0.1
1070
    48
1040
0.1
1070
    71
1070
     1
1070
   170
1070
     1
1070
   371
1070
     9
1070
   372
1070
     9
1002
}
  0
DIMENSION
  5
2A7
  8
回07-寸法
  6
CONTINUOUS
 62
     5
  2
*D33
 10
2046.148864652862
 20
438.1790471971822
 30
0.0
 11
2046.148864652861
 21
409.5790471971814
 31
0.0
 70
   128
  3
DMC
 13
2064.64625350147
 23
422.1790471971819
 33
0.0
 14
2064.64625350147
 24
438.1790471971819
 34
0.0
 50
90.0
1001
ACAD
1000
DSTYLE
1002
{
1070
   170
1070
     1
1070
   371
1070
     9
1070
   372
1070
     9
1002
}
  0
DIMENSION
  5
2B8
  8
回07-寸法
  6
CONTINUOUS
 62
     5
  2
*D32
 10
1984.784814314364
 20
430.1790471971826
 30
0.0
 11
1982.634814314364
 21
398.004047197182
 31
0.0
 70
     0
  1
(<>)
  3
DMC
 13
2069.034009824131
 23
365.8290471971825
 33
0.0
 14
1991.83400982413
 24
430.1790471971823
 34
0.0
 50
90.0
1001
ACAD
1000
DSTYLE
1002
{
1070
   170
1070
     1
1070
   371
1070
     9
1070
   372
1070
     9
1002
}
  0
DIMENSION
  5
2C7
  8
回07-寸法
  6
CONTINUOUS
 62
     7
  2
*D31
 10
1994.034009824131
 20
454.6299586508539
 30
0.0
 11
2031.534009824131
 21
456.7799586508539
 31
0.0
 70
     0
  3
DMC
 13
2069.034009824131
 23
439.1254818218969
 33
0.0
 14
1994.034009824131
 24
432.1790471971824
 34
0.0
1001
ACAD
1000
DSTYLE
1002
{
1070
    47
1040
1.0
1070
    48
1040
1.0
1070
    71
1070
     1
1070
   170
1070
     1
1070
   371
1070
     9
1070
   372
1070
     9
1002
}
  0
LINE
  5
2D4
  8
回07-寸法
  6
CENTER2
 62
     5
 10
1991.83400982413
 20
430.1790471971823
 30
0.0
 11
2066.131212027655
 21
430.1790471971823
 31
0.0
  0
POLYLINE
  5
2D6
  8
回08-記事
  6
CONTINUOUS
 62
     8
 66
     1
 10
0.0
 20
0.0
 30
0.0
 70
     1
1001
ACAD
1000
ASC_BOUNDS
1002
{
1070
    19
1005
2D7
1002
}
  0
VERTEX
  5
458
  8
回08-記事
  6
CONTINUOUS
 62
     8
 10
2064.93400982413
 20
422.9290471971819
 30
0.0
  0
VERTEX
  5
45A
  8
回08-記事
  6
CONTINUOUS
 62
     8
 10
2073.13400982413
 20
422.9290471971819
 30
0.0
  0
VERTEX
  5
45B
  8
回08-記事
  6
CONTINUOUS
 62
     8
 10
2073.13400982413
 20
428.9290471971819
 30
0.0
  0
VERTEX
  5
45C
  8
回08-記事
  6
CONTINUOUS
 62
     8
 10
2064.93400982413
 20
428.9290471971819
 30
0.0
  0
SEQEND
  5
459
  8
回08-記事
  6
CONTINUOUS
 62
     7
  0
INSERT
  5
2D7
  8
回08-記事
  6
CONTINUOUS
 62
     8
 66
     1
  2
*X46
 10
0.0
 20
0.0
 30
0.0
1001
ACAD
1010
0.0
1020
0.0
1030
0.0
  0
SEQEND
  5
466
  8
回08-記事
  6
CONTINUOUS
 62
     7
  0
TEXT
  5
2D8
  8
回08-記事
  6
CONTINUOUS
 62
     5
 10
2252.405134640879
 20
431.3603824582021
 30
0.0
 40
3.0
  1
XR
  0
TEXT
  5
2D9
  8
回08-記事
  6
CONTINUOUS
 62
     5
 10
2078.370518870498
 20
431.3603824582021
 30
0.0
 40
3.0
  1
XL
  0
TEXT
  5
2DA
  8
回08-記事
  6
CONTINUOUS
 62
     5
 10
2161.136272078199
 20
375.751454759172
 30
0.0
 40
3.0
  1
YD
  0
TEXT
  5
2DB
  8
回08-記事
  6
CONTINUOUS
 62
     5
 10
2161.136272078199
 20
480.3299885759932
 30
0.0
 40
3.0
  1
YU
  0
LINE
  5
2DC
  8
回07-寸法
  6
CENTER2
 62
     5
 10
2066.131212027655
 20
430.1790471971823
 30
0.0
 11
2262.43400982413
 21
430.1790471971823
 31
0.0
  0
LINE
  5
2DD
  8
回07-寸法
  6
CENTER2
 62
     5
 10
2167.48400982413
 20
489.6290471971824
 30
0.0
 11
2167.48400982413
 21
370.7290471971826
 31
0.0
  0
ARC
  5
2DE
  8
回05-ﾃｰﾙ
  6
BYBLOCK
 62
     7
 10
2067.33400982413
 20
420.1790471971819
 30
0.0
 40
2.0
 50
31.78833061701221
 51
90.0
  0
LINE
  5
2E2
  8
回05-ﾃｰﾙ
  6
BYBLOCK
 62
     7
 10
2064.646253501471
 20
422.1790471971817
 30
0.0
 11
2067.33400982413
 21
422.1790471971817
 31
0.0
  0
ARC
  5
2E3
  8
回05-ﾃｰﾙ
  6
BYBLOCK
 62
     7
 10
2058.297756579333
 20
426.6790471971813
 30
0.0
 40
1.0
 50
45.11672702027762
 51
90.0
  0
ARC
  5
2E4
  8
回05-ﾃｰﾙ
  6
BYBLOCK
 62
     7
 10
2064.64625350147
 20
423.1790471971819
 30
0.0
 40
1.0
 50
225.1435981442241
 51
270.0
  0
LINE
  5
2E5
  8
回05-ﾃｰﾙ
  6
BYBLOCK
 62
     7
 10
2059.003421326083
 20
427.3875930779772
 30
0.0
 11
2063.940921132953
 21
422.470170444903
 31
0.0
  0
ARC
  5
2E6
  8
回05-ﾃｰﾙ
  6
BYBLOCK
 62
     7
 10
2058.297756579333
 20
433.6790471971828
 30
0.0
 40
1.0
 50
270.0
 51
314.8832729797224
  0
ARC
  5
2E7
  8
回05-ﾃｰﾙ
  6
BYBLOCK
 62
     7
 10
2064.64625350147
 20
437.1790471971819
 30
0.0
 40
1.0
 50
90.0
 51
134.8564018557758
  0
ARC
  5
2E8
  8
回05-ﾃｰﾙ
  6
BYBLOCK
 62
     7
 10
2067.33400982413
 20
440.1790471971819
 30
0.0
 40
2.0
 50
270.0
 51
328.2116693829878
  0
LINE
  5
2E9
  8
回05-ﾃｰﾙ
  6
BYBLOCK
 62
     7
 10
2059.003421326083
 20
432.9705013163868
 30
0.0
 11
2063.940921132953
 21
437.8879239494611
 31
0.0
  0
LINE
  5
2EA
  8
回05-ﾃｰﾙ
  6
BYBLOCK
 62
     7
 10
2064.646253501471
 20
438.1790471971823
 30
0.0
 11
2067.33400982413
 21
438.1790471971823
 31
0.0
  0
LINE
  5
2EB
  8
回05-ﾃｰﾙ
  6
BYBLOCK
 62
     7
 10
1994.034009824131
 20
428.1790471971824
 30
0.0
 11
1994.034009824131
 21
432.1790471971824
 31
0.0
  0
ARC
  5
2EC
  8
回05-ﾃｰﾙ
  6
BYBLOCK
 62
     7
 10
1994.53400982413
 20
432.1790471971824
 30
0.0
 40
0.5
 50
90.0
 51
180.0
  0
ARC
  5
2ED
  8
回05-ﾃｰﾙ
  6
BYBLOCK
 62
     7
 10
1994.53400982413
 20
428.1790471971824
 30
0.0
 40
0.5
 50
180.0
 51
270.0
  0
LINE
  5
2EE
  8
回05-ﾃｰﾙ
  6
BYBLOCK
 62
     7
 10
1994.53400982413
 20
432.6790471971824
 30
0.0
 11
2058.297756579333
 21
432.6790471971824
 31
0.0
  0
LINE
  5
2EF
  8
回05-ﾃｰﾙ
  6
BYBLOCK
 62
     7
 10
1994.53400982413
 20
427.6790471971821
 30
0.0
 11
2058.297756579333
 21
427.6790471971821
 31
0.0
  0
POLYLINE
  5
2F0
  8
回08-記事
  6
CONTINUOUS
 62
     7
 66
     1
 10
0.0
 20
0.0
 30
0.0
 70
     1
  0
VERTEX
  5
467
  8
回08-記事
  6
CONTINUOUS
 62
     7
 10
2074.53400982413
 20
372.7290471971826
 30
0.0
  0
VERTEX
  5
469
  8
回08-記事
  6
CONTINUOUS
 62
     7
 10
2260.43400982413
 20
372.7290471971826
 30
0.0
  0
VERTEX
  5
46A
  8
回08-記事
  6
CONTINUOUS
 62
     7
 10
2260.43400982413
 20
487.6290471971824
 30
0.0
  0
VERTEX
  5
46B
  8
回08-記事
  6
CONTINUOUS
 62
     7
 10
2074.53400982413
 20
487.6290471971824
 30
0.0
  0
SEQEND
  5
468
  8
回08-記事
  6
CONTINUOUS
 62
     7
  0
POLYLINE
  5
2F1
  8
回04-下接
  6
CONTINUOUS
 62
     7
 66
     1
 10
0.0
 20
0.0
 30
0.0
 70
     1
  0
VERTEX
  5
46C
  8
回04-下接
  6
CONTINUOUS
 62
     7
 10
2069.034009824131
 20
365.8290471971825
 30
0.0
  0
VERTEX
  5
46E
  8
回04-下接
  6
CONTINUOUS
 62
     7
 10
2263.93400982413
 20
365.8290471971825
 30
0.0
  0
VERTEX
  5
46F
  8
回04-下接
  6
CONTINUOUS
 62
     7
 10
2263.93400982413
 20
494.4290471971823
 30
0.0
  0
VERTEX
  5
470
  8
回04-下接
  6
CONTINUOUS
 62
     7
 10
2069.034009824131
 20
494.4290471971823
 30
0.0
  0
SEQEND
  5
46D
  8
回08-記事
  6
CONTINUOUS
 62
     7
  0
TEXT
  5
2F5
  8
回08-記事
  6
CONTINUOUS
 62
     5
 10
2364.38369241859
 20
451.0128257266492
 30
0.0
 40
4.341093749999999
  1
PIN ASSIGNMENT
  0
LINE
  5
2F6
  8
回08-記事
  6
CONTINUOUS
 62
     5
 10
2391.011185601142
 20
467.7536908745812
 30
0.0
 11
2367.011420027836
 21
467.7536908745812
 31
0.0
  0
TEXT
  5
2F7
  8
回08-記事
  6
CONTINUOUS
 62
     5
 10
2362.104302654256
 20
510.0440256970633
 30
0.0
 40
4.571383918725
  1
4
  0
TEXT
  5
2F8
  8
回08-記事
  6
CONTINUOUS
 62
     5
 10
2405.2283494244
 20
477.6340302054875
 30
0.0
 40
3.999960928884373
  1
XR
  0
LINE
  5
2F9
  8
回08-記事
  6
CONTINUOUS
 62
     5
 10
2408.725298286201
 20
483.4678230951984
 30
0.0
 11
2408.725298286201
 21
512.0389725872296
 31
0.0
  0
LINE
  5
2FA
  8
回08-記事
  6
CONTINUOUS
 62
     5
 10
2405.011048852237
 20
483.4678230951984
 30
0.0
 11
2408.725298286201
 21
483.4678230951984
 31
0.0
  0
LINE
  5
2FB
  8
回08-記事
  6
CONTINUOUS
 62
     5
 10
2397.525407685325
 20
484.9535228687841
 30
0.0
 11
2399.582530448751
 21
480.8392773419313
 31
0.0
  0
LINE
  5
2FC
  8
回08-記事
  6
CONTINUOUS
 62
     5
 10
2395.468284921899
 20
480.8392773419313
 30
0.0
 11
2397.525407685325
 21
484.9535228687841
 31
0.0
  0
LINE
  5
2FD
  8
回08-記事
  6
CONTINUOUS
 62
     5
 10
2399.582530448751
 20
480.8392773419313
 30
0.0
 11
2401.639653212177
 21
484.9535228687841
 31
0.0
  0
LINE
  5
2FE
  8
回08-記事
  6
CONTINUOUS
 62
     5
 10
2401.639653212177
 20
484.9535228687841
 30
0.0
 11
2403.696775975604
 21
480.8392773419313
 31
0.0
  0
LINE
  5
2FF
  8
回08-記事
  6
CONTINUOUS
 62
     5
 10
2403.696775975604
 20
480.8392773419313
 30
0.0
 11
2405.011048852237
 21
483.4678230951984
 31
0.0
  0
LINE
  5
300
  8
回08-記事
  6
CONTINUOUS
 62
     5
 10
2387.239793868194
 20
480.8392773419313
 30
0.0
 11
2389.29691663162
 21
484.9535228687841
 31
0.0
  0
LINE
  5
301
  8
回08-記事
  6
CONTINUOUS
 62
     5
 10
2383.125548341341
 20
480.8392773419313
 30
0.0
 11
2385.182671104768
 21
484.9535228687841
 31
0.0
  0
LINE
  5
302
  8
回08-記事
  6
CONTINUOUS
 62
     5
 10
2385.182671104768
 20
484.9535228687841
 30
0.0
 11
2387.239793868194
 21
480.8392773419313
 31
0.0
  0
LINE
  5
303
  8
回08-記事
  6
CONTINUOUS
 62
     5
 10
2388.954062837715
 20
485.1249497657361
 30
0.0
 11
2393.068308364568
 21
483.0678270023099
 31
0.0
  0
LINE
  5
304
  8
回08-記事
  6
CONTINUOUS
 62
     5
 10
2388.954062837715
 20
489.2391952925889
 30
0.0
 11
2393.068308364568
 21
487.1820725291625
 31
0.0
  0
LINE
  5
305
  8
回08-記事
  6
CONTINUOUS
 62
     5
 10
2388.954062837715
 20
489.2391952925889
 30
0.0
 11
2393.068308364568
 21
491.296318056015
 31
0.0
  0
LINE
  5
306
  8
回08-記事
  6
CONTINUOUS
 62
     5
 10
2388.954062837715
 20
485.1249497657361
 30
0.0
 11
2393.068308364568
 21
487.1820725291625
 31
0.0
  0
LINE
  5
307
  8
回08-記事
  6
CONTINUOUS
 62
     5
 10
2388.954062837715
 20
476.8964587120308
 30
0.0
 11
2393.068308364568
 21
478.9535814754578
 31
0.0
  0
LINE
  5
308
  8
回08-記事
  6
CONTINUOUS
 62
     5
 10
2388.954062837715
 20
481.0107042388835
 30
0.0
 11
2393.068308364568
 21
478.9535814754578
 31
0.0
  0
LINE
  5
309
  8
回08-記事
  6
CONTINUOUS
 62
     5
 10
2388.954062837715
 20
481.0107042388835
 30
0.0
 11
2393.068308364568
 21
483.0678270023099
 31
0.0
  0
LINE
  5
30A
  8
回08-記事
  6
CONTINUOUS
 62
     5
 10
2391.011185601142
 20
492.3248794377282
 30
0.0
 11
2393.068308364568
 21
491.296318056015
 31
0.0
  0
LINE
  5
30B
  8
回08-記事
  6
CONTINUOUS
 62
     5
 10
2389.29691663162
 20
484.9535228687841
 30
0.0
 11
2391.354039395046
 21
480.8392773419313
 31
0.0
  0
LINE
  5
30C
  8
回08-記事
  6
CONTINUOUS
 62
     5
 10
2391.354039395046
 20
480.8392773419313
 30
0.0
 11
2393.411162158473
 21
484.9535228687841
 31
0.0
  0
LINE
  5
30D
  8
回08-記事
  6
CONTINUOUS
 62
     5
 10
2391.011185601142
 20
492.3248794377282
 30
0.0
 11
2391.011185601142
 21
495.7534173767718
 31
0.0
  0
TEXT
  5
30E
  8
回08-記事
  6
CONTINUOUS
 62
     5
 10
2371.837062873206
 20
484.0005353497871
 30
0.0
 40
3.999960928884373
  1
XL
  0
LINE
  5
30F
  8
回08-記事
  6
CONTINUOUS
 62
     5
 10
2379.754152701282
 20
482.3249771155173
 30
0.0
 11
2381.068425577915
 21
484.9535228687841
 31
0.0
  0
LINE
  5
310
  8
回08-記事
  6
CONTINUOUS
 62
     5
 10
2381.068425577915
 20
484.9535228687841
 30
0.0
 11
2383.125548341341
 21
480.8392773419313
 31
0.0
  0
LINE
  5
311
  8
回08-記事
  6
CONTINUOUS
 62
     5
 10
2388.954062837715
 20
472.7822131851787
 30
0.0
 11
2393.068308364568
 21
474.839335948605
 31
0.0
  0
LINE
  5
312
  8
回08-記事
  6
CONTINUOUS
 62
     5
 10
2388.954062837715
 20
472.7822131851787
 30
0.0
 11
2391.011185601142
 21
471.7536518034655
 31
0.0
  0
LINE
  5
313
  8
回08-記事
  6
CONTINUOUS
 62
     5
 10
2391.011185601142
 20
467.7536908745812
 30
0.0
 11
2391.011185601142
 21
471.7536518034655
 31
0.0
  0
TEXT
  5
314
  8
回08-記事
  6
CONTINUOUS
 62
     5
 10
2380.50350203716
 20
469.3830360279569
 30
0.0
 40
3.999960928884373
  1
YD
  0
LINE
  5
315
  8
回08-記事
  6
CONTINUOUS
 62
     5
 10
2388.954062837715
 20
476.8964587120308
 30
0.0
 11
2393.068308364568
 21
474.839335948605
 31
0.0
  0
TEXT
  5
316
  8
回08-記事
  6
CONTINUOUS
 62
     5
 10
2362.542800901203
 20
465.1997035017477
 30
0.0
 40
4.571383918725
  1
1
  0
TEXT
  5
317
  8
回08-記事
  6
CONTINUOUS
 62
     5
 10
2362.192261252174
 20
479.7264887113693
 30
0.0
 40
4.571383918725
  1
2
  0
TEXT
  5
318
  8
回08-記事
  6
CONTINUOUS
 62
     5
 10
2362.365523333494
 20
493.6109253462258
 30
0.0
 40
4.571383918725
  1
3
  0
LINE
  5
319
  8
回08-記事
  6
CONTINUOUS
 62
     5
 10
2367.011420027836
 20
495.7534173767718
 30
0.0
 11
2391.011185601142
 21
495.7534173767718
 31
0.0
  0
LINE
  5
31A
  8
回08-記事
  6
CONTINUOUS
 62
     5
 10
2367.011420027836
 20
482.3249771155173
 30
0.0
 11
2379.754152701282
 21
482.3249771155173
 31
0.0
  0
TEXT
  5
31B
  8
回08-記事
  6
CONTINUOUS
 62
     5
 10
2392.133709360374
 20
497.0782791217543
 30
0.0
 40
3.999960928884373
  1
YU
  0
LINE
  5
31C
  8
回08-記事
  6
CONTINUOUS
 62
     5
 10
2393.411162158473
 20
484.9535228687841
 30
0.0
 11
2395.468284921899
 21
480.8392773419313
 31
0.0
  0
LINE
  5
31D
  8
回08-記事
  6
CONTINUOUS
 62
     5
 10
2367.011420027836
 20
512.0389725872296
 30
0.0
 11
2408.725298286201
 21
512.0389725872296
 31
0.0
  0
DIMENSION
  5
31E
  8
回08-記事
  6
CONTINUOUS
 62
     7
  2
*D5
 10
1980.325662857308
 20
527.2411486301805
 30
0.0
 11
1978.175662857308
 21
514.6399675278177
 31
0.0
 70
     0
  1
0.6[0.024]
  3
DMC
 13
1982.583134154289
 23
529.6411486301804
 33
0.0
 14
1982.583134154289
 24
527.2411486301803
 34
0.0
 50
90.0
1001
ACAD
1000
DSTYLE
1002
{
1070
   170
1070
     1
1070
   371
1070
     9
1070
   372
1070
     9
1002
}
  0
LINE
  5
32F
  8
回08-記事
  6
CONTINUOUS
 62
     7
 10
2002.583134154289
 20
544.4411486301805
 30
0.0
 11
2002.583134154289
 21
524.4411486301799
 31
0.0
  0
DIMENSION
  5
330
  8
回07-寸法
  6
CONTINUOUS
 62
     7
  2
*D4
 10
1975.35204119915
 20
532.4411486301805
 30
0.0
 11
1975.35204119915
 21
515.9218470440871
 31
0.0
 70
   128
  1
1[0.039]
  3
DMC
 13
1982.583134154289
 23
528.4411486301803
 33
0.0
 14
1982.583134154289
 24
532.4411486301803
 34
0.0
 50
90.0
1001
ACAD
1000
DSTYLE
1002
{
1070
   144
1040
0.25
1070
    47
1040
0.2
1070
    48
1040
0.2
1070
   371
1070
     9
1070
   372
1070
     9
1002
}
  0
DIMENSION
  5
341
  8
回07-寸法
  6
CONTINUOUS
 62
     7
  2
*D3
 10
1969.200321567473
 20
528.4411486301805
 30
0.0
 11
1969.200321567473
 21
515.9411486301803
 31
0.0
 70
   128
  1
3[0.118]
  3
DMC
 13
1982.583134154289
 23
540.4411486301803
 33
0.0
 14
1982.583134154289
 24
528.4411486301803
 34
0.0
 50
90.0
1001
ACAD
1000
DSTYLE
1002
{
1070
   144
1040
0.25
1070
    47
1040
0.2
1070
    48
1040
0.2
1070
   371
1070
     9
1070
   372
1070
     9
1002
}
  0
DIMENSION
  5
352
  8
回07-寸法
  6
CONTINUOUS
 62
     7
  2
*D2
 10
1962.9868354653
 20
524.4411486301799
 30
0.0
 11
1960.836835465299
 21
507.6856021344378
 31
0.0
 70
     0
  1
5{\H0.6667x;±0.1}[0.197{\H0.6667x;±0.004}]
  3
DMC
 13
1984.583134154289
 23
544.4411486301803
 33
0.0
 14
1984.583134154289
 24
524.4411486301796
 34
0.0
 50
90.0
1001
ACAD
1000
DSTYLE
1002
{
1070
   147
1040
0.5
1070
    72
1070
     0
1070
    71
1070
     1
1070
   144
1040
0.25
1070
    47
1040
0.1
1070
    48
1040
0.1
1070
   371
1070
     9
1070
   372
1070
     9
1002
}
  0
TEXT
  5
363
  8
ACC
  6
CONTINUOUS
 62
     7
 10
1987.224458663975
 20
546.0394081541345
 30
0.0
 40
4.0
  1
4
 50
90.0
  0
TEXT
  5
367
  8
ACC
  6
CONTINUOUS
 62
     7
 10
1987.224458663975
 20
520.5680160157664
 30
0.0
 40
4.0
  1
1
 50
90.0
  0
POLYLINE
  5
368
  8
ACC
  6
CONTINUOUS
 62
     8
 66
     1
 10
0.0
 20
0.0
 30
0.0
 40
2.399999999999999
 41
2.399999999999999
  0
VERTEX
  5
471
  8
ACC
  6
CONTINUOUS
 62
     8
 10
1982.583134154289
 20
532.4411486301803
 30
0.0
  0
VERTEX
  5
473
  8
ACC
  6
CONTINUOUS
 62
     8
 10
2002.583134154289
 20
532.4411486301803
 30
0.0
  0
SEQEND
  5
472
  8
回08-記事
  6
CONTINUOUS
 62
     7
  0
POLYLINE
  5
369
  8
ACC
  6
CONTINUOUS
 62
     8
 66
     1
 10
0.0
 20
0.0
 30
0.0
 40
2.399999999999999
 41
2.399999999999999
  0
VERTEX
  5
474
  8
ACC
  6
CONTINUOUS
 62
     8
 10
1982.583134154289
 20
528.4411486301803
 30
0.0
  0
VERTEX
  5
476
  8
ACC
  6
CONTINUOUS
 62
     8
 10
2002.583134154289
 20
528.4411486301803
 30
0.0
  0
SEQEND
  5
475
  8
回08-記事
  6
CONTINUOUS
 62
     7
  0
POLYLINE
  5
36A
  8
ACC
  6
CONTINUOUS
 62
     8
 66
     1
 10
0.0
 20
0.0
 30
0.0
 40
2.399999999999999
 41
2.399999999999999
  0
VERTEX
  5
477
  8
ACC
  6
CONTINUOUS
 62
     8
 10
1982.583134154289
 20
540.4411486301803
 30
0.0
  0
VERTEX
  5
479
  8
ACC
  6
CONTINUOUS
 62
     8
 10
2002.583134154289
 20
540.4411486301803
 30
0.0
  0
SEQEND
  5
478
  8
回08-記事
  6
CONTINUOUS
 62
     7
  0
POLYLINE
  5
36B
  8
ACC
  6
CONTINUOUS
 62
     8
 66
     1
 10
0.0
 20
0.0
 30
0.0
 40
2.399999999999999
 41
2.399999999999999
  0
VERTEX
  5
47A
  8
ACC
  6
CONTINUOUS
 62
     8
 10
1982.583134154289
 20
536.4411486301803
 30
0.0
  0
VERTEX
  5
47C
  8
ACC
  6
CONTINUOUS
 62
     8
 10
2002.583134154289
 20
536.4411486301803
 30
0.0
  0
SEQEND
  5
47B
  8
回08-記事
  6
CONTINUOUS
 62
     7
  0
LINE
  5
36C
  8
ACC
  6
BYBLOCK
 62
     8
 10
1982.583134154289
 20
526.4411486301803
 30
0.0
 11
1982.583134154289
 21
542.4411486301807
 31
0.0
  0
ARC
  5
36D
  8
ACC
  6
BYBLOCK
 62
     8
 10
1984.583134154289
 20
542.4411486301807
 30
0.0
 40
2.0
 50
90.0
 51
180.0
  0
ARC
  5
36E
  8
ACC
  6
BYBLOCK
 62
     8
 10
1984.583134154289
 20
526.4411486301803
 30
0.0
 40
2.0
 50
180.0
 51
270.0
  0
LINE
  5
36F
  8
ACC
  6
BYBLOCK
 62
     8
 10
1984.583134154289
 20
544.4411486301803
 30
0.0
 11
2008.57134639982
 21
544.4411486301803
 31
0.0
  0
LINE
  5
370
  8
ACC
  6
BYBLOCK
 62
     8
 10
1984.583134154289
 20
524.4411486301796
 30
0.0
 11
2008.57134639982
 21
524.4411486301796
 31
0.0
  0
TEXT
  5
371
  8
回08-記事
  6
CONTINUOUS
 62
     5
 10
1974.303374110926
 20
556.4382217575555
 30
0.0
 40
4.341093749999999
  1
SECTION A
  0
TEXT
  5
372
  8
回91-枠英2
 10
2371.855360640179
 20
244.8970133413546
 30
0.0
 40
5.0
  1
Oct/06/2023
 72
     1
 11
2390.855360640179
 21
244.8970133413546
 31
0.0
  0
TEXT
  5
376
  8
回91-枠英2
  6
CONTINUOUS
 62
     7
 10
2385.806090745411
 20
255.8364502569771
 30
0.0
 40
3.0
  1
DATE
  0
TEXT
  5
377
  8
回91-枠英2
 10
2395.711807415265
 20
576.974884918493
 30
0.0
 40
3.6
  1
H
  0
LINE
  5
378
  8
回91-枠英2
 10
2365.355360640178
 20
581.1397041050472
 30
0.0
 11
2365.355360640178
 21
576.6397041050472
 31
0.0
  0
LINE
  5
379
  8
回91-枠英2
 10
2432.855360640179
 20
507.339704105047
 30
0.0
 11
2428.355360640179
 21
507.339704105047
 31
0.0
  0
TEXT
  5
37A
  8
回91-枠英2
 10
2429.3479907105
 20
470.6995226713206
 30
0.0
 40
3.6
  1
2
  0
LINE
  5
37B
  8
回91-枠英2
 10
2432.855360640179
 20
438.0397041050469
 30
0.0
 11
2428.355360640179
 21
438.0397041050469
 31
0.0
  0
TEXT
  5
37C
  8
回91-枠英2
 10
2429.619339543472
 20
539.9995226713204
 30
0.0
 40
3.6
  1
1
  0
TEXT
  5
37D
  8
回91-枠英2
 10
2429.34305795072
 20
401.3995226713205
 30
0.0
 40
3.6
  1
3
  0
LINE
  5
37E
  8
回91-枠英2
 10
2432.855360640179
 20
368.7397041050472
 30
0.0
 11
2428.355360640179
 21
368.7397041050472
 31
0.0
  0
TEXT
  5
37F
  8
回91-枠英2
 10
2429.277275042647
 20
332.0995226713203
 30
0.0
 40
3.6
  1
4
  0
LINE
  5
380
  8
回91-枠英2
 10
2432.855360640179
 20
299.439704105047
 30
0.0
 11
2428.355360640179
 21
299.439704105047
 31
0.0
  0
TEXT
  5
381
  8
回91-枠英2
 10
2429.277275042647
 20
262.7995226713206
 30
0.0
 40
3.6
  1
5
  0
TEXT
  5
382
  8
回91-枠英2
 10
2395.711807415265
 20
225.974884918493
 30
0.0
 40
3.6
  1
H
  0
LINE
  5
383
  8
回91-枠英2
 10
2365.355360640178
 20
230.1397041050473
 30
0.0
 11
2365.355360640178
 21
225.6397041050473
 31
0.0
  0
TEXT
  5
384
  8
回91-枠英2
 10
2370.980360640178
 20
232.6774119422394
 30
0.0
 40
5.0
  1
DMC Co., Ltd.
 72
     1
 11
2390.855360640179
 21
232.6774119422394
 31
0.0
  0
LINE
  5
385
  8
回91-枠英2
 10
2432.855360640179
 20
225.6397041050473
 30
0.0
 11
2432.855360640179
 21
581.1397041050472
 31
0.0
  0
LINE
  5
386
  8
回91-枠英2
 10
2428.355360640179
 20
576.6397041050472
 30
0.0
 11
2428.355360640179
 21
230.1397041050473
 31
0.0
  0
TEXT
  5
387
  8
回91-枠英2
 10
2332.711807415265
 20
576.974884918493
 30
0.0
 40
3.6
  1
G
  0
LINE
  5
388
  8
回91-枠英2
 10
2302.355360640178
 20
581.1397041050472
 30
0.0
 11
2302.355360640178
 21
576.6397041050472
 31
0.0
  0
TEXT
  5
389
  8
回91-枠英2
 10
2269.711807415266
 20
576.974884918493
 30
0.0
 40
3.6
  1
F
  0
LINE
  5
38A
  8
回91-枠英2
 10
2239.355360640178
 20
581.1397041050472
 30
0.0
 11
2239.355360640178
 21
576.6397041050472
 31
0.0
  0
TEXT
  5
38B
  8
回91-枠英2
 10
2206.711807415266
 20
576.974884918493
 30
0.0
 40
3.6
  1
E
  0
LINE
  5
38C
  8
回91-枠英2
 10
2176.355360640178
 20
581.1397041050472
 30
0.0
 11
2176.355360640178
 21
576.6397041050472
 31
0.0
  0
TEXT
  5
38D
  8
回91-枠英2
 10
2143.711807415265
 20
576.974884918493
 30
0.0
 40
3.6
  1
D
  0
LINE
  5
38E
  8
回91-枠英2
 10
2113.355360640178
 20
581.1397041050472
 30
0.0
 11
2113.355360640178
 21
576.6397041050472
 31
0.0
  0
TEXT
  5
38F
  8
回91-枠英2
 10
2080.711807415266
 20
576.974884918493
 30
0.0
 40
3.6
  1
C
  0
LINE
  5
390
  8
回91-枠英2
 10
2050.355360640178
 20
581.1397041050472
 30
0.0
 11
2050.355360640178
 21
576.6397041050472
 31
0.0
  0
TEXT
  5
391
  8
回91-枠英2
 10
2017.711807415266
 20
576.974884918493
 30
0.0
 40
3.6
  1
B
  0
LINE
  5
392
  8
回91-枠英2
 10
1987.355360640178
 20
581.1397041050472
 30
0.0
 11
1987.355360640178
 21
576.6397041050472
 31
0.0
  0
TEXT
  5
393
  8
回91-枠英2
 10
1954.711807415265
 20
576.974884918493
 30
0.0
 40
3.6
  1
A
  0
LINE
  5
394
  8
回91-枠英2
 10
1924.355360640178
 20
507.339704105047
 30
0.0
 11
1919.855360640178
 21
507.339704105047
 31
0.0
  0
TEXT
  5
395
  8
回91-枠英2
 10
1920.8479907105
 20
470.6995226713206
 30
0.0
 40
3.6
  1
2
  0
LINE
  5
396
  8
回91-枠英2
 10
1924.355360640178
 20
438.0397041050469
 30
0.0
 11
1919.855360640178
 21
438.0397041050469
 31
0.0
  0
TEXT
  5
397
  8
回91-枠英2
 10
1921.119339543471
 20
539.9995226713204
 30
0.0
 40
3.6
  1
1
  0
TEXT
  5
398
  8
回91-枠英2
 10
2295.355360640178
 20
247.6315863002792
 30
0.0
 40
5.0
  1
QST-085WA075H
 72
     1
 11
2320.855360640178
 21
247.6315863002792
 31
0.0
  0
TEXT
  5
399
  8
回91-枠英2
 10
2311.405360640179
 20
256.0869570244104
 30
0.0
 40
3.0
  1
PART　No.
 72
     1
 11
2320.855360640178
 21
256.0869570244104
 31
0.0
  0
TEXT
  5
39A
  8
回91-枠英2
 10
2332.711807415265
 20
225.974884918493
 30
0.0
 40
3.6
  1
G
  0
LINE
  5
39B
  8
回91-枠英2
 10
2291.355360640178
 20
235.1397041050473
 30
0.0
 11
2350.355360640179
 21
235.1397041050473
 31
0.0
  0
TEXT
  5
39C
  8
回91-枠英2
 10
2297.514770088997
 20
236.2897348364331
 30
0.0
 40
3.0
  1
STANDARD TOUCHSCREEN
 72
     1
 11
2320.855360640178
 21
236.2897348364331
 31
0.0
  0
TEXT
  5
39D
  8
回91-枠英2
 10
2304.275259178829
 20
231.2897348364332
 30
0.0
 40
3.0
  1
CIRCUIT　DRAWING
 72
     1
 11
2320.855360640178
 21
231.2897348364332
 31
0.0
  0
LINE
  5
39E
  8
回91-枠英2
 10
2353.355360640179
 20
260.1397041050473
 30
0.0
 11
2353.355360640179
 21
230.1397041050473
 31
0.0
  0
TEXT
  5
39F
  8
回91-枠英2
 10
2316.055360640178
 20
240.8833237946224
 30
0.0
 40
3.0
  1
TYPE
 72
     1
 11
2320.855360640178
 21
240.8833237946224
 31
0.0
  0
LINE
  5
3A0
  8
回91-枠英2
 10
2302.355360640178
 20
230.1397041050473
 30
0.0
 11
2302.355360640178
 21
225.6397041050473
 31
0.0
  0
TEXT
  5
3A1
  8
回91-枠英2
 10
2269.711807415266
 20
225.974884918493
 30
0.0
 40
3.6
  1
F
  0
LINE
  5
3A2
  8
回91-枠英2
 10
2288.355360640178
 20
260.1397041050473
 30
0.0
 11
2288.355360640178
 21
230.1397041050473
 31
0.0
  0
LINE
  5
3A3
  8
回91-枠英2
 10
2239.355360640178
 20
230.1397041050473
 30
0.0
 11
2239.355360640178
 21
225.6397041050473
 31
0.0
  0
TEXT
  5
3A4
  8
回91-枠英2
 10
2206.711807415266
 20
225.974884918493
 30
0.0
 40
3.6
  1
E
  0
LINE
  5
3A5
  8
回91-枠英2
 10
2176.355360640178
 20
230.1397041050473
 30
0.0
 11
2176.355360640178
 21
225.6397041050473
 31
0.0
  0
TEXT
  5
3A6
  8
回91-枠英2
 10
2143.711807415265
 20
225.974884918493
 30
0.0
 40
3.6
  1
D
  0
LINE
  5
3A7
  8
回91-枠英2
 10
2288.355360640178
 20
245.1397041050473
 30
0.0
 11
2353.355360640179
 21
245.1397041050473
 31
0.0
  0
LINE
  5
3A8
  8
回91-枠英2
 10
2113.355360640178
 20
230.1397041050473
 30
0.0
 11
2113.355360640178
 21
225.6397041050473
 31
0.0
  0
TEXT
  5
3A9
  8
回91-枠英2
 10
2080.711807415266
 20
225.974884918493
 30
0.0
 40
3.6
  1
C
  0
LINE
  5
3AA
  8
回91-枠英2
 10
2050.355360640178
 20
230.1397041050473
 30
0.0
 11
2050.355360640178
 21
225.6397041050473
 31
0.0
  0
TEXT
  5
3AB
  8
回91-枠英2
 10
2017.711807415266
 20
225.974884918493
 30
0.0
 40
3.6
  1
B
  0
TEXT
  5
3AC
  8
回91-枠英2
 10
1920.843057950719
 20
401.3995226713205
 30
0.0
 40
3.6
  1
3
  0
LINE
  5
3AD
  8
回91-枠英2
 10
1924.355360640178
 20
368.7397041050472
 30
0.0
 11
1919.855360640178
 21
368.7397041050472
 31
0.0
  0
TEXT
  5
3AE
  8
回91-枠英2
 10
1920.777275042647
 20
332.0995226713203
 30
0.0
 40
3.6
  1
4
  0
LINE
  5
3AF
  8
回91-枠英2
 10
1987.355360640178
 20
230.1397041050473
 30
0.0
 11
1987.355360640178
 21
225.6397041050473
 31
0.0
  0
TEXT
  5
3B0
  8
回91-枠英2
 10
1954.711807415265
 20
225.974884918493
 30
0.0
 40
3.6
  1
A
  0
LINE
  5
3B1
  8
回91-枠英2
 10
1924.355360640178
 20
299.439704105047
 30
0.0
 11
1919.855360640178
 21
299.439704105047
 31
0.0
  0
TEXT
  5
3B2
  8
回91-枠英2
 10
1920.777275042647
 20
262.7995226713206
 30
0.0
 40
3.6
  1
5
  0
LINE
  5
3B3
  8
回91-枠英2
 10
1919.855360640178
 20
225.6397041050473
 30
0.0
 11
1919.855360640178
 21
581.1397041050472
 31
0.0
  0
LINE
  5
3B4
  8
回91-枠英2
 10
1924.355360640178
 20
576.6397041050472
 30
0.0
 11
1924.355360640178
 21
230.1397041050473
 31
0.0
  0
LINE
  5
3B5
  8
回91-枠英2
 10
1924.355360640178
 20
230.1397041050473
 30
0.0
 11
2428.355360640179
 21
230.1397041050473
 31
0.0
  0
LINE
  5
3B6
  8
回91-枠英2
 10
2432.855360640179
 20
225.6397041050473
 30
0.0
 11
1919.855360640178
 21
225.6397041050473
 31
0.0
  0
LINE
  5
3B7
  8
回91-枠英2
 10
2432.855360640179
 20
581.1397041050472
 30
0.0
 11
1919.855360640178
 21
581.1397041050472
 31
0.0
  0
LINE
  5
3B8
  8
回91-枠英2
 10
1924.355360640178
 20
576.6397041050472
 30
0.0
 11
2428.355360640179
 21
576.6397041050472
 31
0.0
  0
LINE
  5
3B9
  8
回91-枠英2
 10
2288.355360640178
 20
240.1397041050473
 30
0.0
 11
2428.355360640179
 21
240.1397041050473
 31
0.0
  0
LINE
  5
3BA
  8
回91-枠英2
 10
2288.355360640178
 20
260.1397041050473
 30
0.0
 11
2428.355360640179
 21
260.1397041050473
 31
0.0
  0
LINE
  5
3BB
  8
回91-枠英2
 10
2288.355360640178
 20
255.1397041050473
 30
0.0
 11
2428.355360640179
 21
255.1397041050473
 31
0.0
  0
ENDSEC
  0
EOF
