  0
SECTION
  2
HEADER
  9
$ACADVER
  1
AC1009
  9
$INSBASE
 10
0.0
 20
0.0
 30
0.0
  9
$EXTMIN
 10
-514.4553851716118
 20
-1441.397150871841
 30
0.0
  9
$EXTMAX
 10
2802.257233667032
 20
-511.9097667544018
 30
0.0
  9
$LIMMIN
 10
0.0
 20
0.0
  9
$LIMMAX
 10
3000.0
 20
2500.0
  9
$ORTHOMODE
 70
     0
  9
$REGENMODE
 70
     1
  9
$FILLMODE
 70
     1
  9
$QTEXTMODE
 70
     0
  9
$MIRRTEXT
 70
     1
  9
$DRAGMODE
 70
     2
  9
$LTSCALE
 40
0.5
  9
$OSMODE
 70
    37
  9
$ATTMODE
 70
     1
  9
$TEXTSIZE
 40
3.0
  9
$TRACEWID
 40
1.0
  9
$TEXTSTYLE
  7
STANDARD
  9
$CLAYER
  8
回08-記事
  9
$CELTYPE
  6
CONTINUOUS
  9
$CECOLOR
 62
     7
  9
$DIMSCALE
 40
1.0
  9
$DIMASZ
 40
2.0
  9
$DIMEXO
 40
0.0
  9
$DIMDLI
 40
0.0
  9
$DIMRND
 40
0.0
  9
$DIMDLE
 40
0.0
  9
$DIMEXE
 40
1.0
  9
$DIMTP
 40
0.0
  9
$DIMTM
 40
0.0
  9
$DIMTXT
 40
3.0
  9
$DIMCEN
 40
2.0
  9
$DIMTSZ
 40
0.0
  9
$DIMTOL
 70
     0
  9
$DIMLIM
 70
     0
  9
$DIMTIH
 70
     0
  9
$DIMTOH
 70
     0
  9
$DIMSE1
 70
     0
  9
$DIMSE2
 70
     0
  9
$DIMTAD
 70
     3
  9
$DIMZIN
 70
     8
  9
$DIMBLK
  1
OPEN
  9
$DIMASO
 70
     1
  9
$DIMSHO
 70
     1
  9
$DIMPOST
  1

  9
$DIMAPOST
  1

  9
$DIMALT
 70
     1
  9
$DIMALTD
 70
     3
  9
$DIMALTF
 40
0.03937007874016
  9
$DIMLFAC
 40
1.0
  9
$DIMTOFL
 70
     1
  9
$DIMTVP
 40
0.0
  9
$DIMTIX
 70
     0
  9
$DIMSOXD
 70
     0
  9
$DIMSAH
 70
     0
  9
$DIMBLK1
  1

  9
$DIMBLK2
  1

  9
$DIMSTYLE
  2
DMC
  9
$DIMCLRD
 70
     5
  9
$DIMCLRE
 70
     5
  9
$DIMCLRT
 70
     5
  9
$DIMTFAC
 40
0.7
  9
$DIMGAP
 40
0.5
  9
$LUNITS
 70
     2
  9
$LUPREC
 70
     4
  9
$SKETCHINC
 40
1.0
  9
$FILLETRAD
 40
0.0
  9
$AUNITS
 70
     0
  9
$AUPREC
 70
     0
  9
$MENU
  1
.
  9
$ELEVATION
 40
0.0
  9
$PELEVATION
 40
0.0
  9
$THICKNESS
 40
0.0
  9
$LIMCHECK
 70
     0
  9
$BLIPMODE
 70
     0
  9
$CHAMFERA
 40
1.0
  9
$CHAMFERB
 40
1.0
  9
$SKPOLY
 70
     0
  9
$TDCREATE
 40
2451810.404221065
  9
$TDUPDATE
 40
2460224.583803704
  9
$TDINDWG
 40
3.808793808
  9
$TDUSRTIMER
 40
3.808793113
  9
$USRTIMER
 70
     1
  9
$ANGBASE
 50
0.0
  9
$ANGDIR
 70
     0
  9
$PDMODE
 70
     0
  9
$PDSIZE
 40
0.0
  9
$PLINEWID
 40
0.2
  9
$COORDS
 70
     0
  9
$SPLFRAME
 70
     0
  9
$SPLINETYPE
 70
     6
  9
$SPLINESEGS
 70
     8
  9
$ATTDIA
 70
     1
  9
$ATTREQ
 70
     1
  9
$HANDLING
 70
     1
  9
$HANDSEED
  5
4D2
  9
$SURFTAB1
 70
     6
  9
$SURFTAB2
 70
     6
  9
$SURFTYPE
 70
     6
  9
$SURFU
 70
     6
  9
$SURFV
 70
     6
  9
$UCSNAME
  2

  9
$UCSORG
 10
0.0
 20
0.0
 30
0.0
  9
$UCSXDIR
 10
1.0
 20
0.0
 30
0.0
  9
$UCSYDIR
 10
0.0
 20
1.0
 30
0.0
  9
$PUCSNAME
  2

  9
$PUCSORG
 10
0.0
 20
0.0
 30
0.0
  9
$PUCSXDIR
 10
1.0
 20
0.0
 30
0.0
  9
$PUCSYDIR
 10
0.0
 20
1.0
 30
0.0
  9
$USERI1
 70
     0
  9
$USERI2
 70
     0
  9
$USERI3
 70
     0
  9
$USERI4
 70
     0
  9
$USERI5
 70
     0
  9
$USERR1
 40
0.0
  9
$USERR2
 40
0.0
  9
$USERR3
 40
0.0
  9
$USERR4
 40
0.0
  9
$USERR5
 40
0.0
  9
$WORLDVIEW
 70
     1
  9
$SHADEDGE
 70
     3
  9
$SHADEDIF
 70
    70
  9
$TILEMODE
 70
     1
  9
$MAXACTVP
 70
    64
  9
$PLIMCHECK
 70
     0
  9
$PEXTMIN
 10
1.000000000000000E+20
 20
1.000000000000000E+20
 30
1.000000000000000E+20
  9
$PEXTMAX
 10
-1.000000000000000E+20
 20
-1.000000000000000E+20
 30
-1.000000000000000E+20
  9
$PLIMMIN
 10
0.0
 20
0.0
  9
$PLIMMAX
 10
420.0
 20
297.0
  9
$UNITMODE
 70
     0
  9
$VISRETAIN
 70
     1
  9
$PLINEGEN
 70
     0
  9
$PSLTSCALE
 70
     1
  0
ENDSEC
  0
SECTION
  2
TABLES
  0
TABLE
  2
VPORT
 70
     1
  0
VPORT
  2
*ACTIVE
 70
     0
 10
0.0
 20
0.0
 11
1.0
 21
1.0
 12
442.9100733885436
 22
-1193.859483261885
 13
0.0
 23
0.0
 14
10.0
 24
10.0
 15
10.0
 25
10.0
 16
0.0
 26
0.0
 36
1.0
 17
0.0
 27
0.0
 37
0.0
 40
463.9995242100617
 41
2.216284987277353
 42
50.0
 43
0.0
 44
0.0
 50
0.0
 51
0.0
 71
     0
 72
   500
 73
     1
 74
     1
 75
     0
 76
     0
 77
     0
 78
     0
  0
ENDTAB
  0
TABLE
  2
LTYPE
 70
     3
  0
LTYPE
  2
CONTINUOUS
 70
     0
  3
Solid line
 72
    65
 73
     0
 40
0.0
  0
LTYPE
  2
DASHED2
 70
     0
  3
Dashed (.5x) _ _ _ _ _ _ _ _ _ _ _ _ _ _ _ _ _
 72
    65
 73
     2
 40
9.524999999999998
 49
6.349999999999999
 49
-3.174999999999999
  0
LTYPE
  2
CENTER2
 70
     0
  3
Center (.5x) ___ _ ___ _ ___ _ ___ _ ___ _ ___
 72
    65
 73
     4
 40
28.575
 49
19.05
 49
-3.174999999999999
 49
3.174999999999999
 49
-3.174999999999999
  0
ENDTAB
  0
TABLE
  2
LAYER
 70
     9
  0
LAYER
  2
0
 70
     0
 62
     7
  6
CONTINUOUS
  0
LAYER
  2
DEFPOINTS
 70
     0
 62
     7
  6
CONTINUOUS
  0
LAYER
  2
回04-下接
 70
     0
 62
     7
  6
CONTINUOUS
  0
LAYER
  2
回08-記事
 70
     0
 62
     7
  6
CONTINUOUS
  0
LAYER
  2
ACC
 70
     0
 62
     7
  6
CONTINUOUS
  0
LAYER
  2
回05-ﾃｰﾙ
 70
     0
 62
     7
  6
CONTINUOUS
  0
LAYER
  2
回07-寸法
 70
     0
 62
     7
  6
CONTINUOUS
  0
LAYER
  2
回91-枠英2
 70
     0
 62
     7
  6
CONTINUOUS
  0
LAYER
  2
回03-記事
 70
     0
 62
     7
  6
CONTINUOUS
  0
ENDTAB
  0
TABLE
  2
STYLE
 70
     1
  0
STYLE
  2
STANDARD
 70
     0
 40
3.0
 41
1.0
 50
0.0
 71
     0
 42
3.0
  3
isocp.shx
  4
bigfont.shx
  0
ENDTAB
  0
TABLE
  2
VIEW
 70
     0
  0
ENDTAB
  0
TABLE
  2
UCS
 70
     0
  0
ENDTAB
  0
TABLE
  2
APPID
 70
     3
  0
APPID
  2
ACAD
 70
     0
  0
APPID
  2
ACAECLAYERSTANDARD
 70
     0
  0
APPID
  2
ACAD_NAV_VCDISPLAY
 70
     0
  0
ENDTAB
  0
TABLE
  2
DIMSTYLE
 70
     1
  0
DIMSTYLE
  2
DMC
 70
     0
  3

  4

  5
OPEN
  6

  7

 40
1.0
 41
2.0
 42
0.0
 43
0.0
 44
1.0
 45
0.0
 46
0.0
 47
0.0
 48
0.0
140
3.0
141
2.0
142
0.0
143
0.03937007874016
144
1.0
145
0.0
146
0.7
147
0.5
 71
     0
 72
     0
 73
     0
 74
     0
 75
     0
 76
     0
 77
     3
 78
     8
170
     0
171
     3
172
     1
173
     0
174
     0
175
     0
176
     5
177
     5
178
     5
  0
ENDTAB
  0
ENDSEC
  0
SECTION
  2
BLOCKS
  0
BLOCK
  8
0
  2
$MODEL_SPACE
 70
     0
 10
0.0
 20
0.0
 30
0.0
  3
$MODEL_SPACE
  1

  0
ENDBLK
  8
0
  5
20
  0
BLOCK
 67
     1
  8
0
  2
$PAPER_SPACE
 70
     0
 10
0.0
 20
0.0
 30
0.0
  3
$PAPER_SPACE
  1

  0
ENDBLK
  5
25
 67
     1
  8
0
  0
BLOCK
  8
0
  2
_OPEN
 70
     0
 10
0.0
 20
0.0
 30
0.0
  3
_OPEN
  1

  0
LINE
  5
14
  8
0
  6
CONTINUOUS
 62
     0
 10
-1.0
 20
0.1666666666666666
 30
0.0
 11
0.0
 21
0.0
 31
0.0
  0
LINE
  5
15
  8
0
  6
CONTINUOUS
 62
     0
 10
-1.0
 20
-0.1666666666666666
 30
0.0
 11
0.0
 21
0.0
 31
0.0
  0
LINE
  5
16
  8
0
  6
CONTINUOUS
 62
     0
 10
0.0
 20
0.0
 30
0.0
 11
-1.0
 21
0.0
 31
0.0
  0
ENDBLK
  5
17
  8
0
  0
BLOCK
  8
0
  2
*D1
 70
     1
 10
0.0
 20
0.0
 30
0.0
  3
*D1
  1

  0
LINE
  5
2EF
  8
回08-記事
  6
CONTINUOUS
 62
     5
 10
181.0417287828253
 20
-1280.958826508369
 30
0.0
 11
181.0417287828253
 21
-1269.831909380736
 31
0.0
  0
LINE
  5
2F0
  8
回08-記事
  6
CONTINUOUS
 62
     5
 10
191.0417287828253
 20
-1280.958826508369
 30
0.0
 11
191.0417287828253
 21
-1269.831909380736
 31
0.0
  0
LINE
  5
2F1
  8
回08-記事
  6
CONTINUOUS
 62
     5
 10
193.0417287828253
 20
-1270.831909380736
 30
0.0
 11
195.0417287828253
 21
-1270.831909380736
 31
0.0
  0
LINE
  5
2F2
  8
回08-記事
  6
CONTINUOUS
 62
     5
 10
179.0417287828253
 20
-1270.831909380736
 30
0.0
 11
157.1336079960669
 21
-1270.831909380736
 31
0.0
  0
LINE
  5
2F3
  8
回08-記事
  6
CONTINUOUS
 62
     5
 10
191.0417287828253
 20
-1270.831909380736
 30
0.0
 11
181.0417287828253
 21
-1270.831909380736
 31
0.0
  0
INSERT
  5
2F4
  8
回08-記事
  6
CONTINUOUS
 62
     5
 66
     1
  2
_OPEN
 10
191.0417287828253
 20
-1270.831909380736
 30
0.0
 41
2.0
 42
2.0
 43
2.0
 50
180.0
  0
SEQEND
  5
2F5
  8
回08-記事
  6
CONTINUOUS
 62
     7
  0
INSERT
  5
2F6
  8
回08-記事
  6
CONTINUOUS
 62
     5
 66
     1
  2
_OPEN
 10
181.0417287828253
 20
-1270.831909380736
 30
0.0
 41
2.0
 42
2.0
 43
2.0
  0
SEQEND
  5
2F7
  8
回08-記事
  6
CONTINUOUS
 62
     7
  0
TEXT
  5
2F8
  8
回08-記事
  6
CONTINUOUS
 62
     5
 10
157.1822528366556
 20
-1270.181969286838
 30
0.0
 40
3.0
  1
(10 [0.394])
1001
ACAD
1000
MTEXTBEGIN
1070
    73
1070
     1
1070
    44
1040
1.0
1070
    74
1070
     0
1000
MTEXTEND
  0
POINT
  5
2F9
  8
DEFPOINTS
  6
CONTINUOUS
 62
     0
 10
181.0417287828253
 20
-1280.958826508369
 30
0.0
  0
POINT
  5
2FA
  8
DEFPOINTS
  6
CONTINUOUS
 62
     0
 10
191.0417287828253
 20
-1280.958826508369
 30
0.0
  0
POINT
  5
2FB
  8
DEFPOINTS
  6
CONTINUOUS
 62
     0
 10
191.0417287828253
 20
-1270.831909380736
 30
0.0
  0
ENDBLK
  5
2FC
  8
0
 62
     7
  0
BLOCK
  8
0
  2
*D2
 70
     1
 10
0.0
 20
0.0
 30
0.0
  3
*D2
  1

  0
LINE
  5
2DD
  8
回08-記事
  6
CONTINUOUS
 62
     5
 10
181.0417287828253
 20
-1283.958826508369
 30
0.0
 11
181.0417287828253
 21
-1295.052891329636
 31
0.0
  0
LINE
  5
2DE
  8
回08-記事
  6
CONTINUOUS
 62
     5
 10
186.0417287828253
 20
-1283.958826508369
 30
0.0
 11
186.0417287828253
 21
-1295.052891329636
 31
0.0
  0
LINE
  5
2DF
  8
回08-記事
  6
CONTINUOUS
 62
     5
 10
179.0417287828253
 20
-1294.052891329636
 30
0.0
 11
177.0417287828253
 21
-1294.052891329636
 31
0.0
  0
LINE
  5
2E0
  8
回08-記事
  6
CONTINUOUS
 62
     5
 10
188.0417287828253
 20
-1294.052891329636
 30
0.0
 11
205.1522117743081
 21
-1294.052891329636
 31
0.0
  0
LINE
  5
2E1
  8
回08-記事
  6
CONTINUOUS
 62
     5
 10
181.0417287828253
 20
-1294.052891329636
 30
0.0
 11
186.0417287828253
 21
-1294.052891329636
 31
0.0
  0
INSERT
  5
2E2
  8
回08-記事
  6
CONTINUOUS
 62
     5
 66
     1
  2
_OPEN
 10
181.0417287828253
 20
-1294.052891329636
 30
0.0
 41
2.0
 42
2.0
 43
2.0
  0
SEQEND
  5
2E3
  8
回08-記事
  6
CONTINUOUS
 62
     7
  0
INSERT
  5
2E4
  8
回08-記事
  6
CONTINUOUS
 62
     5
 66
     1
  2
_OPEN
 10
186.0417287828253
 20
-1294.052891329636
 30
0.0
 41
2.0
 42
2.0
 43
2.0
 50
180.0
  0
SEQEND
  5
2E5
  8
回08-記事
  6
CONTINUOUS
 62
     7
  0
TEXT
  5
2E6
  8
回08-記事
  6
CONTINUOUS
 62
     5
 10
190.0915547257763
 20
-1293.402951235738
 30
0.0
 40
3.0
  1
5 [0.197]
1001
ACAD
1000
MTEXTBEGIN
1070
    73
1070
     1
1070
    44
1040
1.0
1070
    74
1070
     0
1000
MTEXTEND
  0
POINT
  5
2E7
  8
DEFPOINTS
  6
CONTINUOUS
 62
     0
 10
181.0417287828253
 20
-1283.958826508369
 30
0.0
  0
POINT
  5
2E8
  8
DEFPOINTS
  6
CONTINUOUS
 62
     0
 10
186.0417287828253
 20
-1283.958826508369
 30
0.0
  0
POINT
  5
2E9
  8
DEFPOINTS
  6
CONTINUOUS
 62
     0
 10
186.0417287828253
 20
-1294.052891329636
 30
0.0
  0
ENDBLK
  5
2EA
  8
0
 62
     7
  0
BLOCK
  8
0
  2
*D3
 70
     1
 10
0.0
 20
0.0
 30
0.0
  3
*D3
  1

  0
LINE
  5
2CC
  8
回08-記事
  6
CONTINUOUS
 62
     5
 10
181.0417287828254
 20
-1276.958826508369
 30
0.0
 11
148.2409631756385
 21
-1276.958826508369
 31
0.0
  0
LINE
  5
2CD
  8
回08-記事
  6
CONTINUOUS
 62
     5
 10
181.0417287828254
 20
-1283.958826508369
 30
0.0
 11
148.2409631756385
 21
-1283.958826508369
 31
0.0
  0
LINE
  5
2CE
  8
回08-記事
  6
CONTINUOUS
 62
     5
 10
149.2409631756386
 20
-1285.958826508369
 30
0.0
 11
149.2409631756386
 21
-1287.958826508369
 31
0.0
  0
LINE
  5
2CF
  8
回08-記事
  6
CONTINUOUS
 62
     5
 10
149.2409631756386
 20
-1274.958826508369
 30
0.0
 11
149.2409631756386
 21
-1242.086604303645
 31
0.0
  0
LINE
  5
2D0
  8
回08-記事
  6
CONTINUOUS
 62
     5
 10
149.2409631756386
 20
-1283.958826508369
 30
0.0
 11
149.2409631756386
 21
-1276.958826508369
 31
0.0
  0
INSERT
  5
2D1
  8
回08-記事
  6
CONTINUOUS
 62
     5
 66
     1
  2
_OPEN
 10
149.2409631756386
 20
-1283.958826508369
 30
0.0
 41
2.0
 42
2.0
 43
2.0
 50
90.0
  0
SEQEND
  5
2D2
  8
回08-記事
  6
CONTINUOUS
 62
     7
  0
INSERT
  5
2D3
  8
回08-記事
  6
CONTINUOUS
 62
     5
 66
     1
  2
_OPEN
 10
149.2409631756386
 20
-1276.958826508369
 30
0.0
 41
2.0
 42
2.0
 43
2.0
 50
270.0
  0
SEQEND
  5
2D4
  8
回08-記事
  6
CONTINUOUS
 62
     7
  0
INSERT
  5
2D5
  8
回08-記事
  6
CONTINUOUS
 62
     5
 66
     1
  2
*X46
 10
0.0
 20
0.0
 30
0.0
  0
SEQEND
  5
45E
  8
回08-記事
  6
CONTINUOUS
 62
     7
  0
POINT
  5
2D6
  8
DEFPOINTS
  6
CONTINUOUS
 62
     0
 10
181.0417287828254
 20
-1276.958826508369
 30
0.0
  0
POINT
  5
2D7
  8
DEFPOINTS
  6
CONTINUOUS
 62
     0
 10
181.0417287828254
 20
-1283.958826508369
 30
0.0
  0
POINT
  5
2D8
  8
DEFPOINTS
  6
CONTINUOUS
 62
     0
 10
149.2409631756386
 20
-1283.958826508369
 30
0.0
  0
ENDBLK
  5
2D9
  8
0
 62
     7
  0
BLOCK
  8
0
  2
*D4
 70
     1
 10
0.0
 20
0.0
 30
0.0
  3
*D4
  1

  0
LINE
  5
277
  8
回08-記事
  6
CONTINUOUS
 62
     5
 10
488.0417287828255
 20
-1276.958826508369
 30
0.0
 11
498.0014548178188
 21
-1276.958826508369
 31
0.0
  0
LINE
  5
278
  8
回08-記事
  6
CONTINUOUS
 62
     5
 10
488.0417287828255
 20
-1289.958826508369
 30
0.0
 11
498.0014548178188
 21
-1289.958826508369
 31
0.0
  0
LINE
  5
279
  8
回08-記事
  6
CONTINUOUS
 62
     5
 10
497.0014548178188
 20
-1274.958826508369
 30
0.0
 11
497.0014548178188
 21
-1272.958826508369
 31
0.0
  0
LINE
  5
27A
  8
回08-記事
  6
CONTINUOUS
 62
     5
 10
497.0014548178188
 20
-1291.958826508369
 30
0.0
 11
497.0014548178188
 21
-1323.537120602214
 31
0.0
  0
LINE
  5
27B
  8
回08-記事
  6
CONTINUOUS
 62
     5
 10
497.0014548178188
 20
-1276.958826508369
 30
0.0
 11
497.0014548178188
 21
-1289.958826508369
 31
0.0
  0
INSERT
  5
27C
  8
回08-記事
  6
CONTINUOUS
 62
     5
 66
     1
  2
_OPEN
 10
497.0014548178188
 20
-1276.958826508369
 30
0.0
 41
2.0
 42
2.0
 43
2.0
 50
270.0
  0
SEQEND
  5
27D
  8
回08-記事
  6
CONTINUOUS
 62
     7
  0
INSERT
  5
27E
  8
回08-記事
  6
CONTINUOUS
 62
     5
 66
     1
  2
_OPEN
 10
497.0014548178188
 20
-1289.958826508369
 30
0.0
 41
2.0
 42
2.0
 43
2.0
 50
90.0
  0
SEQEND
  5
27F
  8
回08-記事
  6
CONTINUOUS
 62
     7
  0
INSERT
  5
280
  8
回08-記事
  6
CONTINUOUS
 62
     5
 66
     1
  2
*X47
 10
0.0
 20
0.0
 30
0.0
  0
SEQEND
  5
467
  8
回08-記事
  6
CONTINUOUS
 62
     7
  0
POINT
  5
281
  8
DEFPOINTS
  6
CONTINUOUS
 62
     0
 10
488.0417287828255
 20
-1276.958826508369
 30
0.0
  0
POINT
  5
282
  8
DEFPOINTS
  6
CONTINUOUS
 62
     0
 10
488.0417287828255
 20
-1289.958826508369
 30
0.0
  0
POINT
  5
283
  8
DEFPOINTS
  6
CONTINUOUS
 62
     0
 10
497.0014548178188
 20
-1289.958826508369
 30
0.0
  0
ENDBLK
  5
284
  8
0
 62
     7
  0
BLOCK
  8
0
  2
*D5
 70
     1
 10
0.0
 20
0.0
 30
0.0
  3
*D5
  1

  0
LINE
  5
252
  8
回08-記事
  6
CONTINUOUS
 62
     5
 10
488.1417287828252
 20
-1276.958826508369
 30
0.0
 11
488.1417287828252
 21
-1267.780455426742
 31
0.0
  0
LINE
  5
253
  8
回08-記事
  6
CONTINUOUS
 62
     5
 10
488.6417287828252
 20
-1283.958826508369
 30
0.0
 11
488.6417287828252
 21
-1267.780455426742
 31
0.0
  0
LINE
  5
254
  8
回08-記事
  6
CONTINUOUS
 62
     5
 10
486.1417287828252
 20
-1268.780455426741
 30
0.0
 11
484.1417287828252
 21
-1268.780455426741
 31
0.0
  0
LINE
  5
255
  8
回08-記事
  6
CONTINUOUS
 62
     5
 10
490.6417287828252
 20
-1268.780455426741
 30
0.0
 11
513.7393665781007
 21
-1268.780455426741
 31
0.0
  0
LINE
  5
256
  8
回08-記事
  6
CONTINUOUS
 62
     5
 10
488.1417287828252
 20
-1268.780455426741
 30
0.0
 11
488.6417287828252
 21
-1268.780455426741
 31
0.0
  0
INSERT
  5
257
  8
回08-記事
  6
CONTINUOUS
 62
     5
 66
     1
  2
_OPEN
 10
488.1417287828252
 20
-1268.780455426741
 30
0.0
 41
2.0
 42
2.0
 43
2.0
  0
SEQEND
  5
258
  8
回08-記事
  6
CONTINUOUS
 62
     7
  0
INSERT
  5
259
  8
回08-記事
  6
CONTINUOUS
 62
     5
 66
     1
  2
_OPEN
 10
488.6417287828252
 20
-1268.780455426741
 30
0.0
 41
2.0
 42
2.0
 43
2.0
 50
180.0
  0
SEQEND
  5
25A
  8
回08-記事
  6
CONTINUOUS
 62
     7
  0
TEXT
  5
25B
  8
回08-記事
  6
CONTINUOUS
 62
     5
 10
492.690547680463
 20
-1268.130455426741
 30
0.0
 40
3.0
  1
(0.5 [0.020])
1001
ACAD
1000
MTEXTBEGIN
1070
    73
1070
     1
1070
    44
1040
1.0
1070
    74
1070
     0
1000
MTEXTEND
  0
POINT
  5
25C
  8
DEFPOINTS
  6
CONTINUOUS
 62
     0
 10
488.1417287828252
 20
-1276.958826508369
 30
0.0
  0
POINT
  5
25D
  8
DEFPOINTS
  6
CONTINUOUS
 62
     0
 10
488.6417287828252
 20
-1283.958826508369
 30
0.0
  0
POINT
  5
25E
  8
DEFPOINTS
  6
CONTINUOUS
 62
     0
 10
488.6417287828252
 20
-1268.780455426741
 30
0.0
  0
ENDBLK
  5
25F
  8
0
 62
     7
  0
BLOCK
  8
0
  2
*D6
 70
     1
 10
0.0
 20
0.0
 30
0.0
  3
*D6
  1

  0
LINE
  5
241
  8
回08-記事
  6
CONTINUOUS
 62
     5
 10
261.0417287828253
 20
-1283.958826508369
 30
0.0
 11
261.0417287828253
 21
-1271.363725450209
 31
0.0
  0
LINE
  5
242
  8
回08-記事
  6
CONTINUOUS
 62
     5
 10
261.5417287828253
 20
-1276.958826508369
 30
0.0
 11
261.5417287828253
 21
-1271.363725450209
 31
0.0
  0
LINE
  5
243
  8
回08-記事
  6
CONTINUOUS
 62
     5
 10
259.0417287828253
 20
-1272.363725450209
 30
0.0
 11
257.0417287828253
 21
-1272.363725450209
 31
0.0
  0
LINE
  5
244
  8
回08-記事
  6
CONTINUOUS
 62
     5
 10
263.5417287828253
 20
-1272.363725450209
 30
0.0
 11
286.6393665781009
 21
-1272.363725450209
 31
0.0
  0
LINE
  5
245
  8
回08-記事
  6
CONTINUOUS
 62
     5
 10
261.0417287828253
 20
-1272.363725450209
 30
0.0
 11
261.5417287828253
 21
-1272.363725450209
 31
0.0
  0
INSERT
  5
246
  8
回08-記事
  6
CONTINUOUS
 62
     5
 66
     1
  2
_OPEN
 10
261.0417287828253
 20
-1272.363725450209
 30
0.0
 41
2.0
 42
2.0
 43
2.0
  0
SEQEND
  5
247
  8
回08-記事
  6
CONTINUOUS
 62
     7
  0
INSERT
  5
248
  8
回08-記事
  6
CONTINUOUS
 62
     5
 66
     1
  2
_OPEN
 10
261.5417287828253
 20
-1272.363725450209
 30
0.0
 41
2.0
 42
2.0
 43
2.0
 50
180.0
  0
SEQEND
  5
249
  8
回08-記事
  6
CONTINUOUS
 62
     7
  0
TEXT
  5
24A
  8
回08-記事
  6
CONTINUOUS
 62
     5
 10
265.5905476804631
 20
-1271.713725450209
 30
0.0
 40
3.0
  1
(0.5 [0.020])
1001
ACAD
1000
MTEXTBEGIN
1070
    73
1070
     1
1070
    44
1040
1.0
1070
    74
1070
     0
1000
MTEXTEND
  0
POINT
  5
24B
  8
DEFPOINTS
  6
CONTINUOUS
 62
     0
 10
261.0417287828253
 20
-1283.958826508369
 30
0.0
  0
POINT
  5
24C
  8
DEFPOINTS
  6
CONTINUOUS
 62
     0
 10
261.5417287828253
 20
-1276.958826508369
 30
0.0
  0
POINT
  5
24D
  8
DEFPOINTS
  6
CONTINUOUS
 62
     0
 10
261.5417287828253
 20
-1272.363725450209
 30
0.0
  0
ENDBLK
  5
24E
  8
0
 62
     7
  0
BLOCK
  8
0
  2
*D7
 70
     1
 10
0.0
 20
0.0
 30
0.0
  3
*D7
  1

  0
LINE
  5
22E
  8
回07-寸法
  6
CONTINUOUS
 62
     5
 10
271.0417287828253
 20
-1072.783660736303
 30
0.0
 11
271.0417287828253
 21
-1048.663001667709
 31
0.0
  0
LINE
  5
22F
  8
回07-寸法
  6
CONTINUOUS
 62
     5
 10
482.2417287828253
 20
-1072.783660736303
 30
0.0
 11
482.2417287828253
 21
-1048.663001667709
 31
0.0
  0
LINE
  5
230
  8
回07-寸法
  6
CONTINUOUS
 62
     5
 10
273.0417287828253
 20
-1049.663001667709
 30
0.0
 11
480.2417287828253
 21
-1049.663001667709
 31
0.0
  0
INSERT
  5
231
  8
回07-寸法
  6
CONTINUOUS
 62
     5
 66
     1
  2
_OPEN
 10
271.0417287828253
 20
-1049.663001667709
 30
0.0
 41
2.0
 42
2.0
 43
2.0
 50
180.0
  0
SEQEND
  5
232
  8
回08-記事
  6
CONTINUOUS
 62
     7
  0
INSERT
  5
233
  8
回07-寸法
  6
CONTINUOUS
 62
     5
 66
     1
  2
_OPEN
 10
482.2417287828253
 20
-1049.663001667709
 30
0.0
 41
2.0
 42
2.0
 43
2.0
  0
SEQEND
  5
234
  8
回08-記事
  6
CONTINUOUS
 62
     7
  0
INSERT
  5
235
  8
回07-寸法
  6
CONTINUOUS
 62
     5
 66
     1
  2
*X48
 10
0.0
 20
0.0
 30
0.0
  0
SEQEND
  5
46D
  8
回08-記事
  6
CONTINUOUS
 62
     7
  0
POINT
  5
236
  8
DEFPOINTS
  6
CONTINUOUS
 62
     0
 10
271.0417287828253
 20
-1072.783660736303
 30
0.0
  0
POINT
  5
237
  8
DEFPOINTS
  6
CONTINUOUS
 62
     0
 10
482.2417287828253
 20
-1072.783660736303
 30
0.0
  0
POINT
  5
238
  8
DEFPOINTS
  6
CONTINUOUS
 62
     0
 10
482.2417287828253
 20
-1049.663001667709
 30
0.0
  0
ENDBLK
  5
239
  8
0
 62
     7
  0
BLOCK
  8
0
  2
*D8
 70
     1
 10
0.0
 20
0.0
 30
0.0
  3
*D8
  1

  0
LINE
  5
21F
  8
回07-寸法
  6
CONTINUOUS
 62
     5
 10
269.0417287828253
 20
-1070.783660736303
 30
0.0
 11
269.0417287828253
 21
-1041.216373411017
 31
0.0
  0
LINE
  5
220
  8
回07-寸法
  6
CONTINUOUS
 62
     5
 10
484.2417287828253
 20
-1070.783660736303
 30
0.0
 11
484.2417287828253
 21
-1041.216373411017
 31
0.0
  0
LINE
  5
221
  8
回07-寸法
  6
CONTINUOUS
 62
     5
 10
271.0417287828253
 20
-1042.216373411017
 30
0.0
 11
482.2417287828253
 21
-1042.216373411017
 31
0.0
  0
INSERT
  5
222
  8
回07-寸法
  6
CONTINUOUS
 62
     5
 66
     1
  2
_OPEN
 10
269.0417287828253
 20
-1042.216373411017
 30
0.0
 41
2.0
 42
2.0
 43
2.0
 50
180.0
  0
SEQEND
  5
223
  8
回08-記事
  6
CONTINUOUS
 62
     7
  0
INSERT
  5
224
  8
回07-寸法
  6
CONTINUOUS
 62
     5
 66
     1
  2
_OPEN
 10
484.2417287828253
 20
-1042.216373411017
 30
0.0
 41
2.0
 42
2.0
 43
2.0
  0
SEQEND
  5
225
  8
回08-記事
  6
CONTINUOUS
 62
     7
  0
INSERT
  5
226
  8
回07-寸法
  6
CONTINUOUS
 62
     5
 66
     1
  2
*X49
 10
0.0
 20
0.0
 30
0.0
  0
SEQEND
  5
473
  8
回08-記事
  6
CONTINUOUS
 62
     7
  0
POINT
  5
227
  8
DEFPOINTS
  6
CONTINUOUS
 62
     0
 10
269.0417287828253
 20
-1070.783660736303
 30
0.0
  0
POINT
  5
228
  8
DEFPOINTS
  6
CONTINUOUS
 62
     0
 10
484.2417287828253
 20
-1070.783660736303
 30
0.0
  0
POINT
  5
229
  8
DEFPOINTS
  6
CONTINUOUS
 62
     0
 10
484.2417287828253
 20
-1042.216373411017
 30
0.0
  0
ENDBLK
  5
22A
  8
0
 62
     7
  0
BLOCK
  8
0
  2
*D9
 70
     1
 10
0.0
 20
0.0
 30
0.0
  3
*D9
  1

  0
LINE
  5
212
  8
回07-寸法
  6
CONTINUOUS
 62
     5
 10
261.0417287828253
 20
-1064.283660736303
 30
0.0
 11
261.0417287828253
 21
-1028.035175099038
 31
0.0
  0
LINE
  5
213
  8
回07-寸法
  6
CONTINUOUS
 62
     5
 10
488.6417287828252
 20
-1064.283660736303
 30
0.0
 11
488.6417287828252
 21
-1028.035175099038
 31
0.0
  0
LINE
  5
214
  8
回07-寸法
  6
CONTINUOUS
 62
     5
 10
263.0417287828253
 20
-1029.035175099038
 30
0.0
 11
486.6417287828252
 21
-1029.035175099038
 31
0.0
  0
INSERT
  5
215
  8
回07-寸法
  6
CONTINUOUS
 62
     5
  2
_OPEN
 10
261.0417287828253
 20
-1029.035175099038
 30
0.0
 41
2.0
 42
2.0
 43
2.0
 50
180.0
  0
INSERT
  5
216
  8
回07-寸法
  6
CONTINUOUS
 62
     5
  2
_OPEN
 10
488.6417287828252
 20
-1029.035175099038
 30
0.0
 41
2.0
 42
2.0
 43
2.0
  0
INSERT
  5
217
  8
回07-寸法
  6
CONTINUOUS
 62
     5
 66
     1
  2
*X50
 10
0.0
 20
0.0
 30
0.0
  0
SEQEND
  5
47C
  8
回08-記事
  6
CONTINUOUS
 62
     7
  0
POINT
  5
218
  8
DEFPOINTS
  6
CONTINUOUS
 62
     0
 10
261.0417287828253
 20
-1064.283660736303
 30
0.0
  0
POINT
  5
219
  8
DEFPOINTS
  6
CONTINUOUS
 62
     0
 10
488.6417287828252
 20
-1064.283660736303
 30
0.0
  0
POINT
  5
21A
  8
DEFPOINTS
  6
CONTINUOUS
 62
     0
 10
488.6417287828252
 20
-1029.035175099038
 30
0.0
  0
ENDBLK
  5
21B
  8
0
 62
     7
  0
BLOCK
  8
0
  2
*D10
 70
     1
 10
0.0
 20
0.0
 30
0.0
  3
*D10
  1

  0
LINE
  5
203
  8
回07-寸法
  6
CONTINUOUS
 62
     5
 10
482.2417287828256
 20
-1231.183660736303
 30
0.0
 11
524.6019866992177
 21
-1231.183660736303
 31
0.0
  0
LINE
  5
204
  8
回07-寸法
  6
CONTINUOUS
 62
     5
 10
482.2417287828256
 20
-1072.783660736304
 30
0.0
 11
524.6019866992177
 21
-1072.783660736304
 31
0.0
  0
LINE
  5
205
  8
回07-寸法
  6
CONTINUOUS
 62
     5
 10
523.6019866992177
 20
-1229.183660736303
 30
0.0
 11
523.6019866992177
 21
-1074.783660736303
 31
0.0
  0
INSERT
  5
206
  8
回07-寸法
  6
CONTINUOUS
 62
     5
 66
     1
  2
_OPEN
 10
523.6019866992177
 20
-1231.183660736303
 30
0.0
 41
2.0
 42
2.0
 43
2.0
 50
270.0
  0
SEQEND
  5
207
  8
回08-記事
  6
CONTINUOUS
 62
     7
  0
INSERT
  5
208
  8
回07-寸法
  6
CONTINUOUS
 62
     5
 66
     1
  2
_OPEN
 10
523.6019866992177
 20
-1072.783660736304
 30
0.0
 41
2.0
 42
2.0
 43
2.0
 50
90.0
  0
SEQEND
  5
209
  8
回08-記事
  6
CONTINUOUS
 62
     7
  0
INSERT
  5
20A
  8
回07-寸法
  6
CONTINUOUS
 62
     5
 66
     1
  2
*X51
 10
0.0
 20
0.0
 30
0.0
  0
SEQEND
  5
482
  8
回08-記事
  6
CONTINUOUS
 62
     7
  0
POINT
  5
20B
  8
DEFPOINTS
  6
CONTINUOUS
 62
     0
 10
482.2417287828256
 20
-1231.183660736303
 30
0.0
  0
POINT
  5
20C
  8
DEFPOINTS
  6
CONTINUOUS
 62
     0
 10
482.2417287828256
 20
-1072.783660736304
 30
0.0
  0
POINT
  5
20D
  8
DEFPOINTS
  6
CONTINUOUS
 62
     0
 10
523.6019866992177
 20
-1072.783660736304
 30
0.0
  0
ENDBLK
  5
20E
  8
0
 62
     7
  0
BLOCK
  8
0
  2
*D11
 70
     1
 10
0.0
 20
0.0
 30
0.0
  3
*D11
  1

  0
LINE
  5
1F4
  8
回07-寸法
  6
CONTINUOUS
 62
     5
 10
484.2417287828255
 20
-1070.783660736304
 30
0.0
 11
534.0437616597821
 21
-1070.783660736304
 31
0.0
  0
LINE
  5
1F5
  8
回07-寸法
  6
CONTINUOUS
 62
     5
 10
484.2417287828255
 20
-1233.183660736304
 30
0.0
 11
534.0437616597821
 21
-1233.183660736304
 31
0.0
  0
LINE
  5
1F6
  8
回07-寸法
  6
CONTINUOUS
 62
     5
 10
533.0437616597821
 20
-1072.783660736304
 30
0.0
 11
533.0437616597821
 21
-1231.183660736303
 31
0.0
  0
INSERT
  5
1F7
  8
回07-寸法
  6
CONTINUOUS
 62
     5
 66
     1
  2
_OPEN
 10
533.0437616597821
 20
-1070.783660736304
 30
0.0
 41
2.0
 42
2.0
 43
2.0
 50
90.0
  0
SEQEND
  5
1F8
  8
回08-記事
  6
CONTINUOUS
 62
     7
  0
INSERT
  5
1F9
  8
回07-寸法
  6
CONTINUOUS
 62
     5
 66
     1
  2
_OPEN
 10
533.0437616597821
 20
-1233.183660736303
 30
0.0
 41
2.0
 42
2.0
 43
2.0
 50
270.0
  0
SEQEND
  5
1FA
  8
回08-記事
  6
CONTINUOUS
 62
     7
  0
INSERT
  5
1FB
  8
回07-寸法
  6
CONTINUOUS
 62
     5
 66
     1
  2
*X52
 10
0.0
 20
0.0
 30
0.0
  0
SEQEND
  5
488
  8
回08-記事
  6
CONTINUOUS
 62
     7
  0
POINT
  5
1FC
  8
DEFPOINTS
  6
CONTINUOUS
 62
     0
 10
484.2417287828255
 20
-1070.783660736304
 30
0.0
  0
POINT
  5
1FD
  8
DEFPOINTS
  6
CONTINUOUS
 62
     0
 10
484.2417287828255
 20
-1233.183660736304
 30
0.0
  0
POINT
  5
1FE
  8
DEFPOINTS
  6
CONTINUOUS
 62
     0
 10
533.0437616597821
 20
-1233.183660736303
 30
0.0
  0
ENDBLK
  5
1FF
  8
0
 62
     7
  0
BLOCK
  8
0
  2
*D12
 70
     1
 10
0.0
 20
0.0
 30
0.0
  3
*D12
  1

  0
LINE
  5
1E7
  8
回07-寸法
  6
CONTINUOUS
 62
     5
 10
488.6417287828254
 20
-1239.683660736303
 30
0.0
 11
552.1181491657904
 21
-1239.683660736303
 31
0.0
  0
LINE
  5
1E8
  8
回07-寸法
  6
CONTINUOUS
 62
     5
 10
488.6417287828254
 20
-1064.283660736304
 30
0.0
 11
552.1181491657904
 21
-1064.283660736304
 31
0.0
  0
LINE
  5
1E9
  8
回07-寸法
  6
CONTINUOUS
 62
     5
 10
551.1181491657904
 20
-1237.683660736303
 30
0.0
 11
551.1181491657904
 21
-1066.283660736304
 31
0.0
  0
INSERT
  5
1EA
  8
回07-寸法
  6
CONTINUOUS
 62
     5
  2
_OPEN
 10
551.1181491657904
 20
-1239.683660736303
 30
0.0
 41
2.0
 42
2.0
 43
2.0
 50
270.0
  0
INSERT
  5
1EB
  8
回07-寸法
  6
CONTINUOUS
 62
     5
  2
_OPEN
 10
551.1181491657904
 20
-1064.283660736303
 30
0.0
 41
2.0
 42
2.0
 43
2.0
 50
90.0
  0
INSERT
  5
1EC
  8
回07-寸法
  6
CONTINUOUS
 62
     5
 66
     1
  2
*X53
 10
0.0
 20
0.0
 30
0.0
  0
SEQEND
  5
491
  8
回08-記事
  6
CONTINUOUS
 62
     7
  0
POINT
  5
1ED
  8
DEFPOINTS
  6
CONTINUOUS
 62
     0
 10
488.6417287828254
 20
-1239.683660736303
 30
0.0
  0
POINT
  5
1EE
  8
DEFPOINTS
  6
CONTINUOUS
 62
     0
 10
488.6417287828254
 20
-1064.283660736304
 30
0.0
  0
POINT
  5
1EF
  8
DEFPOINTS
  6
CONTINUOUS
 62
     0
 10
551.1181491657904
 20
-1064.283660736303
 30
0.0
  0
ENDBLK
  5
1F0
  8
0
 62
     7
  0
BLOCK
  8
0
  2
*D13
 70
     1
 10
0.0
 20
0.0
 30
0.0
  3
*D13
  1

  0
LINE
  5
1D6
  8
回07-寸法
  6
CONTINUOUS
 62
     5
 10
271.0417287828253
 20
-1072.783660736303
 30
0.0
 11
271.0417287828253
 21
-1048.663001667709
 31
0.0
  0
LINE
  5
1D7
  8
回07-寸法
  6
CONTINUOUS
 62
     5
 10
261.0417287828253
 20
-1064.283660736303
 30
0.0
 11
261.0417287828253
 21
-1048.663001667709
 31
0.0
  0
LINE
  5
1D8
  8
回07-寸法
  6
CONTINUOUS
 62
     5
 10
273.0417287828253
 20
-1049.663001667709
 30
0.0
 11
275.0417287828253
 21
-1049.663001667709
 31
0.0
  0
LINE
  5
1D9
  8
回07-寸法
  6
CONTINUOUS
 62
     5
 10
259.0417287828253
 20
-1049.663001667709
 30
0.0
 11
239.5312457913425
 21
-1049.663001667709
 31
0.0
  0
LINE
  5
1DA
  8
回07-寸法
  6
CONTINUOUS
 62
     5
 10
271.0417287828253
 20
-1049.663001667709
 30
0.0
 11
261.0417287828253
 21
-1049.663001667709
 31
0.0
  0
INSERT
  5
1DB
  8
回07-寸法
  6
CONTINUOUS
 62
     5
 66
     1
  2
_OPEN
 10
271.0417287828253
 20
-1049.663001667709
 30
0.0
 41
2.0
 42
2.0
 43
2.0
 50
180.0
  0
SEQEND
  5
1DC
  8
回08-記事
  6
CONTINUOUS
 62
     7
  0
INSERT
  5
1DD
  8
回07-寸法
  6
CONTINUOUS
 62
     5
 66
     1
  2
_OPEN
 10
261.0417287828253
 20
-1049.663001667709
 30
0.0
 41
2.0
 42
2.0
 43
2.0
  0
SEQEND
  5
1DE
  8
回08-記事
  6
CONTINUOUS
 62
     7
  0
TEXT
  5
1DF
  8
回07-寸法
  6
CONTINUOUS
 62
     5
 10
239.5810717342934
 20
-1049.013061573812
 30
0.0
 40
3.0
  1
10 [0.394]
1001
ACAD
1000
MTEXTBEGIN
1070
    73
1070
     1
1070
    44
1040
1.0
1070
    74
1070
     0
1000
MTEXTEND
  0
POINT
  5
1E0
  8
DEFPOINTS
  6
CONTINUOUS
 62
     0
 10
271.0417287828253
 20
-1072.783660736303
 30
0.0
  0
POINT
  5
1E1
  8
DEFPOINTS
  6
CONTINUOUS
 62
     0
 10
261.0417287828253
 20
-1064.283660736303
 30
0.0
  0
POINT
  5
1E2
  8
DEFPOINTS
  6
CONTINUOUS
 62
     0
 10
261.0417287828253
 20
-1049.663001667709
 30
0.0
  0
ENDBLK
  5
1E3
  8
0
 62
     7
  0
BLOCK
  8
0
  2
*D14
 70
     1
 10
0.0
 20
0.0
 30
0.0
  3
*D14
  1

  0
LINE
  5
1C5
  8
回07-寸法
  6
CONTINUOUS
 62
     5
 10
269.0417287828253
 20
-1070.783660736303
 30
0.0
 11
269.0417287828253
 21
-1041.216373411017
 31
0.0
  0
LINE
  5
1C6
  8
回07-寸法
  6
CONTINUOUS
 62
     5
 10
261.0417287828253
 20
-1064.283660736303
 30
0.0
 11
261.0417287828253
 21
-1041.216373411017
 31
0.0
  0
LINE
  5
1C7
  8
回07-寸法
  6
CONTINUOUS
 62
     5
 10
271.0417287828253
 20
-1042.216373411017
 30
0.0
 11
273.0417287828253
 21
-1042.216373411017
 31
0.0
  0
LINE
  5
1C8
  8
回07-寸法
  6
CONTINUOUS
 62
     5
 10
259.0417287828253
 20
-1042.216373411017
 30
0.0
 11
241.9417287828253
 21
-1042.216373411017
 31
0.0
  0
LINE
  5
1C9
  8
回07-寸法
  6
CONTINUOUS
 62
     5
 10
269.0417287828253
 20
-1042.216373411017
 30
0.0
 11
261.0417287828253
 21
-1042.216373411017
 31
0.0
  0
INSERT
  5
1CA
  8
回07-寸法
  6
CONTINUOUS
 62
     5
 66
     1
  2
_OPEN
 10
269.0417287828253
 20
-1042.216373411017
 30
0.0
 41
2.0
 42
2.0
 43
2.0
 50
180.0
  0
SEQEND
  5
1CB
  8
回08-記事
  6
CONTINUOUS
 62
     7
  0
INSERT
  5
1CC
  8
回07-寸法
  6
CONTINUOUS
 62
     5
 66
     1
  2
_OPEN
 10
261.0417287828253
 20
-1042.216373411017
 30
0.0
 41
2.0
 42
2.0
 43
2.0
  0
SEQEND
  5
1CD
  8
回08-記事
  6
CONTINUOUS
 62
     7
  0
TEXT
  5
1CE
  8
回07-寸法
  6
CONTINUOUS
 62
     5
 10
241.9917287828253
 20
-1041.566373411017
 30
0.0
 40
3.0
  1
8 [0.315]
1001
ACAD
1000
MTEXTBEGIN
1070
    73
1070
     1
1070
    44
1040
1.0
1070
    74
1070
     0
1000
MTEXTEND
  0
POINT
  5
1CF
  8
DEFPOINTS
  6
CONTINUOUS
 62
     0
 10
269.0417287828253
 20
-1070.783660736303
 30
0.0
  0
POINT
  5
1D0
  8
DEFPOINTS
  6
CONTINUOUS
 62
     0
 10
261.0417287828253
 20
-1064.283660736303
 30
0.0
  0
POINT
  5
1D1
  8
DEFPOINTS
  6
CONTINUOUS
 62
     0
 10
261.0417287828253
 20
-1042.216373411017
 30
0.0
  0
ENDBLK
  5
1D2
  8
0
 62
     7
  0
BLOCK
  8
0
  2
*D15
 70
     1
 10
0.0
 20
0.0
 30
0.0
  3
*D15
  1

  0
LINE
  5
1B4
  8
回07-寸法
  6
CONTINUOUS
 62
     5
 10
482.2417287828256
 20
-1231.183660736303
 30
0.0
 11
524.6019866992181
 21
-1231.183660736303
 31
0.0
  0
LINE
  5
1B5
  8
回07-寸法
  6
CONTINUOUS
 62
     5
 10
488.6417287828254
 20
-1239.683660736303
 30
0.0
 11
524.6019866992181
 21
-1239.683660736303
 31
0.0
  0
LINE
  5
1B6
  8
回07-寸法
  6
CONTINUOUS
 62
     5
 10
523.6019866992181
 20
-1229.183660736303
 30
0.0
 11
523.6019866992181
 21
-1227.183660736303
 31
0.0
  0
LINE
  5
1B7
  8
回07-寸法
  6
CONTINUOUS
 62
     5
 10
523.6019866992181
 20
-1241.683660736303
 30
0.0
 11
523.6019866992181
 21
-1262.383660736303
 31
0.0
  0
LINE
  5
1B8
  8
回07-寸法
  6
CONTINUOUS
 62
     5
 10
523.6019866992181
 20
-1231.183660736303
 30
0.0
 11
523.6019866992181
 21
-1239.683660736303
 31
0.0
  0
INSERT
  5
1B9
  8
回07-寸法
  6
CONTINUOUS
 62
     5
 66
     1
  2
_OPEN
 10
523.6019866992181
 20
-1231.183660736303
 30
0.0
 41
2.0
 42
2.0
 43
2.0
 50
270.0
  0
SEQEND
  5
1BA
  8
回08-記事
  6
CONTINUOUS
 62
     7
  0
INSERT
  5
1BB
  8
回07-寸法
  6
CONTINUOUS
 62
     5
 66
     1
  2
_OPEN
 10
523.6019866992181
 20
-1239.683660736303
 30
0.0
 41
2.0
 42
2.0
 43
2.0
 50
90.0
  0
SEQEND
  5
1BC
  8
回08-記事
  6
CONTINUOUS
 62
     7
  0
TEXT
  5
1BD
  8
回07-寸法
  6
CONTINUOUS
 62
     5
 10
522.9519866992177
 20
-1262.333660736303
 30
0.0
 40
3.0
  1
8.5 [0.335]
 50
90.0
1001
ACAD
1000
MTEXTBEGIN
1070
    73
1070
     1
1070
    44
1040
1.0
1070
    74
1070
     0
1000
MTEXTEND
  0
POINT
  5
1BE
  8
DEFPOINTS
  6
CONTINUOUS
 62
     0
 10
482.2417287828256
 20
-1231.183660736303
 30
0.0
  0
POINT
  5
1BF
  8
DEFPOINTS
  6
CONTINUOUS
 62
     0
 10
488.6417287828254
 20
-1239.683660736303
 30
0.0
  0
POINT
  5
1C0
  8
DEFPOINTS
  6
CONTINUOUS
 62
     0
 10
523.6019866992181
 20
-1239.683660736303
 30
0.0
  0
ENDBLK
  5
1C1
  8
0
 62
     7
  0
BLOCK
  8
0
  2
*D16
 70
     1
 10
0.0
 20
0.0
 30
0.0
  3
*D16
  1

  0
LINE
  5
1A3
  8
回07-寸法
  6
CONTINUOUS
 62
     5
 10
484.2417287828255
 20
-1233.183660736304
 30
0.0
 11
534.0437616597821
 21
-1233.183660736304
 31
0.0
  0
LINE
  5
1A4
  8
回07-寸法
  6
CONTINUOUS
 62
     5
 10
488.6417287828254
 20
-1239.683660736303
 30
0.0
 11
534.0437616597821
 21
-1239.683660736303
 31
0.0
  0
LINE
  5
1A5
  8
回07-寸法
  6
CONTINUOUS
 62
     5
 10
533.0437616597821
 20
-1231.183660736303
 30
0.0
 11
533.0437616597821
 21
-1229.183660736303
 31
0.0
  0
LINE
  5
1A6
  8
回07-寸法
  6
CONTINUOUS
 62
     5
 10
533.0437616597821
 20
-1241.683660736303
 30
0.0
 11
533.0437616597821
 21
-1262.563188295358
 31
0.0
  0
LINE
  5
1A7
  8
回07-寸法
  6
CONTINUOUS
 62
     5
 10
533.0437616597821
 20
-1233.183660736303
 30
0.0
 11
533.0437616597821
 21
-1239.683660736303
 31
0.0
  0
INSERT
  5
1A8
  8
回07-寸法
  6
CONTINUOUS
 62
     5
 66
     1
  2
_OPEN
 10
533.0437616597821
 20
-1233.183660736303
 30
0.0
 41
2.0
 42
2.0
 43
2.0
 50
270.0
  0
SEQEND
  5
1A9
  8
回08-記事
  6
CONTINUOUS
 62
     7
  0
INSERT
  5
1AA
  8
回07-寸法
  6
CONTINUOUS
 62
     5
 66
     1
  2
_OPEN
 10
533.0437616597821
 20
-1239.683660736303
 30
0.0
 41
2.0
 42
2.0
 43
2.0
 50
90.0
  0
SEQEND
  5
1AB
  8
回08-記事
  6
CONTINUOUS
 62
     7
  0
TEXT
  5
1AC
  8
回07-寸法
  6
CONTINUOUS
 62
     5
 10
532.3937616597817
 20
-1262.423424515831
 30
0.0
 40
3.0
  1
6.5 [0.256]
 50
90.0
1001
ACAD
1000
MTEXTBEGIN
1070
    73
1070
     1
1070
    44
1040
1.0
1070
    74
1070
     0
1000
MTEXTEND
  0
POINT
  5
1AD
  8
DEFPOINTS
  6
CONTINUOUS
 62
     0
 10
484.2417287828255
 20
-1233.183660736304
 30
0.0
  0
POINT
  5
1AE
  8
DEFPOINTS
  6
CONTINUOUS
 62
     0
 10
488.6417287828254
 20
-1239.683660736303
 30
0.0
  0
POINT
  5
1AF
  8
DEFPOINTS
  6
CONTINUOUS
 62
     0
 10
533.0437616597821
 20
-1239.683660736303
 30
0.0
  0
ENDBLK
  5
1B0
  8
0
 62
     7
  0
BLOCK
  8
0
  2
*D17
 70
     1
 10
0.0
 20
0.0
 30
0.0
  3
*D17
  1

  0
LINE
  5
18C
  8
回07-寸法
  6
CONTINUOUS
 62
     5
 10
484.7417287828253
 20
-1069.983660736303
 30
0.0
 11
484.7417287828253
 21
-1034.191186618385
 31
0.0
  0
LINE
  5
18D
  8
回07-寸法
  6
CONTINUOUS
 62
     5
 10
268.5417287828253
 20
-1069.983660736303
 30
0.0
 11
268.5417287828253
 21
-1034.191186618385
 31
0.0
  0
LINE
  5
18E
  8
回07-寸法
  6
CONTINUOUS
 62
     5
 10
482.7417287828253
 20
-1035.191186618385
 30
0.0
 11
270.5417287828253
 21
-1035.191186618385
 31
0.0
  0
INSERT
  5
18F
  8
回07-寸法
  6
CONTINUOUS
 62
     5
 66
     1
  2
_OPEN
 10
484.7417287828253
 20
-1035.191186618385
 30
0.0
 41
2.0
 42
2.0
 43
2.0
  0
SEQEND
  5
190
  8
回08-記事
  6
CONTINUOUS
 62
     7
  0
INSERT
  5
191
  8
回07-寸法
  6
CONTINUOUS
 62
     5
 66
     1
  2
_OPEN
 10
268.5417287828253
 20
-1035.191186618385
 30
0.0
 41
2.0
 42
2.0
 43
2.0
 50
180.0
  0
SEQEND
  5
192
  8
回08-記事
  6
CONTINUOUS
 62
     7
  0
TEXT
  5
193
  8
回07-寸法
  6
CONTINUOUS
 62
     5
 10
365.8417287828253
 20
-1034.541186618385
 30
0.0
 40
3.0
  1
216.2 [8.512]
1001
ACAD
1000
MTEXTBEGIN
1070
    73
1070
     1
1070
    44
1040
1.0
1070
    74
1070
     0
1000
MTEXTEND
  0
POINT
  5
194
  8
DEFPOINTS
  6
CONTINUOUS
 62
     0
 10
484.7417287828253
 20
-1069.983660736303
 30
0.0
  0
POINT
  5
195
  8
DEFPOINTS
  6
CONTINUOUS
 62
     0
 10
268.5417287828253
 20
-1069.983660736303
 30
0.0
  0
POINT
  5
196
  8
DEFPOINTS
  6
CONTINUOUS
 62
     0
 10
268.5417287828253
 20
-1035.191186618385
 30
0.0
  0
ENDBLK
  5
197
  8
0
 62
     7
  0
BLOCK
  8
0
  2
*D18
 70
     1
 10
0.0
 20
0.0
 30
0.0
  3
*D18
  1

  0
LINE
  5
17D
  8
回07-寸法
  6
CONTINUOUS
 62
     5
 10
484.7417287828256
 20
-1069.983660736304
 30
0.0
 11
543.6781841115609
 21
-1069.983660736304
 31
0.0
  0
LINE
  5
17E
  8
回07-寸法
  6
CONTINUOUS
 62
     5
 10
484.7417287828256
 20
-1233.983659355663
 30
0.0
 11
543.6781841115609
 21
-1233.983659355663
 31
0.0
  0
LINE
  5
17F
  8
回07-寸法
  6
CONTINUOUS
 62
     5
 10
542.678184111561
 20
-1071.983660736303
 30
0.0
 11
542.678184111561
 21
-1231.983659355663
 31
0.0
  0
INSERT
  5
180
  8
回07-寸法
  6
CONTINUOUS
 62
     5
 66
     1
  2
_OPEN
 10
542.678184111561
 20
-1069.983660736303
 30
0.0
 41
2.0
 42
2.0
 43
2.0
 50
90.0
  0
SEQEND
  5
181
  8
回08-記事
  6
CONTINUOUS
 62
     7
  0
INSERT
  5
182
  8
回07-寸法
  6
CONTINUOUS
 62
     5
 66
     1
  2
_OPEN
 10
542.678184111561
 20
-1233.983659355663
 30
0.0
 41
2.0
 42
2.0
 43
2.0
 50
270.0
  0
SEQEND
  5
183
  8
回08-記事
  6
CONTINUOUS
 62
     7
  0
TEXT
  5
184
  8
回07-寸法
  6
CONTINUOUS
 62
     5
 10
542.0281841115605
 20
-1161.883660045983
 30
0.0
 40
3.0
  1
164 [6.457]
 50
90.0
1001
ACAD
1000
MTEXTBEGIN
1070
    73
1070
     1
1070
    44
1040
1.0
1070
    74
1070
     0
1000
MTEXTEND
  0
POINT
  5
185
  8
DEFPOINTS
  6
CONTINUOUS
 62
     0
 10
484.7417287828256
 20
-1069.983660736304
 30
0.0
  0
POINT
  5
186
  8
DEFPOINTS
  6
CONTINUOUS
 62
     0
 10
484.7417287828256
 20
-1233.983659355663
 30
0.0
  0
POINT
  5
187
  8
DEFPOINTS
  6
CONTINUOUS
 62
     0
 10
542.678184111561
 20
-1233.983659355663
 30
0.0
  0
ENDBLK
  5
188
  8
0
 62
     7
  0
BLOCK
  8
0
  2
*D19
 70
     1
 10
0.0
 20
0.0
 30
0.0
  3
*D19
  1

  0
LINE
  5
16C
  8
回07-寸法
  6
CONTINUOUS
 62
     5
 10
484.7417287828256
 20
-1069.983660736304
 30
0.0
 11
543.6781841115609
 21
-1069.983660736304
 31
0.0
  0
LINE
  5
16D
  8
回07-寸法
  6
CONTINUOUS
 62
     5
 10
488.6417287828254
 20
-1064.283660736304
 30
0.0
 11
543.6781841115609
 21
-1064.283660736304
 31
0.0
  0
LINE
  5
16E
  8
回07-寸法
  6
CONTINUOUS
 62
     5
 10
542.678184111561
 20
-1071.983660736303
 30
0.0
 11
542.678184111561
 21
-1073.983660736304
 31
0.0
  0
LINE
  5
16F
  8
回07-寸法
  6
CONTINUOUS
 62
     5
 10
542.678184111561
 20
-1062.283660736303
 30
0.0
 11
542.678184111561
 21
-1018.093640893784
 31
0.0
  0
LINE
  5
170
  8
回07-寸法
  6
CONTINUOUS
 62
     5
 10
542.678184111561
 20
-1069.983660736303
 30
0.0
 11
542.678184111561
 21
-1064.283660736303
 31
0.0
  0
INSERT
  5
171
  8
回07-寸法
  6
CONTINUOUS
 62
     5
 66
     1
  2
_OPEN
 10
542.678184111561
 20
-1069.983660736303
 30
0.0
 41
2.0
 42
2.0
 43
2.0
 50
90.0
  0
SEQEND
  5
172
  8
回08-記事
  6
CONTINUOUS
 62
     7
  0
INSERT
  5
173
  8
回07-寸法
  6
CONTINUOUS
 62
     5
 66
     1
  2
_OPEN
 10
542.678184111561
 20
-1064.283660736303
 30
0.0
 41
2.0
 42
2.0
 43
2.0
 50
270.0
  0
SEQEND
  5
174
  8
回08-記事
  6
CONTINUOUS
 62
     7
  0
INSERT
  5
175
  8
回07-寸法
  6
CONTINUOUS
 62
     5
 66
     1
  2
*X54
 10
0.0
 20
0.0
 30
0.0
  0
SEQEND
  5
497
  8
回08-記事
  6
CONTINUOUS
 62
     7
  0
POINT
  5
176
  8
DEFPOINTS
  6
CONTINUOUS
 62
     0
 10
484.7417287828256
 20
-1069.983660736304
 30
0.0
  0
POINT
  5
177
  8
DEFPOINTS
  6
CONTINUOUS
 62
     0
 10
488.6417287828254
 20
-1064.283660736304
 30
0.0
  0
POINT
  5
178
  8
DEFPOINTS
  6
CONTINUOUS
 62
     0
 10
542.678184111561
 20
-1064.283660736303
 30
0.0
  0
ENDBLK
  5
179
  8
0
 62
     7
  0
BLOCK
  8
0
  2
*D20
 70
     1
 10
0.0
 20
0.0
 30
0.0
  3
*D20
  1

  0
LINE
  5
15B
  8
回07-寸法
  6
CONTINUOUS
 62
     5
 10
484.2417287828255
 20
-1070.783660736304
 30
0.0
 11
534.0437616597821
 21
-1070.783660736304
 31
0.0
  0
LINE
  5
15C
  8
回07-寸法
  6
CONTINUOUS
 62
     5
 10
488.6417287828254
 20
-1064.283660736304
 30
0.0
 11
534.0437616597821
 21
-1064.283660736304
 31
0.0
  0
LINE
  5
15D
  8
回07-寸法
  6
CONTINUOUS
 62
     5
 10
533.0437616597821
 20
-1072.783660736304
 30
0.0
 11
533.0437616597821
 21
-1074.783660736303
 31
0.0
  0
LINE
  5
15E
  8
回07-寸法
  6
CONTINUOUS
 62
     5
 10
533.0437616597821
 20
-1062.283660736303
 30
0.0
 11
533.0437616597821
 21
-1039.186022941028
 31
0.0
  0
LINE
  5
15F
  8
回07-寸法
  6
CONTINUOUS
 62
     5
 10
533.0437616597821
 20
-1070.783660736304
 30
0.0
 11
533.0437616597821
 21
-1064.283660736303
 31
0.0
  0
INSERT
  5
160
  8
回07-寸法
  6
CONTINUOUS
 62
     5
 66
     1
  2
_OPEN
 10
533.0437616597821
 20
-1070.783660736304
 30
0.0
 41
2.0
 42
2.0
 43
2.0
 50
90.0
  0
SEQEND
  5
161
  8
回08-記事
  6
CONTINUOUS
 62
     7
  0
INSERT
  5
162
  8
回07-寸法
  6
CONTINUOUS
 62
     5
 66
     1
  2
_OPEN
 10
533.0437616597821
 20
-1064.283660736303
 30
0.0
 41
2.0
 42
2.0
 43
2.0
 50
270.0
  0
SEQEND
  5
163
  8
回08-記事
  6
CONTINUOUS
 62
     7
  0
TEXT
  5
164
  8
回07-寸法
  6
CONTINUOUS
 62
     5
 10
532.3937616597817
 20
-1060.234841838666
 30
0.0
 40
3.0
  1
(6.5 [0.256])
 50
90.0
1001
ACAD
1000
MTEXTBEGIN
1070
    73
1070
     1
1070
    44
1040
1.0
1070
    74
1070
     0
1000
MTEXTEND
  0
POINT
  5
165
  8
DEFPOINTS
  6
CONTINUOUS
 62
     0
 10
484.2417287828255
 20
-1070.783660736304
 30
0.0
  0
POINT
  5
166
  8
DEFPOINTS
  6
CONTINUOUS
 62
     0
 10
488.6417287828254
 20
-1064.283660736304
 30
0.0
  0
POINT
  5
167
  8
DEFPOINTS
  6
CONTINUOUS
 62
     0
 10
533.0437616597821
 20
-1064.283660736303
 30
0.0
  0
ENDBLK
  5
168
  8
0
 62
     7
  0
BLOCK
  8
0
  2
*D21
 70
     1
 10
0.0
 20
0.0
 30
0.0
  3
*D21
  1

  0
LINE
  5
14A
  8
回07-寸法
  6
CONTINUOUS
 62
     5
 10
482.2417287828256
 20
-1072.783660736304
 30
0.0
 11
524.601986699218
 21
-1072.783660736304
 31
0.0
  0
LINE
  5
14B
  8
回07-寸法
  6
CONTINUOUS
 62
     5
 10
488.6417287828254
 20
-1064.283660736304
 30
0.0
 11
524.601986699218
 21
-1064.283660736304
 31
0.0
  0
LINE
  5
14C
  8
回07-寸法
  6
CONTINUOUS
 62
     5
 10
523.601986699218
 20
-1074.783660736303
 30
0.0
 11
523.601986699218
 21
-1076.783660736303
 31
0.0
  0
LINE
  5
14D
  8
回07-寸法
  6
CONTINUOUS
 62
     5
 10
523.601986699218
 20
-1062.283660736303
 30
0.0
 11
523.601986699218
 21
-1039.186022941028
 31
0.0
  0
LINE
  5
14E
  8
回07-寸法
  6
CONTINUOUS
 62
     5
 10
523.601986699218
 20
-1072.783660736304
 30
0.0
 11
523.601986699218
 21
-1064.283660736303
 31
0.0
  0
INSERT
  5
14F
  8
回07-寸法
  6
CONTINUOUS
 62
     5
 66
     1
  2
_OPEN
 10
523.601986699218
 20
-1072.783660736304
 30
0.0
 41
2.0
 42
2.0
 43
2.0
 50
90.0
  0
SEQEND
  5
150
  8
回08-記事
  6
CONTINUOUS
 62
     7
  0
INSERT
  5
151
  8
回07-寸法
  6
CONTINUOUS
 62
     5
 66
     1
  2
_OPEN
 10
523.601986699218
 20
-1064.283660736303
 30
0.0
 41
2.0
 42
2.0
 43
2.0
 50
270.0
  0
SEQEND
  5
152
  8
回08-記事
  6
CONTINUOUS
 62
     7
  0
TEXT
  5
153
  8
回07-寸法
  6
CONTINUOUS
 62
     5
 10
522.9519866992176
 20
-1060.234841838666
 30
0.0
 40
3.0
  1
(8.5 [0.335])
 50
90.0
1001
ACAD
1000
MTEXTBEGIN
1070
    73
1070
     1
1070
    44
1040
1.0
1070
    74
1070
     0
1000
MTEXTEND
  0
POINT
  5
154
  8
DEFPOINTS
  6
CONTINUOUS
 62
     0
 10
482.2417287828256
 20
-1072.783660736304
 30
0.0
  0
POINT
  5
155
  8
DEFPOINTS
  6
CONTINUOUS
 62
     0
 10
488.6417287828254
 20
-1064.283660736304
 30
0.0
  0
POINT
  5
156
  8
DEFPOINTS
  6
CONTINUOUS
 62
     0
 10
523.601986699218
 20
-1064.283660736303
 30
0.0
  0
ENDBLK
  5
157
  8
0
 62
     7
  0
BLOCK
  8
0
  2
*D22
 70
     1
 10
0.0
 20
0.0
 30
0.0
  3
*D22
  1

  0
LINE
  5
139
  8
回07-寸法
  6
CONTINUOUS
 62
     5
 10
484.7417287828256
 20
-1233.983659355663
 30
0.0
 11
543.6781841115609
 21
-1233.983659355663
 31
0.0
  0
LINE
  5
13A
  8
回07-寸法
  6
CONTINUOUS
 62
     5
 10
488.6417287828254
 20
-1239.683660736303
 30
0.0
 11
543.6781841115609
 21
-1239.683660736303
 31
0.0
  0
LINE
  5
13B
  8
回07-寸法
  6
CONTINUOUS
 62
     5
 10
542.678184111561
 20
-1231.983659355663
 30
0.0
 11
542.678184111561
 21
-1229.983659355663
 31
0.0
  0
LINE
  5
13C
  8
回07-寸法
  6
CONTINUOUS
 62
     5
 10
542.678184111561
 20
-1241.683660736303
 30
0.0
 11
542.678184111561
 21
-1285.873680578823
 31
0.0
  0
LINE
  5
13D
  8
回07-寸法
  6
CONTINUOUS
 62
     5
 10
542.678184111561
 20
-1233.983659355663
 30
0.0
 11
542.678184111561
 21
-1239.683660736303
 31
0.0
  0
INSERT
  5
13E
  8
回07-寸法
  6
CONTINUOUS
 62
     5
 66
     1
  2
_OPEN
 10
542.678184111561
 20
-1233.983659355663
 30
0.0
 41
2.0
 42
2.0
 43
2.0
 50
270.0
  0
SEQEND
  5
13F
  8
回08-記事
  6
CONTINUOUS
 62
     7
  0
INSERT
  5
140
  8
回07-寸法
  6
CONTINUOUS
 62
     5
 66
     1
  2
_OPEN
 10
542.678184111561
 20
-1239.683660736303
 30
0.0
 41
2.0
 42
2.0
 43
2.0
 50
90.0
  0
SEQEND
  5
141
  8
回08-記事
  6
CONTINUOUS
 62
     7
  0
INSERT
  5
142
  8
回07-寸法
  6
CONTINUOUS
 62
     5
 66
     1
  2
*X55
 10
0.0
 20
0.0
 30
0.0
  0
SEQEND
  5
49D
  8
回08-記事
  6
CONTINUOUS
 62
     7
  0
POINT
  5
143
  8
DEFPOINTS
  6
CONTINUOUS
 62
     0
 10
484.7417287828256
 20
-1233.983659355663
 30
0.0
  0
POINT
  5
144
  8
DEFPOINTS
  6
CONTINUOUS
 62
     0
 10
488.6417287828254
 20
-1239.683660736303
 30
0.0
  0
POINT
  5
145
  8
DEFPOINTS
  6
CONTINUOUS
 62
     0
 10
542.678184111561
 20
-1239.683660736303
 30
0.0
  0
ENDBLK
  5
146
  8
0
 62
     7
  0
BLOCK
  8
0
  2
*D23
 70
     1
 10
0.0
 20
0.0
 30
0.0
  3
*D23
  1

  0
LINE
  5
128
  8
回07-寸法
  6
CONTINUOUS
 62
     5
 10
482.2417287828253
 20
-1072.783660736303
 30
0.0
 11
482.2417287828253
 21
-1048.663001667709
 31
0.0
  0
LINE
  5
129
  8
回07-寸法
  6
CONTINUOUS
 62
     5
 10
488.6417287828252
 20
-1064.283660736303
 30
0.0
 11
488.6417287828252
 21
-1048.663001667709
 31
0.0
  0
LINE
  5
12A
  8
回07-寸法
  6
CONTINUOUS
 62
     5
 10
480.2417287828253
 20
-1049.663001667709
 30
0.0
 11
478.2417287828253
 21
-1049.663001667709
 31
0.0
  0
LINE
  5
12B
  8
回07-寸法
  6
CONTINUOUS
 62
     5
 10
490.6417287828252
 20
-1049.663001667709
 30
0.0
 11
514.0393665781008
 21
-1049.663001667709
 31
0.0
  0
LINE
  5
12C
  8
回07-寸法
  6
CONTINUOUS
 62
     5
 10
482.2417287828253
 20
-1049.663001667709
 30
0.0
 11
488.6417287828252
 21
-1049.663001667709
 31
0.0
  0
INSERT
  5
12D
  8
回07-寸法
  6
CONTINUOUS
 62
     5
 66
     1
  2
_OPEN
 10
482.2417287828253
 20
-1049.663001667709
 30
0.0
 41
2.0
 42
2.0
 43
2.0
  0
SEQEND
  5
12E
  8
回08-記事
  6
CONTINUOUS
 62
     7
  0
INSERT
  5
12F
  8
回07-寸法
  6
CONTINUOUS
 62
     5
 66
     1
  2
_OPEN
 10
488.6417287828252
 20
-1049.663001667709
 30
0.0
 41
2.0
 42
2.0
 43
2.0
 50
180.0
  0
SEQEND
  5
130
  8
回08-記事
  6
CONTINUOUS
 62
     7
  0
TEXT
  5
131
  8
回07-寸法
  6
CONTINUOUS
 62
     5
 10
492.690547680463
 20
-1049.013001667709
 30
0.0
 40
3.0
  1
(6.4 [0.252])
1001
ACAD
1000
MTEXTBEGIN
1070
    73
1070
     1
1070
    44
1040
1.0
1070
    74
1070
     0
1000
MTEXTEND
  0
POINT
  5
132
  8
DEFPOINTS
  6
CONTINUOUS
 62
     0
 10
482.2417287828253
 20
-1072.783660736303
 30
0.0
  0
POINT
  5
133
  8
DEFPOINTS
  6
CONTINUOUS
 62
     0
 10
488.6417287828252
 20
-1064.283660736303
 30
0.0
  0
POINT
  5
134
  8
DEFPOINTS
  6
CONTINUOUS
 62
     0
 10
488.6417287828252
 20
-1049.663001667709
 30
0.0
  0
ENDBLK
  5
135
  8
0
 62
     7
  0
BLOCK
  8
0
  2
*D24
 70
     1
 10
0.0
 20
0.0
 30
0.0
  3
*D24
  1

  0
LINE
  5
117
  8
回07-寸法
  6
CONTINUOUS
 62
     5
 10
484.2417287828253
 20
-1070.783660736303
 30
0.0
 11
484.2417287828253
 21
-1041.216373411017
 31
0.0
  0
LINE
  5
118
  8
回07-寸法
  6
CONTINUOUS
 62
     5
 10
488.6417287828252
 20
-1064.283660736303
 30
0.0
 11
488.6417287828252
 21
-1041.216373411017
 31
0.0
  0
LINE
  5
119
  8
回07-寸法
  6
CONTINUOUS
 62
     5
 10
482.2417287828253
 20
-1042.216373411017
 30
0.0
 11
480.2417287828253
 21
-1042.216373411017
 31
0.0
  0
LINE
  5
11A
  8
回07-寸法
  6
CONTINUOUS
 62
     5
 10
490.6417287828252
 20
-1042.216373411017
 30
0.0
 11
513.7393665781007
 21
-1042.216373411017
 31
0.0
  0
LINE
  5
11B
  8
回07-寸法
  6
CONTINUOUS
 62
     5
 10
484.2417287828253
 20
-1042.216373411017
 30
0.0
 11
488.6417287828252
 21
-1042.216373411017
 31
0.0
  0
INSERT
  5
11C
  8
回07-寸法
  6
CONTINUOUS
 62
     5
 66
     1
  2
_OPEN
 10
484.2417287828253
 20
-1042.216373411017
 30
0.0
 41
2.0
 42
2.0
 43
2.0
  0
SEQEND
  5
11D
  8
回08-記事
  6
CONTINUOUS
 62
     7
  0
INSERT
  5
11E
  8
回07-寸法
  6
CONTINUOUS
 62
     5
 66
     1
  2
_OPEN
 10
488.6417287828252
 20
-1042.216373411017
 30
0.0
 41
2.0
 42
2.0
 43
2.0
 50
180.0
  0
SEQEND
  5
11F
  8
回08-記事
  6
CONTINUOUS
 62
     7
  0
TEXT
  5
120
  8
回07-寸法
  6
CONTINUOUS
 62
     5
 10
492.690547680463
 20
-1041.566373411017
 30
0.0
 40
3.0
  1
(4.4 [0.173])
1001
ACAD
1000
MTEXTBEGIN
1070
    73
1070
     1
1070
    44
1040
1.0
1070
    74
1070
     0
1000
MTEXTEND
  0
POINT
  5
121
  8
DEFPOINTS
  6
CONTINUOUS
 62
     0
 10
484.2417287828253
 20
-1070.783660736303
 30
0.0
  0
POINT
  5
122
  8
DEFPOINTS
  6
CONTINUOUS
 62
     0
 10
488.6417287828252
 20
-1064.283660736303
 30
0.0
  0
POINT
  5
123
  8
DEFPOINTS
  6
CONTINUOUS
 62
     0
 10
488.6417287828252
 20
-1042.216373411017
 30
0.0
  0
ENDBLK
  5
124
  8
0
 62
     7
  0
BLOCK
  8
0
  2
*D25
 70
     1
 10
0.0
 20
0.0
 30
0.0
  3
*D25
  1

  0
LINE
  5
106
  8
回07-寸法
  6
CONTINUOUS
 62
     5
 10
484.7417287828253
 20
-1069.983660736303
 30
0.0
 11
484.7417287828253
 21
-1034.191186618385
 31
0.0
  0
LINE
  5
107
  8
回07-寸法
  6
CONTINUOUS
 62
     5
 10
488.6417287828252
 20
-1064.283660736303
 30
0.0
 11
488.6417287828252
 21
-1034.191186618385
 31
0.0
  0
LINE
  5
108
  8
回07-寸法
  6
CONTINUOUS
 62
     5
 10
482.7417287828253
 20
-1035.191186618385
 30
0.0
 11
480.7417287828253
 21
-1035.191186618385
 31
0.0
  0
LINE
  5
109
  8
回07-寸法
  6
CONTINUOUS
 62
     5
 10
490.6417287828252
 20
-1035.191186618385
 30
0.0
 11
534.2422316168278
 21
-1035.191186618385
 31
0.0
  0
LINE
  5
10A
  8
回07-寸法
  6
CONTINUOUS
 62
     5
 10
484.7417287828253
 20
-1035.191186618385
 30
0.0
 11
488.6417287828252
 21
-1035.191186618385
 31
0.0
  0
INSERT
  5
10B
  8
回07-寸法
  6
CONTINUOUS
 62
     5
 66
     1
  2
_OPEN
 10
484.7417287828253
 20
-1035.191186618385
 30
0.0
 41
2.0
 42
2.0
 43
2.0
  0
SEQEND
  5
10C
  8
回08-記事
  6
CONTINUOUS
 62
     7
  0
INSERT
  5
10D
  8
回07-寸法
  6
CONTINUOUS
 62
     5
 66
     1
  2
_OPEN
 10
488.6417287828252
 20
-1035.191186618385
 30
0.0
 41
2.0
 42
2.0
 43
2.0
 50
180.0
  0
SEQEND
  5
10E
  8
回08-記事
  6
CONTINUOUS
 62
     7
  0
INSERT
  5
10F
  8
回07-寸法
  6
CONTINUOUS
 62
     5
 66
     1
  2
*X56
 10
0.0
 20
0.0
 30
0.0
  0
SEQEND
  5
4A3
  8
回08-記事
  6
CONTINUOUS
 62
     7
  0
POINT
  5
110
  8
DEFPOINTS
  6
CONTINUOUS
 62
     0
 10
484.7417287828253
 20
-1069.983660736303
 30
0.0
  0
POINT
  5
111
  8
DEFPOINTS
  6
CONTINUOUS
 62
     0
 10
488.6417287828252
 20
-1064.283660736303
 30
0.0
  0
POINT
  5
112
  8
DEFPOINTS
  6
CONTINUOUS
 62
     0
 10
488.6417287828252
 20
-1035.191186618385
 30
0.0
  0
ENDBLK
  5
113
  8
0
 62
     7
  0
BLOCK
  8
0
  2
*D26
 70
     1
 10
0.0
 20
0.0
 30
0.0
  3
*D26
  1

  0
LINE
  5
F5
  8
回07-寸法
  6
CONTINUOUS
 62
     5
 10
268.5417287828253
 20
-1069.983660736303
 30
0.0
 11
268.5417287828253
 21
-1034.191186618385
 31
0.0
  0
LINE
  5
F6
  8
回07-寸法
  6
CONTINUOUS
 62
     5
 10
261.0417287828253
 20
-1064.283660736303
 30
0.0
 11
261.0417287828253
 21
-1034.191186618385
 31
0.0
  0
LINE
  5
F7
  8
回07-寸法
  6
CONTINUOUS
 62
     5
 10
270.5417287828253
 20
-1035.191186618385
 30
0.0
 11
272.5417287828253
 21
-1035.191186618385
 31
0.0
  0
LINE
  5
F8
  8
回07-寸法
  6
CONTINUOUS
 62
     5
 10
259.0417287828253
 20
-1035.191186618385
 30
0.0
 11
215.1412259488228
 21
-1035.191186618385
 31
0.0
  0
LINE
  5
F9
  8
回07-寸法
  6
CONTINUOUS
 62
     5
 10
268.5417287828253
 20
-1035.191186618385
 30
0.0
 11
261.0417287828253
 21
-1035.191186618385
 31
0.0
  0
INSERT
  5
FA
  8
回07-寸法
  6
CONTINUOUS
 62
     5
 66
     1
  2
_OPEN
 10
268.5417287828253
 20
-1035.191186618385
 30
0.0
 41
2.0
 42
2.0
 43
2.0
 50
180.0
  0
SEQEND
  5
FB
  8
回08-記事
  6
CONTINUOUS
 62
     7
  0
INSERT
  5
FC
  8
回07-寸法
  6
CONTINUOUS
 62
     5
 66
     1
  2
_OPEN
 10
261.0417287828253
 20
-1035.191186618385
 30
0.0
 41
2.0
 42
2.0
 43
2.0
  0
SEQEND
  5
FD
  8
回08-記事
  6
CONTINUOUS
 62
     7
  0
INSERT
  5
FE
  8
回07-寸法
  6
CONTINUOUS
 62
     5
 66
     1
  2
*X57
 10
0.0
 20
0.0
 30
0.0
  0
SEQEND
  5
4A9
  8
回08-記事
  6
CONTINUOUS
 62
     7
  0
POINT
  5
FF
  8
DEFPOINTS
  6
CONTINUOUS
 62
     0
 10
268.5417287828253
 20
-1069.983660736303
 30
0.0
  0
POINT
  5
100
  8
DEFPOINTS
  6
CONTINUOUS
 62
     0
 10
261.0417287828253
 20
-1064.283660736303
 30
0.0
  0
POINT
  5
101
  8
DEFPOINTS
  6
CONTINUOUS
 62
     0
 10
261.0417287828253
 20
-1035.191186618385
 30
0.0
  0
ENDBLK
  5
102
  8
0
 62
     7
  0
BLOCK
  8
0
  2
*D27
 70
     1
 10
0.0
 20
0.0
 30
0.0
  3
*D27
  1

  0
LINE
  5
DE
  8
回07-寸法
  6
CONTINUOUS
 62
     5
 10
186.5417287828263
 20
-1154.483660736304
 30
0.0
 11
174.7534442548927
 21
-1154.483660736304
 31
0.0
  0
LINE
  5
DF
  8
回07-寸法
  6
CONTINUOUS
 62
     5
 10
186.5417287828263
 20
-1149.483660736304
 30
0.0
 11
174.7534442548927
 21
-1149.483660736304
 31
0.0
  0
LINE
  5
E0
  8
回07-寸法
  6
CONTINUOUS
 62
     5
 10
175.7534442548927
 20
-1147.483660736304
 30
0.0
 11
175.7534442548927
 21
-1145.483660736304
 31
0.0
  0
LINE
  5
E1
  8
回07-寸法
  6
CONTINUOUS
 62
     5
 10
175.7534442548927
 20
-1156.483660736304
 30
0.0
 11
175.7534442548927
 21
-1187.454143727786
 31
0.0
  0
LINE
  5
E2
  8
回07-寸法
  6
CONTINUOUS
 62
     5
 10
175.7534442548927
 20
-1149.483660736304
 30
0.0
 11
175.7534442548927
 21
-1154.483660736304
 31
0.0
  0
INSERT
  5
E3
  8
回07-寸法
  6
CONTINUOUS
 62
     5
  2
_OPEN
 10
175.7534442548927
 20
-1149.483660736304
 30
0.0
 41
2.0
 42
2.0
 43
2.0
 50
270.0
  0
INSERT
  5
E4
  8
回07-寸法
  6
CONTINUOUS
 62
     5
  2
_OPEN
 10
175.7534442548927
 20
-1154.483660736304
 30
0.0
 41
2.0
 42
2.0
 43
2.0
 50
90.0
  0
INSERT
  5
E5
  8
回07-寸法
  6
CONTINUOUS
 62
     5
 66
     1
  2
*X58
 10
0.0
 20
0.0
 30
0.0
  0
SEQEND
  5
4B2
  8
回08-記事
  6
CONTINUOUS
 62
     7
  0
POINT
  5
E6
  8
DEFPOINTS
  6
CONTINUOUS
 62
     0
 10
186.5417287828263
 20
-1154.483660736304
 30
0.0
  0
POINT
  5
E7
  8
DEFPOINTS
  6
CONTINUOUS
 62
     0
 10
186.5417287828263
 20
-1149.483660736304
 30
0.0
  0
POINT
  5
E8
  8
DEFPOINTS
  6
CONTINUOUS
 62
     0
 10
175.7534442548927
 20
-1149.483660736304
 30
0.0
  0
ENDBLK
  5
E9
  8
0
 62
     7
  0
BLOCK
  8
0
  2
*D28
 70
     1
 10
0.0
 20
0.0
 30
0.0
  3
*D28
  1

  0
LINE
  5
CD
  8
回07-寸法
  6
CONTINUOUS
 62
     5
 10
261.0417287828244
 20
-1160.66078508077
 30
0.0
 11
261.0417287828244
 21
-1169.995936060288
 31
0.0
  0
LINE
  5
CE
  8
回07-寸法
  6
CONTINUOUS
 62
     5
 10
256.44095195635
 20
-1159.983660736304
 30
0.0
 11
256.44095195635
 21
-1169.995936060288
 31
0.0
  0
LINE
  5
CF
  8
回07-寸法
  6
CONTINUOUS
 62
     5
 10
263.0417287828244
 20
-1168.995936060289
 30
0.0
 11
265.0417287828244
 21
-1168.995936060289
 31
0.0
  0
LINE
  5
D0
  8
回07-寸法
  6
CONTINUOUS
 62
     5
 10
254.44095195635
 20
-1168.995936060289
 30
0.0
 11
230.3979013101813
 21
-1168.995936060289
 31
0.0
  0
LINE
  5
D1
  8
回07-寸法
  6
CONTINUOUS
 62
     5
 10
261.0417287828244
 20
-1168.995936060289
 30
0.0
 11
256.44095195635
 21
-1168.995936060289
 31
0.0
  0
INSERT
  5
D2
  8
回07-寸法
  6
CONTINUOUS
 62
     5
 66
     1
  2
_OPEN
 10
261.0417287828244
 20
-1168.995936060289
 30
0.0
 41
2.0
 42
2.0
 43
2.0
 50
180.0
  0
SEQEND
  5
D3
  8
回08-記事
  6
CONTINUOUS
 62
     7
  0
INSERT
  5
D4
  8
回07-寸法
  6
CONTINUOUS
 62
     5
 66
     1
  2
_OPEN
 10
256.44095195635
 20
-1168.995936060289
 30
0.0
 41
2.0
 42
2.0
 43
2.0
  0
SEQEND
  5
D5
  8
回08-記事
  6
CONTINUOUS
 62
     7
  0
TEXT
  5
D6
  8
回07-寸法
  6
CONTINUOUS
 62
     5
 10
230.4479013101813
 20
-1168.345936060289
 30
0.0
 40
3.0
  1
4.6 [0.181]
1001
ACAD
1000
MTEXTBEGIN
1070
    73
1070
     1
1070
    44
1040
1.0
1070
    74
1070
     0
1000
MTEXTEND
  0
POINT
  5
D7
  8
DEFPOINTS
  6
CONTINUOUS
 62
     0
 10
261.0417287828244
 20
-1160.66078508077
 30
0.0
  0
POINT
  5
D8
  8
DEFPOINTS
  6
CONTINUOUS
 62
     0
 10
256.44095195635
 20
-1159.983660736304
 30
0.0
  0
POINT
  5
D9
  8
DEFPOINTS
  6
CONTINUOUS
 62
     0
 10
256.44095195635
 20
-1168.995936060289
 30
0.0
  0
ENDBLK
  5
DA
  8
0
 62
     7
  0
BLOCK
  8
0
  2
*D29
 70
     1
 10
0.0
 20
0.0
 30
0.0
  3
*D29
  1

  0
LINE
  5
BC
  8
回07-寸法
  6
CONTINUOUS
 62
     5
 10
261.0417287828244
 20
-1160.66078508077
 30
0.0
 11
261.0417287828244
 21
-1177.394459770863
 31
0.0
  0
LINE
  5
BD
  8
回07-寸法
  6
CONTINUOUS
 62
     5
 10
250.9184961976901
 20
-1154.483660736302
 30
0.0
 11
250.9184961976901
 21
-1177.394459770863
 31
0.0
  0
LINE
  5
BE
  8
回07-寸法
  6
CONTINUOUS
 62
     5
 10
263.0417287828244
 20
-1176.394459770863
 30
0.0
 11
265.0417287828244
 21
-1176.394459770863
 31
0.0
  0
LINE
  5
BF
  8
回07-寸法
  6
CONTINUOUS
 62
     5
 10
248.9184961976901
 20
-1176.394459770863
 30
0.0
 11
225.1975302147245
 21
-1176.394459770863
 31
0.0
  0
LINE
  5
C0
  8
回07-寸法
  6
CONTINUOUS
 62
     5
 10
261.0417287828244
 20
-1176.394459770863
 30
0.0
 11
250.9184961976901
 21
-1176.394459770863
 31
0.0
  0
INSERT
  5
C1
  8
回07-寸法
  6
CONTINUOUS
 62
     5
 66
     1
  2
_OPEN
 10
261.0417287828244
 20
-1176.394459770863
 30
0.0
 41
2.0
 42
2.0
 43
2.0
 50
180.0
  0
SEQEND
  5
C2
  8
回08-記事
  6
CONTINUOUS
 62
     7
  0
INSERT
  5
C3
  8
回07-寸法
  6
CONTINUOUS
 62
     5
 66
     1
  2
_OPEN
 10
250.9184961976901
 20
-1176.394459770863
 30
0.0
 41
2.0
 42
2.0
 43
2.0
  0
SEQEND
  5
C4
  8
回08-記事
  6
CONTINUOUS
 62
     7
  0
TEXT
  5
C5
  8
回07-寸法
  6
CONTINUOUS
 62
     5
 10
225.2471821006264
 20
-1175.744579583068
 30
0.0
 40
3.0
  1
10.12 [0.399]
1001
ACAD
1000
MTEXTBEGIN
1070
    73
1070
     1
1070
    44
1040
1.0
1070
    74
1070
     0
1000
MTEXTEND
  0
POINT
  5
C6
  8
DEFPOINTS
  6
CONTINUOUS
 62
     0
 10
261.0417287828244
 20
-1160.66078508077
 30
0.0
  0
POINT
  5
C7
  8
DEFPOINTS
  6
CONTINUOUS
 62
     0
 10
250.9184961976901
 20
-1154.483660736302
 30
0.0
  0
POINT
  5
C8
  8
DEFPOINTS
  6
CONTINUOUS
 62
     0
 10
250.9184961976901
 20
-1176.394459770863
 30
0.0
  0
ENDBLK
  5
C9
  8
0
 62
     7
  0
BLOCK
  8
0
  2
*D30
 70
     1
 10
0.0
 20
0.0
 30
0.0
  3
*D30
  1

  0
LINE
  5
AB
  8
回07-寸法
  6
CONTINUOUS
 62
     5
 10
258.197850621496
 20
-1143.983660736304
 30
0.0
 11
232.4800409470225
 21
-1143.983660736304
 31
0.0
  0
LINE
  5
AC
  8
回07-寸法
  6
CONTINUOUS
 62
     5
 10
258.197850621496
 20
-1159.983660736304
 30
0.0
 11
232.4800409470225
 21
-1159.983660736304
 31
0.0
  0
LINE
  5
AD
  8
回07-寸法
  6
CONTINUOUS
 62
     5
 10
233.4800409470224
 20
-1161.983660736304
 30
0.0
 11
233.4800409470224
 21
-1163.983660736304
 31
0.0
  0
LINE
  5
AE
  8
回07-寸法
  6
CONTINUOUS
 62
     5
 10
233.4800409470224
 20
-1141.983660736304
 30
0.0
 11
233.4800409470224
 21
-1122.783660736303
 31
0.0
  0
LINE
  5
AF
  8
回07-寸法
  6
CONTINUOUS
 62
     5
 10
233.4800409470224
 20
-1159.983660736304
 30
0.0
 11
233.4800409470224
 21
-1143.983660736304
 31
0.0
  0
INSERT
  5
B0
  8
回07-寸法
  6
CONTINUOUS
 62
     5
 66
     1
  2
_OPEN
 10
233.4800409470224
 20
-1159.983660736304
 30
0.0
 41
2.0
 42
2.0
 43
2.0
 50
90.0
  0
SEQEND
  5
B1
  8
回08-記事
  6
CONTINUOUS
 62
     7
  0
INSERT
  5
B2
  8
回07-寸法
  6
CONTINUOUS
 62
     5
 66
     1
  2
_OPEN
 10
233.4800409470224
 20
-1143.983660736304
 30
0.0
 41
2.0
 42
2.0
 43
2.0
 50
270.0
  0
SEQEND
  5
B3
  8
回08-記事
  6
CONTINUOUS
 62
     7
  0
TEXT
  5
B4
  8
回07-寸法
  6
CONTINUOUS
 62
     5
 10
232.8300409470221
 20
-1139.933660736303
 30
0.0
 40
3.0
  1
16 [0.630]
 50
90.0
1001
ACAD
1000
MTEXTBEGIN
1070
    73
1070
     1
1070
    44
1040
1.0
1070
    74
1070
     0
1000
MTEXTEND
  0
POINT
  5
B5
  8
DEFPOINTS
  6
CONTINUOUS
 62
     0
 10
258.197850621496
 20
-1143.983660736304
 30
0.0
  0
POINT
  5
B6
  8
DEFPOINTS
  6
CONTINUOUS
 62
     0
 10
258.197850621496
 20
-1159.983660736304
 30
0.0
  0
POINT
  5
B7
  8
DEFPOINTS
  6
CONTINUOUS
 62
     0
 10
233.4800409470224
 20
-1159.983660736304
 30
0.0
  0
ENDBLK
  5
B8
  8
0
 62
     7
  0
BLOCK
  8
0
  2
*D31
 70
     1
 10
0.0
 20
0.0
 30
0.0
  3
*D31
  1

  0
LINE
  5
98
  8
回07-寸法
  6
CONTINUOUS
 62
     5
 10
185.8417287828264
 20
-1149.483660736303
 30
0.0
 11
174.753444254892
 21
-1149.483660736303
 31
0.0
  0
LINE
  5
9A
  8
回07-寸法
  6
CONTINUOUS
 62
     5
 10
261.0417287828253
 20
-1064.283660736303
 30
0.0
 11
174.753444254892
 21
-1064.283660736303
 31
0.0
  0
LINE
  5
9B
  8
回07-寸法
  6
CONTINUOUS
 62
     5
 10
175.753444254892
 20
-1147.483660736303
 30
0.0
 11
175.753444254892
 21
-1066.283660736303
 31
0.0
  0
INSERT
  5
9C
  8
回07-寸法
  6
CONTINUOUS
 62
     5
 66
     1
  2
_OPEN
 10
175.753444254892
 20
-1149.483660736303
 30
0.0
 41
2.0
 42
2.0
 43
2.0
 50
270.0
  0
SEQEND
  5
9D
  8
回08-記事
  6
CONTINUOUS
 62
     7
  0
INSERT
  5
9E
  8
回07-寸法
  6
CONTINUOUS
 62
     5
 66
     1
  2
_OPEN
 10
175.753444254892
 20
-1064.283660736303
 30
0.0
 41
2.0
 42
2.0
 43
2.0
 50
90.0
  0
SEQEND
  5
9F
  8
回08-記事
  6
CONTINUOUS
 62
     7
  0
TEXT
  5
A0
  8
回07-寸法
  6
CONTINUOUS
 62
     5
 10
175.1034442548919
 20
-1118.583660736303
 30
0.0
 40
3.0
  1
(85.2 [3.354])
 50
90.0
1001
ACAD
1000
MTEXTBEGIN
1070
    73
1070
     1
1070
    44
1040
1.0
1070
    74
1070
     0
1000
MTEXTEND
  0
POINT
  5
A1
  8
DEFPOINTS
  6
CONTINUOUS
 62
     0
 10
185.8417287828264
 20
-1149.483660736303
 30
0.0
  0
POINT
  5
A2
  8
DEFPOINTS
  6
CONTINUOUS
 62
     0
 10
261.0417287828253
 20
-1064.283660736303
 30
0.0
  0
POINT
  5
A3
  8
DEFPOINTS
  6
CONTINUOUS
 62
     0
 10
175.753444254892
 20
-1064.283660736303
 30
0.0
  0
ENDBLK
  5
A4
  8
0
 62
     7
  0
BLOCK
  8
0
  2
*D32
 70
     1
 10
0.0
 20
0.0
 30
0.0
  3
*D32
  1

  0
LINE
  5
82
  8
回07-寸法
  6
CONTINUOUS
 62
     5
 10
261.0417287828251
 20
-1143.306536391837
 30
0.0
 11
261.0417287828251
 21
-1119.067415067461
 31
0.0
  0
LINE
  5
83
  8
回07-寸法
  6
CONTINUOUS
 62
     5
 10
186.0417287828262
 20
-1149.983660736304
 30
0.0
 11
186.0417287828262
 21
-1119.067415067461
 31
0.0
  0
LINE
  5
84
  8
回07-寸法
  6
CONTINUOUS
 62
     5
 10
259.0417287828251
 20
-1120.067415067461
 30
0.0
 11
188.0417287828262
 21
-1120.067415067461
 31
0.0
  0
INSERT
  5
85
  8
回07-寸法
  6
CONTINUOUS
 62
     5
  2
_OPEN
 10
261.0417287828251
 20
-1120.067415067461
 30
0.0
 41
2.0
 42
2.0
 43
2.0
  0
INSERT
  5
86
  8
回07-寸法
  6
CONTINUOUS
 62
     5
  2
_OPEN
 10
186.0417287828262
 20
-1120.067415067461
 30
0.0
 41
2.0
 42
2.0
 43
2.0
 50
180.0
  0
INSERT
  5
87
  8
回07-寸法
  6
CONTINUOUS
 62
     5
 66
     1
  2
*X59
 10
0.0
 20
0.0
 30
0.0
  0
SEQEND
  5
4BB
  8
回08-記事
  6
CONTINUOUS
 62
     7
  0
POINT
  5
88
  8
DEFPOINTS
  6
CONTINUOUS
 62
     0
 10
261.0417287828251
 20
-1143.306536391837
 30
0.0
  0
POINT
  5
8A
  8
DEFPOINTS
  6
CONTINUOUS
 62
     0
 10
186.0417287828262
 20
-1149.983660736304
 30
0.0
  0
POINT
  5
8B
  8
DEFPOINTS
  6
CONTINUOUS
 62
     0
 10
186.0417287828262
 20
-1120.067415067461
 30
0.0
  0
ENDBLK
  5
8C
  8
0
 62
     7
  0
BLOCK
  8
0
  2
*D33
 70
     1
 10
0.0
 20
0.0
 30
0.0
  3
*D33
  1

  0
LINE
  5
362
  8
回07-寸法
  6
CONTINUOUS
 62
     5
 10
593.8667072004941
 20
-1225.143457292131
 30
0.0
 11
571.2704085115023
 21
-1225.143457292131
 31
0.0
  0
LINE
  5
363
  8
回07-寸法
  6
CONTINUOUS
 62
     5
 10
593.8667072004941
 20
-1245.143457292131
 30
0.0
 11
571.2704085115023
 21
-1245.143457292131
 31
0.0
  0
LINE
  5
364
  8
回07-寸法
  6
CONTINUOUS
 62
     5
 10
572.2704085115022
 20
-1223.14345729213
 30
0.0
 11
572.2704085115022
 21
-1221.143457292131
 31
0.0
  0
LINE
  5
365
  8
回07-寸法
  6
CONTINUOUS
 62
     5
 10
572.2704085115022
 20
-1247.143457292131
 30
0.0
 11
572.2704085115022
 21
-1274.654550283614
 31
0.0
  0
LINE
  5
366
  8
回07-寸法
  6
CONTINUOUS
 62
     5
 10
572.2704085115022
 20
-1225.143457292131
 30
0.0
 11
572.2704085115022
 21
-1245.143457292131
 31
0.0
  0
INSERT
  5
367
  8
回07-寸法
  6
CONTINUOUS
 62
     5
 66
     1
  2
_OPEN
 10
572.2704085115022
 20
-1225.143457292131
 30
0.0
 41
2.0
 42
2.0
 43
2.0
 50
270.0
  0
SEQEND
  5
368
  8
回08-記事
  6
CONTINUOUS
 62
     7
  0
INSERT
  5
369
  8
回07-寸法
  6
CONTINUOUS
 62
     5
 66
     1
  2
_OPEN
 10
572.2704085115022
 20
-1245.143457292131
 30
0.0
 41
2.0
 42
2.0
 43
2.0
 50
90.0
  0
SEQEND
  5
36A
  8
回08-記事
  6
CONTINUOUS
 62
     7
  0
INSERT
  5
36B
  8
回07-寸法
  6
CONTINUOUS
 62
     5
 66
     1
  2
*X60
 10
0.0
 20
0.0
 30
0.0
  0
SEQEND
  5
4C4
  8
回08-記事
  6
CONTINUOUS
 62
     7
  0
POINT
  5
36C
  8
DEFPOINTS
  6
CONTINUOUS
 62
     0
 10
593.8667072004941
 20
-1225.143457292131
 30
0.0
  0
POINT
  5
36D
  8
DEFPOINTS
  6
CONTINUOUS
 62
     0
 10
593.8667072004941
 20
-1245.143457292131
 30
0.0
  0
POINT
  5
36E
  8
DEFPOINTS
  6
CONTINUOUS
 62
     0
 10
572.2704085115022
 20
-1245.143457292131
 30
0.0
  0
ENDBLK
  5
36F
  8
0
 62
     7
  0
BLOCK
  8
0
  2
*D34
 70
     1
 10
0.0
 20
0.0
 30
0.0
  3
*D34
  1

  0
LINE
  5
351
  8
回07-寸法
  6
CONTINUOUS
 62
     5
 10
591.8667072004941
 20
-1229.143457292131
 30
0.0
 11
577.483894613679
 21
-1229.143457292131
 31
0.0
  0
LINE
  5
352
  8
回07-寸法
  6
CONTINUOUS
 62
     5
 10
591.8667072004941
 20
-1241.143457292131
 30
0.0
 11
577.483894613679
 21
-1241.143457292131
 31
0.0
  0
LINE
  5
353
  8
回07-寸法
  6
CONTINUOUS
 62
     5
 10
578.4838946136789
 20
-1227.143457292131
 30
0.0
 11
578.4838946136789
 21
-1225.143457292131
 31
0.0
  0
LINE
  5
354
  8
回07-寸法
  6
CONTINUOUS
 62
     5
 10
578.4838946136789
 20
-1243.143457292131
 30
0.0
 11
578.4838946136789
 21
-1259.99345729213
 31
0.0
  0
LINE
  5
355
  8
回07-寸法
  6
CONTINUOUS
 62
     5
 10
578.4838946136789
 20
-1229.143457292131
 30
0.0
 11
578.4838946136789
 21
-1241.143457292131
 31
0.0
  0
INSERT
  5
356
  8
回07-寸法
  6
CONTINUOUS
 62
     5
 66
     1
  2
_OPEN
 10
578.4838946136789
 20
-1229.143457292131
 30
0.0
 41
2.0
 42
2.0
 43
2.0
 50
270.0
  0
SEQEND
  5
357
  8
回08-記事
  6
CONTINUOUS
 62
     7
  0
INSERT
  5
358
  8
回07-寸法
  6
CONTINUOUS
 62
     5
 66
     1
  2
_OPEN
 10
578.4838946136789
 20
-1241.143457292131
 30
0.0
 41
2.0
 42
2.0
 43
2.0
 50
90.0
  0
SEQEND
  5
359
  8
回08-記事
  6
CONTINUOUS
 62
     7
  0
TEXT
  5
35A
  8
回07-寸法
  6
CONTINUOUS
 62
     5
 10
577.8338946136785
 20
-1259.94345729213
 30
0.0
 40
3.0
  1
3[0.118]
 50
90.0
1001
ACAD
1000
MTEXTBEGIN
1070
    73
1070
     1
1070
    44
1040
1.0
1070
    74
1070
     0
1000
MTEXTEND
  0
POINT
  5
35B
  8
DEFPOINTS
  6
CONTINUOUS
 62
     0
 10
591.8667072004941
 20
-1229.143457292131
 30
0.0
  0
POINT
  5
35C
  8
DEFPOINTS
  6
CONTINUOUS
 62
     0
 10
591.8667072004941
 20
-1241.143457292131
 30
0.0
  0
POINT
  5
35D
  8
DEFPOINTS
  6
CONTINUOUS
 62
     0
 10
578.4838946136789
 20
-1241.143457292131
 30
0.0
  0
ENDBLK
  5
35E
  8
0
 62
     7
  0
BLOCK
  8
0
  2
*D35
 70
     1
 10
0.0
 20
0.0
 30
0.0
  3
*D35
  1

  0
LINE
  5
340
  8
回07-寸法
  6
CONTINUOUS
 62
     5
 10
591.8667072004941
 20
-1241.143457292131
 30
0.0
 11
583.6356142453557
 21
-1241.143457292131
 31
0.0
  0
LINE
  5
341
  8
回07-寸法
  6
CONTINUOUS
 62
     5
 10
591.8667072004941
 20
-1237.143457292131
 30
0.0
 11
583.6356142453557
 21
-1237.143457292131
 31
0.0
  0
LINE
  5
342
  8
回07-寸法
  6
CONTINUOUS
 62
     5
 10
584.6356142453557
 20
-1235.143457292131
 30
0.0
 11
584.6356142453557
 21
-1233.143457292131
 31
0.0
  0
LINE
  5
343
  8
回07-寸法
  6
CONTINUOUS
 62
     5
 10
584.6356142453557
 20
-1243.143457292131
 30
0.0
 11
584.6356142453557
 21
-1260.318000373965
 31
0.0
  0
LINE
  5
344
  8
回07-寸法
  6
CONTINUOUS
 62
     5
 10
584.6356142453557
 20
-1237.143457292131
 30
0.0
 11
584.6356142453557
 21
-1241.143457292131
 31
0.0
  0
INSERT
  5
345
  8
回07-寸法
  6
CONTINUOUS
 62
     5
 66
     1
  2
_OPEN
 10
584.6356142453557
 20
-1237.143457292131
 30
0.0
 41
2.0
 42
2.0
 43
2.0
 50
270.0
  0
SEQEND
  5
346
  8
回08-記事
  6
CONTINUOUS
 62
     7
  0
INSERT
  5
347
  8
回07-寸法
  6
CONTINUOUS
 62
     5
 66
     1
  2
_OPEN
 10
584.6356142453557
 20
-1241.143457292131
 30
0.0
 41
2.0
 42
2.0
 43
2.0
 50
90.0
  0
SEQEND
  5
348
  8
回08-記事
  6
CONTINUOUS
 62
     7
  0
TEXT
  5
349
  8
回07-寸法
  6
CONTINUOUS
 62
     5
 10
583.9856741514577
 20
-1260.268174431014
 30
0.0
 40
3.0
  1
1[0.039]
 50
90.0
1001
ACAD
1000
MTEXTBEGIN
1070
    73
1070
     1
1070
    44
1040
1.0
1070
    74
1070
     0
1000
MTEXTEND
  0
POINT
  5
34A
  8
DEFPOINTS
  6
CONTINUOUS
 62
     0
 10
591.8667072004941
 20
-1241.143457292131
 30
0.0
  0
POINT
  5
34B
  8
DEFPOINTS
  6
CONTINUOUS
 62
     0
 10
591.8667072004941
 20
-1237.143457292131
 30
0.0
  0
POINT
  5
34C
  8
DEFPOINTS
  6
CONTINUOUS
 62
     0
 10
584.6356142453557
 20
-1237.143457292131
 30
0.0
  0
ENDBLK
  5
34D
  8
0
 62
     7
  0
BLOCK
  8
0
  2
*D36
 70
     1
 10
0.0
 20
0.0
 30
0.0
  3
*D36
  1

  0
LINE
  5
32E
  8
回08-記事
  6
CONTINUOUS
 62
     5
 10
591.8667072004941
 20
-1239.943457292131
 30
0.0
 11
588.6092359035123
 21
-1239.943457292131
 31
0.0
  0
LINE
  5
32F
  8
回08-記事
  6
CONTINUOUS
 62
     5
 10
591.8667072004941
 20
-1242.343457292131
 30
0.0
 11
588.6092359035123
 21
-1242.343457292131
 31
0.0
  0
LINE
  5
330
  8
回08-記事
  6
CONTINUOUS
 62
     5
 10
589.6092359035122
 20
-1237.943457292131
 30
0.0
 11
589.6092359035122
 21
-1235.943457292131
 31
0.0
  0
LINE
  5
331
  8
回08-記事
  6
CONTINUOUS
 62
     5
 10
589.6092359035122
 20
-1244.343457292131
 30
0.0
 11
589.6092359035122
 21
-1263.545819496855
 31
0.0
  0
LINE
  5
332
  8
回08-記事
  6
CONTINUOUS
 62
     5
 10
589.6092359035122
 20
-1239.943457292131
 30
0.0
 11
589.6092359035122
 21
-1242.343457292131
 31
0.0
  0
INSERT
  5
333
  8
回08-記事
  6
CONTINUOUS
 62
     5
 66
     1
  2
_OPEN
 10
589.6092359035122
 20
-1239.943457292131
 30
0.0
 41
2.0
 42
2.0
 43
2.0
 50
270.0
  0
SEQEND
  5
334
  8
回08-記事
  6
CONTINUOUS
 62
     7
  0
INSERT
  5
335
  8
回08-記事
  6
CONTINUOUS
 62
     5
 66
     1
  2
_OPEN
 10
589.6092359035122
 20
-1242.343457292131
 30
0.0
 41
2.0
 42
2.0
 43
2.0
 50
90.0
  0
SEQEND
  5
336
  8
回08-記事
  6
CONTINUOUS
 62
     7
  0
TEXT
  5
337
  8
回08-記事
  6
CONTINUOUS
 62
     5
 10
588.9592359035118
 20
-1263.493457292131
 30
0.0
 40
3.0
  1
0.6[0.024]
 50
90.0
1001
ACAD
1000
MTEXTBEGIN
1070
    73
1070
     1
1070
    44
1040
1.0
1070
    74
1070
     0
1000
MTEXTEND
  0
POINT
  5
338
  8
DEFPOINTS
  6
CONTINUOUS
 62
     0
 10
591.8667072004941
 20
-1239.943457292131
 30
0.0
  0
POINT
  5
339
  8
DEFPOINTS
  6
CONTINUOUS
 62
     0
 10
591.8667072004941
 20
-1242.343457292131
 30
0.0
  0
POINT
  5
33A
  8
DEFPOINTS
  6
CONTINUOUS
 62
     0
 10
589.6092359035122
 20
-1242.343457292131
 30
0.0
  0
ENDBLK
  5
33B
  8
0
 62
     7
  0
BLOCK
  8
回08-記事
  2
*X37
 70
     1
 10
0.0
 20
0.0
 30
0.0
  3
*X37
  1

  0
INSERT
  5
3CE
  8
回08-記事
  6
CONTINUOUS
 62
     5
  2
_OPEN
 10
183.0610662195996
 20
-1283.958826508369
 30
0.0
 41
2.0
 42
2.0
 43
2.0
 50
44.2664679060089
  0
LINE
  5
3CF
  8
回08-記事
  6
CONTINUOUS
 62
     5
 10
181.6288635086429
 20
-1285.354819128237
 30
0.0
 11
171.3787216814168
 21
-1295.345808695531
 31
0.0
  0
LINE
  5
3D0
  8
回08-記事
  6
CONTINUOUS
 62
     5
 10
171.3787216814168
 20
-1295.345808695531
 30
0.0
 11
145.1712216814167
 21
-1295.345808695531
 31
0.0
  0
ENDBLK
  5
3D2
  8
回08-記事
  6
CONTINUOUS
 62
     7
  0
BLOCK
  8
回08-記事
  2
*X38
 70
     1
 10
0.0
 20
0.0
 30
0.0
  3
*X38
  1

  0
LINE
  5
3D5
  8
回08-記事
  6
CONTINUOUS
 62
     8
 10
256.3417287828254
 20
-1153.322373952759
 30
0.0
 11
256.6804419992767
 21
-1152.983660736307
 31
0.0
1001
ACAD
1010
0.0
1020
0.0
1030
0.0
  0
LINE
  5
3D6
  8
回08-記事
  6
CONTINUOUS
 62
     8
 10
256.3417287828255
 20
-1155.090140905725
 30
0.0
 11
258.4482089522426
 21
-1152.983660736308
 31
0.0
1001
ACAD
1010
0.0
1020
0.0
1030
0.0
  0
LINE
  5
3D7
  8
回08-記事
  6
CONTINUOUS
 62
     8
 10
256.3417287828257
 20
-1156.857907858691
 30
0.0
 11
260.2159759052091
 21
-1152.983660736307
 31
0.0
1001
ACAD
1010
0.0
1020
0.0
1030
0.0
  0
LINE
  5
3D8
  8
回08-記事
  6
CONTINUOUS
 62
     8
 10
256.3417287828257
 20
-1158.625674811657
 30
0.0
 11
261.9837428581753
 21
-1152.983660736307
 31
0.0
1001
ACAD
1010
0.0
1020
0.0
1030
0.0
  0
LINE
  5
3D9
  8
回08-記事
  6
CONTINUOUS
 62
     8
 10
257.7515098111417
 20
-1158.983660736307
 30
0.0
 11
263.7515098111418
 21
-1152.983660736307
 31
0.0
1001
ACAD
1010
0.0
1020
0.0
1030
0.0
  0
LINE
  5
3DA
  8
回08-記事
  6
CONTINUOUS
 62
     8
 10
259.5192767641075
 20
-1158.983660736308
 30
0.0
 11
264.5417287828252
 21
-1153.96120871759
 31
0.0
1001
ACAD
1010
0.0
1020
0.0
1030
0.0
  0
LINE
  5
3DB
  8
回08-記事
  6
CONTINUOUS
 62
     8
 10
261.287043717074
 20
-1158.983660736307
 30
0.0
 11
264.5417287828256
 21
-1155.728975670556
 31
0.0
1001
ACAD
1010
0.0
1020
0.0
1030
0.0
  0
LINE
  5
3DC
  8
回08-記事
  6
CONTINUOUS
 62
     8
 10
263.0548106700403
 20
-1158.983660736307
 30
0.0
 11
264.5417287828256
 21
-1157.496742623522
 31
0.0
1001
ACAD
1010
0.0
1020
0.0
1030
0.0
  0
ENDBLK
  5
3DE
  8
回08-記事
  6
CONTINUOUS
 62
     7
  0
BLOCK
  8
回08-記事
  2
*X39
 70
     1
 10
0.0
 20
0.0
 30
0.0
  3
*X39
  1

  0
INSERT
  5
3EB
  8
回08-記事
  6
CONTINUOUS
 62
     5
  2
_OPEN
 10
188.7369186210861
 20
-1156.142351558627
 30
0.0
 41
2.0
 42
2.0
 43
2.0
 50
121.8278958063526
  0
LINE
  5
3EC
  8
回08-記事
  6
CONTINUOUS
 62
     5
 10
189.7916576678803
 20
-1157.841623621355
 30
0.0
 11
192.0097968778071
 21
-1161.415229815348
 31
0.0
  0
LINE
  5
3ED
  8
回08-記事
  6
CONTINUOUS
 62
     5
 10
192.0097968778071
 20
-1161.415229815348
 30
0.0
 11
196.9097968778071
 21
-1161.415229815348
 31
0.0
  0
ENDBLK
  5
3EF
  8
回08-記事
  6
CONTINUOUS
 62
     7
  0
BLOCK
  8
回08-記事
  2
*X40
 70
     1
 10
0.0
 20
0.0
 30
0.0
  3
*X40
  1

  0
INSERT
  5
3F2
  8
回07-寸法
  6
CONTINUOUS
 62
     5
  2
_OPEN
 10
250.8872176756052
 20
-1149.407929604328
 30
0.0
 41
2.0
 42
2.0
 43
2.0
 50
282.8447231144659
  0
LINE
  5
3F3
  8
回07-寸法
  6
CONTINUOUS
 62
     5
 10
250.4425984794264
 20
-1147.457977356095
 30
0.0
 11
249.1109029068078
 21
-1141.617602495749
 31
0.0
  0
LINE
  5
3F4
  8
回07-寸法
  6
CONTINUOUS
 62
     5
 10
249.1109029068078
 20
-1141.617602495749
 30
0.0
 11
246.6109029068078
 21
-1141.617602495749
 31
0.0
  0
ENDBLK
  5
3F6
  8
回08-記事
  6
CONTINUOUS
 62
     7
  0
BLOCK
  8
回08-記事
  2
*X41
 70
     1
 10
0.0
 20
0.0
 30
0.0
  3
*X41
  1

  0
INSERT
  5
3F9
  8
回07-寸法
  6
CONTINUOUS
 62
     5
  2
_OPEN
 10
260.0261190890245
 20
-1143.844467880456
 30
0.0
 41
2.0
 42
2.0
 43
2.0
 50
288.654103799242
  0
LINE
  5
3FA
  8
回07-寸法
  6
CONTINUOUS
 62
     5
 10
259.3864108197128
 20
-1141.949534285268
 30
0.0
 11
255.6360553259741
 21
-1130.840291275746
 31
0.0
  0
LINE
  5
3FB
  8
回07-寸法
  6
CONTINUOUS
 62
     5
 10
255.6360553259741
 20
-1130.840291275746
 30
0.0
 11
253.1360553259741
 21
-1130.840291275746
 31
0.0
  0
ENDBLK
  5
3FD
  8
回08-記事
  6
CONTINUOUS
 62
     7
  0
BLOCK
  8
回08-記事
  2
*X42
 70
     1
 10
0.0
 20
0.0
 30
0.0
  3
*X42
  1

  0
LINE
  5
400
  8
回08-記事
  6
CONTINUOUS
 62
     8
 10
216.5535656808578
 20
-1154.483660736303
 30
0.0
 11
214.6815719580778
 21
-1152.611667013523
 31
0.0
  0
LINE
  5
401
  8
回08-記事
  6
CONTINUOUS
 62
     8
 10
219.2052161103076
 20
-1154.483660736303
 30
0.0
 11
214.7776078248326
 21
-1150.056052450828
 31
0.0
  0
LINE
  5
402
  8
回08-記事
  6
CONTINUOUS
 62
     8
 10
221.8568665397569
 20
-1154.483660736303
 30
0.0
 11
216.856866539757
 21
-1149.483660736303
 31
0.0
  0
LINE
  5
403
  8
回08-記事
  6
CONTINUOUS
 62
     8
 10
224.5085169692067
 20
-1154.483660736303
 30
0.0
 11
219.5085169692067
 21
-1149.483660736303
 31
0.0
  0
LINE
  5
404
  8
回08-記事
  6
CONTINUOUS
 62
     8
 10
227.1601673986562
 20
-1154.483660736303
 30
0.0
 11
222.1601673986562
 21
-1149.483660736303
 31
0.0
  0
LINE
  5
405
  8
回08-記事
  6
CONTINUOUS
 62
     8
 10
229.8118178281057
 20
-1154.483660736303
 30
0.0
 11
224.8118178281057
 21
-1149.483660736303
 31
0.0
  0
LINE
  5
406
  8
回08-記事
  6
CONTINUOUS
 62
     8
 10
232.4634682575553
 20
-1154.483660736303
 30
0.0
 11
227.4634682575553
 21
-1149.483660736303
 31
0.0
  0
LINE
  5
407
  8
回08-記事
  6
CONTINUOUS
 62
     8
 10
235.1151186870048
 20
-1154.483660736303
 30
0.0
 11
230.1151186870048
 21
-1149.483660736303
 31
0.0
  0
LINE
  5
408
  8
回08-記事
  6
CONTINUOUS
 62
     8
 10
237.7667691164543
 20
-1154.483660736303
 30
0.0
 11
232.7667691164544
 21
-1149.483660736303
 31
0.0
  0
LINE
  5
409
  8
回08-記事
  6
CONTINUOUS
 62
     8
 10
240.2447530491756
 20
-1154.309994239575
 30
0.0
 11
235.4184195459039
 21
-1149.483660736303
 31
0.0
  0
LINE
  5
40A
  8
回08-記事
  6
CONTINUOUS
 62
     8
 10
240.6815719580776
 20
-1152.095162719027
 30
0.0
 11
238.0700699753534
 21
-1149.483660736303
 31
0.0
  0
ENDBLK
  5
40C
  8
回08-記事
  6
CONTINUOUS
 62
     7
  0
BLOCK
  8
回08-記事
  2
*X43
 70
     1
 10
0.0
 20
0.0
 30
0.0
  3
*X43
  1

  0
INSERT
  5
41D
  8
回08-記事
  6
CONTINUOUS
 62
     5
  2
_OPEN
 10
234.5229476555422
 20
-1280.253107568092
 30
0.0
 41
2.0
 42
2.0
 43
2.0
 50
284.7542521692916
  0
LINE
  5
41E
  8
回08-記事
  6
CONTINUOUS
 62
     5
 10
234.0136002231534
 20
-1278.319053485829
 30
0.0
 11
228.7971739116074
 21
-1258.511649028417
 31
0.0
  0
LINE
  5
41F
  8
回08-記事
  6
CONTINUOUS
 62
     5
 10
228.7971739116074
 20
-1258.511649028417
 30
0.0
 11
175.0971739116074
 21
-1258.511649028417
 31
0.0
  0
ENDBLK
  5
421
  8
回08-記事
  6
CONTINUOUS
 62
     7
  0
BLOCK
  8
回08-記事
  2
*X44
 70
     1
 10
0.0
 20
0.0
 30
0.0
  3
*X44
  1

  0
INSERT
  5
429
  8
回07-寸法
  6
CONTINUOUS
 62
     5
  2
_OPEN
 10
470.0080401854632
 20
-1238.747553784363
 30
0.0
 41
2.0
 42
2.0
 43
2.0
 50
51.51049533193106
  0
LINE
  5
42A
  8
回07-寸法
  6
CONTINUOUS
 62
     5
 10
468.7632976464222
 20
-1240.312998133902
 30
0.0
 11
463.3059137001857
 21
-1247.176450288817
 31
0.0
  0
LINE
  5
42B
  8
回07-寸法
  6
CONTINUOUS
 62
     5
 10
463.3059137001857
 20
-1247.176450288817
 30
0.0
 11
441.6059137001856
 21
-1247.176450288817
 31
0.0
  0
ENDBLK
  5
42D
  8
回08-記事
  6
CONTINUOUS
 62
     7
  0
BLOCK
  8
回08-記事
  2
*X45
 70
     1
 10
0.0
 20
0.0
 30
0.0
  3
*X45
  1

  0
INSERT
  5
43F
  8
回08-記事
  6
CONTINUOUS
 62
     5
  2
_OPEN
 10
219.2809341885344
 20
-1286.076903902703
 30
0.0
 41
2.0
 42
2.0
 43
2.0
 50
96.32166613928852
  0
LINE
  5
440
  8
回08-記事
  6
CONTINUOUS
 62
     5
 10
219.5011545186662
 20
-1288.06474268042
 30
0.0
 11
221.0232197527688
 21
-1301.803802524507
 31
0.0
  0
LINE
  5
441
  8
回08-記事
  6
CONTINUOUS
 62
     5
 10
221.0232197527688
 20
-1301.803802524507
 30
0.0
 11
249.1232197527688
 21
-1301.803802524507
 31
0.0
  0
ENDBLK
  5
443
  8
回08-記事
  6
CONTINUOUS
 62
     7
  0
BLOCK
  8
回08-記事
  2
*X46
 70
     1
 10
0.0
 20
0.0
 30
0.0
  3
*X46
  1

  0
TEXT
  5
457
  8
回08-記事
  6
CONTINUOUS
 62
     5
 10
148.5909631756381
 20
-1271.922014303644
 30
0.0
 40
3.0
  1
0.3
 50
90.0
  0
TEXT
  5
458
  8
回08-記事
  6
CONTINUOUS
 62
     5
 10
148.5909631756381
 20
-1266.822014303644
 30
0.0
 40
1.9689
  1
±0.05
 50
90.0
  0
TEXT
  5
459
  8
回08-記事
  6
CONTINUOUS
 62
     5
 10
148.5909631756381
 20
-1260.718424303644
 30
0.0
 40
3.0
  1
[0.012
 50
90.0
  0
TEXT
  5
45A
  8
回08-記事
  6
CONTINUOUS
 62
     5
 10
148.5909631756381
 20
-1250.818424303644
 30
0.0
 40
1.9689
  1
±0.002
 50
90.0
  0
TEXT
  5
45B
  8
回08-記事
  6
CONTINUOUS
 62
     5
 10
148.5909631756381
 20
-1243.336604303644
 30
0.0
 40
3.0
  1
]
 50
90.0
  0
ENDBLK
  5
45D
  8
回08-記事
  6
CONTINUOUS
 62
     7
  0
BLOCK
  8
回08-記事
  2
*X47
 70
     1
 10
0.0
 20
0.0
 30
0.0
  3
*X47
  1

  0
TEXT
  5
460
  8
回08-記事
  6
CONTINUOUS
 62
     5
 10
496.3514548178184
 20
-1323.449204108082
 30
0.0
 40
3.0
  1
2.1
 50
90.0
  0
TEXT
  5
461
  8
回08-記事
  6
CONTINUOUS
 62
     5
 10
496.3514548178184
 20
-1318.949204108082
 30
0.0
 40
1.9689
  1
±0.2
 50
90.0
  0
TEXT
  5
462
  8
回08-記事
  6
CONTINUOUS
 62
     5
 10
496.3514548178184
 20
-1314.223844108082
 30
0.0
 40
3.0
  1
[0.079
 50
90.0
  0
TEXT
  5
463
  8
回08-記事
  6
CONTINUOUS
 62
     5
 10
496.3514548178184
 20
-1303.7130130025
 30
0.0
 40
1.9689
  1
±0.008
 50
90.0
  0
TEXT
  5
464
  8
回08-記事
  6
CONTINUOUS
 62
     5
 10
496.3514548178184
 20
-1296.2311930025
 30
0.0
 40
3.0
  1
]
 50
90.0
  0
ENDBLK
  5
466
  8
回08-記事
  6
CONTINUOUS
 62
     7
  0
BLOCK
  8
回08-記事
  2
*X48
 70
     1
 10
0.0
 20
0.0
 30
0.0
  3
*X48
  1

  0
TEXT
  5
469
  8
回07-寸法
  6
CONTINUOUS
 62
     5
 10
356.2984216962111
 20
-1049.013001667709
 30
0.0
 40
3.0
  1
211.2 [8.315] 
  0
TEXT
  5
46A
  8
回07-寸法
  6
CONTINUOUS
 62
     5
 10
379.0984216962112
 20
-1049.013001667709
 30
0.0
 40
2.25
  1
(Active area)
  0
ENDBLK
  5
46C
  8
回08-記事
  6
CONTINUOUS
 62
     7
  0
BLOCK
  8
回08-記事
  2
*X49
 70
     1
 10
0.0
 20
0.0
 30
0.0
  3
*X49
  1

  0
TEXT
  5
46F
  8
回07-寸法
  6
CONTINUOUS
 62
     5
 10
354.7609216962112
 20
-1041.113099263471
 30
0.0
 40
3.0
  1
215.2 [8.472] 
  0
TEXT
  5
470
  8
回07-寸法
  6
CONTINUOUS
 62
     5
 10
379.0609216962112
 20
-1041.113099263471
 30
0.0
 40
2.25
  1
(Viewing area)
  0
ENDBLK
  5
472
  8
回08-記事
  6
CONTINUOUS
 62
     7
  0
BLOCK
  8
回08-記事
  2
*X50
 70
     1
 10
0.0
 20
0.0
 30
0.0
  3
*X50
  1

  0
TEXT
  5
475
  8
回07-寸法
  6
CONTINUOUS
 62
     5
 10
357.4363132300348
 20
-1028.385175099038
 30
0.0
 40
3.0
  1
227.6
  0
TEXT
  5
476
  8
回07-寸法
  6
CONTINUOUS
 62
     5
 10
366.7363132300348
 20
-1028.385175099038
 30
0.0
 40
2.1
  1
±0.3
  0
TEXT
  5
477
  8
回07-寸法
  6
CONTINUOUS
 62
     5
 10
371.7763132300348
 20
-1028.385175099038
 30
0.0
 40
3.0
  1
 [8.961
  0
TEXT
  5
478
  8
回07-寸法
  6
CONTINUOUS
 62
     5
 10
383.4871443356158
 20
-1028.385175099038
 30
0.0
 40
2.1
  1
±0.012
  0
TEXT
  5
479
  8
回07-寸法
  6
CONTINUOUS
 62
     5
 10
391.0471443356158
 20
-1028.385175099038
 30
0.0
 40
3.0
  1
]
  0
ENDBLK
  5
47B
  8
回08-記事
  6
CONTINUOUS
 62
     7
  0
BLOCK
  8
回08-記事
  2
*X51
 70
     1
 10
0.0
 20
0.0
 30
0.0
  3
*X51
  1

  0
TEXT
  5
47E
  8
回07-寸法
  6
CONTINUOUS
 62
     5
 10
522.9519866992172
 20
-1173.076967822918
 30
0.0
 40
3.0
  1
158.4 [6.236] 
 50
90.0
  0
TEXT
  5
47F
  8
回07-寸法
  6
CONTINUOUS
 62
     5
 10
522.9519866992172
 20
-1148.776967822918
 30
0.0
 40
2.25
  1
(Active area)
 50
90.0
  0
ENDBLK
  5
481
  8
回08-記事
  6
CONTINUOUS
 62
     7
  0
BLOCK
  8
回08-記事
  2
*X52
 70
     1
 10
0.0
 20
0.0
 30
0.0
  3
*X52
  1

  0
TEXT
  5
484
  8
回07-寸法
  6
CONTINUOUS
 62
     5
 10
531.940547418338
 20
-1174.019883375708
 30
0.0
 40
3.0
  1
162.4 [6.394] 
 50
90.0
  0
TEXT
  5
485
  8
回07-寸法
  6
CONTINUOUS
 62
     5
 10
531.940547418338
 20
-1149.409052270127
 30
0.0
 40
2.25
  1
(Viewing area)
 50
90.0
  0
ENDBLK
  5
487
  8
回08-記事
  6
CONTINUOUS
 62
     7
  0
BLOCK
  8
回08-記事
  2
*X53
 70
     1
 10
0.0
 20
0.0
 30
0.0
  3
*X53
  1

  0
TEXT
  5
48A
  8
回07-寸法
  6
CONTINUOUS
 62
     5
 10
550.4681491657899
 20
-1169.539076289095
 30
0.0
 40
3.0
  1
175.4
 50
90.0
  0
TEXT
  5
48B
  8
回07-寸法
  6
CONTINUOUS
 62
     5
 10
550.4681491657899
 20
-1160.539076289095
 30
0.0
 40
2.1
  1
±0.3
 50
90.0
  0
TEXT
  5
48C
  8
回07-寸法
  6
CONTINUOUS
 62
     5
 10
550.4681491657899
 20
-1155.499076289095
 30
0.0
 40
3.0
  1
 [6.906
 50
90.0
  0
TEXT
  5
48D
  8
回07-寸法
  6
CONTINUOUS
 62
     5
 10
550.4681491657899
 20
-1143.188245183514
 30
0.0
 40
2.1
  1
±0.012
 50
90.0
  0
TEXT
  5
48E
  8
回07-寸法
  6
CONTINUOUS
 62
     5
 10
550.4681491657899
 20
-1135.628245183514
 30
0.0
 40
3.0
  1
]
 50
90.0
  0
ENDBLK
  5
490
  8
回08-記事
  6
CONTINUOUS
 62
     7
  0
BLOCK
  8
回08-記事
  2
*X54
 70
     1
 10
0.0
 20
0.0
 30
0.0
  3
*X54
  1

  0
TEXT
  5
493
  8
回07-寸法
  6
CONTINUOUS
 62
     5
 10
542.0281841115605
 20
-1060.233660736304
 30
0.0
 40
3.0
  1
5.7 [0.224]
 50
90.0
  0
TEXT
  5
494
  8
回07-寸法
  6
CONTINUOUS
 62
     5
 10
542.0281841115605
 20
-1041.333660736304
 30
0.0
 40
1.9689
  1
(INSULATION AREA)
 50
90.0
  0
ENDBLK
  5
496
  8
回08-記事
  6
CONTINUOUS
 62
     7
  0
BLOCK
  8
回08-記事
  2
*X55
 70
     1
 10
0.0
 20
0.0
 30
0.0
  3
*X55
  1

  0
TEXT
  5
499
  8
回07-寸法
  6
CONTINUOUS
 62
     5
 10
542.0281841115605
 20
-1285.823680578823
 30
0.0
 40
3.0
  1
5.7 [0.224]
 50
90.0
  0
TEXT
  5
49A
  8
回07-寸法
  6
CONTINUOUS
 62
     5
 10
542.0281841115605
 20
-1266.923680578823
 30
0.0
 40
1.9689
  1
(INSULATION AREA)
 50
90.0
  0
ENDBLK
  5
49C
  8
回08-記事
  6
CONTINUOUS
 62
     7
  0
BLOCK
  8
回08-記事
  2
*X56
 70
     1
 10
0.0
 20
0.0
 30
0.0
  3
*X56
  1

  0
TEXT
  5
49F
  8
回07-寸法
  6
CONTINUOUS
 62
     5
 10
492.6915547257761
 20
-1034.541186618385
 30
0.0
 40
3.0
  1
3.9 [0.154]
  0
TEXT
  5
4A0
  8
回07-寸法
  6
CONTINUOUS
 62
     5
 10
511.0023858313572
 20
-1034.541186618385
 30
0.0
 40
1.9689
  1
(INSULATION AREA)
  0
ENDBLK
  5
4A2
  8
回08-記事
  6
CONTINUOUS
 62
     7
  0
BLOCK
  8
回08-記事
  2
*X57
 70
     1
 10
0.0
 20
0.0
 30
0.0
  3
*X57
  1

  0
TEXT
  5
4A5
  8
回07-寸法
  6
CONTINUOUS
 62
     5
 10
215.1910518917738
 20
-1034.541246524488
 30
0.0
 40
3.0
  1
7.5 [0.295]
  0
TEXT
  5
4A6
  8
回07-寸法
  6
CONTINUOUS
 62
     5
 10
233.8018829973547
 20
-1034.541246524488
 30
0.0
 40
1.9689
  1
(INSULATION AREA)
  0
ENDBLK
  5
4A8
  8
回08-記事
  6
CONTINUOUS
 62
     7
  0
BLOCK
  8
回08-記事
  2
*X58
 70
     1
 10
0.0
 20
0.0
 30
0.0
  3
*X58
  1

  0
TEXT
  5
4AB
  8
回07-寸法
  6
CONTINUOUS
 62
     5
 10
175.1034442548923
 20
-1187.404317784835
 30
0.0
 40
3.0
  1
5
 50
90.0
  0
TEXT
  5
4AC
  8
回07-寸法
  6
CONTINUOUS
 62
     5
 10
175.1034442548923
 20
-1185.304317784835
 30
0.0
 40
2.1
  1
±0.1
 50
90.0
  0
TEXT
  5
4AD
  8
回07-寸法
  6
CONTINUOUS
 62
     5
 10
175.1034442548923
 20
-1180.684317784835
 30
0.0
 40
3.0
  1
 [0.197
 50
90.0
  0
TEXT
  5
4AE
  8
回07-寸法
  6
CONTINUOUS
 62
     5
 10
175.1034442548923
 20
-1168.973486679254
 30
0.0
 40
2.1
  1
±0.004
 50
90.0
  0
TEXT
  5
4AF
  8
回07-寸法
  6
CONTINUOUS
 62
     5
 10
175.1034442548923
 20
-1160.783486679254
 30
0.0
 40
3.0
  1
]
 50
90.0
  0
ENDBLK
  5
4B1
  8
回08-記事
  6
CONTINUOUS
 62
     7
  0
BLOCK
  8
回08-記事
  2
*X59
 70
     1
 10
0.0
 20
0.0
 30
0.0
  3
*X59
  1

  0
TEXT
  5
4B4
  8
回07-寸法
  6
CONTINUOUS
 62
     5
 10
209.4325223430819
 20
-1119.417415067461
 30
0.0
 40
3.0
  1
75
  0
TEXT
  5
4B5
  8
回07-寸法
  6
CONTINUOUS
 62
     5
 10
213.6325223430818
 20
-1119.417415067461
 30
0.0
 40
2.1
  1
±1
  0
TEXT
  5
4B6
  8
回07-寸法
  6
CONTINUOUS
 62
     5
 10
216.1525223430819
 20
-1119.417415067461
 30
0.0
 40
3.0
  1
 [2.953
  0
TEXT
  5
4B7
  8
回07-寸法
  6
CONTINUOUS
 62
     5
 10
228.4633534486628
 20
-1119.417415067461
 30
0.0
 40
2.1
  1
±0.039
  0
TEXT
  5
4B8
  8
回07-寸法
  6
CONTINUOUS
 62
     5
 10
236.4509352225695
 20
-1119.417415067461
 30
0.0
 40
3.0
  1
]
  0
ENDBLK
  5
4BA
  8
回08-記事
  6
CONTINUOUS
 62
     7
  0
BLOCK
  8
回08-記事
  2
*X60
 70
     1
 10
0.0
 20
0.0
 30
0.0
  3
*X60
  1

  0
TEXT
  5
4BD
  8
回07-寸法
  6
CONTINUOUS
 62
     5
 10
571.6204085115018
 20
-1274.604724340663
 30
0.0
 40
3.0
  1
5
 50
90.0
  0
TEXT
  5
4BE
  8
回07-寸法
  6
CONTINUOUS
 62
     5
 10
571.6204085115018
 20
-1272.504724340663
 30
0.0
 40
2.000099999999999
  1
±0.1
 50
90.0
  0
TEXT
  5
4BF
  8
回07-寸法
  6
CONTINUOUS
 62
     5
 10
571.6204085115018
 20
-1268.104504340663
 30
0.0
 40
3.0
  1
[0.197
 50
90.0
  0
TEXT
  5
4C0
  8
回07-寸法
  6
CONTINUOUS
 62
     5
 10
571.6204085115018
 20
-1258.193673235082
 30
0.0
 40
2.000099999999999
  1
±0.004
 50
90.0
  0
TEXT
  5
4C1
  8
回07-寸法
  6
CONTINUOUS
 62
     5
 10
571.6204085115018
 20
-1250.393283235082
 30
0.0
 40
3.0
  1
]
 50
90.0
  0
ENDBLK
  5
4C3
  8
回08-記事
  6
CONTINUOUS
 62
     7
  0
ENDSEC
  0
SECTION
  2
ENTITIES
  0
TEXT
  5
5E
  8
回03-記事
  6
CONTINUOUS
 62
     5
 10
316.506701947516
 20
-1354.783752450539
 30
0.0
 40
4.8
  1
without affecting product specification.
  0
TEXT
  5
60
  8
回03-記事
  6
CONTINUOUS
 62
     5
 10
316.506701947516
 20
-1346.364046736339
 30
0.0
 40
4.8
  1
Edges and corners of ITO glass may be chamfered 
  0
TEXT
  5
61
  8
回03-記事
  6
CONTINUOUS
 62
     5
 10
316.506701947516
 20
-1337.944341022139
 30
0.0
 40
4.8
  1
Unit: mm
  0
TEXT
  5
62
  8
回03-記事
  6
CONTINUOUS
 62
     5
 10
316.506701947516
 20
-1329.52463530794
 30
0.0
 40
4.8
  1
EXCEPT WHERE INDICATED
  0
TEXT
  5
63
  8
回03-記事
  6
CONTINUOUS
 62
     5
 10
316.506701947516
 20
-1321.10492959374
 30
0.0
 40
4.8
  1
TOLERANCE=±0.5mm
  0
TEXT
  5
64
  8
回08-記事
  6
CONTINUOUS
 62
     5
 10
144.7212216814168
 20
-1294.095808695531
 30
0.0
 40
3.0
  1
Trace Expose
1001
ACAD
1000
MTEXTBEGIN
1070
    73
1070
     1
1070
    44
1040
1.0
1070
    74
1070
     0
1000
MTEXTEND
  0
INSERT
  5
65
  8
回08-記事
  6
CONTINUOUS
 62
     8
 66
     1
  2
*X37
 10
0.0
 20
0.0
 30
0.0
  0
SEQEND
  5
3D3
  8
回08-記事
  6
CONTINUOUS
 62
     7
  0
INSERT
  5
66
  8
回08-記事
  6
CONTINUOUS
 62
     8
 66
     1
  2
*X38
 10
0.0
 20
0.0
 30
0.0
1001
ACAD
1010
0.0
1020
0.0
1030
0.0
  0
SEQEND
  5
3DF
  8
回08-記事
  6
CONTINUOUS
 62
     7
  0
POLYLINE
  5
67
  8
回08-記事
  6
CONTINUOUS
 62
     8
 66
     1
 10
0.0
 20
0.0
 30
0.0
 70
     1
  0
VERTEX
  5
3E0
  8
回08-記事
  6
CONTINUOUS
 62
     8
 10
264.5417287828253
 20
-1158.983660736308
 30
0.0
  0
VERTEX
  5
3E2
  8
回08-記事
  6
CONTINUOUS
 62
     8
 10
264.5417287828253
 20
-1152.983660736308
 30
0.0
  0
VERTEX
  5
3E3
  8
回08-記事
  6
CONTINUOUS
 62
     8
 10
256.3417287828255
 20
-1152.983660736308
 30
0.0
  0
VERTEX
  5
3E4
  8
回08-記事
  6
CONTINUOUS
 62
     8
 10
256.3417287828255
 20
-1158.983660736308
 30
0.0
  0
SEQEND
  5
3E1
  8
回08-記事
  6
CONTINUOUS
 62
     7
  0
POLYLINE
  5
68
  8
回08-記事
  6
CONTINUOUS
 62
     7
 66
     1
 10
0.0
 20
0.0
 30
0.0
 70
     1
  0
VERTEX
  5
3E5
  8
回08-記事
  6
CONTINUOUS
 62
     7
 10
271.0417287828253
 20
-1072.783660736303
 30
0.0
  0
VERTEX
  5
3E7
  8
回08-記事
  6
CONTINUOUS
 62
     7
 10
482.2417287828253
 20
-1072.783660736303
 30
0.0
  0
VERTEX
  5
3E8
  8
回08-記事
  6
CONTINUOUS
 62
     7
 10
482.2417287828253
 20
-1231.183660736303
 30
0.0
  0
VERTEX
  5
3E9
  8
回08-記事
  6
CONTINUOUS
 62
     7
 10
271.0417287828253
 20
-1231.183660736303
 30
0.0
  0
SEQEND
  5
3E6
  8
回08-記事
  6
CONTINUOUS
 62
     7
  0
ARC
  5
69
  8
回05-ﾃｰﾙ
  6
BYBLOCK
 62
     7
 10
259.5417287828253
 20
-1161.983660736305
 30
0.0
 40
2.0
 50
41.40962210927023
 51
90.0
  0
LINE
  5
6D
  8
回05-ﾃｰﾙ
  6
BYBLOCK
 62
     7
 10
256.8539724601659
 20
-1159.983660736306
 30
0.0
 11
259.5417287828253
 21
-1159.983660736306
 31
0.0
  0
ARC
  5
6E
  8
回05-ﾃｰﾙ
  6
BYBLOCK
 62
     7
 10
250.505475538028
 20
-1155.483660736306
 30
0.0
 40
1.0
 50
45.11672702028683
 51
90.0
  0
ARC
  5
6F
  8
回05-ﾃｰﾙ
  6
BYBLOCK
 62
     7
 10
256.8539724601655
 20
-1158.983660736305
 30
0.0
 40
1.0
 50
225.1435981442518
 51
270.0
  0
LINE
  5
70
  8
回05-ﾃｰﾙ
  6
BYBLOCK
 62
     7
 10
251.2111402847791
 20
-1154.77511485551
 30
0.0
 11
256.1486400916482
 21
-1159.692537488584
 31
0.0
  0
ARC
  5
71
  8
回05-ﾃｰﾙ
  6
BYBLOCK
 62
     7
 10
250.505475538028
 20
-1148.483660736304
 30
0.0
 40
1.0
 50
270.0
 51
314.8832729797131
  0
ARC
  5
72
  8
回05-ﾃｰﾙ
  6
BYBLOCK
 62
     7
 10
256.8539724601655
 20
-1144.983660736305
 30
0.0
 40
1.0
 50
90.0
 51
134.8564018557482
  0
ARC
  5
73
  8
回05-ﾃｰﾙ
  6
BYBLOCK
 62
     7
 10
259.5417287828253
 20
-1141.983660736305
 30
0.0
 40
2.0
 50
270.0
 51
318.5903778907297
  0
LINE
  5
74
  8
回05-ﾃｰﾙ
  6
BYBLOCK
 62
     7
 10
251.2111402847791
 20
-1149.1922066171
 30
0.0
 11
256.1486400916482
 21
-1144.274783984026
 31
0.0
  0
LINE
  5
75
  8
回05-ﾃｰﾙ
  6
BYBLOCK
 62
     7
 10
256.8539724601659
 20
-1143.983660736304
 30
0.0
 11
259.5417287828253
 21
-1143.983660736304
 31
0.0
  0
LINE
  5
76
  8
回05-ﾃｰﾙ
  6
BYBLOCK
 62
     7
 10
186.0417287828253
 20
-1153.983660736304
 30
0.0
 11
186.0417287828253
 21
-1149.983660736304
 31
0.0
  0
ARC
  5
77
  8
回05-ﾃｰﾙ
  6
BYBLOCK
 62
     7
 10
186.5417287828253
 20
-1149.983660736304
 30
0.0
 40
0.5
 50
90.0
 51
180.0
  0
ARC
  5
78
  8
回05-ﾃｰﾙ
  6
BYBLOCK
 62
     7
 10
186.5417287828253
 20
-1153.983660736304
 30
0.0
 40
0.5
 50
180.0
 51
270.0
  0
LINE
  5
79
  8
回05-ﾃｰﾙ
  6
BYBLOCK
 62
     7
 10
186.5417287828253
 20
-1149.483660736304
 30
0.0
 11
250.505475538028
 21
-1149.483660736304
 31
0.0
  0
LINE
  5
7A
  8
回05-ﾃｰﾙ
  6
BYBLOCK
 62
     7
 10
186.5417287828253
 20
-1154.483660736305
 30
0.0
 11
250.505475538028
 21
-1154.483660736305
 31
0.0
  0
DIMENSION
  5
7B
  8
回07-寸法
  6
CONTINUOUS
 62
     7
  2
*D32
 10
186.0417287828262
 20
-1120.067415067461
 30
0.0
 11
223.5417287828257
 21
-1117.917415067461
 31
0.0
 70
     0
  3
DMC
 13
261.0417287828251
 23
-1143.306536391837
 33
0.0
 14
186.0417287828262
 24
-1149.983660736304
 34
0.0
1001
ACAD
1000
DSTYLE
1002
{
1070
    47
1040
1.0
1070
    48
1040
1.0
1070
    71
1070
     1
1070
   170
1070
     1
1070
   371
1070
     9
1070
   372
1070
     9
1002
}
  0
LINE
  5
8D
  8
回08-記事
  6
CONTINUOUS
 62
     5
 10
253.2954055326294
 20
-1279.958826508369
 30
0.0
 11
251.1627233718617
 21
-1267.270259895413
 31
0.0
  0
LINE
  5
8E
  8
回08-記事
  6
CONTINUOUS
 62
     5
 10
249.2723925325539
 20
-1284.535390332589
 30
0.0
 11
251.1627233718617
 21
-1267.270259895413
 31
0.0
  0
LINE
  5
8F
  8
回08-記事
  6
CONTINUOUS
 62
     5
 10
190.091051959307
 20
-1279.372161561817
 30
0.0
 11
195.0506160030512
 21
-1277.112718549966
 31
0.0
  0
LINE
  5
90
  8
回08-記事
  6
CONTINUOUS
 62
     7
 10
252.0617287828253
 20
-1279.958826508369
 30
0.0
 11
252.0617287828253
 21
-1280.958826508369
 31
0.0
  0
TEXT
  5
91
  8
回08-記事
  6
CONTINUOUS
 62
     5
 10
193.9097968778071
 20
-1160.915229815348
 30
0.0
 40
4.0
  1
A
1001
ACAD
1000
MTEXTBEGIN
1070
    73
1070
     1
1070
    44
1040
1.0
1070
    74
1070
     0
1000
MTEXTEND
  0
INSERT
  5
92
  8
回08-記事
  6
CONTINUOUS
 62
     3
 66
     1
  2
*X39
 10
0.0
 20
0.0
 30
0.0
  0
SEQEND
  5
3F0
  8
回08-記事
  6
CONTINUOUS
 62
     7
  0
CIRCLE
  5
93
  8
回08-記事
  6
DASHED2
 62
     5
 10
186.3507186267601
 20
-1151.588808469968
 30
0.0
 40
7.617699640862838
  0
DIMENSION
  5
95
  8
回07-寸法
  6
CONTINUOUS
 62
     5
  2
*D31
 10
175.753444254892
 20
-1064.283660736303
 30
0.0
 11
173.6034442548919
 21
-1106.883660736303
 31
0.0
 70
     0
  1
(<>[])
  3
DMC
 13
185.8417287828264
 23
-1149.483660736303
 33
0.0
 14
261.0417287828253
 24
-1064.283660736303
 34
0.0
 50
90.0
1001
ACAD
1000
DSTYLE
1002
{
1070
   340
1005
C
1070
   170
1070
     1
1070
   371
1070
     9
1070
   372
1070
     9
1002
}
  0
LINE
  5
A5
  8
回07-寸法
  6
CENTER2
 62
     5
 10
185.3225641403754
 20
-1151.983660736304
 30
0.0
 11
488.6417287828252
 21
-1151.983660736304
 31
0.0
  0
TEXT
  5
A7
  8
回08-記事
  6
CONTINUOUS
 62
     5
 10
186.0417287828262
 20
-1148.357095984149
 30
0.0
 40
4.0
  1
4
 50
90.0
  0
DIMENSION
  5
A8
  8
回07-寸法
  6
CONTINUOUS
 62
     7
  2
*D30
 10
233.4800409470224
 20
-1159.983660736304
 30
0.0
 11
233.4800409470221
 21
-1131.383660736303
 31
0.0
 70
   128
  3
DMC
 13
258.1978506214958
 23
-1143.983660736303
 33
0.0
 14
258.1978506214958
 24
-1159.983660736304
 34
0.0
 50
90.0
1001
ACAD
1000
DSTYLE
1002
{
1070
   170
1070
     1
1070
   371
1070
     9
1070
   372
1070
     9
1002
}
  0
DIMENSION
  5
B9
  8
回07-寸法
  6
CONTINUOUS
 62
     7
  2
*D29
 10
250.9184961976901
 20
-1176.394459770863
 30
0.0
 11
236.0580132062073
 21
-1174.243009693804
 31
0.0
 70
     0
  3
DMC
 13
261.0417287828244
 23
-1160.66078508077
 33
0.0
 14
250.9184961976901
 24
-1154.483660736302
 34
0.0
1001
ACAD
1000
DSTYLE
1002
{
1070
   170
1070
     1
1070
   371
1070
     9
1070
   372
1070
     9
1002
}
  0
DIMENSION
  5
CA
  8
回07-寸法
  6
CONTINUOUS
 62
     7
  2
*D28
 10
256.44095195635
 20
-1168.995936060289
 30
0.0
 11
239.2979013101812
 21
-1168.995936060289
 31
0.0
 70
   128
  3
DMC
 13
261.0417287828244
 23
-1160.66078508077
 33
0.0
 14
256.44095195635
 24
-1159.983660736304
 34
0.0
1001
ACAD
1000
DSTYLE
1002
{
1070
   170
1070
     1
1070
   371
1070
     9
1070
   372
1070
     9
1002
}
  0
DIMENSION
  5
DB
  8
回07-寸法
  6
CONTINUOUS
 62
     7
  2
*D27
 10
175.7534442548927
 20
-1149.483660736304
 30
0.0
 11
175.7534442548923
 21
-1173.493902232045
 31
0.0
 70
   128
  3
DMC
 13
186.5417287828262
 23
-1154.483660736303
 33
0.0
 14
186.5417287828262
 24
-1149.483660736303
 34
0.0
 50
90.0
1001
ACAD
1000
DSTYLE
1002
{
1070
    47
1040
0.1
1070
    48
1040
0.1
1070
    71
1070
     1
1070
   170
1070
     1
1070
   371
1070
     9
1070
   372
1070
     9
1002
}
  0
TEXT
  5
EA
  8
回07-寸法
  6
CONTINUOUS
 62
     5
 10
236.0109029068079
 20
-1141.117602495749
 30
0.0
 40
4.0
  1
4-R1
1001
ACAD
1000
MTEXTBEGIN
1070
    73
1070
     1
1070
    44
1040
1.0
1070
    74
1070
     0
1000
MTEXTEND
  0
INSERT
  5
EB
  8
回07-寸法
  6
CONTINUOUS
 62
     7
 66
     1
  2
*X40
 10
0.0
 20
0.0
 30
0.0
  0
SEQEND
  5
3F7
  8
回08-記事
  6
CONTINUOUS
 62
     7
  0
TEXT
  5
EC
  8
回07-寸法
  6
CONTINUOUS
 62
     5
 10
241.9351708317333
 20
-1130.340291275746
 30
0.0
 40
4.0
  1
2-R2
1001
ACAD
1000
MTEXTBEGIN
1070
    73
1070
     1
1070
    44
1040
1.0
1070
    74
1070
     0
1000
MTEXTEND
  0
INSERT
  5
ED
  8
回07-寸法
  6
CONTINUOUS
 62
     7
 66
     1
  2
*X41
 10
0.0
 20
0.0
 30
0.0
  0
SEQEND
  5
3FE
  8
回08-記事
  6
CONTINUOUS
 62
     7
  0
INSERT
  5
EE
  8
回08-記事
  6
CONTINUOUS
 62
     8
 66
     1
  2
*X42
 10
0.0
 20
0.0
 30
0.0
1001
ACAD
1000
HATCH
1002
{
1070
    19
1000
ANSI31
1040
15.0
1040
1.570796326794896
1000
ASC_BOUNDS
1070
     1
1070
     2
1070
     1
1005
EF
1000
ASC_SEEDPOINT
1011
416.9682458472465
1021
-1171.934461270673
1031
0.0
1000
R14_HATCH_DATA
1000
EE
1011
1.0
1021
0.0
1031
0.0
1011
0.0
1021
1.0
1031
0.0
1011
0.0
1021
0.0
1031
1.0
1040
0.0
1010
0.0
1020
0.0
1030
1.0
1000
ANSI31
1070
     0
1070
     1
1071
        1
1071
        1
1071
        8
1070
     1
1040
214.6815719580776
1040
-1153.483660736303
1040
214.6815719580776
1040
-1150.483660736303
1070
     2
1040
215.6815719580776
1040
-1150.483660736303
1040
1.0
1040
3.141592653589793
1040
4.712388980384689
1070
     0
1070
     1
1040
215.6815719580776
1040
-1149.483660736303
1040
239.6815719580776
1040
-1149.483660736303
1070
     2
1040
239.6815719580776
1040
-1150.483660736303
1040
1.0
1040
4.712388980384689
1040
6.283185307179586
1070
     0
1070
     1
1040
240.6815719580776
1040
-1150.483660736303
1040
240.6815719580776
1040
-1153.483660736303
1070
     2
1040
239.6815719580776
1040
-1153.483660736303
1040
1.0
1040
6.283185307179586
1040
7.853981633974482
1070
     0
1070
     1
1040
239.6815719580776
1040
-1154.483660736303
1040
215.6815719580776
1040
-1154.483660736303
1070
     2
1040
215.6815719580776
1040
-1153.483660736303
1040
1.0
1040
1.570796326794896
1040
3.141592653589793
1070
     0
1071
        1
1005
EF
1070
     0
1070
     1
1040
1.570796326794896
1040
15.0
1070
     0
1070
     1
1040
2.356194490192344
1040
416.9682458472465
1040
-1171.934461270673
1040
-1.325825214724776
1040
-1.325825214724776
1070
     0
1071
        1
1040
416.9682458472465
1040
-1171.934461270673
1040
0.0
1002
}
  0
SEQEND
  5
40D
  8
回08-記事
  6
CONTINUOUS
 62
     7
  0
POLYLINE
  5
EF
  8
回08-記事
  6
CONTINUOUS
 62
     8
 66
     1
 10
0.0
 20
0.0
 30
0.0
 70
     1
1001
ACAD
1000
ASC_BOUNDS
1002
{
1070
    19
1005
EE
1002
}
  0
VERTEX
  5
40E
  8
回08-記事
  6
CONTINUOUS
 62
     8
 10
214.6815719580776
 20
-1153.483660736303
 30
0.0
  0
VERTEX
  5
410
  8
回08-記事
  6
CONTINUOUS
 62
     8
 10
214.6815719580776
 20
-1150.483660736303
 30
0.0
 42
-0.4142135623730951
  0
VERTEX
  5
411
  8
回08-記事
  6
CONTINUOUS
 62
     8
 10
215.6815719580776
 20
-1149.483660736303
 30
0.0
  0
VERTEX
  5
412
  8
回08-記事
  6
CONTINUOUS
 62
     8
 10
239.6815719580776
 20
-1149.483660736303
 30
0.0
 42
-0.4142135623730951
  0
VERTEX
  5
413
  8
回08-記事
  6
CONTINUOUS
 62
     8
 10
240.6815719580776
 20
-1150.483660736303
 30
0.0
  0
VERTEX
  5
414
  8
回08-記事
  6
CONTINUOUS
 62
     8
 10
240.6815719580776
 20
-1153.483660736303
 30
0.0
 42
-0.4142135623730951
  0
VERTEX
  5
415
  8
回08-記事
  6
CONTINUOUS
 62
     8
 10
239.6815719580776
 20
-1154.483660736303
 30
0.0
  0
VERTEX
  5
416
  8
回08-記事
  6
CONTINUOUS
 62
     8
 10
215.6815719580776
 20
-1154.483660736303
 30
0.0
 42
-0.4142135623730946
  0
SEQEND
  5
40F
  8
回08-記事
  6
CONTINUOUS
 62
     7
  0
TEXT
  5
F0
  8
回08-記事
  6
CONTINUOUS
 62
     5
 10
185.9160946952464
 20
-1157.247589428181
 30
0.0
 40
4.0
  1
1
 50
90.0
  0
TEXT
  5
F1
  8
回08-記事
  6
CONTINUOUS
 62
     7
 10
469.9090511181058
 20
-1238.132311188697
 30
0.0
 40
1.5
  1
QST-104A
  0
DIMENSION
  5
F2
  8
回07-寸法
  6
CONTINUOUS
 62
     5
  2
*D26
 10
261.0417287828253
 20
-1035.191186618385
 30
0.0
 11
236.0914773658241
 21
-1033.040461579856
 31
0.0
 70
     0
  1
<>{\H0.6563x;(INSULATION AREA)}
  3
DMC
 13
268.5417287828253
 23
-1069.983660736303
 33
0.0
 14
261.0417287828253
 24
-1064.283660736303
 34
0.0
1001
ACAD
1000
DSTYLE
1002
{
1070
   170
1070
     1
1070
   371
1070
     9
1070
   372
1070
     9
1002
}
  0
DIMENSION
  5
103
  8
回07-寸法
  6
CONTINUOUS
 62
     5
  2
*D25
 10
488.6417287828252
 20
-1035.191186618385
 30
0.0
 11
513.4419801998265
 21
-1033.041186618385
 31
0.0
 70
     0
  1
<>{\H0.6563x;(INSULATION AREA)}
  3
DMC
 13
484.7417287828253
 23
-1069.983660736303
 33
0.0
 14
488.6417287828252
 24
-1064.283660736303
 34
0.0
1001
ACAD
1000
DSTYLE
1002
{
1070
   170
1070
     1
1070
   371
1070
     9
1070
   372
1070
     9
1002
}
  0
DIMENSION
  5
114
  8
回07-寸法
  6
CONTINUOUS
 62
     5
  2
*D24
 10
488.6417287828252
 20
-1042.216373411017
 30
0.0
 11
503.190547680463
 21
-1040.066373411017
 31
0.0
 70
     0
  1
(<>)
  3
DMC
 13
484.2417287828253
 23
-1070.783660736303
 33
0.0
 14
488.6417287828252
 24
-1064.283660736303
 34
0.0
1001
ACAD
1000
DSTYLE
1002
{
1070
   170
1070
     1
1070
   371
1070
     9
1070
   372
1070
     9
1002
}
  0
DIMENSION
  5
125
  8
回07-寸法
  6
CONTINUOUS
 62
     5
  2
*D23
 10
488.6417287828252
 20
-1049.663001667709
 30
0.0
 11
503.340547680463
 21
-1047.513001667709
 31
0.0
 70
     0
  1
(<>)
  3
DMC
 13
482.2417287828253
 23
-1072.783660736303
 33
0.0
 14
488.6417287828252
 24
-1064.283660736303
 34
0.0
1001
ACAD
1000
DSTYLE
1002
{
1070
   170
1070
     1
1070
   371
1070
     9
1070
   372
1070
     9
1002
}
  0
DIMENSION
  5
136
  8
回07-寸法
  6
CONTINUOUS
 62
     5
  2
*D22
 10
542.678184111561
 20
-1239.683660736303
 30
0.0
 11
540.5281841115606
 21
-1264.778670657563
 31
0.0
 70
     0
  1
<>{\H0.6563x;(INSULATION AREA)}
  3
DMC
 13
484.7417287828253
 23
-1233.983659355663
 33
0.0
 14
488.6417287828252
 24
-1239.683660736303
 34
0.0
 50
90.0
1001
ACAD
1000
DSTYLE
1002
{
1070
   170
1070
     1
1070
   371
1070
     9
1070
   372
1070
     9
1002
}
  0
DIMENSION
  5
147
  8
回07-寸法
  6
CONTINUOUS
 62
     5
  2
*D21
 10
523.601986699218
 20
-1064.283660736303
 30
0.0
 11
523.6019866992176
 21
-1049.734841838666
 31
0.0
 70
   128
  1
(<>)
  3
DMC
 13
482.2417287828253
 23
-1072.783660736303
 33
0.0
 14
488.6417287828252
 24
-1064.283660736303
 34
0.0
 50
90.0
1001
ACAD
1000
DSTYLE
1002
{
1070
   170
1070
     1
1070
   371
1070
     9
1070
   372
1070
     9
1002
}
  0
DIMENSION
  5
158
  8
回07-寸法
  6
CONTINUOUS
 62
     5
  2
*D20
 10
533.0437616597821
 20
-1064.283660736303
 30
0.0
 11
530.8937616597817
 21
-1049.734841838666
 31
0.0
 70
     0
  1
(<>)
  3
DMC
 13
484.2417287828253
 23
-1070.783660736303
 33
0.0
 14
488.6417287828252
 24
-1064.283660736303
 34
0.0
 50
90.0
1001
ACAD
1000
DSTYLE
1002
{
1070
   170
1070
     1
1070
   371
1070
     9
1070
   372
1070
     9
1002
}
  0
DIMENSION
  5
169
  8
回07-寸法
  6
CONTINUOUS
 62
     5
  2
*D19
 10
542.678184111561
 20
-1064.283660736303
 30
0.0
 11
540.5281841115606
 21
-1039.188650815044
 31
0.0
 70
     0
  1
<>{\H0.6563x;(INSULATION AREA)}
  3
DMC
 13
484.7417287828253
 23
-1069.983660736303
 33
0.0
 14
488.6417287828252
 24
-1064.283660736303
 34
0.0
 50
90.0
1001
ACAD
1000
DSTYLE
1002
{
1070
   170
1070
     1
1070
   371
1070
     9
1070
   372
1070
     9
1002
}
  0
DIMENSION
  5
17A
  8
回07-寸法
  6
CONTINUOUS
 62
     5
  2
*D18
 10
542.678184111561
 20
-1233.983659355663
 30
0.0
 11
540.5281841115606
 21
-1151.983660045983
 31
0.0
 70
     0
  3
DMC
 13
484.7417287828253
 23
-1069.983660736303
 33
0.0
 14
484.7417287828253
 24
-1233.983659355663
 34
0.0
 50
90.0
1001
ACAD
1000
DSTYLE
1002
{
1070
   170
1070
     1
1070
   371
1070
     9
1070
   372
1070
     9
1002
}
  0
DIMENSION
  5
189
  8
回07-寸法
  6
CONTINUOUS
 62
     5
  2
*D17
 10
268.5417287828253
 20
-1035.191186618385
 30
0.0
 11
376.6417287828253
 21
-1033.041186618385
 31
0.0
 70
     0
  3
DMC
 13
484.7417287828253
 23
-1069.983660736303
 33
0.0
 14
268.5417287828253
 24
-1069.983660736303
 34
0.0
1001
ACAD
1000
DSTYLE
1002
{
1070
   170
1070
     1
1070
   371
1070
     9
1070
   372
1070
     9
1002
}
  0
POLYLINE
  5
198
  8
回08-記事
  6
DASHED2
 62
     7
 66
     1
 10
0.0
 20
0.0
 30
0.0
 70
     1
  0
VERTEX
  5
417
  8
回08-記事
  6
DASHED2
 62
     7
 10
268.5417299344994
 20
-1233.984156845881
 30
0.0
  0
VERTEX
  5
419
  8
回08-記事
  6
DASHED2
 62
     7
 10
484.7417287828253
 20
-1233.983659355663
 30
0.0
  0
VERTEX
  5
41A
  8
回08-記事
  6
DASHED2
 62
     7
 10
484.7417287828253
 20
-1069.983660736303
 30
0.0
  0
VERTEX
  5
41B
  8
回08-記事
  6
DASHED2
 62
     7
 10
268.5417287828253
 20
-1069.983660736303
 30
0.0
  0
SEQEND
  5
418
  8
回08-記事
  6
CONTINUOUS
 62
     7
  0
TEXT
  5
199
  8
回08-記事
  6
CONTINUOUS
 62
     5
 10
192.2276388201826
 20
-1264.019624791163
 30
0.0
 40
3.6
  1
QST-104A075H
  0
TEXT
  5
19A
  8
回08-記事
  6
CONTINUOUS
 62
     5
 10
174.4971739116074
 20
-1258.011649028417
 30
0.0
 40
4.0
  1
Tail information label
1001
ACAD
1000
MTEXTBEGIN
1070
    73
1070
     1
1070
    44
1040
1.0
1070
    74
1070
     0
1000
MTEXTEND
  0
INSERT
  5
19B
  8
回08-記事
  6
CONTINUOUS
 62
     1
 66
     1
  2
*X43
 10
0.0
 20
0.0
 30
0.0
  0
SEQEND
  5
422
  8
回08-記事
  6
CONTINUOUS
 62
     7
  0
POLYLINE
  5
19C
  8
回08-記事
  6
CONTINUOUS
 62
     7
 66
     1
 10
0.0
 20
0.0
 30
0.0
 70
     1
  0
VERTEX
  5
423
  8
回08-記事
  6
CONTINUOUS
 62
     7
 10
214.6815719580776
 20
-1280.958826508369
 30
0.0
  0
VERTEX
  5
425
  8
回08-記事
  6
CONTINUOUS
 62
     7
 10
240.6815719580776
 20
-1280.958826508369
 30
0.0
  0
VERTEX
  5
426
  8
回08-記事
  6
CONTINUOUS
 62
     7
 10
240.6815719580776
 20
-1280.458826508368
 30
0.0
  0
VERTEX
  5
427
  8
回08-記事
  6
CONTINUOUS
 62
     7
 10
214.6815719580776
 20
-1280.458826508368
 30
0.0
  0
SEQEND
  5
424
  8
回08-記事
  6
CONTINUOUS
 62
     7
  0
TEXT
  5
19D
  8
回07-寸法
  6
CONTINUOUS
 62
     5
 10
439.51503434373
 20
-1252.02699788508
 30
0.0
 40
4.0
  1
QST-104A
  0
TEXT
  5
19E
  8
回07-寸法
  6
CONTINUOUS
 62
     5
 10
441.0059137001856
 20
-1246.676450288817
 30
0.0
 40
4.0
  1
Part No.
1001
ACAD
1000
MTEXTBEGIN
1070
    73
1070
     1
1070
    44
1040
1.0
1070
    74
1070
     0
1000
MTEXTEND
  0
INSERT
  5
19F
  8
回07-寸法
  6
CONTINUOUS
 62
     5
 66
     1
  2
*X44
 10
0.0
 20
0.0
 30
0.0
  0
SEQEND
  5
42E
  8
回08-記事
  6
CONTINUOUS
 62
     7
  0
DIMENSION
  5
1A0
  8
回07-寸法
  6
CONTINUOUS
 62
     1
  2
*D16
 10
533.0437616597821
 20
-1239.683660736303
 30
0.0
 11
530.8937616597817
 21
-1253.123424515831
 31
0.0
 70
     0
  3
DMC
 13
484.2417287828253
 23
-1233.183660736303
 33
0.0
 14
488.6417287828252
 24
-1239.683660736303
 34
0.0
 50
90.0
1001
ACAD
1000
DSTYLE
1002
{
1070
   170
1070
     1
1070
   371
1070
     9
1070
   372
1070
     9
1002
}
  0
DIMENSION
  5
1B1
  8
回07-寸法
  6
CONTINUOUS
 62
     1
  2
*D15
 10
523.6019866992181
 20
-1239.683660736303
 30
0.0
 11
523.6019866992177
 21
-1253.033660736303
 31
0.0
 70
   128
  3
DMC
 13
482.2417287828253
 23
-1231.183660736303
 33
0.0
 14
488.6417287828252
 24
-1239.683660736303
 34
0.0
 50
90.0
1001
ACAD
1000
DSTYLE
1002
{
1070
   170
1070
     1
1070
   371
1070
     9
1070
   372
1070
     9
1002
}
  0
DIMENSION
  5
1C2
  8
回07-寸法
  6
CONTINUOUS
 62
     1
  2
*D14
 10
261.0417287828253
 20
-1042.216373411017
 30
0.0
 11
249.4917287828253
 21
-1042.216373411017
 31
0.0
 70
   128
  3
DMC
 13
269.0417287828253
 23
-1070.783660736303
 33
0.0
 14
261.0417287828253
 24
-1064.283660736303
 34
0.0
1001
ACAD
1000
DSTYLE
1002
{
1070
   170
1070
     1
1070
   371
1070
     9
1070
   372
1070
     9
1002
}
  0
DIMENSION
  5
1D3
  8
回07-寸法
  6
CONTINUOUS
 62
     1
  2
*D13
 10
261.0417287828253
 20
-1049.663001667709
 30
0.0
 11
248.2864872870839
 21
-1049.663001667709
 31
0.0
 70
   128
  3
DMC
 13
271.0417287828253
 23
-1072.783660736303
 33
0.0
 14
261.0417287828253
 24
-1064.283660736303
 34
0.0
1001
ACAD
1000
DSTYLE
1002
{
1070
   170
1070
     1
1070
   371
1070
     9
1070
   372
1070
     9
1002
}
  0
DIMENSION
  5
1E4
  8
回07-寸法
  6
CONTINUOUS
 62
     3
  2
*D12
 10
551.1181491657904
 20
-1064.283660736303
 30
0.0
 11
551.1181491657899
 21
-1151.983660736304
 31
0.0
 70
   128
  3
DMC
 13
488.6417287828252
 23
-1239.683660736303
 33
0.0
 14
488.6417287828252
 24
-1064.283660736303
 34
0.0
 50
90.0
1001
ACAD
1000
DSTYLE
1002
{
1070
    47
1040
0.3
1070
    48
1040
0.3
1070
    71
1070
     1
1070
   170
1070
     1
1070
   371
1070
     9
1070
   372
1070
     9
1002
}
  0
DIMENSION
  5
1F1
  8
回07-寸法
  6
CONTINUOUS
 62
     1
  2
*D11
 10
533.0437616597821
 20
-1233.183660736303
 30
0.0
 11
530.646012473706
 21
-1151.983660736303
 31
0.0
 70
     0
  1
<> {\H0.75x;(Viewing area)}
  3
DMC
 13
484.2417287828253
 23
-1070.783660736303
 33
0.0
 14
484.2417287828253
 24
-1233.183660736303
 34
0.0
 50
90.0
1001
ACAD
1000
DSTYLE
1002
{
1070
   170
1070
     1
1070
   371
1070
     9
1070
   372
1070
     9
1002
}
  0
DIMENSION
  5
200
  8
回07-寸法
  6
CONTINUOUS
 62
     1
  2
*D10
 10
523.6019866992177
 20
-1072.783660736304
 30
0.0
 11
521.4519866992173
 21
-1151.983660736303
 31
0.0
 70
     0
  1
<> {\H0.75x;(Active area)}
  3
DMC
 13
482.2417287828253
 23
-1231.183660736303
 33
0.0
 14
482.2417287828253
 24
-1072.783660736303
 34
0.0
 50
90.0
1001
ACAD
1000
DSTYLE
1002
{
1070
   170
1070
     1
1070
   371
1070
     9
1070
   372
1070
     9
1002
}
  0
DIMENSION
  5
20F
  8
回07-寸法
  6
CONTINUOUS
 62
     3
  2
*D9
 10
488.6417287828252
 20
-1029.035175099038
 30
0.0
 11
374.8417287828253
 21
-1029.035175099038
 31
0.0
 70
   128
  3
DMC
 13
261.0417287828253
 23
-1064.283660736303
 33
0.0
 14
488.6417287828252
 24
-1064.283660736303
 34
0.0
1001
ACAD
1000
DSTYLE
1002
{
1070
    47
1040
0.3
1070
    48
1040
0.3
1070
    71
1070
     1
1070
   170
1070
     1
1070
   371
1070
     9
1070
   372
1070
     9
1002
}
  0
DIMENSION
  5
21C
  8
回07-寸法
  6
CONTINUOUS
 62
     1
  2
*D8
 10
484.2417287828253
 20
-1042.216373411017
 30
0.0
 11
376.6417287828253
 21
-1039.819349263471
 31
0.0
 70
     0
  1
<> {\H0.75x;(Viewing area)}
  3
DMC
 13
269.0417287828253
 23
-1070.783660736303
 33
0.0
 14
484.2417287828253
 24
-1070.783660736303
 34
0.0
1001
ACAD
1000
DSTYLE
1002
{
1070
   170
1070
     1
1070
   371
1070
     9
1070
   372
1070
     9
1002
}
  0
DIMENSION
  5
22B
  8
回07-寸法
  6
CONTINUOUS
 62
     1
  2
*D7
 10
482.2417287828253
 20
-1049.663001667709
 30
0.0
 11
376.6417287828253
 21
-1047.513001667709
 31
0.0
 70
     0
  1
<> {\H0.75x;(Active area)}
  3
DMC
 13
271.0417287828253
 23
-1072.783660736303
 33
0.0
 14
482.2417287828253
 24
-1072.783660736303
 34
0.0
1001
ACAD
1000
DSTYLE
1002
{
1070
   170
1070
     1
1070
   371
1070
     9
1070
   372
1070
     9
1002
}
  0
LINE
  5
23A
  8
回07-寸法
  6
CENTER2
 62
     5
 10
376.6417287828252
 20
-1070.783660736303
 30
0.0
 11
376.6417287828252
 21
-1233.183660736303
 31
0.0
  0
POLYLINE
  5
23B
  8
回08-記事
  6
CONTINUOUS
 62
     7
 66
     1
 10
0.0
 20
0.0
 30
0.0
 70
     1
  0
VERTEX
  5
42F
  8
回08-記事
  6
CONTINUOUS
 62
     7
 10
269.0417287828253
 20
-1070.783660736303
 30
0.0
  0
VERTEX
  5
431
  8
回08-記事
  6
CONTINUOUS
 62
     7
 10
484.2417287828253
 20
-1070.783660736303
 30
0.0
  0
VERTEX
  5
432
  8
回08-記事
  6
CONTINUOUS
 62
     7
 10
484.2417287828253
 20
-1233.183660736303
 30
0.0
  0
VERTEX
  5
433
  8
回08-記事
  6
CONTINUOUS
 62
     7
 10
269.0417287828253
 20
-1233.183660736303
 30
0.0
  0
SEQEND
  5
430
  8
回08-記事
  6
CONTINUOUS
 62
     7
  0
POLYLINE
  5
23C
  8
回08-記事
  6
CONTINUOUS
 62
     7
 66
     1
 10
0.0
 20
0.0
 30
0.0
 70
     1
  0
VERTEX
  5
434
  8
回08-記事
  6
CONTINUOUS
 62
     7
 10
186.0417287828253
 20
-1285.458826508369
 30
0.0
  0
VERTEX
  5
436
  8
回08-記事
  6
CONTINUOUS
 62
     7
 10
261.0417287828253
 20
-1285.458826508369
 30
0.0
  0
VERTEX
  5
437
  8
回08-記事
  6
CONTINUOUS
 62
     7
 10
261.0417287828253
 20
-1283.958826508369
 30
0.0
  0
VERTEX
  5
438
  8
回08-記事
  6
CONTINUOUS
 62
     7
 10
186.0417287828253
 20
-1283.958826508369
 30
0.0
  0
SEQEND
  5
435
  8
回08-記事
  6
CONTINUOUS
 62
     7
  0
LINE
  5
23D
  8
回08-記事
  6
CONTINUOUS
 62
     7
 10
269.0417287828253
 20
-1280.958826508369
 30
0.0
 11
269.0417287828253
 21
-1283.958826508369
 31
0.0
  0
DIMENSION
  5
23E
  8
回08-記事
  6
CONTINUOUS
 62
     7
  2
*D6
 10
261.5417287828253
 20
-1272.363725450209
 30
0.0
 11
276.0905476804631
 21
-1270.213725450209
 31
0.0
 70
     0
  1
(<>)
  3
DMC
 13
261.0417287828253
 23
-1283.958826508369
 33
0.0
 14
261.5417287828253
 24
-1276.958826508369
 34
0.0
1001
ACAD
1000
DSTYLE
1002
{
1070
   170
1070
     1
1070
   371
1070
     9
1070
   372
1070
     9
1002
}
  0
DIMENSION
  5
24F
  8
回08-記事
  6
CONTINUOUS
 62
     7
  2
*D5
 10
488.6417287828252
 20
-1268.780455426741
 30
0.0
 11
503.190547680463
 21
-1266.630455426741
 31
0.0
 70
     0
  1
(<>)
  3
DMC
 13
488.1417287828252
 23
-1276.958826508369
 33
0.0
 14
488.6417287828252
 24
-1283.958826508369
 34
0.0
1001
ACAD
1000
DSTYLE
1002
{
1070
   170
1070
     1
1070
   371
1070
     9
1070
   372
1070
     9
1002
}
  0
LINE
  5
260
  8
回08-記事
  6
CONTINUOUS
 62
     7
 10
488.1417287828252
 20
-1283.958826508369
 30
0.0
 11
488.1417287828252
 21
-1276.958826508369
 31
0.0
  0
POLYLINE
  5
261
  8
回04-下接
  6
CONTINUOUS
 62
     7
 66
     1
 10
0.0
 20
0.0
 30
0.0
 70
     1
  0
VERTEX
  5
439
  8
回04-下接
  6
CONTINUOUS
 62
     7
 10
261.0417287828253
 20
-1064.283660736303
 30
0.0
  0
VERTEX
  5
43B
  8
回04-下接
  6
CONTINUOUS
 62
     7
 10
488.6417287828252
 20
-1064.283660736303
 30
0.0
  0
VERTEX
  5
43C
  8
回04-下接
  6
CONTINUOUS
 62
     7
 10
488.6417287828252
 20
-1239.683660736303
 30
0.0
  0
VERTEX
  5
43D
  8
回04-下接
  6
CONTINUOUS
 62
     7
 10
261.0417287828253
 20
-1239.683660736303
 30
0.0
  0
SEQEND
  5
43A
  8
回08-記事
  6
CONTINUOUS
 62
     7
  0
LINE
  5
265
  8
回08-記事
  6
CONTINUOUS
 62
     5
 10
261.7676831739887
 20
-1291.381444292415
 30
0.0
 11
264.772220367379
 21
-1297.242169376618
 31
0.0
  0
TEXT
  5
266
  8
回08-記事
  6
CONTINUOUS
 62
     5
 10
264.7423281831549
 20
-1303.026171387654
 30
0.0
 40
4.0
  1
PROTECTION TAPE
  0
LINE
  5
267
  8
回08-記事
  6
CONTINUOUS
 62
     7
 10
259.5417287828253
 20
-1291.458826508369
 30
0.0
 11
259.5417287828253
 21
-1286.958826508368
 31
0.0
  0
LINE
  5
268
  8
回08-記事
  6
CONTINUOUS
 62
     7
 10
264.5417287828253
 20
-1291.458826508369
 30
0.0
 11
259.5417287828253
 21
-1291.458826508369
 31
0.0
  0
LINE
  5
269
  8
回08-記事
  6
CONTINUOUS
 62
     7
 10
264.5417287828253
 20
-1289.958826508369
 30
0.0
 11
264.5417287828253
 21
-1291.458826508369
 31
0.0
  0
LINE
  5
26A
  8
回08-記事
  6
CONTINUOUS
 62
     7
 10
256.8502457784247
 20
-1286.958826508368
 30
0.0
 11
259.5417287828253
 21
-1286.958826508368
 31
0.0
  0
LINE
  5
26B
  8
回08-記事
  6
CONTINUOUS
 62
     7
 10
256.8502457784247
 20
-1285.458826508369
 30
0.0
 11
256.8502457784247
 21
-1286.958826508368
 31
0.0
  0
TEXT
  5
26C
  8
回08-記事
  6
CONTINUOUS
 62
     5
 10
222.9232197527688
 20
-1301.303802524507
 30
0.0
 40
4.0
  1
LOT LABEL
1001
ACAD
1000
MTEXTBEGIN
1070
    73
1070
     1
1070
    44
1040
1.0
1070
    74
1070
     0
1000
MTEXTEND
  0
INSERT
  5
26D
  8
回08-記事
  6
CONTINUOUS
 62
     7
 66
     1
  2
*X45
 10
0.0
 20
0.0
 30
0.0
  0
SEQEND
  5
444
  8
回08-記事
  6
CONTINUOUS
 62
     7
  0
POLYLINE
  5
26E
  8
回08-記事
  6
CONTINUOUS
 62
     7
 66
     1
 10
0.0
 20
0.0
 30
0.0
 70
     1
  0
VERTEX
  5
445
  8
回08-記事
  6
CONTINUOUS
 62
     7
 10
214.6815719580776
 20
-1285.958826508369
 30
0.0
  0
VERTEX
  5
447
  8
回08-記事
  6
CONTINUOUS
 62
     7
 10
240.6815719580776
 20
-1285.958826508369
 30
0.0
  0
VERTEX
  5
448
  8
回08-記事
  6
CONTINUOUS
 62
     7
 10
240.6815719580776
 20
-1285.458826508369
 30
0.0
  0
VERTEX
  5
449
  8
回08-記事
  6
CONTINUOUS
 62
     7
 10
214.6815719580776
 20
-1285.458826508369
 30
0.0
  0
SEQEND
  5
446
  8
回08-記事
  6
CONTINUOUS
 62
     7
  0
TEXT
  5
26F
  8
回08-記事
  6
CONTINUOUS
 62
     5
 10
472.8091942249297
 20
-1149.801336091311
 30
0.0
 40
5.0
  1
XR
  0
ARC
  5
270
  8
回08-記事
  6
CONTINUOUS
 62
     7
 10
483.5417287828253
 20
-1283.770597681983
 30
0.0
 40
0.5
 50
0.0
 51
180.0
  0
LINE
  5
271
  8
回08-記事
  6
CONTINUOUS
 62
     7
 10
485.0417287828252
 20
-1283.958826508369
 30
0.0
 11
485.0417287828252
 21
-1280.958826508369
 31
0.0
  0
ARC
  5
272
  8
回08-記事
  6
CONTINUOUS
 62
     7
 10
479.5417287828253
 20
-1283.770597681983
 30
0.0
 40
0.5
 50
0.0
 51
180.0
  0
LINE
  5
273
  8
回08-記事
  6
CONTINUOUS
 62
     7
 10
488.6417287828252
 20
-1289.958826508369
 30
0.0
 11
488.6417287828252
 21
-1283.958826508369
 31
0.0
  0
DIMENSION
  5
274
  8
回08-記事
  6
CONTINUOUS
 62
     5
  2
*D4
 10
497.0014548178188
 20
-1289.958826508369
 30
0.0
 11
497.0014548178183
 21
-1309.240198555291
 31
0.0
 70
   128
  1
2.1{\H0.6563x;±0.2}[0.079{\H0.6563x;±0.008}]
  3
DMC
 13
488.0417287828253
 23
-1276.958826508369
 33
0.0
 14
488.0417287828253
 24
-1289.958826508369
 34
0.0
 50
90.0
1001
ACAD
1000
DSTYLE
1002
{
1070
   170
1070
     1
1070
   371
1070
     9
1070
   372
1070
     9
1002
}
  0
ARC
  5
285
  8
回08-記事
  6
CONTINUOUS
 62
     7
 10
475.5417287828253
 20
-1283.770597681983
 30
0.0
 40
0.5
 50
0.0
 51
180.0
  0
ARC
  5
286
  8
回08-記事
  6
CONTINUOUS
 62
     7
 10
463.5417287828253
 20
-1283.770597681983
 30
0.0
 40
0.5
 50
0.0
 51
180.0
  0
ARC
  5
287
  8
回08-記事
  6
CONTINUOUS
 62
     7
 10
459.5417287828253
 20
-1283.770597681983
 30
0.0
 40
0.5
 50
0.0
 51
180.0
  0
ARC
  5
288
  8
回08-記事
  6
CONTINUOUS
 62
     7
 10
467.5417287828253
 20
-1283.770597681983
 30
0.0
 40
0.5
 50
0.0
 51
180.0
  0
ARC
  5
289
  8
回08-記事
  6
CONTINUOUS
 62
     7
 10
471.5417287828253
 20
-1283.770597681983
 30
0.0
 40
0.5
 50
0.0
 51
180.0
  0
ARC
  5
28A
  8
回08-記事
  6
CONTINUOUS
 62
     7
 10
443.5417287828252
 20
-1283.770597681983
 30
0.0
 40
0.5
 50
0.0
 51
180.0
  0
ARC
  5
28B
  8
回08-記事
  6
CONTINUOUS
 62
     7
 10
455.5417287828253
 20
-1283.770597681983
 30
0.0
 40
0.5
 50
0.0
 51
180.0
  0
ARC
  5
28C
  8
回08-記事
  6
CONTINUOUS
 62
     7
 10
447.5417287828252
 20
-1283.770597681983
 30
0.0
 40
0.5
 50
0.0
 51
180.0
  0
ARC
  5
28D
  8
回08-記事
  6
CONTINUOUS
 62
     7
 10
451.5417287828253
 20
-1283.770597681983
 30
0.0
 40
0.5
 50
0.0
 51
180.0
  0
ARC
  5
28E
  8
回08-記事
  6
CONTINUOUS
 62
     7
 10
427.5417287828253
 20
-1283.770597681983
 30
0.0
 40
0.5
 50
0.0
 51
180.0
  0
ARC
  5
28F
  8
回08-記事
  6
CONTINUOUS
 62
     7
 10
423.5417287828253
 20
-1283.770597681983
 30
0.0
 40
0.5
 50
0.0
 51
180.0
  0
ARC
  5
290
  8
回08-記事
  6
CONTINUOUS
 62
     7
 10
435.5417287828252
 20
-1283.770597681983
 30
0.0
 40
0.5
 50
0.0
 51
180.0
  0
ARC
  5
291
  8
回08-記事
  6
CONTINUOUS
 62
     7
 10
431.5417287828252
 20
-1283.770597681983
 30
0.0
 40
0.5
 50
0.0
 51
180.0
  0
ARC
  5
292
  8
回08-記事
  6
CONTINUOUS
 62
     7
 10
439.5417287828252
 20
-1283.770597681983
 30
0.0
 40
0.5
 50
0.0
 51
180.0
  0
ARC
  5
293
  8
回08-記事
  6
CONTINUOUS
 62
     7
 10
407.5417287828253
 20
-1283.770597681983
 30
0.0
 40
0.5
 50
0.0
 51
180.0
  0
ARC
  5
294
  8
回08-記事
  6
CONTINUOUS
 62
     7
 10
411.5417287828253
 20
-1283.770597681983
 30
0.0
 40
0.5
 50
0.0
 51
180.0
  0
ARC
  5
295
  8
回08-記事
  6
CONTINUOUS
 62
     7
 10
415.5417287828253
 20
-1283.770597681983
 30
0.0
 40
0.5
 50
0.0
 51
180.0
  0
ARC
  5
296
  8
回08-記事
  6
CONTINUOUS
 62
     7
 10
419.5417287828253
 20
-1283.770597681983
 30
0.0
 40
0.5
 50
0.0
 51
180.0
  0
TEXT
  5
297
  8
回08-記事
  6
CONTINUOUS
 62
     5
 10
377.4509821902192
 20
-1080.129607374654
 30
0.0
 40
5.0
  1
YU
  0
TEXT
  5
298
  8
回08-記事
  6
CONTINUOUS
 62
     5
 10
379.6611073819103
 20
-1228.927212835088
 30
0.0
 40
5.0
  1
YD
  0
TEXT
  5
299
  8
回08-記事
  6
CONTINUOUS
 62
     5
 10
273.2809551984618
 20
-1149.056326601444
 30
0.0
 40
5.0
  1
XL
  0
ARC
  5
29A
  8
回08-記事
  6
CONTINUOUS
 62
     7
 10
387.5417287828253
 20
-1283.770597681983
 30
0.0
 40
0.5
 50
0.0
 51
180.0
  0
ARC
  5
29B
  8
回08-記事
  6
CONTINUOUS
 62
     7
 10
391.5417287828253
 20
-1283.770597681983
 30
0.0
 40
0.5
 50
0.0
 51
180.0
  0
ARC
  5
29C
  8
回08-記事
  6
CONTINUOUS
 62
     7
 10
395.5417287828253
 20
-1283.770597681983
 30
0.0
 40
0.5
 50
0.0
 51
180.0
  0
ARC
  5
29D
  8
回08-記事
  6
CONTINUOUS
 62
     7
 10
399.5417287828253
 20
-1283.770597681983
 30
0.0
 40
0.5
 50
0.0
 51
180.0
  0
ARC
  5
29E
  8
回08-記事
  6
CONTINUOUS
 62
     7
 10
403.5417287828253
 20
-1283.770597681983
 30
0.0
 40
0.5
 50
0.0
 51
180.0
  0
ARC
  5
29F
  8
回08-記事
  6
CONTINUOUS
 62
     7
 10
379.5417287828253
 20
-1283.770597681983
 30
0.0
 40
0.5
 50
0.0
 51
180.0
  0
ARC
  5
2A0
  8
回08-記事
  6
CONTINUOUS
 62
     7
 10
371.5417287828253
 20
-1283.770597681983
 30
0.0
 40
0.5
 50
0.0
 51
180.0
  0
ARC
  5
2A1
  8
回08-記事
  6
CONTINUOUS
 62
     7
 10
375.5417287828253
 20
-1283.770597681983
 30
0.0
 40
0.5
 50
0.0
 51
180.0
  0
ARC
  5
2A2
  8
回08-記事
  6
CONTINUOUS
 62
     7
 10
383.5417287828253
 20
-1283.770597681983
 30
0.0
 40
0.5
 50
0.0
 51
180.0
  0
LINE
  5
2A3
  8
回08-記事
  6
CONTINUOUS
 62
     5
 10
357.0153238940956
 20
-1288.094698929548
 30
0.0
 11
363.0035090993664
 21
-1294.980568568321
 31
0.0
  0
ARC
  5
2A4
  8
回08-記事
  6
CONTINUOUS
 62
     7
 10
359.5417287828253
 20
-1283.770597681983
 30
0.0
 40
0.5
 50
0.0
 51
180.0
  0
ARC
  5
2A5
  8
回08-記事
  6
CONTINUOUS
 62
     7
 10
351.5417287828253
 20
-1283.770597681983
 30
0.0
 40
0.5
 50
0.0
 51
180.0
  0
ARC
  5
2A6
  8
回08-記事
  6
CONTINUOUS
 62
     7
 10
355.5417287828253
 20
-1283.770597681983
 30
0.0
 40
0.5
 50
0.0
 51
180.0
  0
TEXT
  5
2A7
  8
回08-記事
  6
CONTINUOUS
 62
     5
 10
363.6901093185082
 20
-1299.322226929878
 30
0.0
 40
4.0
  1
ITO GLASS
  0
ARC
  5
2A8
  8
回08-記事
  6
CONTINUOUS
 62
     7
 10
363.5417287828253
 20
-1283.770597681983
 30
0.0
 40
0.5
 50
0.0
 51
180.0
  0
ARC
  5
2A9
  8
回08-記事
  6
CONTINUOUS
 62
     7
 10
367.5417287828253
 20
-1283.770597681983
 30
0.0
 40
0.5
 50
0.0
 51
180.0
  0
ARC
  5
2AA
  8
回08-記事
  6
CONTINUOUS
 62
     7
 10
339.5417287828253
 20
-1283.770597681983
 30
0.0
 40
0.5
 50
0.0
 51
180.0
  0
ARC
  5
2AB
  8
回08-記事
  6
CONTINUOUS
 62
     7
 10
335.5417287828253
 20
-1283.770597681983
 30
0.0
 40
0.5
 50
0.0
 51
180.0
  0
ARC
  5
2AC
  8
回08-記事
  6
CONTINUOUS
 62
     7
 10
343.5417287828253
 20
-1283.770597681983
 30
0.0
 40
0.5
 50
0.0
 51
180.0
  0
ARC
  5
2AD
  8
回08-記事
  6
CONTINUOUS
 62
     7
 10
347.5417287828253
 20
-1283.770597681983
 30
0.0
 40
0.5
 50
0.0
 51
180.0
  0
ARC
  5
2AE
  8
回08-記事
  6
CONTINUOUS
 62
     7
 10
315.5417287828253
 20
-1283.770597681983
 30
0.0
 40
0.5
 50
0.0
 51
180.0
  0
ARC
  5
2AF
  8
回08-記事
  6
CONTINUOUS
 62
     7
 10
319.5417287828253
 20
-1283.770597681983
 30
0.0
 40
0.5
 50
0.0
 51
180.0
  0
ARC
  5
2B0
  8
回08-記事
  6
CONTINUOUS
 62
     7
 10
331.5417287828253
 20
-1283.770597681983
 30
0.0
 40
0.5
 50
0.0
 51
180.0
  0
ARC
  5
2B1
  8
回08-記事
  6
CONTINUOUS
 62
     7
 10
323.5417287828253
 20
-1283.770597681983
 30
0.0
 40
0.5
 50
0.0
 51
180.0
  0
ARC
  5
2B2
  8
回08-記事
  6
CONTINUOUS
 62
     7
 10
327.5417287828253
 20
-1283.770597681983
 30
0.0
 40
0.5
 50
0.0
 51
180.0
  0
ARC
  5
2B3
  8
回08-記事
  6
CONTINUOUS
 62
     7
 10
299.5417287828253
 20
-1283.770597681983
 30
0.0
 40
0.5
 50
0.0
 51
180.0
  0
TEXT
  5
2B4
  8
回08-記事
  6
CONTINUOUS
 62
     5
 10
330.552127926131
 20
-1271.627980414485
 30
0.0
 40
4.0
  1
ITO FILM (ANTI-GLARE(ANR))
  0
ARC
  5
2B5
  8
回08-記事
  6
CONTINUOUS
 62
     7
 10
311.5417287828253
 20
-1283.770597681983
 30
0.0
 40
0.5
 50
0.0
 51
180.0
  0
ARC
  5
2B6
  8
回08-記事
  6
CONTINUOUS
 62
     7
 10
303.5417287828253
 20
-1283.770597681983
 30
0.0
 40
0.5
 50
0.0
 51
180.0
  0
ARC
  5
2B7
  8
回08-記事
  6
CONTINUOUS
 62
     7
 10
307.5417287828253
 20
-1283.770597681983
 30
0.0
 40
0.5
 50
0.0
 51
180.0
  0
LINE
  5
2B8
  8
回08-記事
  6
CONTINUOUS
 62
     5
 10
327.6956334930037
 20
-1278.644098950062
 30
0.0
 11
334.4370668994255
 21
-1272.774177290779
 31
0.0
  0
ARC
  5
2B9
  8
回08-記事
  6
CONTINUOUS
 62
     7
 10
283.5417287828253
 20
-1283.770597681983
 30
0.0
 40
0.5
 50
0.0
 51
180.0
  0
ARC
  5
2BA
  8
回08-記事
  6
CONTINUOUS
 62
     7
 10
279.5417287828253
 20
-1283.770597681983
 30
0.0
 40
0.5
 50
0.0
 51
180.0
  0
ARC
  5
2BB
  8
回08-記事
  6
CONTINUOUS
 62
     7
 10
291.5417287828253
 20
-1283.770597681983
 30
0.0
 40
0.5
 50
0.0
 51
180.0
  0
ARC
  5
2BC
  8
回08-記事
  6
CONTINUOUS
 62
     7
 10
287.5417287828253
 20
-1283.770597681983
 30
0.0
 40
0.5
 50
0.0
 51
180.0
  0
ARC
  5
2BD
  8
回08-記事
  6
CONTINUOUS
 62
     7
 10
295.5417287828253
 20
-1283.770597681983
 30
0.0
 40
0.5
 50
0.0
 51
180.0
  0
LINE
  5
2BE
  8
回08-記事
  6
CONTINUOUS
 62
     7
 10
261.5417287828253
 20
-1280.958826508369
 30
0.0
 11
261.5417287828253
 21
-1276.958826508369
 31
0.0
  0
LINE
  5
2BF
  8
回08-記事
  6
CONTINUOUS
 62
     7
 10
261.0417287828253
 20
-1289.958826508369
 30
0.0
 11
261.0417287828253
 21
-1283.958826508369
 31
0.0
  0
ARC
  5
2C0
  8
回08-記事
  6
CONTINUOUS
 62
     7
 10
271.5417287828253
 20
-1283.770597681983
 30
0.0
 40
0.5
 50
0.0
 51
180.0
  0
LINE
  5
2C1
  8
回08-記事
  6
CONTINUOUS
 62
     7
 10
264.3417287828253
 20
-1283.958826508369
 30
0.0
 11
264.3417287828253
 21
-1280.958826508369
 31
0.0
  0
ARC
  5
2C2
  8
回08-記事
  6
CONTINUOUS
 62
     7
 10
275.5417287828253
 20
-1283.770597681983
 30
0.0
 40
0.5
 50
0.0
 51
180.0
  0
LINE
  5
2C3
  8
回08-記事
  6
CONTINUOUS
 62
     5
 10
243.9872147064221
 20
-1282.620771977724
 30
0.0
 11
246.9917518998124
 21
-1288.481497061927
 31
0.0
  0
TEXT
  5
2C4
  8
回08-記事
  6
CONTINUOUS
 62
     5
 10
246.9618597155883
 20
-1294.265499072965
 30
0.0
 40
4.0
  1
TAIL
  0
TEXT
  5
2C5
  8
回08-記事
  6
CONTINUOUS
 62
     5
 10
249.0672527477408
 20
-1264.999278920558
 30
0.0
 40
4.0
  1
REINFORCEMENT FILM
  0
LINE
  5
2C6
  8
回08-記事
  6
CONTINUOUS
 62
     7
 10
191.0417287828253
 20
-1280.958826508369
 30
0.0
 11
191.0417287828253
 21
-1276.958826508369
 31
0.0
  0
TEXT
  5
2C7
  8
回08-記事
  6
CONTINUOUS
 62
     5
 10
196.3456204012516
 20
-1277.363760088745
 30
0.0
 40
4.0
  1
STIFFENER
  0
LINE
  5
2C8
  8
回08-記事
  6
CONTINUOUS
 62
     7
 10
181.0417287828253
 20
-1283.958826508369
 30
0.0
 11
181.0417287828253
 21
-1276.958826508369
 31
0.0
  0
DIMENSION
  5
2C9
  8
回08-記事
  6
CONTINUOUS
 62
     5
  2
*D3
 10
149.2409631756386
 20
-1283.958826508369
 30
0.0
 11
149.2409631756381
 21
-1257.030490406007
 31
0.0
 70
   128
  1
0.3{\H0.6563x;±0.05}[0.012{\H0.6563x;±0.002}]
  3
DMC
 13
181.0417287828253
 23
-1276.958826508369
 33
0.0
 14
181.0417287828253
 24
-1283.958826508369
 34
0.0
 50
90.0
1001
ACAD
1000
DSTYLE
1002
{
1070
   170
1070
     1
1070
   371
1070
     9
1070
   372
1070
     9
1002
}
  0
DIMENSION
  5
2DA
  8
回08-記事
  6
CONTINUOUS
 62
     5
  2
*D2
 10
186.0417287828253
 20
-1294.052891329636
 30
0.0
 11
197.5969702785667
 21
-1294.052891329636
 31
0.0
 70
   128
  3
DMC
 13
181.0417287828253
 23
-1283.958826508369
 33
0.0
 14
186.0417287828253
 24
-1283.958826508369
 34
0.0
1001
ACAD
1000
DSTYLE
1002
{
1070
   170
1070
     1
1070
   371
1070
     9
1070
   372
1070
     9
1002
}
  0
LINE
  5
2EB
  8
回08-記事
  6
CONTINUOUS
 62
     7
 10
181.0417287828253
 20
-1276.958826508369
 30
0.0
 11
191.0417287828253
 21
-1276.958826508369
 31
0.0
  0
DIMENSION
  5
2EC
  8
回08-記事
  6
CONTINUOUS
 62
     5
  2
*D1
 10
191.0417287828253
 20
-1270.831909380736
 30
0.0
 11
167.0876683894461
 21
-1270.831909380736
 31
0.0
 70
   128
  1
(<>)
  3
DMC
 13
181.0417287828253
 23
-1280.958826508369
 33
0.0
 14
191.0417287828253
 24
-1280.958826508369
 34
0.0
1001
ACAD
1000
DSTYLE
1002
{
1070
   170
1070
     1
1070
   371
1070
     9
1070
   372
1070
     9
1002
}
  0
LINE
  5
2FD
  8
回08-記事
  6
CONTINUOUS
 62
     7
 10
252.0617287828253
 20
-1279.958826508369
 30
0.0
 11
261.5417287828253
 21
-1279.958826508369
 31
0.0
  0
LINE
  5
2FE
  8
回08-記事
  6
CONTINUOUS
 62
     7
 10
181.0417287828253
 20
-1283.958826508369
 30
0.0
 11
488.6417287828252
 21
-1283.958826508369
 31
0.0
  0
LINE
  5
2FF
  8
回08-記事
  6
CONTINUOUS
 62
     7
 10
181.0417287828253
 20
-1280.958826508369
 30
0.0
 11
488.141728782825
 21
-1280.958826508369
 31
0.0
  0
LINE
  5
300
  8
回08-記事
  6
CONTINUOUS
 62
     7
 10
261.0417287828253
 20
-1289.958826508369
 30
0.0
 11
488.6417287828254
 21
-1289.958826508369
 31
0.0
  0
LINE
  5
301
  8
回08-記事
  6
CONTINUOUS
 62
     7
 10
261.5417287828253
 20
-1276.958826508369
 30
0.0
 11
488.141728782825
 21
-1276.958826508369
 31
0.0
  0
TEXT
  5
302
  8
回08-記事
  6
CONTINUOUS
 62
     5
 10
564.8317963707291
 20
-1142.501463240137
 30
0.0
 40
4.341093749999999
  1
PIN ASSIGNMENT
  0
LINE
  5
303
  8
回08-記事
  6
CONTINUOUS
 62
     5
 10
591.4592895532805
 20
-1125.760598092205
 30
0.0
 11
567.4595239799741
 21
-1125.760598092205
 31
0.0
  0
TEXT
  5
304
  8
回08-記事
  6
CONTINUOUS
 62
     5
 10
562.5524066063944
 20
-1083.470263269723
 30
0.0
 40
4.571383918725
  1
4
  0
TEXT
  5
305
  8
回08-記事
  6
CONTINUOUS
 62
     5
 10
605.6764533765381
 20
-1115.880258761299
 30
0.0
 40
3.999960928884373
  1
XR
  0
LINE
  5
306
  8
回08-記事
  6
CONTINUOUS
 62
     5
 10
609.1734022383402
 20
-1110.046465871588
 30
0.0
 11
609.1734022383402
 21
-1081.475316379556
 31
0.0
  0
LINE
  5
307
  8
回08-記事
  6
CONTINUOUS
 62
     5
 10
605.4591528043756
 20
-1110.046465871588
 30
0.0
 11
609.1734022383402
 21
-1110.046465871588
 31
0.0
  0
LINE
  5
308
  8
回08-記事
  6
CONTINUOUS
 62
     5
 10
597.9735116374635
 20
-1108.560766098002
 30
0.0
 11
600.0306344008899
 21
-1112.675011624855
 31
0.0
  0
LINE
  5
309
  8
回08-記事
  6
CONTINUOUS
 62
     5
 10
595.9163888740376
 20
-1112.675011624855
 30
0.0
 11
597.9735116374635
 21
-1108.560766098002
 31
0.0
  0
LINE
  5
30A
  8
回08-記事
  6
CONTINUOUS
 62
     5
 10
600.0306344008899
 20
-1112.675011624855
 30
0.0
 11
602.0877571643163
 21
-1108.560766098002
 31
0.0
  0
LINE
  5
30B
  8
回08-記事
  6
CONTINUOUS
 62
     5
 10
602.0877571643163
 20
-1108.560766098002
 30
0.0
 11
604.1448799277427
 21
-1112.675011624855
 31
0.0
  0
LINE
  5
30C
  8
回08-記事
  6
CONTINUOUS
 62
     5
 10
604.1448799277427
 20
-1112.675011624855
 30
0.0
 11
605.4591528043756
 21
-1110.046465871588
 31
0.0
  0
LINE
  5
30D
  8
回08-記事
  6
CONTINUOUS
 62
     5
 10
587.6878978203326
 20
-1112.675011624855
 30
0.0
 11
589.7450205837585
 21
-1108.560766098002
 31
0.0
  0
LINE
  5
30E
  8
回08-記事
  6
CONTINUOUS
 62
     5
 10
583.5736522934799
 20
-1112.675011624855
 30
0.0
 11
585.6307750569063
 21
-1108.560766098002
 31
0.0
  0
LINE
  5
30F
  8
回08-記事
  6
CONTINUOUS
 62
     5
 10
585.6307750569063
 20
-1108.560766098002
 30
0.0
 11
587.6878978203326
 21
-1112.675011624855
 31
0.0
  0
LINE
  5
310
  8
回08-記事
  6
CONTINUOUS
 62
     5
 10
589.4021667898541
 20
-1108.38933920105
 30
0.0
 11
593.5164123167068
 21
-1110.446461964476
 31
0.0
  0
LINE
  5
311
  8
回08-記事
  6
CONTINUOUS
 62
     5
 10
589.4021667898541
 20
-1104.275093674197
 30
0.0
 11
593.5164123167068
 21
-1106.332216437624
 31
0.0
  0
LINE
  5
312
  8
回08-記事
  6
CONTINUOUS
 62
     5
 10
589.4021667898541
 20
-1104.275093674197
 30
0.0
 11
593.5164123167068
 21
-1102.217970910771
 31
0.0
  0
LINE
  5
313
  8
回08-記事
  6
CONTINUOUS
 62
     5
 10
589.4021667898541
 20
-1108.38933920105
 30
0.0
 11
593.5164123167068
 21
-1106.332216437624
 31
0.0
  0
LINE
  5
314
  8
回08-記事
  6
CONTINUOUS
 62
     5
 10
589.4021667898541
 20
-1116.617830254755
 30
0.0
 11
593.5164123167068
 21
-1114.560707491328
 31
0.0
  0
LINE
  5
315
  8
回08-記事
  6
CONTINUOUS
 62
     5
 10
589.4021667898541
 20
-1112.503584727903
 30
0.0
 11
593.5164123167068
 21
-1114.560707491328
 31
0.0
  0
LINE
  5
316
  8
回08-記事
  6
CONTINUOUS
 62
     5
 10
589.4021667898541
 20
-1112.503584727903
 30
0.0
 11
593.5164123167068
 21
-1110.446461964476
 31
0.0
  0
LINE
  5
317
  8
回08-記事
  6
CONTINUOUS
 62
     5
 10
591.4592895532805
 20
-1101.189409529058
 30
0.0
 11
593.5164123167068
 21
-1102.217970910771
 31
0.0
  0
LINE
  5
318
  8
回08-記事
  6
CONTINUOUS
 62
     5
 10
589.7450205837585
 20
-1108.560766098002
 30
0.0
 11
591.8021433471854
 21
-1112.675011624855
 31
0.0
  0
LINE
  5
319
  8
回08-記事
  6
CONTINUOUS
 62
     5
 10
591.8021433471854
 20
-1112.675011624855
 30
0.0
 11
593.8592661106112
 21
-1108.560766098002
 31
0.0
  0
LINE
  5
31A
  8
回08-記事
  6
CONTINUOUS
 62
     5
 10
591.4592895532805
 20
-1101.189409529058
 30
0.0
 11
591.4592895532805
 21
-1097.760871590014
 31
0.0
  0
TEXT
  5
31B
  8
回08-記事
  6
CONTINUOUS
 62
     5
 10
572.2851668253447
 20
-1109.513753616999
 30
0.0
 40
3.999960928884373
  1
XL
  0
LINE
  5
31C
  8
回08-記事
  6
CONTINUOUS
 62
     5
 10
580.2022566534206
 20
-1111.189311851269
 30
0.0
 11
581.5165295300535
 21
-1108.560766098002
 31
0.0
  0
LINE
  5
31D
  8
回08-記事
  6
CONTINUOUS
 62
     5
 10
581.5165295300535
 20
-1108.560766098002
 30
0.0
 11
583.5736522934799
 21
-1112.675011624855
 31
0.0
  0
LINE
  5
31E
  8
回08-記事
  6
CONTINUOUS
 62
     5
 10
589.4021667898541
 20
-1120.732075781607
 30
0.0
 11
593.5164123167068
 21
-1118.674953018181
 31
0.0
  0
LINE
  5
31F
  8
回08-記事
  6
CONTINUOUS
 62
     5
 10
589.4021667898541
 20
-1120.732075781607
 30
0.0
 11
591.4592895532805
 21
-1121.760637163321
 31
0.0
  0
LINE
  5
320
  8
回08-記事
  6
CONTINUOUS
 62
     5
 10
591.4592895532805
 20
-1125.760598092205
 30
0.0
 11
591.4592895532805
 21
-1121.760637163321
 31
0.0
  0
TEXT
  5
321
  8
回08-記事
  6
CONTINUOUS
 62
     5
 10
580.9516059892989
 20
-1124.131252938829
 30
0.0
 40
3.999960928884373
  1
YD
  0
LINE
  5
322
  8
回08-記事
  6
CONTINUOUS
 62
     5
 10
589.4021667898541
 20
-1116.617830254755
 30
0.0
 11
593.5164123167068
 21
-1118.674953018181
 31
0.0
  0
TEXT
  5
323
  8
回08-記事
  6
CONTINUOUS
 62
     5
 10
562.9909048533416
 20
-1128.314585465038
 30
0.0
 40
4.571383918725
  1
1
  0
TEXT
  5
324
  8
回08-記事
  6
CONTINUOUS
 62
     5
 10
562.6403652043125
 20
-1113.787800255417
 30
0.0
 40
4.571383918725
  1
2
  0
TEXT
  5
325
  8
回08-記事
  6
CONTINUOUS
 62
     5
 10
562.813627285633
 20
-1099.90336362056
 30
0.0
 40
4.571383918725
  1
3
  0
LINE
  5
326
  8
回08-記事
  6
CONTINUOUS
 62
     5
 10
567.4595239799741
 20
-1097.760871590014
 30
0.0
 11
591.4592895532805
 21
-1097.760871590014
 31
0.0
  0
LINE
  5
327
  8
回08-記事
  6
CONTINUOUS
 62
     5
 10
567.4595239799741
 20
-1111.189311851269
 30
0.0
 11
580.2022566534206
 21
-1111.189311851269
 31
0.0
  0
TEXT
  5
328
  8
回08-記事
  6
CONTINUOUS
 62
     5
 10
592.5818133125132
 20
-1096.436009845032
 30
0.0
 40
3.999960928884373
  1
YU
  0
LINE
  5
329
  8
回08-記事
  6
CONTINUOUS
 62
     5
 10
593.8592661106112
 20
-1108.560766098002
 30
0.0
 11
595.9163888740376
 21
-1112.675011624855
 31
0.0
  0
LINE
  5
32A
  8
回08-記事
  6
CONTINUOUS
 62
     5
 10
567.4595239799741
 20
-1081.475316379556
 30
0.0
 11
609.1734022383402
 21
-1081.475316379556
 31
0.0
  0
DIMENSION
  5
32B
  8
回08-記事
  6
CONTINUOUS
 62
     7
  2
*D36
 10
589.6092359035122
 20
-1242.343457292131
 30
0.0
 11
587.4592359035118
 21
-1254.944638394493
 31
0.0
 70
     0
  1
0.6[0.024]
  3
DMC
 13
591.8667072004939
 23
-1239.94345729213
 33
0.0
 14
591.8667072004939
 24
-1242.34345729213
 34
0.0
 50
90.0
1001
ACAD
1000
DSTYLE
1002
{
1070
   170
1070
     1
1070
   371
1070
     9
1070
   372
1070
     9
1002
}
  0
LINE
  5
33C
  8
回08-記事
  6
CONTINUOUS
 62
     7
 10
611.8667072004939
 20
-1225.14345729213
 30
0.0
 11
611.8667072004939
 21
-1245.143457292131
 31
0.0
  0
DIMENSION
  5
33D
  8
回07-寸法
  6
CONTINUOUS
 62
     7
  2
*D35
 10
584.6356142453557
 20
-1237.143457292131
 30
0.0
 11
584.6356142453553
 21
-1253.662758878223
 31
0.0
 70
   128
  1
1[0.039]
  3
DMC
 13
591.8667072004939
 23
-1241.14345729213
 33
0.0
 14
591.8667072004939
 24
-1237.14345729213
 34
0.0
 50
90.0
1001
ACAD
1000
DSTYLE
1002
{
1070
   144
1040
0.25
1070
    47
1040
0.2
1070
    48
1040
0.2
1070
   371
1070
     9
1070
   372
1070
     9
1002
}
  0
DIMENSION
  5
34E
  8
回07-寸法
  6
CONTINUOUS
 62
     7
  2
*D34
 10
578.4838946136789
 20
-1241.143457292131
 30
0.0
 11
578.4838946136785
 21
-1253.64345729213
 31
0.0
 70
   128
  1
3[0.118]
  3
DMC
 13
591.8667072004939
 23
-1229.14345729213
 33
0.0
 14
591.8667072004939
 24
-1241.14345729213
 34
0.0
 50
90.0
1001
ACAD
1000
DSTYLE
1002
{
1070
   144
1040
0.25
1070
    47
1040
0.2
1070
    48
1040
0.2
1070
   371
1070
     9
1070
   372
1070
     9
1002
}
  0
DIMENSION
  5
35F
  8
回07-寸法
  6
CONTINUOUS
 62
     7
  2
*D33
 10
572.2704085115022
 20
-1245.143457292131
 30
0.0
 11
570.1204085115018
 21
-1261.899003787873
 31
0.0
 70
     0
  1
5{\H0.6667x;±0.1}[0.197{\H0.6667x;±0.004}]
  3
DMC
 13
593.8667072004939
 23
-1225.14345729213
 33
0.0
 14
593.8667072004939
 24
-1245.143457292131
 34
0.0
 50
90.0
1001
ACAD
1000
DSTYLE
1002
{
1070
   147
1040
0.5
1070
    72
1070
     0
1070
    71
1070
     1
1070
   144
1040
0.25
1070
    47
1040
0.1
1070
    48
1040
0.1
1070
   371
1070
     9
1070
   372
1070
     9
1002
}
  0
TEXT
  5
370
  8
ACC
  6
CONTINUOUS
 62
     7
 10
596.5080317101799
 20
-1223.545197768176
 30
0.0
 40
4.0
  1
4
 50
90.0
  0
TEXT
  5
374
  8
ACC
  6
CONTINUOUS
 62
     7
 10
596.5080317101799
 20
-1249.016589906544
 30
0.0
 40
4.0
  1
1
 50
90.0
  0
POLYLINE
  5
375
  8
ACC
  6
CONTINUOUS
 62
     8
 66
     1
 10
0.0
 20
0.0
 30
0.0
 40
2.399999999999999
 41
2.399999999999999
  0
VERTEX
  5
44A
  8
ACC
  6
CONTINUOUS
 62
     8
 10
591.8667072004939
 20
-1237.14345729213
 30
0.0
  0
VERTEX
  5
44C
  8
ACC
  6
CONTINUOUS
 62
     8
 10
611.8667072004939
 20
-1237.14345729213
 30
0.0
  0
SEQEND
  5
44B
  8
回08-記事
  6
CONTINUOUS
 62
     7
  0
POLYLINE
  5
376
  8
ACC
  6
CONTINUOUS
 62
     8
 66
     1
 10
0.0
 20
0.0
 30
0.0
 40
2.399999999999999
 41
2.399999999999999
  0
VERTEX
  5
44D
  8
ACC
  6
CONTINUOUS
 62
     8
 10
591.8667072004939
 20
-1241.14345729213
 30
0.0
  0
VERTEX
  5
44F
  8
ACC
  6
CONTINUOUS
 62
     8
 10
611.8667072004939
 20
-1241.14345729213
 30
0.0
  0
SEQEND
  5
44E
  8
回08-記事
  6
CONTINUOUS
 62
     7
  0
POLYLINE
  5
377
  8
ACC
  6
CONTINUOUS
 62
     8
 66
     1
 10
0.0
 20
0.0
 30
0.0
 40
2.399999999999999
 41
2.399999999999999
  0
VERTEX
  5
450
  8
ACC
  6
CONTINUOUS
 62
     8
 10
591.8667072004939
 20
-1229.14345729213
 30
0.0
  0
VERTEX
  5
452
  8
ACC
  6
CONTINUOUS
 62
     8
 10
611.8667072004939
 20
-1229.14345729213
 30
0.0
  0
SEQEND
  5
451
  8
回08-記事
  6
CONTINUOUS
 62
     7
  0
POLYLINE
  5
378
  8
ACC
  6
CONTINUOUS
 62
     8
 66
     1
 10
0.0
 20
0.0
 30
0.0
 40
2.399999999999999
 41
2.399999999999999
  0
VERTEX
  5
453
  8
ACC
  6
CONTINUOUS
 62
     8
 10
591.8667072004939
 20
-1233.14345729213
 30
0.0
  0
VERTEX
  5
455
  8
ACC
  6
CONTINUOUS
 62
     8
 10
611.8667072004939
 20
-1233.14345729213
 30
0.0
  0
SEQEND
  5
454
  8
回08-記事
  6
CONTINUOUS
 62
     7
  0
LINE
  5
379
  8
ACC
  6
BYBLOCK
 62
     8
 10
591.8667072004939
 20
-1243.14345729213
 30
0.0
 11
591.8667072004939
 21
-1227.14345729213
 31
0.0
  0
ARC
  5
37A
  8
ACC
  6
BYBLOCK
 62
     8
 10
593.8667072004939
 20
-1227.14345729213
 30
0.0
 40
2.0
 50
90.0
 51
180.0
  0
ARC
  5
37B
  8
ACC
  6
BYBLOCK
 62
     8
 10
593.8667072004939
 20
-1243.14345729213
 30
0.0
 40
2.0
 50
180.0
 51
270.0
  0
LINE
  5
37C
  8
ACC
  6
BYBLOCK
 62
     8
 10
593.8667072004939
 20
-1225.14345729213
 30
0.0
 11
617.8549194460249
 21
-1225.14345729213
 31
0.0
  0
LINE
  5
37D
  8
ACC
  6
BYBLOCK
 62
     8
 10
593.8667072004939
 20
-1245.143457292131
 30
0.0
 11
617.8549194460249
 21
-1245.143457292131
 31
0.0
  0
TEXT
  5
37E
  8
回08-記事
  6
CONTINUOUS
 62
     5
 10
583.5869471571315
 20
-1213.146384164755
 30
0.0
 40
4.341093749999999
  1
SECTION A
  0
TEXT
  5
37F
  8
回91-枠英2
 10
572.3034645923171
 20
-1348.617275625432
 30
0.0
 40
5.0
  1
Oct/06/2023
 72
     1
 11
591.3034645923171
 21
-1348.617275625432
 31
0.0
  0
TEXT
  5
383
  8
回91-枠英2
  6
CONTINUOUS
 62
     7
 10
586.2541946975498
 20
-1337.677838709809
 30
0.0
 40
3.0
  1
DATE
  0
TEXT
  5
384
  8
回91-枠英2
 10
596.1599113674042
 20
-1016.539404048293
 30
0.0
 40
3.6
  1
H
  0
LINE
  5
385
  8
回91-枠英2
 10
565.8034645923171
 20
-1012.374584861739
 30
0.0
 11
565.8034645923171
 21
-1016.874584861739
 31
0.0
  0
LINE
  5
386
  8
回91-枠英2
 10
633.3034645923171
 20
-1086.174584861739
 30
0.0
 11
628.8034645923171
 21
-1086.174584861739
 31
0.0
  0
TEXT
  5
387
  8
回91-枠英2
 10
629.7960946626387
 20
-1122.814766295465
 30
0.0
 40
3.6
  1
2
  0
LINE
  5
388
  8
回91-枠英2
 10
633.3034645923171
 20
-1155.474584861739
 30
0.0
 11
628.8034645923171
 21
-1155.474584861739
 31
0.0
  0
TEXT
  5
389
  8
回91-枠英2
 10
630.0674434956103
 20
-1053.514766295466
 30
0.0
 40
3.6
  1
1
  0
TEXT
  5
38A
  8
回91-枠英2
 10
629.7911619028582
 20
-1192.114766295466
 30
0.0
 40
3.6
  1
3
  0
LINE
  5
38B
  8
回91-枠英2
 10
633.3034645923171
 20
-1224.774584861739
 30
0.0
 11
628.8034645923171
 21
-1224.774584861739
 31
0.0
  0
TEXT
  5
38C
  8
回91-枠英2
 10
629.7253789947851
 20
-1261.414766295466
 30
0.0
 40
3.6
  1
4
  0
LINE
  5
38D
  8
回91-枠英2
 10
633.3034645923171
 20
-1294.074584861739
 30
0.0
 11
628.8034645923171
 21
-1294.074584861739
 31
0.0
  0
TEXT
  5
38E
  8
回91-枠英2
 10
629.7253789947851
 20
-1330.714766295466
 30
0.0
 40
3.6
  1
5
  0
TEXT
  5
38F
  8
回91-枠英2
 10
596.1599113674042
 20
-1367.539404048293
 30
0.0
 40
3.6
  1
H
  0
LINE
  5
390
  8
回91-枠英2
 10
565.8034645923171
 20
-1363.374584861739
 30
0.0
 11
565.8034645923171
 21
-1367.874584861739
 31
0.0
  0
TEXT
  5
391
  8
回91-枠英2
 10
571.4284645923171
 20
-1360.836877024547
 30
0.0
 40
5.0
  1
DMC Co., Ltd.
 72
     1
 11
591.3034645923171
 21
-1360.836877024547
 31
0.0
  0
LINE
  5
392
  8
回91-枠英2
 10
633.3034645923171
 20
-1367.874584861739
 30
0.0
 11
633.3034645923171
 21
-1012.374584861739
 31
0.0
  0
LINE
  5
393
  8
回91-枠英2
 10
628.8034645923171
 20
-1016.874584861739
 30
0.0
 11
628.8034645923171
 21
-1363.374584861739
 31
0.0
  0
TEXT
  5
394
  8
回91-枠英2
 10
533.1599113674042
 20
-1016.539404048293
 30
0.0
 40
3.6
  1
G
  0
LINE
  5
395
  8
回91-枠英2
 10
502.8034645923171
 20
-1012.374584861739
 30
0.0
 11
502.8034645923171
 21
-1016.874584861739
 31
0.0
  0
TEXT
  5
396
  8
回91-枠英2
 10
470.1599113674042
 20
-1016.539404048293
 30
0.0
 40
3.6
  1
F
  0
LINE
  5
397
  8
回91-枠英2
 10
439.8034645923171
 20
-1012.374584861739
 30
0.0
 11
439.8034645923171
 21
-1016.874584861739
 31
0.0
  0
TEXT
  5
398
  8
回91-枠英2
 10
407.1599113674042
 20
-1016.539404048293
 30
0.0
 40
3.6
  1
E
  0
LINE
  5
399
  8
回91-枠英2
 10
376.8034645923171
 20
-1012.374584861739
 30
0.0
 11
376.8034645923171
 21
-1016.874584861739
 31
0.0
  0
TEXT
  5
39A
  8
回91-枠英2
 10
344.1599113674042
 20
-1016.539404048293
 30
0.0
 40
3.6
  1
D
  0
LINE
  5
39B
  8
回91-枠英2
 10
313.8034645923172
 20
-1012.374584861739
 30
0.0
 11
313.8034645923172
 21
-1016.874584861739
 31
0.0
  0
TEXT
  5
39C
  8
回91-枠英2
 10
281.1599113674042
 20
-1016.539404048293
 30
0.0
 40
3.6
  1
C
  0
LINE
  5
39D
  8
回91-枠英2
 10
250.8034645923171
 20
-1012.374584861739
 30
0.0
 11
250.8034645923171
 21
-1016.874584861739
 31
0.0
  0
TEXT
  5
39E
  8
回91-枠英2
 10
218.1599113674042
 20
-1016.539404048293
 30
0.0
 40
3.6
  1
B
  0
LINE
  5
39F
  8
回91-枠英2
 10
187.8034645923171
 20
-1012.374584861739
 30
0.0
 11
187.8034645923171
 21
-1016.874584861739
 31
0.0
  0
TEXT
  5
3A0
  8
回91-枠英2
 10
155.1599113674042
 20
-1016.539404048293
 30
0.0
 40
3.6
  1
A
  0
LINE
  5
3A1
  8
回91-枠英2
 10
124.8034645923171
 20
-1086.174584861739
 30
0.0
 11
120.3034645923171
 21
-1086.174584861739
 31
0.0
  0
TEXT
  5
3A2
  8
回91-枠英2
 10
121.296094662639
 20
-1122.814766295465
 30
0.0
 40
3.6
  1
2
  0
LINE
  5
3A3
  8
回91-枠英2
 10
124.8034645923171
 20
-1155.474584861739
 30
0.0
 11
120.3034645923171
 21
-1155.474584861739
 31
0.0
  0
TEXT
  5
3A4
  8
回91-枠英2
 10
121.5674434956104
 20
-1053.514766295466
 30
0.0
 40
3.6
  1
1
  0
TEXT
  5
3A5
  8
回91-枠英2
 10
498.8034645923171
 20
-1345.882702666507
 30
0.0
 40
5.0
  1
QST-104A075H
 72
     1
 11
521.3034645923171
 21
-1345.882702666507
 31
0.0
  0
TEXT
  5
3A6
  8
回91-枠英2
 10
511.8534645923171
 20
-1337.427331942376
 30
0.0
 40
3.0
  1
PART　No.
 72
     1
 11
521.3034645923171
 21
-1337.427331942376
 31
0.0
  0
TEXT
  5
3A7
  8
回91-枠英2
 10
533.1599113674042
 20
-1367.539404048293
 30
0.0
 40
3.6
  1
G
  0
LINE
  5
3A8
  8
回91-枠英2
 10
491.8034645923171
 20
-1358.374584861739
 30
0.0
 11
550.8034645923171
 21
-1358.374584861739
 31
0.0
  0
TEXT
  5
3A9
  8
回91-枠英2
 10
497.962874041136
 20
-1357.224554130353
 30
0.0
 40
3.0
  1
STANDARD TOUCHSCREEN
 72
     1
 11
521.3034645923171
 21
-1357.224554130353
 31
0.0
  0
TEXT
  5
3AA
  8
回91-枠英2
 10
504.7233631309675
 20
-1362.224554130353
 30
0.0
 40
3.0
  1
CIRCUIT　DRAWING
 72
     1
 11
521.3034645923171
 21
-1362.224554130353
 31
0.0
  0
LINE
  5
3AB
  8
回91-枠英2
 10
553.8034645923171
 20
-1333.374584861739
 30
0.0
 11
553.8034645923171
 21
-1363.374584861739
 31
0.0
  0
TEXT
  5
3AC
  8
回91-枠英2
 10
516.5034645923172
 20
-1352.630965172164
 30
0.0
 40
3.0
  1
TYPE
 72
     1
 11
521.3034645923171
 21
-1352.630965172164
 31
0.0
  0
LINE
  5
3AD
  8
回91-枠英2
 10
502.8034645923171
 20
-1363.374584861739
 30
0.0
 11
502.8034645923171
 21
-1367.874584861739
 31
0.0
  0
TEXT
  5
3AE
  8
回91-枠英2
 10
470.1599113674042
 20
-1367.539404048293
 30
0.0
 40
3.6
  1
F
  0
LINE
  5
3AF
  8
回91-枠英2
 10
488.8034645923171
 20
-1333.374584861739
 30
0.0
 11
488.8034645923171
 21
-1363.374584861739
 31
0.0
  0
LINE
  5
3B0
  8
回91-枠英2
 10
439.8034645923171
 20
-1363.374584861739
 30
0.0
 11
439.8034645923171
 21
-1367.874584861739
 31
0.0
  0
TEXT
  5
3B1
  8
回91-枠英2
 10
407.1599113674042
 20
-1367.539404048293
 30
0.0
 40
3.6
  1
E
  0
LINE
  5
3B2
  8
回91-枠英2
 10
376.8034645923171
 20
-1363.374584861739
 30
0.0
 11
376.8034645923171
 21
-1367.874584861739
 31
0.0
  0
TEXT
  5
3B3
  8
回91-枠英2
 10
344.1599113674042
 20
-1367.539404048293
 30
0.0
 40
3.6
  1
D
  0
LINE
  5
3B4
  8
回91-枠英2
 10
488.8034645923171
 20
-1348.374584861739
 30
0.0
 11
553.8034645923171
 21
-1348.374584861739
 31
0.0
  0
LINE
  5
3B5
  8
回91-枠英2
 10
313.8034645923172
 20
-1363.374584861739
 30
0.0
 11
313.8034645923172
 21
-1367.874584861739
 31
0.0
  0
TEXT
  5
3B6
  8
回91-枠英2
 10
281.1599113674042
 20
-1367.539404048293
 30
0.0
 40
3.6
  1
C
  0
LINE
  5
3B7
  8
回91-枠英2
 10
250.8034645923171
 20
-1363.374584861739
 30
0.0
 11
250.8034645923171
 21
-1367.874584861739
 31
0.0
  0
TEXT
  5
3B8
  8
回91-枠英2
 10
218.1599113674042
 20
-1367.539404048293
 30
0.0
 40
3.6
  1
B
  0
TEXT
  5
3B9
  8
回91-枠英2
 10
121.2911619028582
 20
-1192.114766295466
 30
0.0
 40
3.6
  1
3
  0
LINE
  5
3BA
  8
回91-枠英2
 10
124.8034645923171
 20
-1224.774584861739
 30
0.0
 11
120.3034645923171
 21
-1224.774584861739
 31
0.0
  0
TEXT
  5
3BB
  8
回91-枠英2
 10
121.2253789947854
 20
-1261.414766295466
 30
0.0
 40
3.6
  1
4
  0
LINE
  5
3BC
  8
回91-枠英2
 10
187.8034645923171
 20
-1363.374584861739
 30
0.0
 11
187.8034645923171
 21
-1367.874584861739
 31
0.0
  0
TEXT
  5
3BD
  8
回91-枠英2
 10
155.1599113674042
 20
-1367.539404048293
 30
0.0
 40
3.6
  1
A
  0
LINE
  5
3BE
  8
回91-枠英2
 10
124.8034645923171
 20
-1294.074584861739
 30
0.0
 11
120.3034645923171
 21
-1294.074584861739
 31
0.0
  0
TEXT
  5
3BF
  8
回91-枠英2
 10
121.2253789947854
 20
-1330.714766295466
 30
0.0
 40
3.6
  1
5
  0
LINE
  5
3C0
  8
回91-枠英2
 10
120.3034645923171
 20
-1367.874584861739
 30
0.0
 11
120.3034645923171
 21
-1012.374584861739
 31
0.0
  0
LINE
  5
3C1
  8
回91-枠英2
 10
124.8034645923171
 20
-1016.874584861739
 30
0.0
 11
124.8034645923171
 21
-1363.374584861739
 31
0.0
  0
LINE
  5
3C2
  8
回91-枠英2
 10
124.8034645923171
 20
-1363.374584861739
 30
0.0
 11
628.8034645923171
 21
-1363.374584861739
 31
0.0
  0
LINE
  5
3C3
  8
回91-枠英2
 10
633.3034645923171
 20
-1367.874584861739
 30
0.0
 11
120.3034645923171
 21
-1367.874584861739
 31
0.0
  0
LINE
  5
3C4
  8
回91-枠英2
 10
633.3034645923171
 20
-1012.374584861739
 30
0.0
 11
120.3034645923171
 21
-1012.374584861739
 31
0.0
  0
LINE
  5
3C5
  8
回91-枠英2
 10
124.8034645923171
 20
-1016.874584861739
 30
0.0
 11
628.8034645923171
 21
-1016.874584861739
 31
0.0
  0
LINE
  5
3C6
  8
回91-枠英2
 10
488.8034645923171
 20
-1353.374584861739
 30
0.0
 11
628.8034645923171
 21
-1353.374584861739
 31
0.0
  0
LINE
  5
3C7
  8
回91-枠英2
 10
488.8034645923171
 20
-1333.374584861739
 30
0.0
 11
628.8034645923171
 21
-1333.374584861739
 31
0.0
  0
LINE
  5
3C8
  8
回91-枠英2
 10
488.8034645923171
 20
-1338.374584861739
 30
0.0
 11
628.8034645923171
 21
-1338.374584861739
 31
0.0
  0
ENDSEC
  0
EOF
