  0
SECTION
  2
HEADER
  9
$ACADVER
  1
AC1009
  9
$INSBASE
 10
0.0
 20
0.0
 30
0.0
  9
$EXTMIN
 10
127.08753707719
 20
-1455.912064263066
 30
0.0
  9
$EXTMAX
 10
2802.257233667032
 20
-511.9097667544023
 30
0.0
  9
$LIMMIN
 10
0.0
 20
0.0
  9
$LIMMAX
 10
3000.0
 20
2500.0
  9
$ORTHOMODE
 70
     0
  9
$REGENMODE
 70
     1
  9
$FILLMODE
 70
     1
  9
$QTEXTMODE
 70
     0
  9
$MIRRTEXT
 70
     1
  9
$DRAGMODE
 70
     2
  9
$LTSCALE
 40
0.5
  9
$OSMODE
 70
    37
  9
$ATTMODE
 70
     1
  9
$TEXTSIZE
 40
3.0
  9
$TRACEWID
 40
1.0
  9
$TEXTSTYLE
  7
STANDARD
  9
$CLAYER
  8
回08-記事
  9
$CELTYPE
  6
CONTINUOUS
  9
$CECOLOR
 62
     7
  9
$DIMSCALE
 40
1.0
  9
$DIMASZ
 40
2.0
  9
$DIMEXO
 40
0.0
  9
$DIMDLI
 40
0.0
  9
$DIMRND
 40
0.0
  9
$DIMDLE
 40
0.0
  9
$DIMEXE
 40
1.0
  9
$DIMTP
 40
0.0
  9
$DIMTM
 40
0.0
  9
$DIMTXT
 40
5.0
  9
$DIMCEN
 40
2.0
  9
$DIMTSZ
 40
0.0
  9
$DIMTOL
 70
     0
  9
$DIMLIM
 70
     0
  9
$DIMTIH
 70
     0
  9
$DIMTOH
 70
     0
  9
$DIMSE1
 70
     0
  9
$DIMSE2
 70
     0
  9
$DIMTAD
 70
     3
  9
$DIMZIN
 70
     8
  9
$DIMBLK
  1
OPEN
  9
$DIMASO
 70
     1
  9
$DIMSHO
 70
     1
  9
$DIMPOST
  1

  9
$DIMAPOST
  1

  9
$DIMALT
 70
     1
  9
$DIMALTD
 70
     3
  9
$DIMALTF
 40
0.03937007874016
  9
$DIMLFAC
 40
1.0
  9
$DIMTOFL
 70
     1
  9
$DIMTVP
 40
0.0
  9
$DIMTIX
 70
     0
  9
$DIMSOXD
 70
     0
  9
$DIMSAH
 70
     0
  9
$DIMBLK1
  1

  9
$DIMBLK2
  1

  9
$DIMSTYLE
  2
DMC
  9
$DIMCLRD
 70
     5
  9
$DIMCLRE
 70
     5
  9
$DIMCLRT
 70
     5
  9
$DIMTFAC
 40
0.7
  9
$DIMGAP
 40
0.5
  9
$LUNITS
 70
     2
  9
$LUPREC
 70
     4
  9
$SKETCHINC
 40
1.0
  9
$FILLETRAD
 40
0.0
  9
$AUNITS
 70
     0
  9
$AUPREC
 70
     0
  9
$MENU
  1
.
  9
$ELEVATION
 40
0.0
  9
$PELEVATION
 40
0.0
  9
$THICKNESS
 40
0.0
  9
$LIMCHECK
 70
     0
  9
$BLIPMODE
 70
     0
  9
$CHAMFERA
 40
1.0
  9
$CHAMFERB
 40
1.0
  9
$SKPOLY
 70
     0
  9
$TDCREATE
 40
2451810.404221065
  9
$TDUPDATE
 40
2460224.589334398
  9
$TDINDWG
 40
3.821035174
  9
$TDUSRTIMER
 40
3.821033634
  9
$USRTIMER
 70
     1
  9
$ANGBASE
 50
0.0
  9
$ANGDIR
 70
     0
  9
$PDMODE
 70
     0
  9
$PDSIZE
 40
0.0
  9
$PLINEWID
 40
0.2
  9
$COORDS
 70
     0
  9
$SPLFRAME
 70
     0
  9
$SPLINETYPE
 70
     6
  9
$SPLINESEGS
 70
     8
  9
$ATTDIA
 70
     1
  9
$ATTREQ
 70
     1
  9
$HANDLING
 70
     1
  9
$HANDSEED
  5
3D7ED
  9
$SURFTAB1
 70
     6
  9
$SURFTAB2
 70
     6
  9
$SURFTYPE
 70
     6
  9
$SURFU
 70
     6
  9
$SURFV
 70
     6
  9
$UCSNAME
  2

  9
$UCSORG
 10
0.0
 20
0.0
 30
0.0
  9
$UCSXDIR
 10
1.0
 20
0.0
 30
0.0
  9
$UCSYDIR
 10
0.0
 20
1.0
 30
0.0
  9
$PUCSNAME
  2

  9
$PUCSORG
 10
0.0
 20
0.0
 30
0.0
  9
$PUCSXDIR
 10
1.0
 20
0.0
 30
0.0
  9
$PUCSYDIR
 10
0.0
 20
1.0
 30
0.0
  9
$USERI1
 70
     0
  9
$USERI2
 70
     0
  9
$USERI3
 70
     0
  9
$USERI4
 70
     0
  9
$USERI5
 70
     0
  9
$USERR1
 40
0.0
  9
$USERR2
 40
0.0
  9
$USERR3
 40
0.0
  9
$USERR4
 40
0.0
  9
$USERR5
 40
0.0
  9
$WORLDVIEW
 70
     1
  9
$SHADEDGE
 70
     3
  9
$SHADEDIF
 70
    70
  9
$TILEMODE
 70
     1
  9
$MAXACTVP
 70
    64
  9
$PLIMCHECK
 70
     0
  9
$PEXTMIN
 10
1.000000000000000E+20
 20
1.000000000000000E+20
 30
1.000000000000000E+20
  9
$PEXTMAX
 10
-1.000000000000000E+20
 20
-1.000000000000000E+20
 30
-1.000000000000000E+20
  9
$PLIMMIN
 10
0.0
 20
0.0
  9
$PLIMMAX
 10
420.0
 20
297.0
  9
$UNITMODE
 70
     0
  9
$VISRETAIN
 70
     1
  9
$PLINEGEN
 70
     0
  9
$PSLTSCALE
 70
     1
  0
ENDSEC
  0
SECTION
  2
TABLES
  0
TABLE
  2
VPORT
 70
     1
  0
VPORT
  2
*ACTIVE
 70
     0
 10
0.0
 20
0.0
 11
1.0
 21
1.0
 12
1583.060784686861
 22
-1144.727491110922
 13
0.0
 23
0.0
 14
10.0
 24
10.0
 15
10.0
 25
10.0
 16
0.0
 26
0.0
 36
1.0
 17
0.0
 27
0.0
 37
0.0
 40
788.0251976765454
 41
2.216284987277353
 42
50.0
 43
0.0
 44
0.0
 50
0.0
 51
0.0
 71
     0
 72
   500
 73
     1
 74
     1
 75
     0
 76
     0
 77
     0
 78
     0
  0
ENDTAB
  0
TABLE
  2
LTYPE
 70
     3
  0
LTYPE
  2
CONTINUOUS
 70
     0
  3
Solid line
 72
    65
 73
     0
 40
0.0
  0
LTYPE
  2
DASHED2
 70
     0
  3
Dashed (.5x) _ _ _ _ _ _ _ _ _ _ _ _ _ _ _ _ _
 72
    65
 73
     2
 40
9.524999999999996
 49
6.349999999999998
 49
-3.174999999999998
  0
LTYPE
  2
CENTER2
 70
     0
  3
Center (.5x) ___ _ ___ _ ___ _ ___ _ ___ _ ___
 72
    65
 73
     4
 40
28.575
 49
19.05
 49
-3.174999999999998
 49
3.174999999999998
 49
-3.174999999999998
  0
ENDTAB
  0
TABLE
  2
LAYER
 70
    14
  0
LAYER
  2
0
 70
     0
 62
     7
  6
CONTINUOUS
  0
LAYER
  2
DEFPOINTS
 70
     0
 62
     7
  6
CONTINUOUS
  0
LAYER
  2
回04-下接
 70
     0
 62
     7
  6
CONTINUOUS
  0
LAYER
  2
回08-記事
 70
     0
 62
     7
  6
CONTINUOUS
  0
LAYER
  2
ACC
 70
     0
 62
     7
  6
CONTINUOUS
  0
LAYER
  2
回05-ﾃｰﾙ
 70
     0
 62
     7
  6
CONTINUOUS
  0
LAYER
  2
回07-寸法
 70
     0
 62
     7
  6
CONTINUOUS
  0
LAYER
  2
版01-FER
 70
     0
 62
     7
  6
CONTINUOUS
  0
LAYER
  2
回90-A2
 70
     0
 62
     7
  6
CONTINUOUS
  0
LAYER
  2
DIM_NUKI
 70
     0
 62
     7
  6
CONTINUOUS
  0
LAYER
  2
回90-A1和
 70
     0
 62
     7
  6
CONTINUOUS
  0
LAYER
  2
回91-枠英1
 70
     0
 62
     7
  6
CONTINUOUS
  0
LAYER
  2
H05_GAG
 70
     0
 62
     7
  6
CONTINUOUS
  0
LAYER
  2
回03-記事
 70
     0
 62
     7
  6
CONTINUOUS
  0
ENDTAB
  0
TABLE
  2
STYLE
 70
     2
  0
STYLE
  2
STANDARD
 70
     0
 40
5.0
 41
1.0
 50
0.0
 71
     0
 42
3.0
  3
isocp.shx
  4
bigfont.shx
  0
STYLE
  2
ANNOTATIVE
 70
     0
 40
0.0
 41
1.0
 50
0.0
 71
     0
 42
0.2
  3
txt.shx
  4

  0
ENDTAB
  0
TABLE
  2
VIEW
 70
     0
  0
ENDTAB
  0
TABLE
  2
UCS
 70
     0
  0
ENDTAB
  0
TABLE
  2
APPID
 70
    21
  0
APPID
  2
ACAD
 70
     0
  0
APPID
  2
ACADANNOTATIVE
 70
     0
  0
APPID
  2
ACAD_EXEMPT_FROM_CAD_STAND
 70
     0
  0
APPID
  2
ACAECLAYERSTANDARD
 70
     0
  0
APPID
  2
ACADSTRINGINFO
 70
     0
  0
APPID
  2
ACAD_PSEXT
 70
     0
  0
APPID
  2
ACAD_DSTYLE_DIMTEXT_FILL
 70
     0
  0
APPID
  2
ACAD_DSTYLE_DIMEXT_LENGTH
 70
     0
  0
APPID
  2
ACAD_DSTYLE_DIMEXT_ENABLED
 70
     0
  0
APPID
  2
ACAD_DSTYLE_DIM_LINETYPE
 70
     0
  0
APPID
  2
ACAD_DSTYLE_DIM_EXT1_LINET
 70
     0
  0
APPID
  2
ACAD_DSTYLE_DIM_EXT2_LINET
 70
     0
  0
APPID
  2
ACAD_DSTYLE_DIMJOGGED_JOGA
 70
     0
  0
APPID
  2
ACAD_DSTYLE_DIMARC_LENGTH_
 70
     0
  0
APPID
  2
ACAD_MLEADERVER
 70
     0
  0
APPID
  2
DRAWINGVARIABLESXDATA
 70
     0
  0
APPID
  2
ACAD_DSTYLE_DIMRADIAL_EXTE
 70
     0
  0
APPID
  2
ACAD_DSTYLE_DIMJAG
 70
     0
  0
APPID
  2
ACAD_DSTYLE_DIMTALN
 70
     0
  0
APPID
  2
ACAD_NAV_VCDISPLAY
 70
     0
  0
APPID
  2
ACADANNOMONITORALERTICONDI
 70
     0
  0
ENDTAB
  0
TABLE
  2
DIMSTYLE
 70
     2
  0
DIMSTYLE
  2
DMC
 70
     0
  3

  4

  5
OPEN
  6

  7

 40
1.0
 41
2.0
 42
0.0
 43
0.0
 44
1.0
 45
0.0
 46
0.0
 47
0.0
 48
0.0
140
3.0
141
2.0
142
0.0
143
0.03937007874016
144
1.0
145
0.0
146
0.7
147
0.5
 71
     0
 72
     0
 73
     0
 74
     0
 75
     0
 76
     0
 77
     3
 78
     8
170
     0
171
     3
172
     1
173
     0
174
     0
175
     0
176
     5
177
     5
178
     5
  0
DIMSTYLE
  2
STANDARD
 70
     0
  3

  4

  5

  6

  7

 40
1.0
 41
0.18
 42
0.0625
 43
0.38
 44
0.18
 45
0.0
 46
0.0
 47
0.0
 48
0.0
140
0.18
141
0.09
142
0.0
143
25.4
144
1.0
145
0.0
146
1.0
147
0.09
 71
     0
 72
     0
 73
     1
 74
     1
 75
     0
 76
     0
 77
     0
 78
     0
170
     0
171
     2
172
     0
173
     0
174
     0
175
     0
176
     0
177
     0
178
     0
  0
ENDTAB
  0
ENDSEC
  0
SECTION
  2
BLOCKS
  0
BLOCK
  8
0
  2
$MODEL_SPACE
 70
     0
 10
0.0
 20
0.0
 30
0.0
  3
$MODEL_SPACE
  1

  0
ENDBLK
  8
0
  5
21
  0
BLOCK
 67
     1
  8
0
  2
$PAPER_SPACE
 70
     0
 10
0.0
 20
0.0
 30
0.0
  3
$PAPER_SPACE
  1

  0
ENDBLK
  5
1D
 67
     1
  8
0
  0
BLOCK
  8
0
  2
_OPEN
 70
     0
 10
0.0
 20
0.0
 30
0.0
  3
_OPEN
  1

  0
LINE
  5
3D58F
  8
0
  6
BYBLOCK
 62
     0
 10
-1.0
 20
0.166667
 30
0.0
 11
0.0
 21
0.0
 31
0.0
  0
LINE
  5
3D590
  8
0
  6
BYBLOCK
 62
     0
 10
-1.0
 20
-0.166667
 30
0.0
 11
0.0
 21
0.0
 31
0.0
  0
LINE
  5
3D591
  8
0
  6
BYBLOCK
 62
     0
 10
0.0
 20
0.0
 30
0.0
 11
-1.0
 21
0.0
 31
0.0
  0
LINE
  5
4A
  8
0
  6
CONTINUOUS
 62
     0
 10
-1.0
 20
0.1666666666666666
 30
0.0
 11
0.0
 21
0.0
 31
0.0
  0
LINE
  5
4B
  8
0
  6
CONTINUOUS
 62
     0
 10
-1.0
 20
-0.1666666666666666
 30
0.0
 11
0.0
 21
0.0
 31
0.0
  0
LINE
  5
4C
  8
0
  6
CONTINUOUS
 62
     0
 10
0.0
 20
0.0
 30
0.0
 11
-1.0
 21
0.0
 31
0.0
  0
ENDBLK
  5
4E
  8
0
  0
BLOCK
  8
0
  2
*D21
 70
     1
 10
0.0
 20
0.0
 30
0.0
  3
*D21
  1

  0
LINE
  5
3B3C3
  8
回08-記事
  6
CONTINUOUS
 62
     5
 10
742.6480241788847
 20
-1282.180074794192
 30
0.0
 11
742.6480241788847
 21
-1258.996348508903
 31
0.0
  0
LINE
  5
3B3C4
  8
回08-記事
  6
CONTINUOUS
 62
     5
 10
742.1480241788847
 20
-1276.180074794192
 30
0.0
 11
742.1480241788847
 21
-1258.996348508903
 31
0.0
  0
LINE
  5
3B3C5
  8
回08-記事
  6
CONTINUOUS
 62
     5
 10
744.6480241788847
 20
-1259.996348508903
 30
0.0
 11
746.6480241788847
 21
-1259.996348508903
 31
0.0
  0
LINE
  5
3B3C6
  8
回08-記事
  6
CONTINUOUS
 62
     5
 10
740.1480241788847
 20
-1259.996348508903
 30
0.0
 11
703.6519611867587
 21
-1259.996348508903
 31
0.0
  0
LINE
  5
3B3C7
  8
回08-記事
  6
CONTINUOUS
 62
     5
 10
742.6480241788847
 20
-1259.996348508903
 30
0.0
 11
742.1480241788847
 21
-1259.996348508903
 31
0.0
  0
INSERT
  5
3B3C8
  8
回08-記事
  6
CONTINUOUS
 62
     5
  2
_OPEN
 10
742.6480241788847
 20
-1259.996348508903
 30
0.0
 41
2.0
 42
2.0
 43
2.0
 50
180.0
  0
INSERT
  5
3B3C9
  8
回08-記事
  6
CONTINUOUS
 62
     5
  2
_OPEN
 10
742.1480241788847
 20
-1259.996348508903
 30
0.0
 41
2.0
 42
2.0
 43
2.0
  0
TEXT
  5
3B3CA
  8
回08-記事
  6
CONTINUOUS
 62
     5
 10
703.3999926828214
 20
-1259.246348508903
 30
0.0
 40
5.0
  1
(0.5 [0.020])
1001
ACAD
1000
MTEXTBEGIN
1070
    73
1070
     1
1070
    44
1040
1.0
1070
    74
1070
     0
1000
MTEXTEND
  0
POINT
  5
3B3CB
  8
DEFPOINTS
  6
CONTINUOUS
 62
     0
 10
742.6480241788847
 20
-1282.180074794192
 30
0.0
  0
POINT
  5
3B3CC
  8
DEFPOINTS
  6
CONTINUOUS
 62
     0
 10
742.1480241788847
 20
-1276.180074794192
 30
0.0
  0
POINT
  5
3B3CD
  8
DEFPOINTS
  6
CONTINUOUS
 62
     0
 10
742.1480241788847
 20
-1259.996348508903
 30
0.0
  0
ENDBLK
  5
38A5A
  8
0
 62
     7
  0
BLOCK
  8
0
  2
*D32
 70
     1
 10
0.0
 20
0.0
 30
0.0
  3
*D32
  1

  0
LINE
  5
3B831
  8
回08-記事
  6
CONTINUOUS
 62
     5
 10
480.6480241788848
 20
-1276.180074794192
 30
0.0
 11
480.6480241788848
 21
-1263.105889292883
 31
0.0
  0
LINE
  5
3B832
  8
回08-記事
  6
CONTINUOUS
 62
     5
 10
481.1480241788848
 20
-1271.680074794192
 30
0.0
 11
481.1480241788848
 21
-1263.105889292883
 31
0.0
  0
LINE
  5
3B833
  8
回08-記事
  6
CONTINUOUS
 62
     5
 10
478.6480241788846
 20
-1264.105889292883
 30
0.0
 11
476.6480241788848
 21
-1264.105889292883
 31
0.0
  0
LINE
  5
3B834
  8
回08-記事
  6
CONTINUOUS
 62
     5
 10
483.1480241788846
 20
-1264.105889292883
 30
0.0
 11
520.1440871710108
 21
-1264.105889292883
 31
0.0
  0
LINE
  5
3B835
  8
回08-記事
  6
CONTINUOUS
 62
     5
 10
480.6480241788848
 20
-1264.105889292883
 30
0.0
 11
481.1480241788848
 21
-1264.105889292883
 31
0.0
  0
INSERT
  5
3B836
  8
回08-記事
  6
CONTINUOUS
 62
     5
  2
_OPEN
 10
480.6480241788848
 20
-1264.105889292883
 30
0.0
 41
2.0
 42
2.0
 43
2.0
  0
INSERT
  5
3B837
  8
回08-記事
  6
CONTINUOUS
 62
     5
  2
_OPEN
 10
481.1480241788848
 20
-1264.105889292883
 30
0.0
 41
2.0
 42
2.0
 43
2.0
 50
180.0
  0
TEXT
  5
3B838
  8
回08-記事
  6
CONTINUOUS
 62
     5
 10
485.3960556749476
 20
-1263.355889292883
 30
0.0
 40
5.0
  1
(0.5 [0.020])
1001
ACAD
1000
MTEXTBEGIN
1070
    73
1070
     1
1070
    44
1040
1.0
1070
    74
1070
     0
1000
MTEXTEND
  0
POINT
  5
3B839
  8
DEFPOINTS
  6
CONTINUOUS
 62
     0
 10
480.6480241788848
 20
-1276.180074794192
 30
0.0
  0
POINT
  5
3B83A
  8
DEFPOINTS
  6
CONTINUOUS
 62
     0
 10
481.1480241788848
 20
-1271.680074794192
 30
0.0
  0
POINT
  5
3B83B
  8
DEFPOINTS
  6
CONTINUOUS
 62
     0
 10
481.1480241788848
 20
-1264.105889292883
 30
0.0
  0
ENDBLK
  5
38A68
  8
0
 62
     7
  0
BLOCK
  8
0
  2
*D43
 70
     1
 10
0.0
 20
0.0
 30
0.0
  3
*D43
  1

  0
LINE
  5
3B28B
  8
回07-寸法
 62
     5
 10
490.1480241788847
 20
-1024.97817747591
 30
0.0
 11
490.1480241788847
 21
-998.7467123580499
 31
0.0
  0
LINE
  5
3B28C
  8
回07-寸法
 62
     5
 10
737.1480241788847
 20
-1024.97817747591
 30
0.0
 11
737.1480241788847
 21
-998.7467123580499
 31
0.0
  0
LINE
  5
3B28D
  8
回07-寸法
 62
     5
 10
492.1480241788846
 20
-999.7467123580499
 30
0.0
 11
735.1480241788847
 21
-999.7467123580499
 31
0.0
  0
INSERT
  5
3B28E
  8
回07-寸法
 62
     5
  2
_OPEN
 10
490.1480241788847
 20
-999.7467123580499
 30
0.0
 41
2.0
 42
2.0
 43
2.0
 50
180.0
  0
INSERT
  5
3B28F
  8
回07-寸法
 62
     5
  2
_OPEN
 10
737.1480241788847
 20
-999.7467123580499
 30
0.0
 41
2.0
 42
2.0
 43
2.0
  0
TEXT
  5
3B290
  8
回07-寸法
 62
     5
 10
575.958986196193
 20
-998.9955039605007
 30
0.0
 40
5.0
  1
247 [9.724] (ACTIVE AREA)
1001
ACAD
1000
MTEXTBEGIN
1070
    73
1070
     1
1070
    44
1040
1.0
1070
    74
1070
     0
1000
MTEXTEND
  0
POINT
  5
3B291
  8
DEFPOINTS
 62
     0
 10
490.1480241788847
 20
-1024.97817747591
 30
0.0
  0
POINT
  5
3B292
  8
DEFPOINTS
 62
     0
 10
737.1480241788847
 20
-1024.97817747591
 30
0.0
  0
POINT
  5
3B293
  8
DEFPOINTS
 62
     0
 10
737.1480241788847
 20
-999.7467123580499
 30
0.0
  0
ENDBLK
  5
38A80
  8
0
 62
     7
  0
BLOCK
  8
0
  2
*D54
 70
     1
 10
0.0
 20
0.0
 30
0.0
  3
*D54
  1

  0
LINE
  5
3B282
  8
回07-寸法
 62
     5
 10
488.6480241788846
 20
-1023.47817747591
 30
0.0
 11
488.6480241788846
 21
-983.9217772271476
 31
0.0
  0
LINE
  5
3B283
  8
回07-寸法
 62
     5
 10
738.6480241788838
 20
-1023.47817747591
 30
0.0
 11
738.6480241788838
 21
-983.9217772271476
 31
0.0
  0
LINE
  5
3B284
  8
回07-寸法
 62
     5
 10
490.6480241788846
 20
-984.9217772271476
 30
0.0
 11
736.6480241788837
 21
-984.9217772271476
 31
0.0
  0
INSERT
  5
3B285
  8
回07-寸法
 62
     5
  2
_OPEN
 10
488.6480241788846
 20
-984.9217772271476
 30
0.0
 41
2.0
 42
2.0
 43
2.0
 50
180.0
  0
INSERT
  5
3B286
  8
回07-寸法
 62
     5
  2
_OPEN
 10
738.6480241788838
 20
-984.9217772271476
 30
0.0
 41
2.0
 42
2.0
 43
2.0
  0
TEXT
  5
3B287
  8
回07-寸法
 62
     5
 10
575.1296457738452
 20
-984.1705688295984
 30
0.0
 40
5.0
  1
250 [9.843] (VIEWING AREA)
1001
ACAD
1000
MTEXTBEGIN
1070
    73
1070
     1
1070
    44
1040
1.0
1070
    74
1070
     0
1000
MTEXTEND
  0
POINT
  5
3B288
  8
DEFPOINTS
 62
     0
 10
488.6480241788846
 20
-1023.47817747591
 30
0.0
  0
POINT
  5
3B289
  8
DEFPOINTS
 62
     0
 10
738.6480241788838
 20
-1023.47817747591
 30
0.0
  0
POINT
  5
3B28A
  8
DEFPOINTS
 62
     0
 10
738.6480241788838
 20
-984.9217772271476
 30
0.0
  0
ENDBLK
  5
38A8C
  8
0
 62
     7
  0
BLOCK
  8
0
  2
*D65
 70
     1
 10
0.0
 20
0.0
 30
0.0
  3
*D65
  1

  0
LINE
  5
3C41D
  8
回07-寸法
 62
     5
 10
480.6480241788839
 20
-1017.22817747591
 30
0.0
 11
480.6480241788839
 21
-957.9974143939196
 31
0.0
  0
LINE
  5
3C41E
  8
回07-寸法
 62
     5
 10
743.6480241788838
 20
-1017.22817747591
 30
0.0
 11
743.6480241788838
 21
-957.9974143939196
 31
0.0
  0
LINE
  5
3C41F
  8
回07-寸法
 62
     5
 10
482.6480241788837
 20
-958.9974143939198
 30
0.0
 11
741.6480241788838
 21
-958.9974143939198
 31
0.0
  0
INSERT
  5
3C420
  8
回07-寸法
 62
     5
  2
_OPEN
 10
480.6480241788839
 20
-958.9974143939198
 30
0.0
 41
2.0
 42
2.0
 43
2.0
 50
180.0
  0
INSERT
  5
3C421
  8
回07-寸法
 62
     5
  2
_OPEN
 10
743.6480241788838
 20
-958.9974143939198
 30
0.0
 41
2.0
 42
2.0
 43
2.0
  0
INSERT
  5
3C422
  8
回07-寸法
 62
     5
 66
     1
  2
*X9391
 10
0.0
 20
0.0
 30
0.0
  0
SEQEND
  5
3D46E
  8
回08-記事
  6
CONTINUOUS
 62
     7
  0
POINT
  5
3C423
  8
DEFPOINTS
 62
     0
 10
480.6480241788839
 20
-1017.22817747591
 30
0.0
  0
POINT
  5
3C424
  8
DEFPOINTS
 62
     0
 10
743.6480241788838
 20
-1017.22817747591
 30
0.0
  0
POINT
  5
3C425
  8
DEFPOINTS
 62
     0
 10
743.6480241788838
 20
-958.9974143939198
 30
0.0
  0
ENDBLK
  5
38A98
  8
0
 62
     7
  0
BLOCK
  8
0
  2
*D76
 70
     1
 10
0.0
 20
0.0
 30
0.0
  3
*D76
  1

  0
LINE
  5
3B26E
  8
回07-寸法
  6
CONTINUOUS
 62
     5
 10
490.1480241788847
 20
-1024.97817747591
 30
0.0
 11
490.1480241788847
 21
-998.7467123580499
 31
0.0
  0
LINE
  5
3B26F
  8
回07-寸法
  6
CONTINUOUS
 62
     5
 10
480.6480241788848
 20
-1017.22817747591
 30
0.0
 11
480.6480241788848
 21
-998.7467123580499
 31
0.0
  0
LINE
  5
3B270
  8
回07-寸法
  6
CONTINUOUS
 62
     5
 10
492.1480241788846
 20
-999.7467123580499
 30
0.0
 11
494.1480241788847
 21
-999.7467123580499
 31
0.0
  0
LINE
  5
3B271
  8
回07-寸法
  6
CONTINUOUS
 62
     5
 10
478.6480241788846
 20
-999.7467123580499
 30
0.0
 11
445.4409173976982
 21
-999.7467123580499
 31
0.0
  0
LINE
  5
3B272
  8
回07-寸法
  6
CONTINUOUS
 62
     5
 10
490.1480241788847
 20
-999.7467123580499
 30
0.0
 11
480.6480241788848
 21
-999.7467123580499
 31
0.0
  0
INSERT
  5
3B273
  8
回07-寸法
  6
CONTINUOUS
 62
     5
  2
_OPEN
 10
490.1480241788847
 20
-999.7467123580499
 30
0.0
 41
2.0
 42
2.0
 43
2.0
 50
180.0
  0
INSERT
  5
3B274
  8
回07-寸法
  6
CONTINUOUS
 62
     5
  2
_OPEN
 10
480.6480241788848
 20
-999.7467123580499
 30
0.0
 41
2.0
 42
2.0
 43
2.0
  0
TEXT
  5
3B275
  8
回07-寸法
  6
CONTINUOUS
 62
     5
 10
445.2764189456566
 20
-998.9967123580498
 30
0.0
 40
5.0
  1
9.5 [0.374]
1001
ACAD
1000
MTEXTBEGIN
1070
    73
1070
     1
1070
    44
1040
1.0
1070
    74
1070
     0
1000
MTEXTEND
  0
POINT
  5
3B276
  8
DEFPOINTS
  6
CONTINUOUS
 62
     0
 10
490.1480241788847
 20
-1024.97817747591
 30
0.0
  0
POINT
  5
3B277
  8
DEFPOINTS
  6
CONTINUOUS
 62
     0
 10
480.6480241788848
 20
-1017.22817747591
 30
0.0
  0
POINT
  5
3B278
  8
DEFPOINTS
  6
CONTINUOUS
 62
     0
 10
480.6480241788848
 20
-999.7467123580499
 30
0.0
  0
ENDBLK
  5
38AA6
  8
0
 62
     7
  0
BLOCK
  8
0
  2
*D87
 70
     1
 10
0.0
 20
0.0
 30
0.0
  3
*D87
  1

  0
LINE
  5
3B263
  8
回07-寸法
  6
CONTINUOUS
 62
     5
 10
488.6480241788846
 20
-1023.47817747591
 30
0.0
 11
488.6480241788846
 21
-983.9217772271476
 31
0.0
  0
LINE
  5
3B264
  8
回07-寸法
  6
CONTINUOUS
 62
     5
 10
480.6480241788839
 20
-1017.22817747591
 30
0.0
 11
480.6480241788839
 21
-983.9217772271476
 31
0.0
  0
LINE
  5
3B265
  8
回07-寸法
  6
CONTINUOUS
 62
     5
 10
490.6480241788846
 20
-984.9217772271476
 30
0.0
 11
492.6480241788846
 21
-984.9217772271476
 31
0.0
  0
LINE
  5
3B266
  8
回07-寸法
  6
CONTINUOUS
 62
     5
 10
478.6480241788837
 20
-984.9217772271476
 30
0.0
 11
452.1480241788839
 21
-984.9217772271476
 31
0.0
  0
LINE
  5
3B267
  8
回07-寸法
  6
CONTINUOUS
 62
     5
 10
488.6480241788846
 20
-984.9217772271476
 30
0.0
 11
480.6480241788839
 21
-984.9217772271476
 31
0.0
  0
INSERT
  5
3B268
  8
回07-寸法
  6
CONTINUOUS
 62
     5
  2
_OPEN
 10
488.6480241788846
 20
-984.9217772271476
 30
0.0
 41
2.0
 42
2.0
 43
2.0
 50
180.0
  0
INSERT
  5
3B269
  8
回07-寸法
  6
CONTINUOUS
 62
     5
  2
_OPEN
 10
480.6480241788839
 20
-984.9217772271476
 30
0.0
 41
2.0
 42
2.0
 43
2.0
  0
TEXT
  5
3B26A
  8
回07-寸法
  6
CONTINUOUS
 62
     5
 10
451.8980241788837
 20
-984.1717772271477
 30
0.0
 40
5.0
  1
8 [0.315]
1001
ACAD
1000
MTEXTBEGIN
1070
    73
1070
     1
1070
    44
1040
1.0
1070
    74
1070
     0
1000
MTEXTEND
  0
POINT
  5
3B26B
  8
DEFPOINTS
  6
CONTINUOUS
 62
     0
 10
488.6480241788846
 20
-1023.47817747591
 30
0.0
  0
POINT
  5
3B26C
  8
DEFPOINTS
  6
CONTINUOUS
 62
     0
 10
480.6480241788839
 20
-1017.22817747591
 30
0.0
  0
POINT
  5
3B26D
  8
DEFPOINTS
  6
CONTINUOUS
 62
     0
 10
480.6480241788839
 20
-984.9217772271476
 30
0.0
  0
ENDBLK
  5
38AB4
  8
0
 62
     7
  0
BLOCK
  8
0
  2
*D98
 70
     1
 10
0.0
 20
0.0
 30
0.0
  3
*D98
  1

  0
LINE
  5
3B2C9
  8
回07-寸法
  6
CONTINUOUS
 62
     5
 10
488.1480241788846
 20
-1022.67817747591
 30
0.0
 11
488.1480241788846
 21
-970.9042869722873
 31
0.0
  0
LINE
  5
3B2CA
  8
回07-寸法
  6
CONTINUOUS
 62
     5
 10
480.6480241788848
 20
-1017.22817747591
 30
0.0
 11
480.6480241788848
 21
-970.9042869722873
 31
0.0
  0
LINE
  5
3B2CB
  8
回07-寸法
  6
CONTINUOUS
 62
     5
 10
490.1480241788847
 20
-971.9042869722873
 30
0.0
 11
492.1480241788846
 21
-971.9042869722873
 31
0.0
  0
LINE
  5
3B2CC
  8
回07-寸法
  6
CONTINUOUS
 62
     5
 10
478.6480241788846
 20
-971.9042869722873
 30
0.0
 11
410.7317336287755
 21
-971.9042869722873
 31
0.0
  0
LINE
  5
3B2CD
  8
回07-寸法
  6
CONTINUOUS
 62
     5
 10
488.1480241788846
 20
-971.9042869722873
 30
0.0
 11
480.6480241788848
 21
-971.9042869722873
 31
0.0
  0
INSERT
  5
3B2CE
  8
回07-寸法
  6
CONTINUOUS
 62
     5
  2
_OPEN
 10
488.1480241788846
 20
-971.9042869722873
 30
0.0
 41
2.0
 42
2.0
 43
2.0
 50
180.0
  0
INSERT
  5
3B2CF
  8
回07-寸法
  6
CONTINUOUS
 62
     5
  2
_OPEN
 10
480.6480241788848
 20
-971.9042869722873
 30
0.0
 41
2.0
 42
2.0
 43
2.0
  0
INSERT
  5
3B2D0
  8
回07-寸法
  6
CONTINUOUS
 62
     5
 66
     1
  2
*X9492
 10
0.0
 20
0.0
 30
0.0
  0
SEQEND
  5
3D474
  8
回08-記事
  6
CONTINUOUS
 62
     7
  0
POINT
  5
3B2D1
  8
DEFPOINTS
  6
CONTINUOUS
 62
     0
 10
488.1480241788846
 20
-1022.67817747591
 30
0.0
  0
POINT
  5
3B2D2
  8
DEFPOINTS
  6
CONTINUOUS
 62
     0
 10
480.6480241788848
 20
-1017.22817747591
 30
0.0
  0
POINT
  5
3B2D3
  8
DEFPOINTS
  6
CONTINUOUS
 62
     0
 10
480.6480241788848
 20
-971.9042869722873
 30
0.0
  0
ENDBLK
  5
38AC2
  8
0
 62
     7
  0
BLOCK
  8
0
  2
*D109
 70
     1
 10
0.0
 20
0.0
 30
0.0
  3
*D109
  1

  0
LINE
  5
3B24F
  8
回07-寸法
  6
CONTINUOUS
 62
     5
 10
488.1480241788846
 20
-1022.67817747591
 30
0.0
 11
488.1480241788846
 21
-970.9042869722873
 31
0.0
  0
LINE
  5
3B250
  8
回07-寸法
  6
CONTINUOUS
 62
     5
 10
739.1480241788838
 20
-1022.67817747591
 30
0.0
 11
739.1480241788838
 21
-970.9042869722873
 31
0.0
  0
LINE
  5
3B251
  8
回07-寸法
  6
CONTINUOUS
 62
     5
 10
490.1480241788847
 20
-971.9042869722873
 30
0.0
 11
737.1480241788837
 21
-971.9042869722873
 31
0.0
  0
INSERT
  5
3B252
  8
回07-寸法
  6
CONTINUOUS
 62
     5
  2
_OPEN
 10
488.1480241788846
 20
-971.9042869722873
 30
0.0
 41
2.0
 42
2.0
 43
2.0
 50
180.0
  0
INSERT
  5
3B253
  8
回07-寸法
  6
CONTINUOUS
 62
     5
  2
_OPEN
 10
739.1480241788838
 20
-971.9042869722873
 30
0.0
 41
2.0
 42
2.0
 43
2.0
  0
TEXT
  5
3B254
  8
回07-寸法
  6
CONTINUOUS
 62
     5
 10
597.6389982575669
 20
-971.1530785747378
 30
0.0
 40
5.0
  1
251 [9.882]
1001
ACAD
1000
MTEXTBEGIN
1070
    73
1070
     1
1070
    44
1040
1.0
1070
    74
1070
     0
1000
MTEXTEND
  0
POINT
  5
3B255
  8
DEFPOINTS
  6
CONTINUOUS
 62
     0
 10
488.1480241788846
 20
-1022.67817747591
 30
0.0
  0
POINT
  5
3B256
  8
DEFPOINTS
  6
CONTINUOUS
 62
     0
 10
739.1480241788838
 20
-1022.67817747591
 30
0.0
  0
POINT
  5
3B257
  8
DEFPOINTS
  6
CONTINUOUS
 62
     0
 10
739.1480241788838
 20
-971.9042869722873
 30
0.0
  0
ENDBLK
  5
38ACE
  8
0
 62
     7
  0
BLOCK
  8
0
  2
*D1110
 70
     1
 10
0.0
 20
0.0
 30
0.0
  3
*D1110
  1

  0
LINE
  5
3C5C2
  8
回07-寸法
  6
CONTINUOUS
 62
     5
 10
739.1480241788838
 20
-1022.67817747591
 30
0.0
 11
739.1480241788838
 21
-970.9042869722873
 31
0.0
  0
LINE
  5
3C5C3
  8
回07-寸法
  6
CONTINUOUS
 62
     5
 10
743.6480241788847
 20
-1017.22817747591
 30
0.0
 11
743.6480241788847
 21
-970.9042869722873
 31
0.0
  0
LINE
  5
3C5C4
  8
回07-寸法
  6
CONTINUOUS
 62
     5
 10
737.1480241788837
 20
-971.9042869722873
 30
0.0
 11
735.1480241788838
 21
-971.9042869722873
 31
0.0
  0
LINE
  5
3C5C5
  8
回07-寸法
  6
CONTINUOUS
 62
     5
 10
745.6480241788847
 20
-971.9042869722873
 30
0.0
 11
812.688805281247
 21
-971.9042869722873
 31
0.0
  0
LINE
  5
3C5C6
  8
回07-寸法
  6
CONTINUOUS
 62
     5
 10
739.1480241788838
 20
-971.9042869722873
 30
0.0
 11
743.6480241788847
 21
-971.9042869722873
 31
0.0
  0
INSERT
  5
3C5C7
  8
回07-寸法
  6
CONTINUOUS
 62
     5
  2
_OPEN
 10
739.1480241788838
 20
-971.9042869722873
 30
0.0
 41
2.0
 42
2.0
 43
2.0
  0
INSERT
  5
3C5C8
  8
回07-寸法
  6
CONTINUOUS
 62
     5
  2
_OPEN
 10
743.6480241788847
 20
-971.9042869722873
 30
0.0
 41
2.0
 42
2.0
 43
2.0
 50
180.0
  0
INSERT
  5
3C5C9
  8
回07-寸法
  6
CONTINUOUS
 62
     5
 66
     1
  2
*X9593
 10
0.0
 20
0.0
 30
0.0
  0
SEQEND
  5
3D47A
  8
回08-記事
  6
CONTINUOUS
 62
     7
  0
POINT
  5
3C5CA
  8
DEFPOINTS
  6
CONTINUOUS
 62
     0
 10
739.1480241788838
 20
-1022.67817747591
 30
0.0
  0
POINT
  5
3C5CB
  8
DEFPOINTS
  6
CONTINUOUS
 62
     0
 10
743.6480241788847
 20
-1017.22817747591
 30
0.0
  0
POINT
  5
3C5CC
  8
DEFPOINTS
  6
CONTINUOUS
 62
     0
 10
743.6480241788847
 20
-971.9042869722873
 30
0.0
  0
ENDBLK
  5
38ADC
  8
0
 62
     7
  0
BLOCK
  8
0
  2
*D1211
 70
     1
 10
0.0
 20
0.0
 30
0.0
  3
*D1211
  1

  0
LINE
  5
3B307
  8
回07-寸法
  6
CONTINUOUS
 62
     5
 10
739.1480241788838
 20
-1022.67817747591
 30
0.0
 11
826.2725649542554
 21
-1022.67817747591
 31
0.0
  0
LINE
  5
3B308
  8
回07-寸法
  6
CONTINUOUS
 62
     5
 10
743.6480241788838
 20
-1017.22817747591
 30
0.0
 11
826.2725649542554
 21
-1017.22817747591
 31
0.0
  0
LINE
  5
3B309
  8
回07-寸法
  6
CONTINUOUS
 62
     5
 10
825.2725649542552
 20
-1024.67817747591
 30
0.0
 11
825.2725649542552
 21
-1026.67817747591
 31
0.0
  0
LINE
  5
3B30A
  8
回07-寸法
  6
CONTINUOUS
 62
     5
 10
825.2725649542552
 20
-1015.22817747591
 30
0.0
 11
825.2725649542552
 21
-944.6873963735482
 31
0.0
  0
LINE
  5
3B30B
  8
回07-寸法
  6
CONTINUOUS
 62
     5
 10
825.2725649542552
 20
-1022.67817747591
 30
0.0
 11
825.2725649542552
 21
-1017.22817747591
 31
0.0
  0
INSERT
  5
3B30C
  8
回07-寸法
  6
CONTINUOUS
 62
     5
  2
_OPEN
 10
825.2725649542552
 20
-1022.67817747591
 30
0.0
 41
2.0
 42
2.0
 43
2.0
 50
90.0
  0
INSERT
  5
3B30D
  8
回07-寸法
  6
CONTINUOUS
 62
     5
  2
_OPEN
 10
825.2725649542552
 20
-1017.22817747591
 30
0.0
 41
2.0
 42
2.0
 43
2.0
 50
270.0
  0
INSERT
  5
3B30E
  8
回07-寸法
  6
CONTINUOUS
 62
     5
 66
     1
  2
*X9694
 10
0.0
 20
0.0
 30
0.0
  0
SEQEND
  5
3D480
  8
回08-記事
  6
CONTINUOUS
 62
     7
  0
POINT
  5
3B30F
  8
DEFPOINTS
  6
CONTINUOUS
 62
     0
 10
739.1480241788838
 20
-1022.67817747591
 30
0.0
  0
POINT
  5
3B310
  8
DEFPOINTS
  6
CONTINUOUS
 62
     0
 10
743.6480241788838
 20
-1017.22817747591
 30
0.0
  0
POINT
  5
3B311
  8
DEFPOINTS
  6
CONTINUOUS
 62
     0
 10
825.2725649542552
 20
-1017.22817747591
 30
0.0
  0
ENDBLK
  5
38AEA
  8
0
 62
     7
  0
BLOCK
  8
0
  2
*D1312
 70
     1
 10
0.0
 20
0.0
 30
0.0
  3
*D1312
  1

  0
LINE
  5
3B331
  8
回07-寸法
  6
CONTINUOUS
 62
     5
 10
737.1480241788847
 20
-1024.97817747591
 30
0.0
 11
737.1480241788847
 21
-998.7467123580499
 31
0.0
  0
LINE
  5
3B332
  8
回07-寸法
  6
CONTINUOUS
 62
     5
 10
743.6480241788847
 20
-1017.22817747591
 30
0.0
 11
743.6480241788847
 21
-998.7467123580499
 31
0.0
  0
LINE
  5
3B333
  8
回07-寸法
  6
CONTINUOUS
 62
     5
 10
735.1480241788847
 20
-999.7467123580499
 30
0.0
 11
733.1480241788847
 21
-999.7467123580499
 31
0.0
  0
LINE
  5
3B334
  8
回07-寸法
  6
CONTINUOUS
 62
     5
 10
745.6480241788847
 20
-999.7467123580499
 30
0.0
 11
782.1440871710107
 21
-999.7467123580499
 31
0.0
  0
LINE
  5
3B335
  8
回07-寸法
  6
CONTINUOUS
 62
     5
 10
737.1480241788847
 20
-999.7467123580499
 30
0.0
 11
743.6480241788847
 21
-999.7467123580499
 31
0.0
  0
INSERT
  5
3B336
  8
回07-寸法
  6
CONTINUOUS
 62
     5
  2
_OPEN
 10
737.1480241788847
 20
-999.7467123580499
 30
0.0
 41
2.0
 42
2.0
 43
2.0
  0
INSERT
  5
3B337
  8
回07-寸法
  6
CONTINUOUS
 62
     5
  2
_OPEN
 10
743.6480241788847
 20
-999.7467123580499
 30
0.0
 41
2.0
 42
2.0
 43
2.0
 50
180.0
  0
TEXT
  5
3B338
  8
回07-寸法
  6
CONTINUOUS
 62
     5
 10
747.3960556749476
 20
-998.9967123580498
 30
0.0
 40
5.0
  1
(6.5 [0.256])
1001
ACAD
1000
MTEXTBEGIN
1070
    73
1070
     1
1070
    44
1040
1.0
1070
    74
1070
     0
1000
MTEXTEND
  0
POINT
  5
3B339
  8
DEFPOINTS
  6
CONTINUOUS
 62
     0
 10
737.1480241788847
 20
-1024.97817747591
 30
0.0
  0
POINT
  5
3B33A
  8
DEFPOINTS
  6
CONTINUOUS
 62
     0
 10
743.6480241788847
 20
-1017.22817747591
 30
0.0
  0
POINT
  5
3B33B
  8
DEFPOINTS
  6
CONTINUOUS
 62
     0
 10
743.6480241788847
 20
-999.7467123580499
 30
0.0
  0
ENDBLK
  5
38AF8
  8
0
 62
     7
  0
BLOCK
  8
0
  2
*D1413
 70
     1
 10
0.0
 20
0.0
 30
0.0
  3
*D1413
  1

  0
LINE
  5
3B326
  8
回07-寸法
  6
CONTINUOUS
 62
     5
 10
738.6480241788838
 20
-1023.47817747591
 30
0.0
 11
738.6480241788838
 21
-983.9217772271476
 31
0.0
  0
LINE
  5
3B327
  8
回07-寸法
  6
CONTINUOUS
 62
     5
 10
743.6480241788847
 20
-1017.22817747591
 30
0.0
 11
743.6480241788847
 21
-983.9217772271476
 31
0.0
  0
LINE
  5
3B328
  8
回07-寸法
  6
CONTINUOUS
 62
     5
 10
736.6480241788837
 20
-984.9217772271476
 30
0.0
 11
734.6480241788838
 21
-984.9217772271476
 31
0.0
  0
LINE
  5
3B329
  8
回07-寸法
  6
CONTINUOUS
 62
     5
 10
745.6480241788847
 20
-984.9217772271476
 30
0.0
 11
776.161558823482
 21
-984.9217772271476
 31
0.0
  0
LINE
  5
3B32A
  8
回07-寸法
  6
CONTINUOUS
 62
     5
 10
738.6480241788838
 20
-984.9217772271476
 30
0.0
 11
743.6480241788847
 21
-984.9217772271476
 31
0.0
  0
INSERT
  5
3B32B
  8
回07-寸法
  6
CONTINUOUS
 62
     5
  2
_OPEN
 10
738.6480241788838
 20
-984.9217772271476
 30
0.0
 41
2.0
 42
2.0
 43
2.0
  0
INSERT
  5
3B32C
  8
回07-寸法
  6
CONTINUOUS
 62
     5
  2
_OPEN
 10
743.6480241788847
 20
-984.9217772271476
 30
0.0
 41
2.0
 42
2.0
 43
2.0
 50
180.0
  0
TEXT
  5
3B32D
  8
回07-寸法
  6
CONTINUOUS
 62
     5
 10
747.3957655798657
 20
-984.1718770706515
 30
0.0
 40
5.0
  1
(5 [0.197])
1001
ACAD
1000
MTEXTBEGIN
1070
    73
1070
     1
1070
    44
1040
1.0
1070
    74
1070
     0
1000
MTEXTEND
  0
POINT
  5
3B32E
  8
DEFPOINTS
  6
CONTINUOUS
 62
     0
 10
738.6480241788838
 20
-1023.47817747591
 30
0.0
  0
POINT
  5
3B32F
  8
DEFPOINTS
  6
CONTINUOUS
 62
     0
 10
743.6480241788847
 20
-1017.22817747591
 30
0.0
  0
POINT
  5
3B330
  8
DEFPOINTS
  6
CONTINUOUS
 62
     0
 10
743.6480241788847
 20
-984.9217772271476
 30
0.0
  0
ENDBLK
  5
38B04
  8
0
 62
     7
  0
BLOCK
  8
0
  2
*D1514
 70
     1
 10
0.0
 20
0.0
 30
0.0
  3
*D1514
  1

  0
LINE
  5
3B350
  8
回07-寸法
  6
CONTINUOUS
 62
     5
 10
737.1480241788847
 20
-1024.97817747591
 30
0.0
 11
792.5027456691351
 21
-1024.97817747591
 31
0.0
  0
LINE
  5
3B351
  8
回07-寸法
  6
CONTINUOUS
 62
     5
 10
743.6480241788847
 20
-1017.22817747591
 30
0.0
 11
792.5027456691351
 21
-1017.22817747591
 31
0.0
  0
LINE
  5
3B352
  8
回07-寸法
  6
CONTINUOUS
 62
     5
 10
791.5027456691351
 20
-1026.97817747591
 30
0.0
 11
791.5027456691351
 21
-1028.97817747591
 31
0.0
  0
LINE
  5
3B353
  8
回07-寸法
  6
CONTINUOUS
 62
     5
 10
791.5027456691351
 20
-1015.22817747591
 30
0.0
 11
791.5027456691351
 21
-975.2321144837843
 31
0.0
  0
LINE
  5
3B354
  8
回07-寸法
  6
CONTINUOUS
 62
     5
 10
791.5027456691351
 20
-1024.97817747591
 30
0.0
 11
791.5027456691351
 21
-1017.22817747591
 31
0.0
  0
INSERT
  5
3B355
  8
回07-寸法
  6
CONTINUOUS
 62
     5
  2
_OPEN
 10
791.5027456691351
 20
-1024.97817747591
 30
0.0
 41
2.0
 42
2.0
 43
2.0
 50
90.0
  0
INSERT
  5
3B356
  8
回07-寸法
  6
CONTINUOUS
 62
     5
  2
_OPEN
 10
791.5027456691351
 20
-1017.22817747591
 30
0.0
 41
2.0
 42
2.0
 43
2.0
 50
270.0
  0
TEXT
  5
3B357
  8
回07-寸法
  6
CONTINUOUS
 62
     5
 10
790.7527456691353
 20
-1013.480145979847
 30
0.0
 40
5.0
  1
(7.75 [0.305])
 50
90.0
1001
ACAD
1000
MTEXTBEGIN
1070
    73
1070
     1
1070
    44
1040
1.0
1070
    74
1070
     0
1000
MTEXTEND
  0
POINT
  5
3B358
  8
DEFPOINTS
  6
CONTINUOUS
 62
     0
 10
737.1480241788847
 20
-1024.97817747591
 30
0.0
  0
POINT
  5
3B359
  8
DEFPOINTS
  6
CONTINUOUS
 62
     0
 10
743.6480241788847
 20
-1017.22817747591
 30
0.0
  0
POINT
  5
3B35A
  8
DEFPOINTS
  6
CONTINUOUS
 62
     0
 10
791.5027456691351
 20
-1017.22817747591
 30
0.0
  0
ENDBLK
  5
38B12
  8
0
 62
     7
  0
BLOCK
  8
0
  2
*D1615
 70
     1
 10
0.0
 20
0.0
 30
0.0
  3
*D1615
  1

  0
LINE
  5
3B33C
  8
回07-寸法
  6
CONTINUOUS
 62
     5
 10
738.6480241788838
 20
-1023.47817747591
 30
0.0
 11
809.7276868768604
 21
-1023.47817747591
 31
0.0
  0
LINE
  5
3B33D
  8
回07-寸法
  6
CONTINUOUS
 62
     5
 10
743.6480241788847
 20
-1017.22817747591
 30
0.0
 11
809.7276868768604
 21
-1017.22817747591
 31
0.0
  0
LINE
  5
3B33E
  8
回07-寸法
  6
CONTINUOUS
 62
     5
 10
808.7276868768604
 20
-1025.47817747591
 30
0.0
 11
808.7276868768604
 21
-1027.47817747591
 31
0.0
  0
LINE
  5
3B33F
  8
回07-寸法
  6
CONTINUOUS
 62
     5
 10
808.7276868768604
 20
-1015.22817747591
 30
0.0
 11
808.7276868768604
 21
-974.7321144837844
 31
0.0
  0
LINE
  5
3B340
  8
回07-寸法
  6
CONTINUOUS
 62
     5
 10
808.7276868768604
 20
-1023.47817747591
 30
0.0
 11
808.7276868768604
 21
-1017.22817747591
 31
0.0
  0
INSERT
  5
3B341
  8
回07-寸法
  6
CONTINUOUS
 62
     5
  2
_OPEN
 10
808.7276868768604
 20
-1023.47817747591
 30
0.0
 41
2.0
 42
2.0
 43
2.0
 50
90.0
  0
INSERT
  5
3B342
  8
回07-寸法
  6
CONTINUOUS
 62
     5
  2
_OPEN
 10
808.7276868768604
 20
-1017.22817747591
 30
0.0
 41
2.0
 42
2.0
 43
2.0
 50
270.0
  0
TEXT
  5
3B343
  8
回07-寸法
  6
CONTINUOUS
 62
     5
 10
807.9776868768606
 20
-1013.480145979847
 30
0.0
 40
5.0
  1
(6.25 [0.246])
 50
90.0
1001
ACAD
1000
MTEXTBEGIN
1070
    73
1070
     1
1070
    44
1040
1.0
1070
    74
1070
     0
1000
MTEXTEND
  0
POINT
  5
3B344
  8
DEFPOINTS
  6
CONTINUOUS
 62
     0
 10
738.6480241788838
 20
-1023.47817747591
 30
0.0
  0
POINT
  5
3B345
  8
DEFPOINTS
  6
CONTINUOUS
 62
     0
 10
743.6480241788847
 20
-1017.22817747591
 30
0.0
  0
POINT
  5
3B346
  8
DEFPOINTS
  6
CONTINUOUS
 62
     0
 10
808.7276868768604
 20
-1017.22817747591
 30
0.0
  0
ENDBLK
  5
38B20
  8
0
 62
     7
  0
BLOCK
  8
0
  2
*D1716
 70
     1
 10
0.0
 20
0.0
 30
0.0
  3
*D1716
  1

  0
LINE
  5
3C441
  8
回07-寸法
  6
CONTINUOUS
 62
     5
 10
405.6480241788856
 20
-1116.789879678761
 30
0.0
 11
405.6480241788856
 21
-1072.572148947709
 31
0.0
  0
LINE
  5
3C442
  8
回07-寸法
  6
CONTINUOUS
 62
     5
 10
480.6480241788839
 20
-1109.051053131444
 30
0.0
 11
480.6480241788839
 21
-1072.572148947709
 31
0.0
  0
LINE
  5
3C443
  8
回07-寸法
  6
CONTINUOUS
 62
     5
 10
407.6480241788856
 20
-1073.572148947709
 30
0.0
 11
478.6480241788837
 21
-1073.572148947709
 31
0.0
  0
INSERT
  5
3C444
  8
回07-寸法
  6
CONTINUOUS
 62
     5
  2
_OPEN
 10
405.6480241788856
 20
-1073.572148947709
 30
0.0
 41
2.0
 42
2.0
 43
2.0
 50
180.0
  0
INSERT
  5
3C445
  8
回07-寸法
  6
CONTINUOUS
 62
     5
  2
_OPEN
 10
480.6480241788839
 20
-1073.572148947709
 30
0.0
 41
2.0
 42
2.0
 43
2.0
  0
INSERT
  5
3C446
  8
回07-寸法
  6
CONTINUOUS
 62
     5
 66
     1
  2
*X9795
 10
0.0
 20
0.0
 30
0.0
  0
SEQEND
  5
3D489
  8
回08-記事
  6
CONTINUOUS
 62
     7
  0
POINT
  5
3C447
  8
DEFPOINTS
  6
CONTINUOUS
 62
     0
 10
405.6480241788856
 20
-1116.789879678761
 30
0.0
  0
POINT
  5
3C448
  8
DEFPOINTS
  6
CONTINUOUS
 62
     0
 10
480.6480241788839
 20
-1109.051053131444
 30
0.0
  0
POINT
  5
3C449
  8
DEFPOINTS
  6
CONTINUOUS
 62
     0
 10
480.6480241788839
 20
-1073.572148947709
 30
0.0
  0
ENDBLK
  5
38B48
  8
0
 62
     7
  0
BLOCK
  8
0
  2
*D1817
 70
     1
 10
0.0
 20
0.0
 30
0.0
  3
*D1817
  1

  0
LINE
  5
3C460
  8
回07-寸法
  6
CONTINUOUS
 62
     5
 10
406.1480241788856
 20
-1120.22817747591
 30
0.0
 11
389.7425708761474
 21
-1120.22817747591
 31
0.0
  0
LINE
  5
3C461
  8
回07-寸法
  6
CONTINUOUS
 62
     5
 10
406.1480241788856
 20
-1115.22817747591
 30
0.0
 11
389.7425708761474
 21
-1115.22817747591
 31
0.0
  0
LINE
  5
3C462
  8
回07-寸法
  6
CONTINUOUS
 62
     5
 10
390.7425708761473
 20
-1113.22817747591
 30
0.0
 11
390.7425708761473
 21
-1111.22817747591
 31
0.0
  0
LINE
  5
3C463
  8
回07-寸法
  6
CONTINUOUS
 62
     5
 10
390.7425708761473
 20
-1122.22817747591
 30
0.0
 11
390.7425708761473
 21
-1173.595649128381
 31
0.0
  0
LINE
  5
3C464
  8
回07-寸法
  6
CONTINUOUS
 62
     5
 10
390.7425708761473
 20
-1115.22817747591
 30
0.0
 11
390.7425708761473
 21
-1120.22817747591
 31
0.0
  0
INSERT
  5
3C465
  8
回07-寸法
  6
CONTINUOUS
 62
     5
  2
_OPEN
 10
390.7425708761473
 20
-1115.22817747591
 30
0.0
 41
2.0
 42
2.0
 43
2.0
 50
270.0
  0
INSERT
  5
3C466
  8
回07-寸法
  6
CONTINUOUS
 62
     5
  2
_OPEN
 10
390.7425708761473
 20
-1120.22817747591
 30
0.0
 41
2.0
 42
2.0
 43
2.0
 50
90.0
  0
INSERT
  5
3C467
  8
回07-寸法
  6
CONTINUOUS
 62
     5
 66
     1
  2
*X9896
 10
0.0
 20
0.0
 30
0.0
  0
SEQEND
  5
3D492
  8
回08-記事
  6
CONTINUOUS
 62
     7
  0
POINT
  5
3C468
  8
DEFPOINTS
  6
CONTINUOUS
 62
     0
 10
406.1480241788856
 20
-1120.22817747591
 30
0.0
  0
POINT
  5
3C469
  8
DEFPOINTS
  6
CONTINUOUS
 62
     0
 10
406.1480241788856
 20
-1115.22817747591
 30
0.0
  0
POINT
  5
3C46A
  8
DEFPOINTS
  6
CONTINUOUS
 62
     0
 10
390.7425708761473
 20
-1115.22817747591
 30
0.0
  0
ENDBLK
  5
38B56
  8
0
 62
     7
  0
BLOCK
  8
0
  2
*D1918
 70
     1
 10
0.0
 20
0.0
 30
0.0
  3
*D1918
  1

  0
LINE
  5
3B390
  8
回07-寸法
  6
CONTINUOUS
 62
     5
 10
406.1480241788856
 20
-1115.22817747591
 30
0.0
 11
389.7425708761475
 21
-1115.22817747591
 31
0.0
  0
LINE
  5
3B391
  8
回07-寸法
  6
CONTINUOUS
 62
     5
 10
480.6480241788848
 20
-1017.22817747591
 30
0.0
 11
389.7425708761475
 21
-1017.22817747591
 31
0.0
  0
LINE
  5
3B392
  8
回07-寸法
  6
CONTINUOUS
 62
     5
 10
390.7425708761475
 20
-1113.22817747591
 30
0.0
 11
390.7425708761475
 21
-1019.22817747591
 31
0.0
  0
INSERT
  5
3B393
  8
回07-寸法
  6
CONTINUOUS
 62
     5
  2
_OPEN
 10
390.7425708761475
 20
-1115.22817747591
 30
0.0
 41
2.0
 42
2.0
 43
2.0
 50
270.0
  0
INSERT
  5
3B394
  8
回07-寸法
  6
CONTINUOUS
 62
     5
  2
_OPEN
 10
390.7425708761475
 20
-1017.22817747591
 30
0.0
 41
2.0
 42
2.0
 43
2.0
 50
90.0
  0
TEXT
  5
3B395
  8
回07-寸法
  6
CONTINUOUS
 62
     5
 10
389.9925708761477
 20
-1080.996229318545
 30
0.0
 40
5.0
  1
98 [3.858]
 50
90.0
1001
ACAD
1000
MTEXTBEGIN
1070
    73
1070
     1
1070
    44
1040
1.0
1070
    74
1070
     0
1000
MTEXTEND
  0
POINT
  5
3B396
  8
DEFPOINTS
  6
CONTINUOUS
 62
     0
 10
406.1480241788856
 20
-1115.22817747591
 30
0.0
  0
POINT
  5
3B397
  8
DEFPOINTS
  6
CONTINUOUS
 62
     0
 10
480.6480241788848
 20
-1017.22817747591
 30
0.0
  0
POINT
  5
3B398
  8
DEFPOINTS
  6
CONTINUOUS
 62
     0
 10
390.7425708761475
 20
-1017.22817747591
 30
0.0
  0
ENDBLK
  5
38B62
  8
0
 62
     7
  0
BLOCK
  8
0
  2
*D2019
 70
     1
 10
0.0
 20
0.0
 30
0.0
  3
*D2019
  1

  0
LINE
  5
3B3AF
  8
回07-寸法
  6
CONTINUOUS
 62
     5
 10
480.6480241788839
 20
-1126.405301820377
 30
0.0
 11
480.6480241788839
 21
-1139.51412129615
 31
0.0
  0
LINE
  5
3B3B0
  8
回07-寸法
  6
CONTINUOUS
 62
     5
 10
476.0472473524093
 20
-1125.72817747591
 30
0.0
 11
476.0472473524093
 21
-1139.51412129615
 31
0.0
  0
LINE
  5
3B3B1
  8
回07-寸法
  6
CONTINUOUS
 62
     5
 10
482.6480241788837
 20
-1138.51412129615
 30
0.0
 11
484.6480241788838
 21
-1138.51412129615
 31
0.0
  0
LINE
  5
3B3B2
  8
回07-寸法
  6
CONTINUOUS
 62
     5
 10
474.0472473524094
 20
-1138.51412129615
 30
0.0
 11
439.2470609897499
 21
-1138.51412129615
 31
0.0
  0
LINE
  5
3B3B3
  8
回07-寸法
  6
CONTINUOUS
 62
     5
 10
480.6480241788839
 20
-1138.51412129615
 30
0.0
 11
476.0472473524093
 21
-1138.51412129615
 31
0.0
  0
INSERT
  5
3B3B4
  8
回07-寸法
  6
CONTINUOUS
 62
     5
  2
_OPEN
 10
480.6480241788839
 20
-1138.51412129615
 30
0.0
 41
2.0
 42
2.0
 43
2.0
 50
180.0
  0
INSERT
  5
3B3B5
  8
回07-寸法
  6
CONTINUOUS
 62
     5
  2
_OPEN
 10
476.0472473524093
 20
-1138.51412129615
 30
0.0
 41
2.0
 42
2.0
 43
2.0
  0
TEXT
  5
3B3B6
  8
回07-寸法
  6
CONTINUOUS
 62
     5
 10
438.9970609897499
 20
-1137.76412129615
 30
0.0
 40
5.0
  1
4.6 [0.181]
1001
ACAD
1000
MTEXTBEGIN
1070
    73
1070
     1
1070
    44
1040
1.0
1070
    74
1070
     0
1000
MTEXTEND
  0
POINT
  5
3B3B7
  8
DEFPOINTS
  6
CONTINUOUS
 62
     0
 10
480.6480241788839
 20
-1126.405301820377
 30
0.0
  0
POINT
  5
3B3B8
  8
DEFPOINTS
  6
CONTINUOUS
 62
     0
 10
476.0472473524093
 20
-1125.72817747591
 30
0.0
  0
POINT
  5
3B3B9
  8
DEFPOINTS
  6
CONTINUOUS
 62
     0
 10
476.0472473524093
 20
-1138.51412129615
 30
0.0
  0
ENDBLK
  5
38B70
  8
0
 62
     7
  0
BLOCK
  8
0
  2
*D2120
 70
     1
 10
0.0
 20
0.0
 30
0.0
  3
*D2120
  1

  0
LINE
  5
3B399
  8
回07-寸法
  6
CONTINUOUS
 62
     5
 10
480.6480241788839
 20
-1126.405301820377
 30
0.0
 11
480.6480241788839
 21
-1150.347133988398
 31
0.0
  0
LINE
  5
3B39A
  8
回07-寸法
  6
CONTINUOUS
 62
     5
 10
470.5247915937496
 20
-1120.22817747591
 30
0.0
 11
470.5247915937496
 21
-1150.347133988398
 31
0.0
  0
LINE
  5
3B39B
  8
回07-寸法
  6
CONTINUOUS
 62
     5
 10
482.6480241788837
 20
-1149.347133988398
 30
0.0
 11
484.6480241788838
 21
-1149.347133988398
 31
0.0
  0
LINE
  5
3B39C
  8
回07-寸法
  6
CONTINUOUS
 62
     5
 10
468.5247915937496
 20
-1149.347133988398
 30
0.0
 11
430.9898482888068
 21
-1149.347133988398
 31
0.0
  0
LINE
  5
3B39D
  8
回07-寸法
  6
CONTINUOUS
 62
     5
 10
480.6480241788839
 20
-1149.347133988398
 30
0.0
 11
470.5247915937496
 21
-1149.347133988398
 31
0.0
  0
INSERT
  5
3B39E
  8
回07-寸法
  6
CONTINUOUS
 62
     5
  2
_OPEN
 10
480.6480241788839
 20
-1149.347133988398
 30
0.0
 41
2.0
 42
2.0
 43
2.0
 50
180.0
  0
INSERT
  5
3B39F
  8
回07-寸法
  6
CONTINUOUS
 62
     5
  2
_OPEN
 10
470.5247915937496
 20
-1149.347133988398
 30
0.0
 41
2.0
 42
2.0
 43
2.0
  0
TEXT
  5
3B3A0
  8
回07-寸法
  6
CONTINUOUS
 62
     5
 10
430.7392680986433
 20
-1148.597333675406
 30
0.0
 40
5.0
  1
10.12 [0.399]
1001
ACAD
1000
MTEXTBEGIN
1070
    73
1070
     1
1070
    44
1040
1.0
1070
    74
1070
     0
1000
MTEXTEND
  0
POINT
  5
3B3A1
  8
DEFPOINTS
  6
CONTINUOUS
 62
     0
 10
480.6480241788839
 20
-1126.405301820377
 30
0.0
  0
POINT
  5
3B3A2
  8
DEFPOINTS
  6
CONTINUOUS
 62
     0
 10
470.5247915937496
 20
-1120.22817747591
 30
0.0
  0
POINT
  5
3B3A3
  8
DEFPOINTS
  6
CONTINUOUS
 62
     0
 10
470.5247915937496
 20
-1149.347133988398
 30
0.0
  0
ENDBLK
  5
38B7C
  8
0
 62
     7
  0
BLOCK
  8
0
  2
*D2221
 70
     1
 10
0.0
 20
0.0
 30
0.0
  3
*D2221
  1

  0
LINE
  5
3B1CF
  8
回07-寸法
  6
CONTINUOUS
 62
     5
 10
477.8041460175551
 20
-1109.72817747591
 30
0.0
 11
448.9385305134981
 21
-1109.72817747591
 31
0.0
  0
LINE
  5
3B1D0
  8
回07-寸法
  6
CONTINUOUS
 62
     5
 10
477.8041460175551
 20
-1125.72817747591
 30
0.0
 11
448.9385305134981
 21
-1125.72817747591
 31
0.0
  0
LINE
  5
3B1D1
  8
回07-寸法
  6
CONTINUOUS
 62
     5
 10
449.9385305134981
 20
-1127.72817747591
 30
0.0
 11
449.9385305134981
 21
-1129.72817747591
 31
0.0
  0
LINE
  5
3B1D2
  8
回07-寸法
  6
CONTINUOUS
 62
     5
 10
449.9385305134981
 20
-1107.72817747591
 30
0.0
 11
449.9385305134981
 21
-1077.72817747591
 31
0.0
  0
LINE
  5
3B1D3
  8
回07-寸法
  6
CONTINUOUS
 62
     5
 10
449.9385305134981
 20
-1125.72817747591
 30
0.0
 11
449.9385305134981
 21
-1109.72817747591
 31
0.0
  0
INSERT
  5
3B1D4
  8
回07-寸法
  6
CONTINUOUS
 62
     5
  2
_OPEN
 10
449.9385305134981
 20
-1125.72817747591
 30
0.0
 41
2.0
 42
2.0
 43
2.0
 50
90.0
  0
INSERT
  5
3B1D5
  8
回07-寸法
  6
CONTINUOUS
 62
     5
  2
_OPEN
 10
449.9385305134981
 20
-1109.72817747591
 30
0.0
 41
2.0
 42
2.0
 43
2.0
 50
270.0
  0
TEXT
  5
3B1D6
  8
回07-寸法
  6
CONTINUOUS
 62
     5
 10
449.1885305134982
 20
-1105.97817747591
 30
0.0
 40
5.0
  1
16 [0.630]
 50
90.0
1001
ACAD
1000
MTEXTBEGIN
1070
    73
1070
     1
1070
    44
1040
1.0
1070
    74
1070
     0
1000
MTEXTEND
  0
POINT
  5
3B1D7
  8
DEFPOINTS
  6
CONTINUOUS
 62
     0
 10
477.8041460175551
 20
-1109.72817747591
 30
0.0
  0
POINT
  5
3B1D8
  8
DEFPOINTS
  6
CONTINUOUS
 62
     0
 10
477.8041460175551
 20
-1125.72817747591
 30
0.0
  0
POINT
  5
3B1D9
  8
DEFPOINTS
  6
CONTINUOUS
 62
     0
 10
449.9385305134981
 20
-1125.72817747591
 30
0.0
  0
ENDBLK
  5
38B8A
  8
0
 62
     7
  0
BLOCK
  8
0
  2
*D2322
 70
     1
 10
0.0
 20
0.0
 30
0.0
  3
*D2322
  1

  0
LINE
  5
3B35B
  8
回07-寸法
 62
     5
 10
737.1480241788847
 20
-1210.47817747591
 30
0.0
 11
792.5027456691349
 21
-1210.47817747591
 31
0.0
  0
LINE
  5
3B35C
  8
回07-寸法
 62
     5
 10
737.1480241788847
 20
-1024.97817747591
 30
0.0
 11
792.5027456691349
 21
-1024.97817747591
 31
0.0
  0
LINE
  5
3B35D
  8
回07-寸法
 62
     5
 10
791.5027456691348
 20
-1208.47817747591
 30
0.0
 11
791.5027456691348
 21
-1026.97817747591
 31
0.0
  0
INSERT
  5
3B35E
  8
回07-寸法
 62
     5
  2
_OPEN
 10
791.5027456691348
 20
-1210.47817747591
 30
0.0
 41
2.0
 42
2.0
 43
2.0
 50
270.0
  0
INSERT
  5
3B35F
  8
回07-寸法
 62
     5
  2
_OPEN
 10
791.5027456691348
 20
-1024.97817747591
 30
0.0
 41
2.0
 42
2.0
 43
2.0
 50
90.0
  0
TEXT
  5
3B360
  8
回07-寸法
 62
     5
 10
790.7527456691351
 20
-1154.886650342245
 30
0.0
 40
5.0
  1
185.5 [7.303] (ACTIVE AREA)
 50
90.0
1001
ACAD
1000
MTEXTBEGIN
1070
    73
1070
     1
1070
    44
1040
1.0
1070
    74
1070
     0
1000
MTEXTEND
  0
POINT
  5
3B361
  8
DEFPOINTS
 62
     0
 10
737.1480241788847
 20
-1210.47817747591
 30
0.0
  0
POINT
  5
3B362
  8
DEFPOINTS
 62
     0
 10
737.1480241788847
 20
-1024.97817747591
 30
0.0
  0
POINT
  5
3B363
  8
DEFPOINTS
 62
     0
 10
791.5027456691348
 20
-1024.97817747591
 30
0.0
  0
ENDBLK
  5
38BCC
  8
0
 62
     7
  0
BLOCK
  8
0
  2
*D2423
 70
     1
 10
0.0
 20
0.0
 30
0.0
  3
*D2423
  1

  0
LINE
  5
3B347
  8
回07-寸法
 62
     5
 10
738.6480241788838
 20
-1023.47817747591
 30
0.0
 11
809.7276868768604
 21
-1023.47817747591
 31
0.0
  0
LINE
  5
3B348
  8
回07-寸法
 62
     5
 10
738.6480241788838
 20
-1211.97817747591
 30
0.0
 11
809.7276868768604
 21
-1211.97817747591
 31
0.0
  0
LINE
  5
3B349
  8
回07-寸法
 62
     5
 10
808.7276868768604
 20
-1025.47817747591
 30
0.0
 11
808.7276868768604
 21
-1209.97817747591
 31
0.0
  0
INSERT
  5
3B34A
  8
回07-寸法
 62
     5
  2
_OPEN
 10
808.7276868768604
 20
-1023.47817747591
 30
0.0
 41
2.0
 42
2.0
 43
2.0
 50
90.0
  0
INSERT
  5
3B34B
  8
回07-寸法
 62
     5
  2
_OPEN
 10
808.7276868768604
 20
-1211.97817747591
 30
0.0
 41
2.0
 42
2.0
 43
2.0
 50
270.0
  0
TEXT
  5
3B34C
  8
回07-寸法
 62
     5
 10
807.9776868768604
 20
-1156.136650342245
 30
0.0
 40
5.0
  1
188.5 [7.421] (VIEWING AREA)
 50
90.0
1001
ACAD
1000
MTEXTBEGIN
1070
    73
1070
     1
1070
    44
1040
1.0
1070
    74
1070
     0
1000
MTEXTEND
  0
POINT
  5
3B34D
  8
DEFPOINTS
 62
     0
 10
738.6480241788838
 20
-1023.47817747591
 30
0.0
  0
POINT
  5
3B34E
  8
DEFPOINTS
 62
     0
 10
738.6480241788838
 20
-1211.97817747591
 30
0.0
  0
POINT
  5
3B34F
  8
DEFPOINTS
 62
     0
 10
808.7276868768604
 20
-1211.97817747591
 30
0.0
  0
ENDBLK
  5
38BD8
  8
0
 62
     7
  0
BLOCK
  8
0
  2
*D2524
 70
     1
 10
0.0
 20
0.0
 30
0.0
  3
*D2524
  1

  0
LINE
  5
3C426
  8
回07-寸法
 62
     5
 10
743.6480241788838
 20
-1017.22817747591
 30
0.0
 11
846.3374161966566
 21
-1017.22817747591
 31
0.0
  0
LINE
  5
3C427
  8
回07-寸法
 62
     5
 10
743.6480241788838
 20
-1218.22817747591
 30
0.0
 11
846.3374161966566
 21
-1218.22817747591
 31
0.0
  0
LINE
  5
3C428
  8
回07-寸法
 62
     5
 10
845.3374161966566
 20
-1019.22817747591
 30
0.0
 11
845.3374161966566
 21
-1216.22817747591
 31
0.0
  0
INSERT
  5
3C429
  8
回07-寸法
 62
     5
  2
_OPEN
 10
845.3374161966566
 20
-1017.22817747591
 30
0.0
 41
2.0
 42
2.0
 43
2.0
 50
90.0
  0
INSERT
  5
3C42A
  8
回07-寸法
 62
     5
  2
_OPEN
 10
845.3374161966566
 20
-1218.22817747591
 30
0.0
 41
2.0
 42
2.0
 43
2.0
 50
270.0
  0
INSERT
  5
3C42B
  8
回07-寸法
 62
     5
 66
     1
  2
*X9997
 10
0.0
 20
0.0
 30
0.0
  0
SEQEND
  5
3D49B
  8
回08-記事
  6
CONTINUOUS
 62
     7
  0
POINT
  5
3C42C
  8
DEFPOINTS
 62
     0
 10
743.6480241788838
 20
-1017.22817747591
 30
0.0
  0
POINT
  5
3C42D
  8
DEFPOINTS
 62
     0
 10
743.6480241788838
 20
-1218.22817747591
 30
0.0
  0
POINT
  5
3C42E
  8
DEFPOINTS
 62
     0
 10
845.3374161966566
 20
-1218.22817747591
 30
0.0
  0
ENDBLK
  5
38BE4
  8
0
 62
     7
  0
BLOCK
  8
0
  2
*D2625
 70
     1
 10
0.0
 20
0.0
 30
0.0
  3
*D2625
  1

  0
LINE
  5
3B37A
  8
回07-寸法
  6
CONTINUOUS
 62
     5
 10
737.1480241788847
 20
-1210.47817747591
 30
0.0
 11
792.5027456691349
 21
-1210.47817747591
 31
0.0
  0
LINE
  5
3B37B
  8
回07-寸法
  6
CONTINUOUS
 62
     5
 10
743.6480241788838
 20
-1218.22817747591
 30
0.0
 11
792.5027456691349
 21
-1218.22817747591
 31
0.0
  0
LINE
  5
3B37C
  8
回07-寸法
  6
CONTINUOUS
 62
     5
 10
791.5027456691348
 20
-1208.47817747591
 30
0.0
 11
791.5027456691348
 21
-1206.47817747591
 31
0.0
  0
LINE
  5
3B37D
  8
回07-寸法
  6
CONTINUOUS
 62
     5
 10
791.5027456691348
 20
-1220.22817747591
 30
0.0
 11
791.5027456691348
 21
-1256.22817747591
 31
0.0
  0
LINE
  5
3B37E
  8
回07-寸法
  6
CONTINUOUS
 62
     5
 10
791.5027456691348
 20
-1210.47817747591
 30
0.0
 11
791.5027456691348
 21
-1218.22817747591
 31
0.0
  0
INSERT
  5
3B37F
  8
回07-寸法
  6
CONTINUOUS
 62
     5
  2
_OPEN
 10
791.5027456691348
 20
-1210.47817747591
 30
0.0
 41
2.0
 42
2.0
 43
2.0
 50
270.0
  0
INSERT
  5
3B380
  8
回07-寸法
  6
CONTINUOUS
 62
     5
  2
_OPEN
 10
791.5027456691348
 20
-1218.22817747591
 30
0.0
 41
2.0
 42
2.0
 43
2.0
 50
90.0
  0
TEXT
  5
3B381
  8
回07-寸法
  6
CONTINUOUS
 62
     5
 10
790.7527456691351
 20
-1256.47817747591
 30
0.0
 40
5.0
  1
7.75 [0.305]
 50
90.0
1001
ACAD
1000
MTEXTBEGIN
1070
    73
1070
     1
1070
    44
1040
1.0
1070
    74
1070
     0
1000
MTEXTEND
  0
POINT
  5
3B382
  8
DEFPOINTS
  6
CONTINUOUS
 62
     0
 10
737.1480241788847
 20
-1210.47817747591
 30
0.0
  0
POINT
  5
3B383
  8
DEFPOINTS
  6
CONTINUOUS
 62
     0
 10
743.6480241788838
 20
-1218.22817747591
 30
0.0
  0
POINT
  5
3B384
  8
DEFPOINTS
  6
CONTINUOUS
 62
     0
 10
791.5027456691348
 20
-1218.22817747591
 30
0.0
  0
ENDBLK
  5
38BF2
  8
0
 62
     7
  0
BLOCK
  8
0
  2
*D2726
 70
     1
 10
0.0
 20
0.0
 30
0.0
  3
*D2726
  1

  0
LINE
  5
3B36F
  8
回07-寸法
  6
CONTINUOUS
 62
     5
 10
738.6480241788847
 20
-1211.97817747591
 30
0.0
 11
809.7276868768604
 21
-1211.97817747591
 31
0.0
  0
LINE
  5
3B370
  8
回07-寸法
  6
CONTINUOUS
 62
     5
 10
743.6480241788847
 20
-1218.22817747591
 30
0.0
 11
809.7276868768604
 21
-1218.22817747591
 31
0.0
  0
LINE
  5
3B371
  8
回07-寸法
  6
CONTINUOUS
 62
     5
 10
808.7276868768604
 20
-1209.97817747591
 30
0.0
 11
808.7276868768604
 21
-1207.97817747591
 31
0.0
  0
LINE
  5
3B372
  8
回07-寸法
  6
CONTINUOUS
 62
     5
 10
808.7276868768604
 20
-1220.22817747591
 30
0.0
 11
808.7276868768604
 21
-1257.027390074335
 31
0.0
  0
LINE
  5
3B373
  8
回07-寸法
  6
CONTINUOUS
 62
     5
 10
808.7276868768604
 20
-1211.97817747591
 30
0.0
 11
808.7276868768604
 21
-1218.22817747591
 31
0.0
  0
INSERT
  5
3B374
  8
回07-寸法
  6
CONTINUOUS
 62
     5
  2
_OPEN
 10
808.7276868768604
 20
-1211.97817747591
 30
0.0
 41
2.0
 42
2.0
 43
2.0
 50
270.0
  0
INSERT
  5
3B375
  8
回07-寸法
  6
CONTINUOUS
 62
     5
  2
_OPEN
 10
808.7276868768604
 20
-1218.22817747591
 30
0.0
 41
2.0
 42
2.0
 43
2.0
 50
90.0
  0
TEXT
  5
3B376
  8
回07-寸法
  6
CONTINUOUS
 62
     5
 10
807.9776868768604
 20
-1257.127783775122
 30
0.0
 40
5.0
  1
6.25 [0.246]
 50
90.0
1001
ACAD
1000
MTEXTBEGIN
1070
    73
1070
     1
1070
    44
1040
1.0
1070
    74
1070
     0
1000
MTEXTEND
  0
POINT
  5
3B377
  8
DEFPOINTS
  6
CONTINUOUS
 62
     0
 10
738.6480241788847
 20
-1211.97817747591
 30
0.0
  0
POINT
  5
3B378
  8
DEFPOINTS
  6
CONTINUOUS
 62
     0
 10
743.6480241788847
 20
-1218.22817747591
 30
0.0
  0
POINT
  5
3B379
  8
DEFPOINTS
  6
CONTINUOUS
 62
     0
 10
808.7276868768604
 20
-1218.22817747591
 30
0.0
  0
ENDBLK
  5
38C00
  8
0
 62
     7
  0
BLOCK
  8
0
  2
*D2827
 70
     1
 10
0.0
 20
0.0
 30
0.0
  3
*D2827
  1

  0
LINE
  5
3B312
  8
回07-寸法
  6
CONTINUOUS
 62
     5
 10
739.1480241788838
 20
-1022.67817747591
 30
0.0
 11
826.2725649542554
 21
-1022.67817747591
 31
0.0
  0
LINE
  5
3B313
  8
回07-寸法
  6
CONTINUOUS
 62
     5
 10
739.1480241788838
 20
-1212.778177475909
 30
0.0
 11
826.2725649542554
 21
-1212.778177475909
 31
0.0
  0
LINE
  5
3B314
  8
回07-寸法
  6
CONTINUOUS
 62
     5
 10
825.2725649542552
 20
-1024.67817747591
 30
0.0
 11
825.2725649542552
 21
-1210.77817747591
 31
0.0
  0
INSERT
  5
3B315
  8
回07-寸法
  6
CONTINUOUS
 62
     5
  2
_OPEN
 10
825.2725649542552
 20
-1022.67817747591
 30
0.0
 41
2.0
 42
2.0
 43
2.0
 50
90.0
  0
INSERT
  5
3B316
  8
回07-寸法
  6
CONTINUOUS
 62
     5
  2
_OPEN
 10
825.2725649542552
 20
-1212.778177475909
 30
0.0
 41
2.0
 42
2.0
 43
2.0
 50
270.0
  0
TEXT
  5
3B317
  8
回07-寸法
  6
CONTINUOUS
 62
     5
 10
824.5225649542554
 20
-1136.237203397227
 30
0.0
 40
5.0
  1
190.1 [7.484]
 50
90.0
1001
ACAD
1000
MTEXTBEGIN
1070
    73
1070
     1
1070
    44
1040
1.0
1070
    74
1070
     0
1000
MTEXTEND
  0
POINT
  5
3B318
  8
DEFPOINTS
  6
CONTINUOUS
 62
     0
 10
739.1480241788838
 20
-1022.67817747591
 30
0.0
  0
POINT
  5
3B319
  8
DEFPOINTS
  6
CONTINUOUS
 62
     0
 10
739.1480241788838
 20
-1212.778177475909
 30
0.0
  0
POINT
  5
3B31A
  8
DEFPOINTS
  6
CONTINUOUS
 62
     0
 10
825.2725649542552
 20
-1212.778177475909
 30
0.0
  0
ENDBLK
  5
38C0C
  8
0
 62
     7
  0
BLOCK
  8
0
  2
*D2928
 70
     1
 10
0.0
 20
0.0
 30
0.0
  3
*D2928
  1

  0
LINE
  5
3B364
  8
回07-寸法
  6
CONTINUOUS
 62
     5
 10
739.1480241788838
 20
-1212.778177475909
 30
0.0
 11
826.2725649542554
 21
-1212.778177475909
 31
0.0
  0
LINE
  5
3B365
  8
回07-寸法
  6
CONTINUOUS
 62
     5
 10
743.6480241788847
 20
-1218.22817747591
 30
0.0
 11
826.2725649542554
 21
-1218.22817747591
 31
0.0
  0
LINE
  5
3B366
  8
回07-寸法
  6
CONTINUOUS
 62
     5
 10
825.2725649542552
 20
-1210.77817747591
 30
0.0
 11
825.2725649542552
 21
-1208.778177475909
 31
0.0
  0
LINE
  5
3B367
  8
回07-寸法
  6
CONTINUOUS
 62
     5
 10
825.2725649542552
 20
-1220.22817747591
 30
0.0
 11
825.2725649542552
 21
-1290.768958578272
 31
0.0
  0
LINE
  5
3B368
  8
回07-寸法
  6
CONTINUOUS
 62
     5
 10
825.2725649542552
 20
-1212.778177475909
 30
0.0
 11
825.2725649542552
 21
-1218.22817747591
 31
0.0
  0
INSERT
  5
3B369
  8
回07-寸法
  6
CONTINUOUS
 62
     5
  2
_OPEN
 10
825.2725649542552
 20
-1212.778177475909
 30
0.0
 41
2.0
 42
2.0
 43
2.0
 50
270.0
  0
INSERT
  5
3B36A
  8
回07-寸法
  6
CONTINUOUS
 62
     5
  2
_OPEN
 10
825.2725649542552
 20
-1218.22817747591
 30
0.0
 41
2.0
 42
2.0
 43
2.0
 50
90.0
  0
INSERT
  5
3B36B
  8
回07-寸法
  6
CONTINUOUS
 62
     5
 66
     1
  2
*X10098
 10
0.0
 20
0.0
 30
0.0
  0
SEQEND
  5
3D4A1
  8
回08-記事
  6
CONTINUOUS
 62
     7
  0
POINT
  5
3B36C
  8
DEFPOINTS
  6
CONTINUOUS
 62
     0
 10
739.1480241788838
 20
-1212.778177475909
 30
0.0
  0
POINT
  5
3B36D
  8
DEFPOINTS
  6
CONTINUOUS
 62
     0
 10
743.6480241788847
 20
-1218.22817747591
 30
0.0
  0
POINT
  5
3B36E
  8
DEFPOINTS
  6
CONTINUOUS
 62
     0
 10
825.2725649542552
 20
-1218.22817747591
 30
0.0
  0
ENDBLK
  5
38C1A
  8
0
 62
     7
  0
BLOCK
  8
0
  2
*D3029
 70
     1
 10
0.0
 20
0.0
 30
0.0
  3
*D3029
  1

  0
LINE
  5
3B3D9
  8
回08-記事
  6
CONTINUOUS
 62
     5
 10
405.6480241788848
 20
-1271.680074794192
 30
0.0
 11
405.6480241788848
 21
-1256.755610754324
 31
0.0
  0
LINE
  5
3B3DA
  8
回08-記事
  6
CONTINUOUS
 62
     5
 10
415.6480241788846
 20
-1271.680074794192
 30
0.0
 11
415.6480241788846
 21
-1256.755610754324
 31
0.0
  0
LINE
  5
3B3DB
  8
回08-記事
  6
CONTINUOUS
 62
     5
 10
417.6480241788848
 20
-1257.755610754324
 30
0.0
 11
419.6480241788846
 21
-1257.755610754324
 31
0.0
  0
LINE
  5
3B3DC
  8
回08-記事
  6
CONTINUOUS
 62
     5
 10
403.6480241788846
 20
-1257.755610754324
 30
0.0
 11
373.1305525264133
 21
-1257.755610754324
 31
0.0
  0
LINE
  5
3B3DD
  8
回08-記事
  6
CONTINUOUS
 62
     5
 10
415.6480241788846
 20
-1257.755610754324
 30
0.0
 11
405.6480241788848
 21
-1257.755610754324
 31
0.0
  0
INSERT
  5
3B3DE
  8
回08-記事
  6
CONTINUOUS
 62
     5
  2
_OPEN
 10
415.6480241788846
 20
-1257.755610754324
 30
0.0
 41
2.0
 42
2.0
 43
2.0
 50
180.0
  0
INSERT
  5
3B3DF
  8
回08-記事
  6
CONTINUOUS
 62
     5
  2
_OPEN
 10
405.6480241788848
 20
-1257.755610754324
 30
0.0
 41
2.0
 42
2.0
 43
2.0
  0
TEXT
  5
3B3E0
  8
回08-記事
  6
CONTINUOUS
 62
     5
 10
372.8802624313316
 20
-1257.005710597828
 30
0.0
 40
5.0
  1
10 [0.394]
1001
ACAD
1000
MTEXTBEGIN
1070
    73
1070
     1
1070
    44
1040
1.0
1070
    74
1070
     0
1000
MTEXTEND
  0
POINT
  5
3B3E1
  8
DEFPOINTS
  6
CONTINUOUS
 62
     0
 10
405.6480241788848
 20
-1271.680074794192
 30
0.0
  0
POINT
  5
3B3E2
  8
DEFPOINTS
  6
CONTINUOUS
 62
     0
 10
415.6480241788846
 20
-1271.680074794192
 30
0.0
  0
POINT
  5
3B3E3
  8
DEFPOINTS
  6
CONTINUOUS
 62
     0
 10
415.6480241788846
 20
-1257.755610754324
 30
0.0
  0
ENDBLK
  5
38C26
  8
0
 62
     7
  0
BLOCK
  8
0
  2
*D3130
 70
     1
 10
0.0
 20
0.0
 30
0.0
  3
*D3130
  1

  0
LINE
  5
3B874
  8
回08-記事
  6
CONTINUOUS
 62
     5
 10
410.6480241788847
 20
-1276.180074794192
 30
0.0
 11
410.6480241788847
 21
-1299.222887856727
 31
0.0
  0
LINE
  5
3B875
  8
回08-記事
  6
CONTINUOUS
 62
     5
 10
405.6480241788848
 20
-1276.180074794192
 30
0.0
 11
405.6480241788848
 21
-1299.222887856727
 31
0.0
  0
LINE
  5
3B876
  8
回08-記事
  6
CONTINUOUS
 62
     5
 10
403.6480241788846
 20
-1298.222887856727
 30
0.0
 11
401.6480241788848
 21
-1298.222887856727
 31
0.0
  0
LINE
  5
3B877
  8
回08-記事
  6
CONTINUOUS
 62
     5
 10
412.6480241788846
 20
-1298.222887856727
 30
0.0
 11
439.165495831356
 21
-1298.222887856727
 31
0.0
  0
LINE
  5
3B878
  8
回08-記事
  6
CONTINUOUS
 62
     5
 10
405.6480241788848
 20
-1298.222887856727
 30
0.0
 11
410.6480241788847
 21
-1298.222887856727
 31
0.0
  0
INSERT
  5
3B879
  8
回08-記事
  6
CONTINUOUS
 62
     5
  2
_OPEN
 10
405.6480241788848
 20
-1298.222887856727
 30
0.0
 41
2.0
 42
2.0
 43
2.0
  0
INSERT
  5
3B87A
  8
回08-記事
  6
CONTINUOUS
 62
     5
  2
_OPEN
 10
410.6480241788847
 20
-1298.222887856727
 30
0.0
 41
2.0
 42
2.0
 43
2.0
 50
180.0
  0
TEXT
  5
3B87B
  8
回08-記事
  6
CONTINUOUS
 62
     5
 10
414.397734083803
 20
-1297.472987700231
 30
0.0
 40
5.0
  1
5 [0.197]
1001
ACAD
1000
MTEXTBEGIN
1070
    73
1070
     1
1070
    44
1040
1.0
1070
    74
1070
     0
1000
MTEXTEND
  0
POINT
  5
3B87C
  8
DEFPOINTS
  6
CONTINUOUS
 62
     0
 10
410.6480241788847
 20
-1276.180074794192
 30
0.0
  0
POINT
  5
3B87D
  8
DEFPOINTS
  6
CONTINUOUS
 62
     0
 10
405.6480241788848
 20
-1276.180074794192
 30
0.0
  0
POINT
  5
3B87E
  8
DEFPOINTS
  6
CONTINUOUS
 62
     0
 10
405.6480241788848
 20
-1298.222887856727
 30
0.0
  0
ENDBLK
  5
38C34
  8
0
 62
     7
  0
BLOCK
  8
0
  2
*D3231
 70
     1
 10
0.0
 20
0.0
 30
0.0
  3
*D3231
  1

  0
LINE
  5
3B816
  8
回08-記事
  6
CONTINUOUS
 62
     5
 10
405.6480241788848
 20
-1276.180074794192
 30
0.0
 11
367.385091161017
 21
-1276.180074794192
 31
0.0
  0
LINE
  5
3B817
  8
回08-記事
  6
CONTINUOUS
 62
     5
 10
405.6480241788848
 20
-1271.680074794192
 30
0.0
 11
367.385091161017
 21
-1271.680074794192
 31
0.0
  0
LINE
  5
3B818
  8
回08-記事
  6
CONTINUOUS
 62
     5
 10
368.385091161017
 20
-1278.180074794192
 30
0.0
 11
368.385091161017
 21
-1280.180074794192
 31
0.0
  0
LINE
  5
3B819
  8
回08-記事
  6
CONTINUOUS
 62
     5
 10
368.385091161017
 20
-1269.680074794192
 30
0.0
 11
368.385091161017
 21
-1215.252287786318
 31
0.0
  0
LINE
  5
3B81A
  8
回08-記事
  6
CONTINUOUS
 62
     5
 10
368.385091161017
 20
-1276.180074794192
 30
0.0
 11
368.385091161017
 21
-1271.680074794192
 31
0.0
  0
INSERT
  5
3B81B
  8
回08-記事
  6
CONTINUOUS
 62
     5
  2
_OPEN
 10
368.385091161017
 20
-1276.180074794192
 30
0.0
 41
2.0
 42
2.0
 43
2.0
 50
90.0
  0
INSERT
  5
3B81C
  8
回08-記事
  6
CONTINUOUS
 62
     5
  2
_OPEN
 10
368.385091161017
 20
-1271.680074794192
 30
0.0
 41
2.0
 42
2.0
 43
2.0
 50
270.0
  0
INSERT
  5
3B81D
  8
回08-記事
  6
CONTINUOUS
 62
     5
 66
     1
  2
*X10199
 10
0.0
 20
0.0
 30
0.0
  0
SEQEND
  5
3D4AA
  8
回08-記事
  6
CONTINUOUS
 62
     7
  0
POINT
  5
3B81E
  8
DEFPOINTS
  6
CONTINUOUS
 62
     0
 10
405.6480241788848
 20
-1276.180074794192
 30
0.0
  0
POINT
  5
3B81F
  8
DEFPOINTS
  6
CONTINUOUS
 62
     0
 10
405.6480241788848
 20
-1271.680074794192
 30
0.0
  0
POINT
  5
3B820
  8
DEFPOINTS
  6
CONTINUOUS
 62
     0
 10
368.385091161017
 20
-1271.680074794192
 30
0.0
  0
ENDBLK
  5
3B815
  8
0
 62
     7
  0
BLOCK
  8
0
  2
*D3332
 70
     1
 10
0.0
 20
0.0
 30
0.0
  3
*D3332
  1

  0
LINE
  5
3B857
  8
回08-記事
  6
CONTINUOUS
 62
     5
 10
742.1480241788847
 20
-1271.680074794192
 30
0.0
 11
759.4580515923261
 21
-1271.680074794192
 31
0.0
  0
LINE
  5
3B858
  8
回08-記事
  6
CONTINUOUS
 62
     5
 10
742.6480241788847
 20
-1282.180074794192
 30
0.0
 11
759.458051592326
 21
-1282.180074794192
 31
0.0
  0
LINE
  5
3B859
  8
回08-記事
  6
CONTINUOUS
 62
     5
 10
758.4580515923262
 20
-1269.680074794192
 30
0.0
 11
758.4580515923262
 21
-1267.680074794192
 31
0.0
  0
LINE
  5
3B85A
  8
回08-記事
  6
CONTINUOUS
 62
     5
 10
758.4580515923262
 20
-1284.180074794192
 30
0.0
 11
758.4580515923262
 21
-1336.451314950601
 31
0.0
  0
LINE
  5
3B85B
  8
回08-記事
  6
CONTINUOUS
 62
     5
 10
758.4580515923262
 20
-1271.680074794192
 30
0.0
 11
758.4580515923262
 21
-1282.180074794192
 31
0.0
  0
INSERT
  5
3B85C
  8
回08-記事
  6
CONTINUOUS
 62
     5
  2
_OPEN
 10
758.4580515923262
 20
-1271.680074794192
 30
0.0
 41
2.0
 42
2.0
 43
2.0
 50
270.0
  0
INSERT
  5
3B85D
  8
回08-記事
  6
CONTINUOUS
 62
     5
  2
_OPEN
 10
758.4580515923262
 20
-1282.180074794192
 30
0.0
 41
2.0
 42
2.0
 43
2.0
 50
90.0
  0
INSERT
  5
3B85E
  8
回08-記事
  6
CONTINUOUS
 62
     5
 66
     1
  2
*X102100
 10
0.0
 20
0.0
 30
0.0
  0
SEQEND
  5
3D4B3
  8
回08-記事
  6
CONTINUOUS
 62
     7
  0
POINT
  5
3B85F
  8
DEFPOINTS
  6
CONTINUOUS
 62
     0
 10
742.1480241788847
 20
-1271.680074794192
 30
0.0
  0
POINT
  5
3B860
  8
DEFPOINTS
  6
CONTINUOUS
 62
     0
 10
742.6480241788847
 20
-1282.180074794192
 30
0.0
  0
POINT
  5
3B861
  8
DEFPOINTS
  6
CONTINUOUS
 62
     0
 10
758.4580515923262
 20
-1282.180074794192
 30
0.0
  0
ENDBLK
  5
3B856
  8
0
 62
     7
  0
BLOCK
  8
0
  2
*D3433
 70
     1
 10
0.0
 20
0.0
 30
0.0
  3
*D3433
  1

  0
LINE
  5
3CCAF
  8
回07-寸法
  6
CONTINUOUS
 62
     5
 10
291.4732499400141
 20
-1177.39636318144
 30
0.0
 11
253.5506815327512
 21
-1177.39636318144
 31
0.0
  0
LINE
  5
3CCB0
  8
回07-寸法
  6
CONTINUOUS
 62
     5
 10
291.4732499400141
 20
-1197.396363181441
 30
0.0
 11
253.5506815327512
 21
-1197.396363181441
 31
0.0
  0
LINE
  5
3CCB1
  8
回07-寸法
  6
CONTINUOUS
 62
     5
 10
254.5506815327513
 20
-1175.39636318144
 30
0.0
 11
254.5506815327513
 21
-1173.39636318144
 31
0.0
  0
LINE
  5
3CCB2
  8
回07-寸法
  6
CONTINUOUS
 62
     5
 10
254.5506815327513
 20
-1199.396363181441
 30
0.0
 11
254.5506815327513
 21
-1243.248184833912
 31
0.0
  0
LINE
  5
3CCB3
  8
回07-寸法
  6
CONTINUOUS
 62
     5
 10
254.5506815327513
 20
-1177.39636318144
 30
0.0
 11
254.5506815327513
 21
-1197.396363181441
 31
0.0
  0
INSERT
  5
3CCB4
  8
回07-寸法
  6
CONTINUOUS
 62
     5
  2
_OPEN
 10
254.5506815327513
 20
-1177.39636318144
 30
0.0
 41
2.0
 42
2.0
 43
2.0
 50
270.0
  0
INSERT
  5
3CCB5
  8
回07-寸法
  6
CONTINUOUS
 62
     5
  2
_OPEN
 10
254.5506815327513
 20
-1197.396363181441
 30
0.0
 41
2.0
 42
2.0
 43
2.0
 50
90.0
  0
INSERT
  5
3CCB6
  8
回07-寸法
  6
CONTINUOUS
 62
     5
 66
     1
  2
*X103101
 10
0.0
 20
0.0
 30
0.0
  0
SEQEND
  5
3D4BC
  8
回08-記事
  6
CONTINUOUS
 62
     7
  0
POINT
  5
3CCB7
  8
DEFPOINTS
  6
CONTINUOUS
 62
     0
 10
291.4732499400141
 20
-1177.39636318144
 30
0.0
  0
POINT
  5
3CCB8
  8
DEFPOINTS
  6
CONTINUOUS
 62
     0
 10
291.4732499400141
 20
-1197.396363181441
 30
0.0
  0
POINT
  5
3CCB9
  8
DEFPOINTS
  6
CONTINUOUS
 62
     0
 10
254.5506815327513
 20
-1197.396363181441
 30
0.0
  0
ENDBLK
  5
3CC37
  8
0
 62
     7
  0
BLOCK
  8
0
  2
*D3534
 70
     1
 10
0.0
 20
0.0
 30
0.0
  3
*D3534
  1

  0
LINE
  5
3CCA4
  8
回07-寸法
  6
CONTINUOUS
 62
     5
 10
289.4732499400141
 20
-1181.39636318144
 30
0.0
 11
262.8942658415121
 21
-1181.39636318144
 31
0.0
  0
LINE
  5
3CCA5
  8
回07-寸法
  6
CONTINUOUS
 62
     5
 10
289.4732499400141
 20
-1193.39636318144
 30
0.0
 11
262.8942658415121
 21
-1193.39636318144
 31
0.0
  0
LINE
  5
3CCA6
  8
回07-寸法
  6
CONTINUOUS
 62
     5
 10
263.8942658415122
 20
-1179.39636318144
 30
0.0
 11
263.8942658415122
 21
-1177.39636318144
 31
0.0
  0
LINE
  5
3CCA7
  8
回07-寸法
  6
CONTINUOUS
 62
     5
 10
263.8942658415122
 20
-1195.39636318144
 30
0.0
 11
263.8942658415122
 21
-1220.561522493753
 31
0.0
  0
LINE
  5
3CCA8
  8
回07-寸法
  6
CONTINUOUS
 62
     5
 10
263.8942658415122
 20
-1181.39636318144
 30
0.0
 11
263.8942658415122
 21
-1193.39636318144
 31
0.0
  0
INSERT
  5
3CCA9
  8
回07-寸法
  6
CONTINUOUS
 62
     5
  2
_OPEN
 10
263.8942658415122
 20
-1181.39636318144
 30
0.0
 41
2.0
 42
2.0
 43
2.0
 50
270.0
  0
INSERT
  5
3CCAA
  8
回07-寸法
  6
CONTINUOUS
 62
     5
  2
_OPEN
 10
263.8942658415122
 20
-1193.39636318144
 30
0.0
 41
2.0
 42
2.0
 43
2.0
 50
90.0
  0
TEXT
  5
3CCAB
  8
回07-寸法
  6
CONTINUOUS
 62
     5
 10
263.1442658415124
 20
-1220.811522493753
 30
0.0
 40
5.0
  1
3[0.118]
 50
90.0
1001
ACAD
1000
MTEXTBEGIN
1070
    73
1070
     1
1070
    44
1040
1.0
1070
    74
1070
     0
1000
MTEXTEND
  0
POINT
  5
3CCAC
  8
DEFPOINTS
  6
CONTINUOUS
 62
     0
 10
289.4732499400141
 20
-1181.39636318144
 30
0.0
  0
POINT
  5
3CCAD
  8
DEFPOINTS
  6
CONTINUOUS
 62
     0
 10
289.4732499400141
 20
-1193.39636318144
 30
0.0
  0
POINT
  5
3CCAE
  8
DEFPOINTS
  6
CONTINUOUS
 62
     0
 10
263.8942658415122
 20
-1193.39636318144
 30
0.0
  0
ENDBLK
  5
3CC45
  8
0
 62
     7
  0
BLOCK
  8
0
  2
*D3635
 70
     1
 10
0.0
 20
0.0
 30
0.0
  3
*D3635
  1

  0
LINE
  5
3CC99
  8
回07-寸法
  6
CONTINUOUS
 62
     5
 10
289.4732499400141
 20
-1193.39636318144
 30
0.0
 11
272.664988320224
 21
-1193.39636318144
 31
0.0
  0
LINE
  5
3CC9A
  8
回07-寸法
  6
CONTINUOUS
 62
     5
 10
289.4732499400141
 20
-1189.39636318144
 30
0.0
 11
272.664988320224
 21
-1189.39636318144
 31
0.0
  0
LINE
  5
3CC9B
  8
回07-寸法
  6
CONTINUOUS
 62
     5
 10
273.664988320224
 20
-1187.39636318144
 30
0.0
 11
273.664988320224
 21
-1185.39636318144
 31
0.0
  0
LINE
  5
3CC9C
  8
回07-寸法
  6
CONTINUOUS
 62
     5
 10
273.664988320224
 20
-1195.39636318144
 30
0.0
 11
273.664988320224
 21
-1221.232679161427
 31
0.0
  0
LINE
  5
3CC9D
  8
回07-寸法
  6
CONTINUOUS
 62
     5
 10
273.664988320224
 20
-1189.39636318144
 30
0.0
 11
273.664988320224
 21
-1193.39636318144
 31
0.0
  0
INSERT
  5
3CC9E
  8
回07-寸法
  6
CONTINUOUS
 62
     5
  2
_OPEN
 10
273.664988320224
 20
-1189.39636318144
 30
0.0
 41
2.0
 42
2.0
 43
2.0
 50
270.0
  0
INSERT
  5
3CC9F
  8
回07-寸法
  6
CONTINUOUS
 62
     5
  2
_OPEN
 10
273.664988320224
 20
-1193.39636318144
 30
0.0
 41
2.0
 42
2.0
 43
2.0
 50
90.0
  0
TEXT
  5
3CCA0
  8
回07-寸法
  6
CONTINUOUS
 62
     5
 10
272.915088163728
 20
-1221.482969256509
 30
0.0
 40
5.0
  1
1[0.039]
 50
90.0
1001
ACAD
1000
MTEXTBEGIN
1070
    73
1070
     1
1070
    44
1040
1.0
1070
    74
1070
     0
1000
MTEXTEND
  0
POINT
  5
3CCA1
  8
DEFPOINTS
  6
CONTINUOUS
 62
     0
 10
289.4732499400141
 20
-1193.39636318144
 30
0.0
  0
POINT
  5
3CCA2
  8
DEFPOINTS
  6
CONTINUOUS
 62
     0
 10
289.4732499400141
 20
-1189.39636318144
 30
0.0
  0
POINT
  5
3CCA3
  8
DEFPOINTS
  6
CONTINUOUS
 62
     0
 10
273.664988320224
 20
-1189.39636318144
 30
0.0
  0
ENDBLK
  5
3CC53
  8
0
 62
     7
  0
BLOCK
  8
0
  2
*D3736
 70
     1
 10
0.0
 20
0.0
 30
0.0
  3
*D3736
  1

  0
LINE
  5
3CC8E
  8
回08-記事
  6
CONTINUOUS
 62
     5
 10
289.4732499400141
 20
-1192.19636318144
 30
0.0
 11
282.0351682844735
 21
-1192.19636318144
 31
0.0
  0
LINE
  5
3CC8F
  8
回08-記事
  6
CONTINUOUS
 62
     5
 10
289.4732499400141
 20
-1194.59636318144
 30
0.0
 11
282.0351682844735
 21
-1194.59636318144
 31
0.0
  0
LINE
  5
3CC90
  8
回08-記事
  6
CONTINUOUS
 62
     5
 10
283.0351682844735
 20
-1190.19636318144
 30
0.0
 11
283.0351682844735
 21
-1188.19636318144
 31
0.0
  0
LINE
  5
3CC91
  8
回08-記事
  6
CONTINUOUS
 62
     5
 10
283.0351682844735
 20
-1196.59636318144
 30
0.0
 11
283.0351682844735
 21
-1226.600300189314
 31
0.0
  0
LINE
  5
3CC92
  8
回08-記事
  6
CONTINUOUS
 62
     5
 10
283.0351682844735
 20
-1192.19636318144
 30
0.0
 11
283.0351682844735
 21
-1194.59636318144
 31
0.0
  0
INSERT
  5
3CC93
  8
回08-記事
  6
CONTINUOUS
 62
     5
  2
_OPEN
 10
283.0351682844735
 20
-1192.19636318144
 30
0.0
 41
2.0
 42
2.0
 43
2.0
 50
270.0
  0
INSERT
  5
3CC94
  8
回08-記事
  6
CONTINUOUS
 62
     5
  2
_OPEN
 10
283.0351682844735
 20
-1194.59636318144
 30
0.0
 41
2.0
 42
2.0
 43
2.0
 50
90.0
  0
TEXT
  5
3CC95
  8
回08-記事
  6
CONTINUOUS
 62
     5
 10
282.2851682844737
 20
-1226.84636318144
 30
0.0
 40
5.0
  1
0.6[0.024]
 50
90.0
1001
ACAD
1000
MTEXTBEGIN
1070
    73
1070
     1
1070
    44
1040
1.0
1070
    74
1070
     0
1000
MTEXTEND
  0
POINT
  5
3CC96
  8
DEFPOINTS
  6
CONTINUOUS
 62
     0
 10
289.4732499400141
 20
-1192.19636318144
 30
0.0
  0
POINT
  5
3CC97
  8
DEFPOINTS
  6
CONTINUOUS
 62
     0
 10
289.4732499400141
 20
-1194.59636318144
 30
0.0
  0
POINT
  5
3CC98
  8
DEFPOINTS
  6
CONTINUOUS
 62
     0
 10
283.0351682844735
 20
-1194.59636318144
 30
0.0
  0
ENDBLK
  5
3CC61
  8
0
 62
     7
  0
BLOCK
  8
0
  2
*D3837
 70
     1
 10
0.0
 20
0.0
 30
0.0
  3
*D3837
  1

  0
LINE
  5
3D0AA
  8
回08-記事
  6
CONTINUOUS
 62
     5
 10
1687.028830770479
 20
-1282.180074794192
 30
0.0
 11
1687.028830770479
 21
-1258.996348508903
 31
0.0
  0
LINE
  5
3D0AB
  8
回08-記事
  6
CONTINUOUS
 62
     5
 10
1686.528830770479
 20
-1276.180074794192
 30
0.0
 11
1686.528830770479
 21
-1258.996348508903
 31
0.0
  0
LINE
  5
3D0AC
  8
回08-記事
  6
CONTINUOUS
 62
     5
 10
1689.028830770479
 20
-1259.996348508903
 30
0.0
 11
1691.028830770479
 21
-1259.996348508903
 31
0.0
  0
LINE
  5
3D0AD
  8
回08-記事
  6
CONTINUOUS
 62
     5
 10
1684.528830770479
 20
-1259.996348508903
 30
0.0
 11
1648.032767778353
 21
-1259.996348508903
 31
0.0
  0
LINE
  5
3D0AE
  8
回08-記事
  6
CONTINUOUS
 62
     5
 10
1687.028830770479
 20
-1259.996348508903
 30
0.0
 11
1686.528830770479
 21
-1259.996348508903
 31
0.0
  0
INSERT
  5
3D0AF
  8
回08-記事
  6
CONTINUOUS
 62
     5
  2
_OPEN
 10
1687.028830770479
 20
-1259.996348508903
 30
0.0
 41
2.0
 42
2.0
 43
2.0
 50
180.0
  0
INSERT
  5
3D0B0
  8
回08-記事
  6
CONTINUOUS
 62
     5
  2
_OPEN
 10
1686.528830770479
 20
-1259.996348508903
 30
0.0
 41
2.0
 42
2.0
 43
2.0
  0
TEXT
  5
3D0B1
  8
回08-記事
  6
CONTINUOUS
 62
     5
 10
1647.780799274416
 20
-1259.246348508903
 30
0.0
 40
5.0
  1
(0.5 [0.020])
1001
ACAD
1000
MTEXTBEGIN
1070
    73
1070
     1
1070
    44
1040
1.0
1070
    74
1070
     0
1000
MTEXTEND
  0
POINT
  5
3D0B2
  8
DEFPOINTS
  6
CONTINUOUS
 62
     0
 10
1687.028830770479
 20
-1282.180074794192
 30
0.0
  0
POINT
  5
3D0B3
  8
DEFPOINTS
  6
CONTINUOUS
 62
     0
 10
1686.528830770479
 20
-1276.180074794192
 30
0.0
  0
POINT
  5
3D0B4
  8
DEFPOINTS
  6
CONTINUOUS
 62
     0
 10
1686.528830770479
 20
-1259.996348508903
 30
0.0
  0
ENDBLK
  5
3CEC8
  8
0
 62
     7
  0
BLOCK
  8
0
  2
*D3938
 70
     1
 10
0.0
 20
0.0
 30
0.0
  3
*D3938
  1

  0
LINE
  5
3D0B5
  8
回08-記事
  6
CONTINUOUS
 62
     5
 10
1425.028830770479
 20
-1276.180074794192
 30
0.0
 11
1425.028830770479
 21
-1263.105889292883
 31
0.0
  0
LINE
  5
3D0B6
  8
回08-記事
  6
CONTINUOUS
 62
     5
 10
1425.528830770479
 20
-1271.680074794192
 30
0.0
 11
1425.528830770479
 21
-1263.105889292883
 31
0.0
  0
LINE
  5
3D0B7
  8
回08-記事
  6
CONTINUOUS
 62
     5
 10
1423.028830770479
 20
-1264.105889292883
 30
0.0
 11
1421.028830770479
 21
-1264.105889292883
 31
0.0
  0
LINE
  5
3D0B8
  8
回08-記事
  6
CONTINUOUS
 62
     5
 10
1427.528830770479
 20
-1264.105889292883
 30
0.0
 11
1464.524893762605
 21
-1264.105889292883
 31
0.0
  0
LINE
  5
3D0B9
  8
回08-記事
  6
CONTINUOUS
 62
     5
 10
1425.028830770479
 20
-1264.105889292883
 30
0.0
 11
1425.528830770479
 21
-1264.105889292883
 31
0.0
  0
INSERT
  5
3D0BA
  8
回08-記事
  6
CONTINUOUS
 62
     5
  2
_OPEN
 10
1425.028830770479
 20
-1264.105889292883
 30
0.0
 41
2.0
 42
2.0
 43
2.0
  0
INSERT
  5
3D0BB
  8
回08-記事
  6
CONTINUOUS
 62
     5
  2
_OPEN
 10
1425.528830770479
 20
-1264.105889292883
 30
0.0
 41
2.0
 42
2.0
 43
2.0
 50
180.0
  0
TEXT
  5
3D0BC
  8
回08-記事
  6
CONTINUOUS
 62
     5
 10
1429.776862266542
 20
-1263.355889292883
 30
0.0
 40
5.0
  1
(0.5 [0.020])
1001
ACAD
1000
MTEXTBEGIN
1070
    73
1070
     1
1070
    44
1040
1.0
1070
    74
1070
     0
1000
MTEXTEND
  0
POINT
  5
3D0BD
  8
DEFPOINTS
  6
CONTINUOUS
 62
     0
 10
1425.028830770479
 20
-1276.180074794192
 30
0.0
  0
POINT
  5
3D0BE
  8
DEFPOINTS
  6
CONTINUOUS
 62
     0
 10
1425.528830770479
 20
-1271.680074794192
 30
0.0
  0
POINT
  5
3D0BF
  8
DEFPOINTS
  6
CONTINUOUS
 62
     0
 10
1425.528830770479
 20
-1264.105889292883
 30
0.0
  0
ENDBLK
  5
3CED6
  8
0
 62
     7
  0
BLOCK
  8
0
  2
*D4039
 70
     1
 10
0.0
 20
0.0
 30
0.0
  3
*D4039
  1

  0
LINE
  5
3D0C0
  8
回07-寸法
 62
     5
 10
1434.528830770479
 20
-1024.97817747591
 30
0.0
 11
1434.528830770479
 21
-998.7467123580499
 31
0.0
  0
LINE
  5
3D0C1
  8
回07-寸法
 62
     5
 10
1681.528830770479
 20
-1024.97817747591
 30
0.0
 11
1681.528830770479
 21
-998.7467123580499
 31
0.0
  0
LINE
  5
3D0C2
  8
回07-寸法
 62
     5
 10
1436.528830770479
 20
-999.7467123580499
 30
0.0
 11
1679.528830770479
 21
-999.7467123580499
 31
0.0
  0
INSERT
  5
3D0C3
  8
回07-寸法
 62
     5
  2
_OPEN
 10
1434.528830770479
 20
-999.7467123580499
 30
0.0
 41
2.0
 42
2.0
 43
2.0
 50
180.0
  0
INSERT
  5
3D0C4
  8
回07-寸法
 62
     5
  2
_OPEN
 10
1681.528830770479
 20
-999.7467123580499
 30
0.0
 41
2.0
 42
2.0
 43
2.0
  0
TEXT
  5
3D0C5
  8
回07-寸法
 62
     5
 10
1520.339792787787
 20
-998.9955039605007
 30
0.0
 40
5.0
  1
247 [9.724] (ACTIVE AREA)
1001
ACAD
1000
MTEXTBEGIN
1070
    73
1070
     1
1070
    44
1040
1.0
1070
    74
1070
     0
1000
MTEXTEND
  0
POINT
  5
3D0C6
  8
DEFPOINTS
 62
     0
 10
1434.528830770479
 20
-1024.97817747591
 30
0.0
  0
POINT
  5
3D0C7
  8
DEFPOINTS
 62
     0
 10
1681.528830770479
 20
-1024.97817747591
 30
0.0
  0
POINT
  5
3D0C8
  8
DEFPOINTS
 62
     0
 10
1681.528830770479
 20
-999.7467123580499
 30
0.0
  0
ENDBLK
  5
3CEE4
  8
0
 62
     7
  0
BLOCK
  8
0
  2
*D4140
 70
     1
 10
0.0
 20
0.0
 30
0.0
  3
*D4140
  1

  0
LINE
  5
3D0C9
  8
回07-寸法
 62
     5
 10
1433.028830770479
 20
-1023.47817747591
 30
0.0
 11
1433.028830770479
 21
-983.9217772271476
 31
0.0
  0
LINE
  5
3D0CA
  8
回07-寸法
 62
     5
 10
1683.028830770478
 20
-1023.47817747591
 30
0.0
 11
1683.028830770478
 21
-983.9217772271476
 31
0.0
  0
LINE
  5
3D0CB
  8
回07-寸法
 62
     5
 10
1435.028830770479
 20
-984.9217772271476
 30
0.0
 11
1681.028830770478
 21
-984.9217772271476
 31
0.0
  0
INSERT
  5
3D0CC
  8
回07-寸法
 62
     5
  2
_OPEN
 10
1433.028830770479
 20
-984.9217772271476
 30
0.0
 41
2.0
 42
2.0
 43
2.0
 50
180.0
  0
INSERT
  5
3D0CD
  8
回07-寸法
 62
     5
  2
_OPEN
 10
1683.028830770478
 20
-984.9217772271476
 30
0.0
 41
2.0
 42
2.0
 43
2.0
  0
TEXT
  5
3D0CE
  8
回07-寸法
 62
     5
 10
1519.510452365439
 20
-984.1705688295984
 30
0.0
 40
5.0
  1
250 [9.843] (VIEWING AREA)
1001
ACAD
1000
MTEXTBEGIN
1070
    73
1070
     1
1070
    44
1040
1.0
1070
    74
1070
     0
1000
MTEXTEND
  0
POINT
  5
3D0CF
  8
DEFPOINTS
 62
     0
 10
1433.028830770479
 20
-1023.47817747591
 30
0.0
  0
POINT
  5
3D0D0
  8
DEFPOINTS
 62
     0
 10
1683.028830770478
 20
-1023.47817747591
 30
0.0
  0
POINT
  5
3D0D1
  8
DEFPOINTS
 62
     0
 10
1683.028830770478
 20
-984.9217772271476
 30
0.0
  0
ENDBLK
  5
3CEF0
  8
0
 62
     7
  0
BLOCK
  8
0
  2
*D4241
 70
     1
 10
0.0
 20
0.0
 30
0.0
  3
*D4241
  1

  0
LINE
  5
3D0D2
  8
回07-寸法
 62
     5
 10
1425.028830770478
 20
-1017.22817747591
 30
0.0
 11
1425.028830770478
 21
-957.9974143939196
 31
0.0
  0
LINE
  5
3D0D3
  8
回07-寸法
 62
     5
 10
1688.028830770478
 20
-1017.22817747591
 30
0.0
 11
1688.028830770478
 21
-957.9974143939196
 31
0.0
  0
LINE
  5
3D0D4
  8
回07-寸法
 62
     5
 10
1427.028830770478
 20
-958.9974143939198
 30
0.0
 11
1686.028830770478
 21
-958.9974143939198
 31
0.0
  0
INSERT
  5
3D0D5
  8
回07-寸法
 62
     5
  2
_OPEN
 10
1425.028830770478
 20
-958.9974143939198
 30
0.0
 41
2.0
 42
2.0
 43
2.0
 50
180.0
  0
INSERT
  5
3D0D6
  8
回07-寸法
 62
     5
  2
_OPEN
 10
1688.028830770478
 20
-958.9974143939198
 30
0.0
 41
2.0
 42
2.0
 43
2.0
  0
INSERT
  5
3D0D7
  8
回07-寸法
 62
     5
 66
     1
  2
*X104102
 10
0.0
 20
0.0
 30
0.0
  0
SEQEND
  5
3D4C5
  8
回08-記事
  6
CONTINUOUS
 62
     7
  0
POINT
  5
3D0D8
  8
DEFPOINTS
 62
     0
 10
1425.028830770478
 20
-1017.22817747591
 30
0.0
  0
POINT
  5
3D0D9
  8
DEFPOINTS
 62
     0
 10
1688.028830770478
 20
-1017.22817747591
 30
0.0
  0
POINT
  5
3D0DA
  8
DEFPOINTS
 62
     0
 10
1688.028830770478
 20
-958.9974143939198
 30
0.0
  0
ENDBLK
  5
3CEFC
  8
0
 62
     7
  0
BLOCK
  8
0
  2
*D4342
 70
     1
 10
0.0
 20
0.0
 30
0.0
  3
*D4342
  1

  0
LINE
  5
3D0DB
  8
回07-寸法
  6
CONTINUOUS
 62
     5
 10
1434.528830770479
 20
-1024.97817747591
 30
0.0
 11
1434.528830770479
 21
-998.7467123580499
 31
0.0
  0
LINE
  5
3D0DC
  8
回07-寸法
  6
CONTINUOUS
 62
     5
 10
1425.028830770479
 20
-1017.22817747591
 30
0.0
 11
1425.028830770479
 21
-998.7467123580499
 31
0.0
  0
LINE
  5
3D0DD
  8
回07-寸法
  6
CONTINUOUS
 62
     5
 10
1436.528830770479
 20
-999.7467123580499
 30
0.0
 11
1438.528830770479
 21
-999.7467123580499
 31
0.0
  0
LINE
  5
3D0DE
  8
回07-寸法
  6
CONTINUOUS
 62
     5
 10
1423.028830770479
 20
-999.7467123580499
 30
0.0
 11
1389.821723989293
 21
-999.7467123580499
 31
0.0
  0
LINE
  5
3D0DF
  8
回07-寸法
  6
CONTINUOUS
 62
     5
 10
1434.528830770479
 20
-999.7467123580499
 30
0.0
 11
1425.028830770479
 21
-999.7467123580499
 31
0.0
  0
INSERT
  5
3D0E0
  8
回07-寸法
  6
CONTINUOUS
 62
     5
  2
_OPEN
 10
1434.528830770479
 20
-999.7467123580499
 30
0.0
 41
2.0
 42
2.0
 43
2.0
 50
180.0
  0
INSERT
  5
3D0E1
  8
回07-寸法
  6
CONTINUOUS
 62
     5
  2
_OPEN
 10
1425.028830770479
 20
-999.7467123580499
 30
0.0
 41
2.0
 42
2.0
 43
2.0
  0
TEXT
  5
3D0E2
  8
回07-寸法
  6
CONTINUOUS
 62
     5
 10
1389.657225537251
 20
-998.9967123580498
 30
0.0
 40
5.0
  1
9.5 [0.374]
1001
ACAD
1000
MTEXTBEGIN
1070
    73
1070
     1
1070
    44
1040
1.0
1070
    74
1070
     0
1000
MTEXTEND
  0
POINT
  5
3D0E3
  8
DEFPOINTS
  6
CONTINUOUS
 62
     0
 10
1434.528830770479
 20
-1024.97817747591
 30
0.0
  0
POINT
  5
3D0E4
  8
DEFPOINTS
  6
CONTINUOUS
 62
     0
 10
1425.028830770479
 20
-1017.22817747591
 30
0.0
  0
POINT
  5
3D0E5
  8
DEFPOINTS
  6
CONTINUOUS
 62
     0
 10
1425.028830770479
 20
-999.7467123580499
 30
0.0
  0
ENDBLK
  5
3CF08
  8
0
 62
     7
  0
BLOCK
  8
0
  2
*D4443
 70
     1
 10
0.0
 20
0.0
 30
0.0
  3
*D4443
  1

  0
LINE
  5
3D0E6
  8
回07-寸法
  6
CONTINUOUS
 62
     5
 10
1433.028830770479
 20
-1023.47817747591
 30
0.0
 11
1433.028830770479
 21
-983.9217772271476
 31
0.0
  0
LINE
  5
3D0E7
  8
回07-寸法
  6
CONTINUOUS
 62
     5
 10
1425.028830770478
 20
-1017.22817747591
 30
0.0
 11
1425.028830770478
 21
-983.9217772271476
 31
0.0
  0
LINE
  5
3D0E8
  8
回07-寸法
  6
CONTINUOUS
 62
     5
 10
1435.028830770479
 20
-984.9217772271476
 30
0.0
 11
1437.028830770479
 21
-984.9217772271476
 31
0.0
  0
LINE
  5
3D0E9
  8
回07-寸法
  6
CONTINUOUS
 62
     5
 10
1423.028830770478
 20
-984.9217772271476
 30
0.0
 11
1396.528830770478
 21
-984.9217772271476
 31
0.0
  0
LINE
  5
3D0EA
  8
回07-寸法
  6
CONTINUOUS
 62
     5
 10
1433.028830770479
 20
-984.9217772271476
 30
0.0
 11
1425.028830770478
 21
-984.9217772271476
 31
0.0
  0
INSERT
  5
3D0EB
  8
回07-寸法
  6
CONTINUOUS
 62
     5
  2
_OPEN
 10
1433.028830770479
 20
-984.9217772271476
 30
0.0
 41
2.0
 42
2.0
 43
2.0
 50
180.0
  0
INSERT
  5
3D0EC
  8
回07-寸法
  6
CONTINUOUS
 62
     5
  2
_OPEN
 10
1425.028830770478
 20
-984.9217772271476
 30
0.0
 41
2.0
 42
2.0
 43
2.0
  0
TEXT
  5
3D0ED
  8
回07-寸法
  6
CONTINUOUS
 62
     5
 10
1396.278830770478
 20
-984.1717772271477
 30
0.0
 40
5.0
  1
8 [0.315]
1001
ACAD
1000
MTEXTBEGIN
1070
    73
1070
     1
1070
    44
1040
1.0
1070
    74
1070
     0
1000
MTEXTEND
  0
POINT
  5
3D0EE
  8
DEFPOINTS
  6
CONTINUOUS
 62
     0
 10
1433.028830770479
 20
-1023.47817747591
 30
0.0
  0
POINT
  5
3D0EF
  8
DEFPOINTS
  6
CONTINUOUS
 62
     0
 10
1425.028830770478
 20
-1017.22817747591
 30
0.0
  0
POINT
  5
3D0F0
  8
DEFPOINTS
  6
CONTINUOUS
 62
     0
 10
1425.028830770478
 20
-984.9217772271476
 30
0.0
  0
ENDBLK
  5
3CF16
  8
0
 62
     7
  0
BLOCK
  8
0
  2
*D4544
 70
     1
 10
0.0
 20
0.0
 30
0.0
  3
*D4544
  1

  0
LINE
  5
3D0F1
  8
回07-寸法
  6
CONTINUOUS
 62
     5
 10
1432.528830770479
 20
-1022.67817747591
 30
0.0
 11
1432.528830770479
 21
-970.9042869722873
 31
0.0
  0
LINE
  5
3D0F2
  8
回07-寸法
  6
CONTINUOUS
 62
     5
 10
1425.028830770479
 20
-1017.22817747591
 30
0.0
 11
1425.028830770479
 21
-970.9042869722873
 31
0.0
  0
LINE
  5
3D0F3
  8
回07-寸法
  6
CONTINUOUS
 62
     5
 10
1434.528830770479
 20
-971.9042869722873
 30
0.0
 11
1436.528830770479
 21
-971.9042869722873
 31
0.0
  0
LINE
  5
3D0F4
  8
回07-寸法
  6
CONTINUOUS
 62
     5
 10
1423.028830770479
 20
-971.9042869722873
 30
0.0
 11
1355.11254022037
 21
-971.9042869722873
 31
0.0
  0
LINE
  5
3D0F5
  8
回07-寸法
  6
CONTINUOUS
 62
     5
 10
1432.528830770479
 20
-971.9042869722873
 30
0.0
 11
1425.028830770479
 21
-971.9042869722873
 31
0.0
  0
INSERT
  5
3D0F6
  8
回07-寸法
  6
CONTINUOUS
 62
     5
  2
_OPEN
 10
1432.528830770479
 20
-971.9042869722873
 30
0.0
 41
2.0
 42
2.0
 43
2.0
 50
180.0
  0
INSERT
  5
3D0F7
  8
回07-寸法
  6
CONTINUOUS
 62
     5
  2
_OPEN
 10
1425.028830770479
 20
-971.9042869722873
 30
0.0
 41
2.0
 42
2.0
 43
2.0
  0
INSERT
  5
3D0F8
  8
回07-寸法
  6
CONTINUOUS
 62
     5
 66
     1
  2
*X105103
 10
0.0
 20
0.0
 30
0.0
  0
SEQEND
  5
3D4CB
  8
回08-記事
  6
CONTINUOUS
 62
     7
  0
POINT
  5
3D0F9
  8
DEFPOINTS
  6
CONTINUOUS
 62
     0
 10
1432.528830770479
 20
-1022.67817747591
 30
0.0
  0
POINT
  5
3D0FA
  8
DEFPOINTS
  6
CONTINUOUS
 62
     0
 10
1425.028830770479
 20
-1017.22817747591
 30
0.0
  0
POINT
  5
3D0FB
  8
DEFPOINTS
  6
CONTINUOUS
 62
     0
 10
1425.028830770479
 20
-971.9042869722873
 30
0.0
  0
ENDBLK
  5
3CF24
  8
0
 62
     7
  0
BLOCK
  8
0
  2
*D4645
 70
     1
 10
0.0
 20
0.0
 30
0.0
  3
*D4645
  1

  0
LINE
  5
3D0FC
  8
回07-寸法
  6
CONTINUOUS
 62
     5
 10
1432.528830770479
 20
-1022.67817747591
 30
0.0
 11
1432.528830770479
 21
-970.9042869722873
 31
0.0
  0
LINE
  5
3D0FD
  8
回07-寸法
  6
CONTINUOUS
 62
     5
 10
1683.528830770478
 20
-1022.67817747591
 30
0.0
 11
1683.528830770478
 21
-970.9042869722873
 31
0.0
  0
LINE
  5
3D0FE
  8
回07-寸法
  6
CONTINUOUS
 62
     5
 10
1434.528830770479
 20
-971.9042869722873
 30
0.0
 11
1681.528830770478
 21
-971.9042869722873
 31
0.0
  0
INSERT
  5
3D0FF
  8
回07-寸法
  6
CONTINUOUS
 62
     5
  2
_OPEN
 10
1432.528830770479
 20
-971.9042869722873
 30
0.0
 41
2.0
 42
2.0
 43
2.0
 50
180.0
  0
INSERT
  5
3D100
  8
回07-寸法
  6
CONTINUOUS
 62
     5
  2
_OPEN
 10
1683.528830770478
 20
-971.9042869722873
 30
0.0
 41
2.0
 42
2.0
 43
2.0
  0
TEXT
  5
3D101
  8
回07-寸法
  6
CONTINUOUS
 62
     5
 10
1542.019804849161
 20
-971.1530785747378
 30
0.0
 40
5.0
  1
251 [9.882]
1001
ACAD
1000
MTEXTBEGIN
1070
    73
1070
     1
1070
    44
1040
1.0
1070
    74
1070
     0
1000
MTEXTEND
  0
POINT
  5
3D102
  8
DEFPOINTS
  6
CONTINUOUS
 62
     0
 10
1432.528830770479
 20
-1022.67817747591
 30
0.0
  0
POINT
  5
3D103
  8
DEFPOINTS
  6
CONTINUOUS
 62
     0
 10
1683.528830770478
 20
-1022.67817747591
 30
0.0
  0
POINT
  5
3D104
  8
DEFPOINTS
  6
CONTINUOUS
 62
     0
 10
1683.528830770478
 20
-971.9042869722873
 30
0.0
  0
ENDBLK
  5
3CF32
  8
0
 62
     7
  0
BLOCK
  8
0
  2
*D4746
 70
     1
 10
0.0
 20
0.0
 30
0.0
  3
*D4746
  1

  0
LINE
  5
3D105
  8
回07-寸法
  6
CONTINUOUS
 62
     5
 10
1683.528830770478
 20
-1022.67817747591
 30
0.0
 11
1683.528830770478
 21
-970.9042869722873
 31
0.0
  0
LINE
  5
3D106
  8
回07-寸法
  6
CONTINUOUS
 62
     5
 10
1688.028830770479
 20
-1017.22817747591
 30
0.0
 11
1688.028830770479
 21
-970.9042869722873
 31
0.0
  0
LINE
  5
3D107
  8
回07-寸法
  6
CONTINUOUS
 62
     5
 10
1681.528830770478
 20
-971.9042869722873
 30
0.0
 11
1679.528830770478
 21
-971.9042869722873
 31
0.0
  0
LINE
  5
3D108
  8
回07-寸法
  6
CONTINUOUS
 62
     5
 10
1690.028830770479
 20
-971.9042869722873
 30
0.0
 11
1757.069611872841
 21
-971.9042869722873
 31
0.0
  0
LINE
  5
3D109
  8
回07-寸法
  6
CONTINUOUS
 62
     5
 10
1683.528830770478
 20
-971.9042869722873
 30
0.0
 11
1688.028830770479
 21
-971.9042869722873
 31
0.0
  0
INSERT
  5
3D10A
  8
回07-寸法
  6
CONTINUOUS
 62
     5
  2
_OPEN
 10
1683.528830770478
 20
-971.9042869722873
 30
0.0
 41
2.0
 42
2.0
 43
2.0
  0
INSERT
  5
3D10B
  8
回07-寸法
  6
CONTINUOUS
 62
     5
  2
_OPEN
 10
1688.028830770479
 20
-971.9042869722873
 30
0.0
 41
2.0
 42
2.0
 43
2.0
 50
180.0
  0
INSERT
  5
3D10C
  8
回07-寸法
  6
CONTINUOUS
 62
     5
 66
     1
  2
*X106104
 10
0.0
 20
0.0
 30
0.0
  0
SEQEND
  5
3D4D1
  8
回08-記事
  6
CONTINUOUS
 62
     7
  0
POINT
  5
3D10D
  8
DEFPOINTS
  6
CONTINUOUS
 62
     0
 10
1683.528830770478
 20
-1022.67817747591
 30
0.0
  0
POINT
  5
3D10E
  8
DEFPOINTS
  6
CONTINUOUS
 62
     0
 10
1688.028830770479
 20
-1017.22817747591
 30
0.0
  0
POINT
  5
3D10F
  8
DEFPOINTS
  6
CONTINUOUS
 62
     0
 10
1688.028830770479
 20
-971.9042869722873
 30
0.0
  0
ENDBLK
  5
3CF3E
  8
0
 62
     7
  0
BLOCK
  8
0
  2
*D4847
 70
     1
 10
0.0
 20
0.0
 30
0.0
  3
*D4847
  1

  0
LINE
  5
3D110
  8
回07-寸法
  6
CONTINUOUS
 62
     5
 10
1683.528830770479
 20
-1022.67817747591
 30
0.0
 11
1770.653371545851
 21
-1022.67817747591
 31
0.0
  0
LINE
  5
3D111
  8
回07-寸法
  6
CONTINUOUS
 62
     5
 10
1688.028830770479
 20
-1017.228177475911
 30
0.0
 11
1770.653371545851
 21
-1017.228177475911
 31
0.0
  0
LINE
  5
3D112
  8
回07-寸法
  6
CONTINUOUS
 62
     5
 10
1769.653371545851
 20
-1024.67817747591
 30
0.0
 11
1769.653371545851
 21
-1026.67817747591
 31
0.0
  0
LINE
  5
3D113
  8
回07-寸法
  6
CONTINUOUS
 62
     5
 10
1769.653371545851
 20
-1015.228177475911
 30
0.0
 11
1769.653371545851
 21
-944.6873963735486
 31
0.0
  0
LINE
  5
3D114
  8
回07-寸法
  6
CONTINUOUS
 62
     5
 10
1769.653371545851
 20
-1022.67817747591
 30
0.0
 11
1769.653371545851
 21
-1017.228177475911
 31
0.0
  0
INSERT
  5
3D115
  8
回07-寸法
  6
CONTINUOUS
 62
     5
  2
_OPEN
 10
1769.653371545851
 20
-1022.67817747591
 30
0.0
 41
2.0
 42
2.0
 43
2.0
 50
90.0
  0
INSERT
  5
3D116
  8
回07-寸法
  6
CONTINUOUS
 62
     5
  2
_OPEN
 10
1769.653371545851
 20
-1017.228177475911
 30
0.0
 41
2.0
 42
2.0
 43
2.0
 50
270.0
  0
INSERT
  5
3D117
  8
回07-寸法
  6
CONTINUOUS
 62
     5
 66
     1
  2
*X107105
 10
0.0
 20
0.0
 30
0.0
  0
SEQEND
  5
3D4D7
  8
回08-記事
  6
CONTINUOUS
 62
     7
  0
POINT
  5
3D118
  8
DEFPOINTS
  6
CONTINUOUS
 62
     0
 10
1683.528830770479
 20
-1022.67817747591
 30
0.0
  0
POINT
  5
3D119
  8
DEFPOINTS
  6
CONTINUOUS
 62
     0
 10
1688.028830770479
 20
-1017.228177475911
 30
0.0
  0
POINT
  5
3D11A
  8
DEFPOINTS
  6
CONTINUOUS
 62
     0
 10
1769.653371545851
 20
-1017.228177475911
 30
0.0
  0
ENDBLK
  5
3CF4C
  8
0
 62
     7
  0
BLOCK
  8
0
  2
*D4948
 70
     1
 10
0.0
 20
0.0
 30
0.0
  3
*D4948
  1

  0
LINE
  5
3D11B
  8
回07-寸法
  6
CONTINUOUS
 62
     5
 10
1681.528830770479
 20
-1024.97817747591
 30
0.0
 11
1681.528830770479
 21
-998.7467123580499
 31
0.0
  0
LINE
  5
3D11C
  8
回07-寸法
  6
CONTINUOUS
 62
     5
 10
1688.028830770479
 20
-1017.22817747591
 30
0.0
 11
1688.028830770479
 21
-998.7467123580499
 31
0.0
  0
LINE
  5
3D11D
  8
回07-寸法
  6
CONTINUOUS
 62
     5
 10
1679.528830770479
 20
-999.7467123580499
 30
0.0
 11
1677.528830770479
 21
-999.7467123580499
 31
0.0
  0
LINE
  5
3D11E
  8
回07-寸法
  6
CONTINUOUS
 62
     5
 10
1690.028830770479
 20
-999.7467123580499
 30
0.0
 11
1726.524893762605
 21
-999.7467123580499
 31
0.0
  0
LINE
  5
3D11F
  8
回07-寸法
  6
CONTINUOUS
 62
     5
 10
1681.528830770479
 20
-999.7467123580499
 30
0.0
 11
1688.028830770479
 21
-999.7467123580499
 31
0.0
  0
INSERT
  5
3D120
  8
回07-寸法
  6
CONTINUOUS
 62
     5
  2
_OPEN
 10
1681.528830770479
 20
-999.7467123580499
 30
0.0
 41
2.0
 42
2.0
 43
2.0
  0
INSERT
  5
3D121
  8
回07-寸法
  6
CONTINUOUS
 62
     5
  2
_OPEN
 10
1688.028830770479
 20
-999.7467123580499
 30
0.0
 41
2.0
 42
2.0
 43
2.0
 50
180.0
  0
TEXT
  5
3D122
  8
回07-寸法
  6
CONTINUOUS
 62
     5
 10
1691.776862266542
 20
-998.9967123580498
 30
0.0
 40
5.0
  1
(6.5 [0.256])
1001
ACAD
1000
MTEXTBEGIN
1070
    73
1070
     1
1070
    44
1040
1.0
1070
    74
1070
     0
1000
MTEXTEND
  0
POINT
  5
3D123
  8
DEFPOINTS
  6
CONTINUOUS
 62
     0
 10
1681.528830770479
 20
-1024.97817747591
 30
0.0
  0
POINT
  5
3D124
  8
DEFPOINTS
  6
CONTINUOUS
 62
     0
 10
1688.028830770479
 20
-1017.22817747591
 30
0.0
  0
POINT
  5
3D125
  8
DEFPOINTS
  6
CONTINUOUS
 62
     0
 10
1688.028830770479
 20
-999.7467123580499
 30
0.0
  0
ENDBLK
  5
3CF5A
  8
0
 62
     7
  0
BLOCK
  8
0
  2
*D5049
 70
     1
 10
0.0
 20
0.0
 30
0.0
  3
*D5049
  1

  0
LINE
  5
3D126
  8
回07-寸法
  6
CONTINUOUS
 62
     5
 10
1683.028830770478
 20
-1023.47817747591
 30
0.0
 11
1683.028830770478
 21
-983.9217772271476
 31
0.0
  0
LINE
  5
3D127
  8
回07-寸法
  6
CONTINUOUS
 62
     5
 10
1688.028830770479
 20
-1017.22817747591
 30
0.0
 11
1688.028830770479
 21
-983.9217772271476
 31
0.0
  0
LINE
  5
3D128
  8
回07-寸法
  6
CONTINUOUS
 62
     5
 10
1681.028830770478
 20
-984.9217772271476
 30
0.0
 11
1679.028830770478
 21
-984.9217772271476
 31
0.0
  0
LINE
  5
3D129
  8
回07-寸法
  6
CONTINUOUS
 62
     5
 10
1690.028830770479
 20
-984.9217772271476
 30
0.0
 11
1720.542365415077
 21
-984.9217772271476
 31
0.0
  0
LINE
  5
3D12A
  8
回07-寸法
  6
CONTINUOUS
 62
     5
 10
1683.028830770478
 20
-984.9217772271476
 30
0.0
 11
1688.028830770479
 21
-984.9217772271476
 31
0.0
  0
INSERT
  5
3D12B
  8
回07-寸法
  6
CONTINUOUS
 62
     5
  2
_OPEN
 10
1683.028830770478
 20
-984.9217772271476
 30
0.0
 41
2.0
 42
2.0
 43
2.0
  0
INSERT
  5
3D12C
  8
回07-寸法
  6
CONTINUOUS
 62
     5
  2
_OPEN
 10
1688.028830770479
 20
-984.9217772271476
 30
0.0
 41
2.0
 42
2.0
 43
2.0
 50
180.0
  0
TEXT
  5
3D12D
  8
回07-寸法
  6
CONTINUOUS
 62
     5
 10
1691.77657217146
 20
-984.1718770706515
 30
0.0
 40
5.0
  1
(5 [0.197])
1001
ACAD
1000
MTEXTBEGIN
1070
    73
1070
     1
1070
    44
1040
1.0
1070
    74
1070
     0
1000
MTEXTEND
  0
POINT
  5
3D12E
  8
DEFPOINTS
  6
CONTINUOUS
 62
     0
 10
1683.028830770478
 20
-1023.47817747591
 30
0.0
  0
POINT
  5
3D12F
  8
DEFPOINTS
  6
CONTINUOUS
 62
     0
 10
1688.028830770479
 20
-1017.22817747591
 30
0.0
  0
POINT
  5
3D130
  8
DEFPOINTS
  6
CONTINUOUS
 62
     0
 10
1688.028830770479
 20
-984.9217772271476
 30
0.0
  0
ENDBLK
  5
3CF68
  8
0
 62
     7
  0
BLOCK
  8
0
  2
*D5150
 70
     1
 10
0.0
 20
0.0
 30
0.0
  3
*D5150
  1

  0
LINE
  5
3D131
  8
回07-寸法
  6
CONTINUOUS
 62
     5
 10
1681.52883077048
 20
-1024.978177475911
 30
0.0
 11
1736.883552260731
 21
-1024.978177475911
 31
0.0
  0
LINE
  5
3D132
  8
回07-寸法
  6
CONTINUOUS
 62
     5
 10
1688.02883077048
 20
-1017.228177475911
 30
0.0
 11
1736.883552260731
 21
-1017.228177475911
 31
0.0
  0
LINE
  5
3D133
  8
回07-寸法
  6
CONTINUOUS
 62
     5
 10
1735.883552260731
 20
-1026.978177475911
 30
0.0
 11
1735.883552260731
 21
-1028.978177475911
 31
0.0
  0
LINE
  5
3D134
  8
回07-寸法
  6
CONTINUOUS
 62
     5
 10
1735.883552260731
 20
-1015.228177475911
 30
0.0
 11
1735.883552260731
 21
-975.2321144837848
 31
0.0
  0
LINE
  5
3D135
  8
回07-寸法
  6
CONTINUOUS
 62
     5
 10
1735.883552260731
 20
-1024.978177475911
 30
0.0
 11
1735.883552260731
 21
-1017.228177475911
 31
0.0
  0
INSERT
  5
3D136
  8
回07-寸法
  6
CONTINUOUS
 62
     5
  2
_OPEN
 10
1735.883552260731
 20
-1024.978177475911
 30
0.0
 41
2.0
 42
2.0
 43
2.0
 50
90.0
  0
INSERT
  5
3D137
  8
回07-寸法
  6
CONTINUOUS
 62
     5
  2
_OPEN
 10
1735.883552260731
 20
-1017.228177475911
 30
0.0
 41
2.0
 42
2.0
 43
2.0
 50
270.0
  0
TEXT
  5
3D138
  8
回07-寸法
  6
CONTINUOUS
 62
     5
 10
1735.13355226073
 20
-1013.480145979848
 30
0.0
 40
5.0
  1
(7.75 [0.305])
 50
90.0
1001
ACAD
1000
MTEXTBEGIN
1070
    73
1070
     1
1070
    44
1040
1.0
1070
    74
1070
     0
1000
MTEXTEND
  0
POINT
  5
3D139
  8
DEFPOINTS
  6
CONTINUOUS
 62
     0
 10
1681.52883077048
 20
-1024.978177475911
 30
0.0
  0
POINT
  5
3D13A
  8
DEFPOINTS
  6
CONTINUOUS
 62
     0
 10
1688.02883077048
 20
-1017.228177475911
 30
0.0
  0
POINT
  5
3D13B
  8
DEFPOINTS
  6
CONTINUOUS
 62
     0
 10
1735.883552260731
 20
-1017.228177475911
 30
0.0
  0
ENDBLK
  5
3CF76
  8
0
 62
     7
  0
BLOCK
  8
0
  2
*D5251
 70
     1
 10
0.0
 20
0.0
 30
0.0
  3
*D5251
  1

  0
LINE
  5
3D13C
  8
回07-寸法
  6
CONTINUOUS
 62
     5
 10
1683.028830770479
 20
-1023.478177475911
 30
0.0
 11
1754.108493468456
 21
-1023.478177475911
 31
0.0
  0
LINE
  5
3D13D
  8
回07-寸法
  6
CONTINUOUS
 62
     5
 10
1688.02883077048
 20
-1017.228177475911
 30
0.0
 11
1754.108493468456
 21
-1017.228177475911
 31
0.0
  0
LINE
  5
3D13E
  8
回07-寸法
  6
CONTINUOUS
 62
     5
 10
1753.108493468456
 20
-1025.47817747591
 30
0.0
 11
1753.108493468456
 21
-1027.47817747591
 31
0.0
  0
LINE
  5
3D13F
  8
回07-寸法
  6
CONTINUOUS
 62
     5
 10
1753.108493468456
 20
-1015.228177475911
 30
0.0
 11
1753.108493468456
 21
-974.7321144837847
 31
0.0
  0
LINE
  5
3D140
  8
回07-寸法
  6
CONTINUOUS
 62
     5
 10
1753.108493468456
 20
-1023.478177475911
 30
0.0
 11
1753.108493468456
 21
-1017.228177475911
 31
0.0
  0
INSERT
  5
3D141
  8
回07-寸法
  6
CONTINUOUS
 62
     5
  2
_OPEN
 10
1753.108493468456
 20
-1023.478177475911
 30
0.0
 41
2.0
 42
2.0
 43
2.0
 50
90.0
  0
INSERT
  5
3D142
  8
回07-寸法
  6
CONTINUOUS
 62
     5
  2
_OPEN
 10
1753.108493468456
 20
-1017.228177475911
 30
0.0
 41
2.0
 42
2.0
 43
2.0
 50
270.0
  0
TEXT
  5
3D143
  8
回07-寸法
  6
CONTINUOUS
 62
     5
 10
1752.358493468455
 20
-1013.480145979848
 30
0.0
 40
5.0
  1
(6.25 [0.246])
 50
90.0
1001
ACAD
1000
MTEXTBEGIN
1070
    73
1070
     1
1070
    44
1040
1.0
1070
    74
1070
     0
1000
MTEXTEND
  0
POINT
  5
3D144
  8
DEFPOINTS
  6
CONTINUOUS
 62
     0
 10
1683.028830770479
 20
-1023.478177475911
 30
0.0
  0
POINT
  5
3D145
  8
DEFPOINTS
  6
CONTINUOUS
 62
     0
 10
1688.02883077048
 20
-1017.228177475911
 30
0.0
  0
POINT
  5
3D146
  8
DEFPOINTS
  6
CONTINUOUS
 62
     0
 10
1753.108493468456
 20
-1017.228177475911
 30
0.0
  0
ENDBLK
  5
3CF84
  8
0
 62
     7
  0
BLOCK
  8
0
  2
*D5352
 70
     1
 10
0.0
 20
0.0
 30
0.0
  3
*D5352
  1

  0
LINE
  5
3D147
  8
回07-寸法
  6
CONTINUOUS
 62
     5
 10
1350.02883077048
 20
-1116.789879678761
 30
0.0
 11
1350.02883077048
 21
-1072.572148947709
 31
0.0
  0
LINE
  5
3D148
  8
回07-寸法
  6
CONTINUOUS
 62
     5
 10
1425.028830770478
 20
-1109.051053131444
 30
0.0
 11
1425.028830770478
 21
-1072.572148947709
 31
0.0
  0
LINE
  5
3D149
  8
回07-寸法
  6
CONTINUOUS
 62
     5
 10
1352.02883077048
 20
-1073.572148947709
 30
0.0
 11
1423.028830770478
 21
-1073.572148947709
 31
0.0
  0
INSERT
  5
3D14A
  8
回07-寸法
  6
CONTINUOUS
 62
     5
  2
_OPEN
 10
1350.02883077048
 20
-1073.572148947709
 30
0.0
 41
2.0
 42
2.0
 43
2.0
 50
180.0
  0
INSERT
  5
3D14B
  8
回07-寸法
  6
CONTINUOUS
 62
     5
  2
_OPEN
 10
1425.028830770478
 20
-1073.572148947709
 30
0.0
 41
2.0
 42
2.0
 43
2.0
  0
INSERT
  5
3D14C
  8
回07-寸法
  6
CONTINUOUS
 62
     5
 66
     1
  2
*X108106
 10
0.0
 20
0.0
 30
0.0
  0
SEQEND
  5
3D4E0
  8
回08-記事
  6
CONTINUOUS
 62
     7
  0
POINT
  5
3D14D
  8
DEFPOINTS
  6
CONTINUOUS
 62
     0
 10
1350.02883077048
 20
-1116.789879678761
 30
0.0
  0
POINT
  5
3D14E
  8
DEFPOINTS
  6
CONTINUOUS
 62
     0
 10
1425.028830770478
 20
-1109.051053131444
 30
0.0
  0
POINT
  5
3D14F
  8
DEFPOINTS
  6
CONTINUOUS
 62
     0
 10
1425.028830770478
 20
-1073.572148947709
 30
0.0
  0
ENDBLK
  5
3CF92
  8
0
 62
     7
  0
BLOCK
  8
0
  2
*D5453
 70
     1
 10
0.0
 20
0.0
 30
0.0
  3
*D5453
  1

  0
LINE
  5
3D150
  8
回07-寸法
  6
CONTINUOUS
 62
     5
 10
1350.528830770481
 20
-1120.228177475911
 30
0.0
 11
1334.123377467742
 21
-1120.228177475911
 31
0.0
  0
LINE
  5
3D151
  8
回07-寸法
  6
CONTINUOUS
 62
     5
 10
1350.528830770481
 20
-1115.228177475911
 30
0.0
 11
1334.123377467742
 21
-1115.228177475911
 31
0.0
  0
LINE
  5
3D152
  8
回07-寸法
  6
CONTINUOUS
 62
     5
 10
1335.123377467742
 20
-1113.22817747591
 30
0.0
 11
1335.123377467742
 21
-1111.22817747591
 31
0.0
  0
LINE
  5
3D153
  8
回07-寸法
  6
CONTINUOUS
 62
     5
 10
1335.123377467742
 20
-1122.228177475911
 30
0.0
 11
1335.123377467742
 21
-1171.845649128381
 31
0.0
  0
LINE
  5
3D154
  8
回07-寸法
  6
CONTINUOUS
 62
     5
 10
1335.123377467742
 20
-1115.228177475911
 30
0.0
 11
1335.123377467742
 21
-1120.228177475911
 31
0.0
  0
INSERT
  5
3D155
  8
回07-寸法
  6
CONTINUOUS
 62
     5
  2
_OPEN
 10
1335.123377467742
 20
-1115.228177475911
 30
0.0
 41
2.0
 42
2.0
 43
2.0
 50
270.0
  0
INSERT
  5
3D156
  8
回07-寸法
  6
CONTINUOUS
 62
     5
  2
_OPEN
 10
1335.123377467742
 20
-1120.228177475911
 30
0.0
 41
2.0
 42
2.0
 43
2.0
 50
90.0
  0
INSERT
  5
3D157
  8
回07-寸法
  6
CONTINUOUS
 62
     5
 66
     1
  2
*X109107
 10
0.0
 20
0.0
 30
0.0
  0
SEQEND
  5
3D4E9
  8
回08-記事
  6
CONTINUOUS
 62
     7
  0
POINT
  5
3D158
  8
DEFPOINTS
  6
CONTINUOUS
 62
     0
 10
1350.528830770481
 20
-1120.228177475911
 30
0.0
  0
POINT
  5
3D159
  8
DEFPOINTS
  6
CONTINUOUS
 62
     0
 10
1350.528830770481
 20
-1115.228177475911
 30
0.0
  0
POINT
  5
3D15A
  8
DEFPOINTS
  6
CONTINUOUS
 62
     0
 10
1335.123377467742
 20
-1115.228177475911
 30
0.0
  0
ENDBLK
  5
3CF9E
  8
0
 62
     7
  0
BLOCK
  8
0
  2
*D5554
 70
     1
 10
0.0
 20
0.0
 30
0.0
  3
*D5554
  1

  0
LINE
  5
3D2BC
  8
回07-寸法
  6
CONTINUOUS
 62
     5
 10
1350.52883077048
 20
-1115.22817747591
 30
0.0
 11
1334.123377467743
 21
-1115.22817747591
 31
0.0
  0
LINE
  5
3D2BD
  8
回07-寸法
  6
CONTINUOUS
 62
     5
 10
1425.028830770479
 20
-1017.22817747591
 30
0.0
 11
1334.123377467743
 21
-1017.22817747591
 31
0.0
  0
LINE
  5
3D2BE
  8
回07-寸法
  6
CONTINUOUS
 62
     5
 10
1335.123377467743
 20
-1113.22817747591
 30
0.0
 11
1335.123377467743
 21
-1019.22817747591
 31
0.0
  0
INSERT
  5
3D2BF
  8
回07-寸法
  6
CONTINUOUS
 62
     5
  2
_OPEN
 10
1335.123377467743
 20
-1115.22817747591
 30
0.0
 41
2.0
 42
2.0
 43
2.0
 50
270.0
  0
INSERT
  5
3D2C0
  8
回07-寸法
  6
CONTINUOUS
 62
     5
  2
_OPEN
 10
1335.123377467743
 20
-1017.22817747591
 30
0.0
 41
2.0
 42
2.0
 43
2.0
 50
90.0
  0
TEXT
  5
3D2C1
  8
回07-寸法
  6
CONTINUOUS
 62
     5
 10
1334.373377467743
 20
-1082.987203397228
 30
0.0
 40
5.0
  1
(98 [3.858])
 50
90.0
1001
ACAD
1000
MTEXTBEGIN
1070
    73
1070
     1
1070
    44
1040
1.0
1070
    74
1070
     0
1000
MTEXTEND
  0
POINT
  5
3D2C2
  8
DEFPOINTS
  6
CONTINUOUS
 62
     0
 10
1350.52883077048
 20
-1115.22817747591
 30
0.0
  0
POINT
  5
3D2C3
  8
DEFPOINTS
  6
CONTINUOUS
 62
     0
 10
1425.028830770479
 20
-1017.22817747591
 30
0.0
  0
POINT
  5
3D2C4
  8
DEFPOINTS
  6
CONTINUOUS
 62
     0
 10
1335.123377467743
 20
-1017.22817747591
 30
0.0
  0
ENDBLK
  5
3CFAC
  8
0
 62
     7
  0
BLOCK
  8
0
  2
*D5655
 70
     1
 10
0.0
 20
0.0
 30
0.0
  3
*D5655
  1

  0
LINE
  5
3D164
  8
回07-寸法
  6
CONTINUOUS
 62
     5
 10
1425.028830770478
 20
-1126.405301820377
 30
0.0
 11
1425.028830770478
 21
-1139.51412129615
 31
0.0
  0
LINE
  5
3D165
  8
回07-寸法
  6
CONTINUOUS
 62
     5
 10
1420.428053944004
 20
-1125.72817747591
 30
0.0
 11
1420.428053944004
 21
-1139.51412129615
 31
0.0
  0
LINE
  5
3D166
  8
回07-寸法
  6
CONTINUOUS
 62
     5
 10
1427.028830770478
 20
-1138.51412129615
 30
0.0
 11
1429.028830770478
 21
-1138.51412129615
 31
0.0
  0
LINE
  5
3D167
  8
回07-寸法
  6
CONTINUOUS
 62
     5
 10
1418.428053944004
 20
-1138.51412129615
 30
0.0
 11
1383.627867581344
 21
-1138.51412129615
 31
0.0
  0
LINE
  5
3D168
  8
回07-寸法
  6
CONTINUOUS
 62
     5
 10
1425.028830770478
 20
-1138.51412129615
 30
0.0
 11
1420.428053944004
 21
-1138.51412129615
 31
0.0
  0
INSERT
  5
3D169
  8
回07-寸法
  6
CONTINUOUS
 62
     5
  2
_OPEN
 10
1425.028830770478
 20
-1138.51412129615
 30
0.0
 41
2.0
 42
2.0
 43
2.0
 50
180.0
  0
INSERT
  5
3D16A
  8
回07-寸法
  6
CONTINUOUS
 62
     5
  2
_OPEN
 10
1420.428053944004
 20
-1138.51412129615
 30
0.0
 41
2.0
 42
2.0
 43
2.0
  0
TEXT
  5
3D16B
  8
回07-寸法
  6
CONTINUOUS
 62
     5
 10
1383.377867581345
 20
-1137.76412129615
 30
0.0
 40
5.0
  1
4.6 [0.181]
1001
ACAD
1000
MTEXTBEGIN
1070
    73
1070
     1
1070
    44
1040
1.0
1070
    74
1070
     0
1000
MTEXTEND
  0
POINT
  5
3D16C
  8
DEFPOINTS
  6
CONTINUOUS
 62
     0
 10
1425.028830770478
 20
-1126.405301820377
 30
0.0
  0
POINT
  5
3D16D
  8
DEFPOINTS
  6
CONTINUOUS
 62
     0
 10
1420.428053944004
 20
-1125.72817747591
 30
0.0
  0
POINT
  5
3D16E
  8
DEFPOINTS
  6
CONTINUOUS
 62
     0
 10
1420.428053944004
 20
-1138.51412129615
 30
0.0
  0
ENDBLK
  5
3CFB8
  8
0
 62
     7
  0
BLOCK
  8
0
  2
*D5756
 70
     1
 10
0.0
 20
0.0
 30
0.0
  3
*D5756
  1

  0
LINE
  5
3D16F
  8
回07-寸法
  6
CONTINUOUS
 62
     5
 10
1425.028830770478
 20
-1126.405301820377
 30
0.0
 11
1425.028830770478
 21
-1150.347133988398
 31
0.0
  0
LINE
  5
3D170
  8
回07-寸法
  6
CONTINUOUS
 62
     5
 10
1414.905598185344
 20
-1120.22817747591
 30
0.0
 11
1414.905598185344
 21
-1150.347133988398
 31
0.0
  0
LINE
  5
3D171
  8
回07-寸法
  6
CONTINUOUS
 62
     5
 10
1427.028830770478
 20
-1149.347133988398
 30
0.0
 11
1429.028830770478
 21
-1149.347133988398
 31
0.0
  0
LINE
  5
3D172
  8
回07-寸法
  6
CONTINUOUS
 62
     5
 10
1412.905598185344
 20
-1149.347133988398
 30
0.0
 11
1375.370654880401
 21
-1149.347133988398
 31
0.0
  0
LINE
  5
3D173
  8
回07-寸法
  6
CONTINUOUS
 62
     5
 10
1425.028830770478
 20
-1149.347133988398
 30
0.0
 11
1414.905598185344
 21
-1149.347133988398
 31
0.0
  0
INSERT
  5
3D174
  8
回07-寸法
  6
CONTINUOUS
 62
     5
  2
_OPEN
 10
1425.028830770478
 20
-1149.347133988398
 30
0.0
 41
2.0
 42
2.0
 43
2.0
 50
180.0
  0
INSERT
  5
3D175
  8
回07-寸法
  6
CONTINUOUS
 62
     5
  2
_OPEN
 10
1414.905598185344
 20
-1149.347133988398
 30
0.0
 41
2.0
 42
2.0
 43
2.0
  0
TEXT
  5
3D176
  8
回07-寸法
  6
CONTINUOUS
 62
     5
 10
1375.120074690238
 20
-1148.597333675406
 30
0.0
 40
5.0
  1
10.12 [0.399]
1001
ACAD
1000
MTEXTBEGIN
1070
    73
1070
     1
1070
    44
1040
1.0
1070
    74
1070
     0
1000
MTEXTEND
  0
POINT
  5
3D177
  8
DEFPOINTS
  6
CONTINUOUS
 62
     0
 10
1425.028830770478
 20
-1126.405301820377
 30
0.0
  0
POINT
  5
3D178
  8
DEFPOINTS
  6
CONTINUOUS
 62
     0
 10
1414.905598185344
 20
-1120.22817747591
 30
0.0
  0
POINT
  5
3D179
  8
DEFPOINTS
  6
CONTINUOUS
 62
     0
 10
1414.905598185344
 20
-1149.347133988398
 30
0.0
  0
ENDBLK
  5
3CFC6
  8
0
 62
     7
  0
BLOCK
  8
0
  2
*D5857
 70
     1
 10
0.0
 20
0.0
 30
0.0
  3
*D5857
  1

  0
LINE
  5
3D17A
  8
回07-寸法
  6
CONTINUOUS
 62
     5
 10
1422.18495260915
 20
-1109.728177475911
 30
0.0
 11
1393.319337105093
 21
-1109.728177475911
 31
0.0
  0
LINE
  5
3D17B
  8
回07-寸法
  6
CONTINUOUS
 62
     5
 10
1422.18495260915
 20
-1125.72817747591
 30
0.0
 11
1393.319337105093
 21
-1125.72817747591
 31
0.0
  0
LINE
  5
3D17C
  8
回07-寸法
  6
CONTINUOUS
 62
     5
 10
1394.319337105093
 20
-1127.728177475911
 30
0.0
 11
1394.319337105093
 21
-1129.728177475911
 31
0.0
  0
LINE
  5
3D17D
  8
回07-寸法
  6
CONTINUOUS
 62
     5
 10
1394.319337105093
 20
-1107.728177475911
 30
0.0
 11
1394.319337105093
 21
-1077.72817747591
 31
0.0
  0
LINE
  5
3D17E
  8
回07-寸法
  6
CONTINUOUS
 62
     5
 10
1394.319337105093
 20
-1125.72817747591
 30
0.0
 11
1394.319337105093
 21
-1109.728177475911
 31
0.0
  0
INSERT
  5
3D17F
  8
回07-寸法
  6
CONTINUOUS
 62
     5
  2
_OPEN
 10
1394.319337105093
 20
-1125.72817747591
 30
0.0
 41
2.0
 42
2.0
 43
2.0
 50
90.0
  0
INSERT
  5
3D180
  8
回07-寸法
  6
CONTINUOUS
 62
     5
  2
_OPEN
 10
1394.319337105093
 20
-1109.728177475911
 30
0.0
 41
2.0
 42
2.0
 43
2.0
 50
270.0
  0
TEXT
  5
3D181
  8
回07-寸法
  6
CONTINUOUS
 62
     5
 10
1393.569337105093
 20
-1105.97817747591
 30
0.0
 40
5.0
  1
16 [0.630]
 50
90.0
1001
ACAD
1000
MTEXTBEGIN
1070
    73
1070
     1
1070
    44
1040
1.0
1070
    74
1070
     0
1000
MTEXTEND
  0
POINT
  5
3D182
  8
DEFPOINTS
  6
CONTINUOUS
 62
     0
 10
1422.18495260915
 20
-1109.728177475911
 30
0.0
  0
POINT
  5
3D183
  8
DEFPOINTS
  6
CONTINUOUS
 62
     0
 10
1422.18495260915
 20
-1125.72817747591
 30
0.0
  0
POINT
  5
3D184
  8
DEFPOINTS
  6
CONTINUOUS
 62
     0
 10
1394.319337105093
 20
-1125.72817747591
 30
0.0
  0
ENDBLK
  5
3CFD4
  8
0
 62
     7
  0
BLOCK
  8
0
  2
*D5958
 70
     1
 10
0.0
 20
0.0
 30
0.0
  3
*D5958
  1

  0
LINE
  5
3D185
  8
回07-寸法
 62
     5
 10
1681.52883077048
 20
-1210.478177475911
 30
0.0
 11
1736.88355226073
 21
-1210.478177475911
 31
0.0
  0
LINE
  5
3D186
  8
回07-寸法
 62
     5
 10
1681.52883077048
 20
-1024.978177475911
 30
0.0
 11
1736.88355226073
 21
-1024.978177475911
 31
0.0
  0
LINE
  5
3D187
  8
回07-寸法
 62
     5
 10
1735.88355226073
 20
-1208.478177475911
 30
0.0
 11
1735.88355226073
 21
-1026.978177475911
 31
0.0
  0
INSERT
  5
3D188
  8
回07-寸法
 62
     5
  2
_OPEN
 10
1735.88355226073
 20
-1210.478177475911
 30
0.0
 41
2.0
 42
2.0
 43
2.0
 50
270.0
  0
INSERT
  5
3D189
  8
回07-寸法
 62
     5
  2
_OPEN
 10
1735.88355226073
 20
-1024.978177475911
 30
0.0
 41
2.0
 42
2.0
 43
2.0
 50
90.0
  0
TEXT
  5
3D18A
  8
回07-寸法
 62
     5
 10
1735.13355226073
 20
-1154.886650342245
 30
0.0
 40
5.0
  1
185.5 [7.303] (ACTIVE AREA)
 50
90.0
1001
ACAD
1000
MTEXTBEGIN
1070
    73
1070
     1
1070
    44
1040
1.0
1070
    74
1070
     0
1000
MTEXTEND
  0
POINT
  5
3D18B
  8
DEFPOINTS
 62
     0
 10
1681.52883077048
 20
-1210.478177475911
 30
0.0
  0
POINT
  5
3D18C
  8
DEFPOINTS
 62
     0
 10
1681.52883077048
 20
-1024.978177475911
 30
0.0
  0
POINT
  5
3D18D
  8
DEFPOINTS
 62
     0
 10
1735.88355226073
 20
-1024.978177475911
 30
0.0
  0
ENDBLK
  5
3CFE2
  8
0
 62
     7
  0
BLOCK
  8
0
  2
*D6059
 70
     1
 10
0.0
 20
0.0
 30
0.0
  3
*D6059
  1

  0
LINE
  5
3D18E
  8
回07-寸法
 62
     5
 10
1683.028830770479
 20
-1023.478177475911
 30
0.0
 11
1754.108493468456
 21
-1023.478177475911
 31
0.0
  0
LINE
  5
3D18F
  8
回07-寸法
 62
     5
 10
1683.028830770479
 20
-1211.978177475911
 30
0.0
 11
1754.108493468456
 21
-1211.978177475911
 31
0.0
  0
LINE
  5
3D190
  8
回07-寸法
 62
     5
 10
1753.108493468455
 20
-1025.47817747591
 30
0.0
 11
1753.108493468455
 21
-1209.978177475911
 31
0.0
  0
INSERT
  5
3D191
  8
回07-寸法
 62
     5
  2
_OPEN
 10
1753.108493468455
 20
-1023.478177475911
 30
0.0
 41
2.0
 42
2.0
 43
2.0
 50
90.0
  0
INSERT
  5
3D192
  8
回07-寸法
 62
     5
  2
_OPEN
 10
1753.108493468455
 20
-1211.978177475911
 30
0.0
 41
2.0
 42
2.0
 43
2.0
 50
270.0
  0
TEXT
  5
3D193
  8
回07-寸法
 62
     5
 10
1752.358493468455
 20
-1156.136650342245
 30
0.0
 40
5.0
  1
188.5 [7.421] (VIEWING AREA)
 50
90.0
1001
ACAD
1000
MTEXTBEGIN
1070
    73
1070
     1
1070
    44
1040
1.0
1070
    74
1070
     0
1000
MTEXTEND
  0
POINT
  5
3D194
  8
DEFPOINTS
 62
     0
 10
1683.028830770479
 20
-1023.478177475911
 30
0.0
  0
POINT
  5
3D195
  8
DEFPOINTS
 62
     0
 10
1683.028830770479
 20
-1211.978177475911
 30
0.0
  0
POINT
  5
3D196
  8
DEFPOINTS
 62
     0
 10
1753.108493468455
 20
-1211.978177475911
 30
0.0
  0
ENDBLK
  5
3CFEE
  8
0
 62
     7
  0
BLOCK
  8
0
  2
*D6160
 70
     1
 10
0.0
 20
0.0
 30
0.0
  3
*D6160
  1

  0
LINE
  5
3D197
  8
回07-寸法
 62
     5
 10
1688.028830770479
 20
-1017.228177475911
 30
0.0
 11
1790.718222788252
 21
-1017.228177475911
 31
0.0
  0
LINE
  5
3D198
  8
回07-寸法
 62
     5
 10
1688.028830770479
 20
-1218.228177475911
 30
0.0
 11
1790.718222788252
 21
-1218.228177475911
 31
0.0
  0
LINE
  5
3D199
  8
回07-寸法
 62
     5
 10
1789.718222788252
 20
-1019.228177475911
 30
0.0
 11
1789.718222788252
 21
-1216.228177475911
 31
0.0
  0
INSERT
  5
3D19A
  8
回07-寸法
 62
     5
  2
_OPEN
 10
1789.718222788252
 20
-1017.228177475911
 30
0.0
 41
2.0
 42
2.0
 43
2.0
 50
90.0
  0
INSERT
  5
3D19B
  8
回07-寸法
 62
     5
  2
_OPEN
 10
1789.718222788252
 20
-1218.228177475911
 30
0.0
 41
2.0
 42
2.0
 43
2.0
 50
270.0
  0
INSERT
  5
3D19C
  8
回07-寸法
 62
     5
 66
     1
  2
*X110108
 10
0.0
 20
0.0
 30
0.0
  0
SEQEND
  5
3D4F2
  8
回08-記事
  6
CONTINUOUS
 62
     7
  0
POINT
  5
3D19D
  8
DEFPOINTS
 62
     0
 10
1688.028830770479
 20
-1017.228177475911
 30
0.0
  0
POINT
  5
3D19E
  8
DEFPOINTS
 62
     0
 10
1688.028830770479
 20
-1218.228177475911
 30
0.0
  0
POINT
  5
3D19F
  8
DEFPOINTS
 62
     0
 10
1789.718222788252
 20
-1218.228177475911
 30
0.0
  0
ENDBLK
  5
3CFFA
  8
0
 62
     7
  0
BLOCK
  8
0
  2
*D6261
 70
     1
 10
0.0
 20
0.0
 30
0.0
  3
*D6261
  1

  0
LINE
  5
3D1A0
  8
回07-寸法
  6
CONTINUOUS
 62
     5
 10
1681.52883077048
 20
-1210.478177475911
 30
0.0
 11
1736.88355226073
 21
-1210.478177475911
 31
0.0
  0
LINE
  5
3D1A1
  8
回07-寸法
  6
CONTINUOUS
 62
     5
 10
1688.028830770479
 20
-1218.228177475911
 30
0.0
 11
1736.88355226073
 21
-1218.228177475911
 31
0.0
  0
LINE
  5
3D1A2
  8
回07-寸法
  6
CONTINUOUS
 62
     5
 10
1735.88355226073
 20
-1208.478177475911
 30
0.0
 11
1735.88355226073
 21
-1206.478177475911
 31
0.0
  0
LINE
  5
3D1A3
  8
回07-寸法
  6
CONTINUOUS
 62
     5
 10
1735.88355226073
 20
-1220.228177475911
 30
0.0
 11
1735.88355226073
 21
-1256.228177475911
 31
0.0
  0
LINE
  5
3D1A4
  8
回07-寸法
  6
CONTINUOUS
 62
     5
 10
1735.88355226073
 20
-1210.478177475911
 30
0.0
 11
1735.88355226073
 21
-1218.228177475911
 31
0.0
  0
INSERT
  5
3D1A5
  8
回07-寸法
  6
CONTINUOUS
 62
     5
  2
_OPEN
 10
1735.88355226073
 20
-1210.478177475911
 30
0.0
 41
2.0
 42
2.0
 43
2.0
 50
270.0
  0
INSERT
  5
3D1A6
  8
回07-寸法
  6
CONTINUOUS
 62
     5
  2
_OPEN
 10
1735.88355226073
 20
-1218.228177475911
 30
0.0
 41
2.0
 42
2.0
 43
2.0
 50
90.0
  0
TEXT
  5
3D1A7
  8
回07-寸法
  6
CONTINUOUS
 62
     5
 10
1735.13355226073
 20
-1256.478177475911
 30
0.0
 40
5.0
  1
7.75 [0.305]
 50
90.0
1001
ACAD
1000
MTEXTBEGIN
1070
    73
1070
     1
1070
    44
1040
1.0
1070
    74
1070
     0
1000
MTEXTEND
  0
POINT
  5
3D1A8
  8
DEFPOINTS
  6
CONTINUOUS
 62
     0
 10
1681.52883077048
 20
-1210.478177475911
 30
0.0
  0
POINT
  5
3D1A9
  8
DEFPOINTS
  6
CONTINUOUS
 62
     0
 10
1688.028830770479
 20
-1218.228177475911
 30
0.0
  0
POINT
  5
3D1AA
  8
DEFPOINTS
  6
CONTINUOUS
 62
     0
 10
1735.88355226073
 20
-1218.228177475911
 30
0.0
  0
ENDBLK
  5
3D006
  8
0
 62
     7
  0
BLOCK
  8
0
  2
*D6362
 70
     1
 10
0.0
 20
0.0
 30
0.0
  3
*D6362
  1

  0
LINE
  5
3D1AB
  8
回07-寸法
  6
CONTINUOUS
 62
     5
 10
1683.02883077048
 20
-1211.978177475911
 30
0.0
 11
1754.108493468456
 21
-1211.978177475911
 31
0.0
  0
LINE
  5
3D1AC
  8
回07-寸法
  6
CONTINUOUS
 62
     5
 10
1688.02883077048
 20
-1218.228177475911
 30
0.0
 11
1754.108493468456
 21
-1218.228177475911
 31
0.0
  0
LINE
  5
3D1AD
  8
回07-寸法
  6
CONTINUOUS
 62
     5
 10
1753.108493468455
 20
-1209.978177475911
 30
0.0
 11
1753.108493468455
 21
-1207.978177475911
 31
0.0
  0
LINE
  5
3D1AE
  8
回07-寸法
  6
CONTINUOUS
 62
     5
 10
1753.108493468455
 20
-1220.228177475911
 30
0.0
 11
1753.108493468455
 21
-1257.027390074336
 31
0.0
  0
LINE
  5
3D1AF
  8
回07-寸法
  6
CONTINUOUS
 62
     5
 10
1753.108493468455
 20
-1211.978177475911
 30
0.0
 11
1753.108493468455
 21
-1218.228177475911
 31
0.0
  0
INSERT
  5
3D1B0
  8
回07-寸法
  6
CONTINUOUS
 62
     5
  2
_OPEN
 10
1753.108493468455
 20
-1211.978177475911
 30
0.0
 41
2.0
 42
2.0
 43
2.0
 50
270.0
  0
INSERT
  5
3D1B1
  8
回07-寸法
  6
CONTINUOUS
 62
     5
  2
_OPEN
 10
1753.108493468455
 20
-1218.228177475911
 30
0.0
 41
2.0
 42
2.0
 43
2.0
 50
90.0
  0
TEXT
  5
3D1B2
  8
回07-寸法
  6
CONTINUOUS
 62
     5
 10
1752.358493468455
 20
-1257.127783775123
 30
0.0
 40
5.0
  1
6.25 [0.246]
 50
90.0
1001
ACAD
1000
MTEXTBEGIN
1070
    73
1070
     1
1070
    44
1040
1.0
1070
    74
1070
     0
1000
MTEXTEND
  0
POINT
  5
3D1B3
  8
DEFPOINTS
  6
CONTINUOUS
 62
     0
 10
1683.02883077048
 20
-1211.978177475911
 30
0.0
  0
POINT
  5
3D1B4
  8
DEFPOINTS
  6
CONTINUOUS
 62
     0
 10
1688.02883077048
 20
-1218.228177475911
 30
0.0
  0
POINT
  5
3D1B5
  8
DEFPOINTS
  6
CONTINUOUS
 62
     0
 10
1753.108493468455
 20
-1218.228177475911
 30
0.0
  0
ENDBLK
  5
3D014
  8
0
 62
     7
  0
BLOCK
  8
0
  2
*D6463
 70
     1
 10
0.0
 20
0.0
 30
0.0
  3
*D6463
  1

  0
LINE
  5
3D1B6
  8
回07-寸法
  6
CONTINUOUS
 62
     5
 10
1683.528830770479
 20
-1022.67817747591
 30
0.0
 11
1770.653371545851
 21
-1022.67817747591
 31
0.0
  0
LINE
  5
3D1B7
  8
回07-寸法
  6
CONTINUOUS
 62
     5
 10
1683.528830770479
 20
-1212.77817747591
 30
0.0
 11
1770.653371545851
 21
-1212.77817747591
 31
0.0
  0
LINE
  5
3D1B8
  8
回07-寸法
  6
CONTINUOUS
 62
     5
 10
1769.653371545851
 20
-1024.67817747591
 30
0.0
 11
1769.653371545851
 21
-1210.77817747591
 31
0.0
  0
INSERT
  5
3D1B9
  8
回07-寸法
  6
CONTINUOUS
 62
     5
  2
_OPEN
 10
1769.653371545851
 20
-1022.67817747591
 30
0.0
 41
2.0
 42
2.0
 43
2.0
 50
90.0
  0
INSERT
  5
3D1BA
  8
回07-寸法
  6
CONTINUOUS
 62
     5
  2
_OPEN
 10
1769.653371545851
 20
-1212.77817747591
 30
0.0
 41
2.0
 42
2.0
 43
2.0
 50
270.0
  0
TEXT
  5
3D1BB
  8
回07-寸法
  6
CONTINUOUS
 62
     5
 10
1768.903371545851
 20
-1136.237203397228
 30
0.0
 40
5.0
  1
190.1 [7.484]
 50
90.0
1001
ACAD
1000
MTEXTBEGIN
1070
    73
1070
     1
1070
    44
1040
1.0
1070
    74
1070
     0
1000
MTEXTEND
  0
POINT
  5
3D1BC
  8
DEFPOINTS
  6
CONTINUOUS
 62
     0
 10
1683.528830770479
 20
-1022.67817747591
 30
0.0
  0
POINT
  5
3D1BD
  8
DEFPOINTS
  6
CONTINUOUS
 62
     0
 10
1683.528830770479
 20
-1212.77817747591
 30
0.0
  0
POINT
  5
3D1BE
  8
DEFPOINTS
  6
CONTINUOUS
 62
     0
 10
1769.653371545851
 20
-1212.77817747591
 30
0.0
  0
ENDBLK
  5
3D022
  8
0
 62
     7
  0
BLOCK
  8
0
  2
*D6564
 70
     1
 10
0.0
 20
0.0
 30
0.0
  3
*D6564
  1

  0
LINE
  5
3D1BF
  8
回07-寸法
  6
CONTINUOUS
 62
     5
 10
1683.528830770479
 20
-1212.77817747591
 30
0.0
 11
1770.653371545851
 21
-1212.77817747591
 31
0.0
  0
LINE
  5
3D1C0
  8
回07-寸法
  6
CONTINUOUS
 62
     5
 10
1688.02883077048
 20
-1218.228177475911
 30
0.0
 11
1770.653371545851
 21
-1218.228177475911
 31
0.0
  0
LINE
  5
3D1C1
  8
回07-寸法
  6
CONTINUOUS
 62
     5
 10
1769.653371545851
 20
-1210.77817747591
 30
0.0
 11
1769.653371545851
 21
-1208.77817747591
 31
0.0
  0
LINE
  5
3D1C2
  8
回07-寸法
  6
CONTINUOUS
 62
     5
 10
1769.653371545851
 20
-1220.228177475911
 30
0.0
 11
1769.653371545851
 21
-1290.768958578273
 31
0.0
  0
LINE
  5
3D1C3
  8
回07-寸法
  6
CONTINUOUS
 62
     5
 10
1769.653371545851
 20
-1212.77817747591
 30
0.0
 11
1769.653371545851
 21
-1218.228177475911
 31
0.0
  0
INSERT
  5
3D1C4
  8
回07-寸法
  6
CONTINUOUS
 62
     5
  2
_OPEN
 10
1769.653371545851
 20
-1212.77817747591
 30
0.0
 41
2.0
 42
2.0
 43
2.0
 50
270.0
  0
INSERT
  5
3D1C5
  8
回07-寸法
  6
CONTINUOUS
 62
     5
  2
_OPEN
 10
1769.653371545851
 20
-1218.228177475911
 30
0.0
 41
2.0
 42
2.0
 43
2.0
 50
90.0
  0
INSERT
  5
3D1C6
  8
回07-寸法
  6
CONTINUOUS
 62
     5
 66
     1
  2
*X111109
 10
0.0
 20
0.0
 30
0.0
  0
SEQEND
  5
3D4F8
  8
回08-記事
  6
CONTINUOUS
 62
     7
  0
POINT
  5
3D1C7
  8
DEFPOINTS
  6
CONTINUOUS
 62
     0
 10
1683.528830770479
 20
-1212.77817747591
 30
0.0
  0
POINT
  5
3D1C8
  8
DEFPOINTS
  6
CONTINUOUS
 62
     0
 10
1688.02883077048
 20
-1218.228177475911
 30
0.0
  0
POINT
  5
3D1C9
  8
DEFPOINTS
  6
CONTINUOUS
 62
     0
 10
1769.653371545851
 20
-1218.228177475911
 30
0.0
  0
ENDBLK
  5
3D02E
  8
0
 62
     7
  0
BLOCK
  8
0
  2
*D6665
 70
     1
 10
0.0
 20
0.0
 30
0.0
  3
*D6665
  1

  0
LINE
  5
3D2E0
  8
回08-記事
  6
CONTINUOUS
 62
     5
 10
1350.028830770479
 20
-1271.680074794192
 30
0.0
 11
1350.028830770479
 21
-1256.755610754324
 31
0.0
  0
LINE
  5
3D2E1
  8
回08-記事
  6
CONTINUOUS
 62
     5
 10
1360.028830770479
 20
-1271.680074794192
 30
0.0
 11
1360.028830770479
 21
-1256.755610754324
 31
0.0
  0
LINE
  5
3D2E2
  8
回08-記事
  6
CONTINUOUS
 62
     5
 10
1348.028830770479
 20
-1257.755610754324
 30
0.0
 11
1313.514715935719
 21
-1257.755610754324
 31
0.0
  0
LINE
  5
3D2E3
  8
回08-記事
  6
CONTINUOUS
 62
     5
 10
1350.028830770479
 20
-1257.755610754324
 30
0.0
 11
1360.028830770479
 21
-1257.755610754324
 31
0.0
  0
LINE
  5
3D2E4
  8
回08-記事
  6
CONTINUOUS
 62
     5
 10
1362.028830770479
 20
-1257.755610754324
 30
0.0
 11
1364.028830770479
 21
-1257.755610754324
 31
0.0
  0
INSERT
  5
3D2E5
  8
回08-記事
  6
CONTINUOUS
 62
     5
  2
_OPEN
 10
1350.028830770479
 20
-1257.755610754324
 30
0.0
 41
2.0
 42
2.0
 43
2.0
  0
INSERT
  5
3D2E6
  8
回08-記事
  6
CONTINUOUS
 62
     5
  2
_OPEN
 10
1360.028830770479
 20
-1257.755610754324
 30
0.0
 41
2.0
 42
2.0
 43
2.0
 50
180.0
  0
TEXT
  5
3D2E7
  8
回08-記事
  6
CONTINUOUS
 62
     5
 10
1313.262747431781
 20
-1257.005610754324
 30
0.0
 40
5.0
  1
(10 [0.394])
1001
ACAD
1000
MTEXTBEGIN
1070
    73
1070
     1
1070
    44
1040
1.0
1070
    74
1070
     0
1000
MTEXTEND
  0
POINT
  5
3D2E8
  8
DEFPOINTS
  6
CONTINUOUS
 62
     0
 10
1350.028830770479
 20
-1271.680074794192
 30
0.0
  0
POINT
  5
3D2E9
  8
DEFPOINTS
  6
CONTINUOUS
 62
     0
 10
1360.028830770479
 20
-1271.680074794192
 30
0.0
  0
POINT
  5
3D2EA
  8
DEFPOINTS
  6
CONTINUOUS
 62
     0
 10
1360.028830770479
 20
-1257.755610754324
 30
0.0
  0
ENDBLK
  5
3D03C
  8
0
 62
     7
  0
BLOCK
  8
0
  2
*D6766
 70
     1
 10
0.0
 20
0.0
 30
0.0
  3
*D6766
  1

  0
LINE
  5
3D1D5
  8
回08-記事
  6
CONTINUOUS
 62
     5
 10
1355.028830770479
 20
-1276.180074794192
 30
0.0
 11
1355.028830770479
 21
-1299.222887856727
 31
0.0
  0
LINE
  5
3D1D6
  8
回08-記事
  6
CONTINUOUS
 62
     5
 10
1350.028830770479
 20
-1276.180074794192
 30
0.0
 11
1350.028830770479
 21
-1299.222887856727
 31
0.0
  0
LINE
  5
3D1D7
  8
回08-記事
  6
CONTINUOUS
 62
     5
 10
1348.028830770479
 20
-1298.222887856727
 30
0.0
 11
1346.028830770479
 21
-1298.222887856727
 31
0.0
  0
LINE
  5
3D1D8
  8
回08-記事
  6
CONTINUOUS
 62
     5
 10
1357.028830770479
 20
-1298.222887856727
 30
0.0
 11
1383.546302422951
 21
-1298.222887856727
 31
0.0
  0
LINE
  5
3D1D9
  8
回08-記事
  6
CONTINUOUS
 62
     5
 10
1350.028830770479
 20
-1298.222887856727
 30
0.0
 11
1355.028830770479
 21
-1298.222887856727
 31
0.0
  0
INSERT
  5
3D1DA
  8
回08-記事
  6
CONTINUOUS
 62
     5
  2
_OPEN
 10
1350.028830770479
 20
-1298.222887856727
 30
0.0
 41
2.0
 42
2.0
 43
2.0
  0
INSERT
  5
3D1DB
  8
回08-記事
  6
CONTINUOUS
 62
     5
  2
_OPEN
 10
1355.028830770479
 20
-1298.222887856727
 30
0.0
 41
2.0
 42
2.0
 43
2.0
 50
180.0
  0
TEXT
  5
3D1DC
  8
回08-記事
  6
CONTINUOUS
 62
     5
 10
1358.778540675398
 20
-1297.472987700231
 30
0.0
 40
5.0
  1
5 [0.197]
1001
ACAD
1000
MTEXTBEGIN
1070
    73
1070
     1
1070
    44
1040
1.0
1070
    74
1070
     0
1000
MTEXTEND
  0
POINT
  5
3D1DD
  8
DEFPOINTS
  6
CONTINUOUS
 62
     0
 10
1355.028830770479
 20
-1276.180074794192
 30
0.0
  0
POINT
  5
3D1DE
  8
DEFPOINTS
  6
CONTINUOUS
 62
     0
 10
1350.028830770479
 20
-1276.180074794192
 30
0.0
  0
POINT
  5
3D1DF
  8
DEFPOINTS
  6
CONTINUOUS
 62
     0
 10
1350.028830770479
 20
-1298.222887856727
 30
0.0
  0
ENDBLK
  5
3D04A
  8
0
 62
     7
  0
BLOCK
  8
0
  2
*D6867
 70
     1
 10
0.0
 20
0.0
 30
0.0
  3
*D6867
  1

  0
LINE
  5
3D247
  8
回07-寸法
  6
CONTINUOUS
 62
     5
 10
1235.854056531609
 20
-1177.396363181441
 30
0.0
 11
1197.931488124347
 21
-1177.396363181441
 31
0.0
  0
LINE
  5
3D248
  8
回07-寸法
  6
CONTINUOUS
 62
     5
 10
1235.854056531609
 20
-1197.396363181441
 30
0.0
 11
1197.931488124347
 21
-1197.396363181441
 31
0.0
  0
LINE
  5
3D249
  8
回07-寸法
  6
CONTINUOUS
 62
     5
 10
1198.931488124347
 20
-1175.39636318144
 30
0.0
 11
1198.931488124347
 21
-1173.39636318144
 31
0.0
  0
LINE
  5
3D24A
  8
回07-寸法
  6
CONTINUOUS
 62
     5
 10
1198.931488124347
 20
-1199.396363181441
 30
0.0
 11
1198.931488124347
 21
-1243.248184833913
 31
0.0
  0
LINE
  5
3D24B
  8
回07-寸法
  6
CONTINUOUS
 62
     5
 10
1198.931488124347
 20
-1177.396363181441
 30
0.0
 11
1198.931488124347
 21
-1197.396363181441
 31
0.0
  0
INSERT
  5
3D24C
  8
回07-寸法
  6
CONTINUOUS
 62
     5
  2
_OPEN
 10
1198.931488124347
 20
-1177.396363181441
 30
0.0
 41
2.0
 42
2.0
 43
2.0
 50
270.0
  0
INSERT
  5
3D24D
  8
回07-寸法
  6
CONTINUOUS
 62
     5
  2
_OPEN
 10
1198.931488124347
 20
-1197.396363181441
 30
0.0
 41
2.0
 42
2.0
 43
2.0
 50
90.0
  0
INSERT
  5
3D24E
  8
回07-寸法
  6
CONTINUOUS
 62
     5
 66
     1
  2
*X112110
 10
0.0
 20
0.0
 30
0.0
  0
SEQEND
  5
3D501
  8
回08-記事
  6
CONTINUOUS
 62
     7
  0
POINT
  5
3D24F
  8
DEFPOINTS
  6
CONTINUOUS
 62
     0
 10
1235.854056531609
 20
-1177.396363181441
 30
0.0
  0
POINT
  5
3D250
  8
DEFPOINTS
  6
CONTINUOUS
 62
     0
 10
1235.854056531609
 20
-1197.396363181441
 30
0.0
  0
POINT
  5
3D251
  8
DEFPOINTS
  6
CONTINUOUS
 62
     0
 10
1198.931488124347
 20
-1197.396363181441
 30
0.0
  0
ENDBLK
  5
3D058
  8
0
 62
     7
  0
BLOCK
  8
0
  2
*D6968
 70
     1
 10
0.0
 20
0.0
 30
0.0
  3
*D6968
  1

  0
LINE
  5
3D201
  8
回07-寸法
  6
CONTINUOUS
 62
     5
 10
1233.854056531609
 20
-1181.39636318144
 30
0.0
 11
1207.275072433107
 21
-1181.39636318144
 31
0.0
  0
LINE
  5
3D202
  8
回07-寸法
  6
CONTINUOUS
 62
     5
 10
1233.854056531609
 20
-1193.39636318144
 30
0.0
 11
1207.275072433107
 21
-1193.39636318144
 31
0.0
  0
LINE
  5
3D203
  8
回07-寸法
  6
CONTINUOUS
 62
     5
 10
1208.275072433107
 20
-1179.396363181441
 30
0.0
 11
1208.275072433107
 21
-1177.396363181441
 31
0.0
  0
LINE
  5
3D204
  8
回07-寸法
  6
CONTINUOUS
 62
     5
 10
1208.275072433107
 20
-1195.396363181441
 30
0.0
 11
1208.275072433107
 21
-1220.561522493753
 31
0.0
  0
LINE
  5
3D205
  8
回07-寸法
  6
CONTINUOUS
 62
     5
 10
1208.275072433107
 20
-1181.39636318144
 30
0.0
 11
1208.275072433107
 21
-1193.39636318144
 31
0.0
  0
INSERT
  5
3D206
  8
回07-寸法
  6
CONTINUOUS
 62
     5
  2
_OPEN
 10
1208.275072433107
 20
-1181.39636318144
 30
0.0
 41
2.0
 42
2.0
 43
2.0
 50
270.0
  0
INSERT
  5
3D207
  8
回07-寸法
  6
CONTINUOUS
 62
     5
  2
_OPEN
 10
1208.275072433107
 20
-1193.39636318144
 30
0.0
 41
2.0
 42
2.0
 43
2.0
 50
90.0
  0
TEXT
  5
3D208
  8
回07-寸法
  6
CONTINUOUS
 62
     5
 10
1207.525072433107
 20
-1220.811522493753
 30
0.0
 40
5.0
  1
3[0.118]
 50
90.0
1001
ACAD
1000
MTEXTBEGIN
1070
    73
1070
     1
1070
    44
1040
1.0
1070
    74
1070
     0
1000
MTEXTEND
  0
POINT
  5
3D209
  8
DEFPOINTS
  6
CONTINUOUS
 62
     0
 10
1233.854056531609
 20
-1181.39636318144
 30
0.0
  0
POINT
  5
3D20A
  8
DEFPOINTS
  6
CONTINUOUS
 62
     0
 10
1233.854056531609
 20
-1193.39636318144
 30
0.0
  0
POINT
  5
3D20B
  8
DEFPOINTS
  6
CONTINUOUS
 62
     0
 10
1208.275072433107
 20
-1193.39636318144
 30
0.0
  0
ENDBLK
  5
3D066
  8
0
 62
     7
  0
BLOCK
  8
0
  2
*D7069
 70
     1
 10
0.0
 20
0.0
 30
0.0
  3
*D7069
  1

  0
LINE
  5
3D20C
  8
回07-寸法
  6
CONTINUOUS
 62
     5
 10
1233.854056531609
 20
-1193.39636318144
 30
0.0
 11
1217.045794911819
 21
-1193.39636318144
 31
0.0
  0
LINE
  5
3D20D
  8
回07-寸法
  6
CONTINUOUS
 62
     5
 10
1233.854056531609
 20
-1189.39636318144
 30
0.0
 11
1217.045794911819
 21
-1189.39636318144
 31
0.0
  0
LINE
  5
3D20E
  8
回07-寸法
  6
CONTINUOUS
 62
     5
 10
1218.045794911819
 20
-1187.396363181441
 30
0.0
 11
1218.045794911819
 21
-1185.396363181441
 31
0.0
  0
LINE
  5
3D20F
  8
回07-寸法
  6
CONTINUOUS
 62
     5
 10
1218.045794911819
 20
-1195.396363181441
 30
0.0
 11
1218.045794911819
 21
-1221.232679161427
 31
0.0
  0
LINE
  5
3D210
  8
回07-寸法
  6
CONTINUOUS
 62
     5
 10
1218.045794911819
 20
-1189.39636318144
 30
0.0
 11
1218.045794911819
 21
-1193.39636318144
 31
0.0
  0
INSERT
  5
3D211
  8
回07-寸法
  6
CONTINUOUS
 62
     5
  2
_OPEN
 10
1218.045794911819
 20
-1189.39636318144
 30
0.0
 41
2.0
 42
2.0
 43
2.0
 50
270.0
  0
INSERT
  5
3D212
  8
回07-寸法
  6
CONTINUOUS
 62
     5
  2
_OPEN
 10
1218.045794911819
 20
-1193.39636318144
 30
0.0
 41
2.0
 42
2.0
 43
2.0
 50
90.0
  0
TEXT
  5
3D213
  8
回07-寸法
  6
CONTINUOUS
 62
     5
 10
1217.295894755322
 20
-1221.482969256509
 30
0.0
 40
5.0
  1
1[0.039]
 50
90.0
1001
ACAD
1000
MTEXTBEGIN
1070
    73
1070
     1
1070
    44
1040
1.0
1070
    74
1070
     0
1000
MTEXTEND
  0
POINT
  5
3D214
  8
DEFPOINTS
  6
CONTINUOUS
 62
     0
 10
1233.854056531609
 20
-1193.39636318144
 30
0.0
  0
POINT
  5
3D215
  8
DEFPOINTS
  6
CONTINUOUS
 62
     0
 10
1233.854056531609
 20
-1189.39636318144
 30
0.0
  0
POINT
  5
3D216
  8
DEFPOINTS
  6
CONTINUOUS
 62
     0
 10
1218.045794911819
 20
-1189.39636318144
 30
0.0
  0
ENDBLK
  5
3D074
  8
0
 62
     7
  0
BLOCK
  8
0
  2
*D7170
 70
     1
 10
0.0
 20
0.0
 30
0.0
  3
*D7170
  1

  0
LINE
  5
3D217
  8
回08-記事
  6
CONTINUOUS
 62
     5
 10
1233.854056531609
 20
-1192.19636318144
 30
0.0
 11
1226.415974876068
 21
-1192.19636318144
 31
0.0
  0
LINE
  5
3D218
  8
回08-記事
  6
CONTINUOUS
 62
     5
 10
1233.854056531609
 20
-1194.59636318144
 30
0.0
 11
1226.415974876068
 21
-1194.59636318144
 31
0.0
  0
LINE
  5
3D219
  8
回08-記事
  6
CONTINUOUS
 62
     5
 10
1227.415974876068
 20
-1190.19636318144
 30
0.0
 11
1227.415974876068
 21
-1188.19636318144
 31
0.0
  0
LINE
  5
3D21A
  8
回08-記事
  6
CONTINUOUS
 62
     5
 10
1227.415974876068
 20
-1196.59636318144
 30
0.0
 11
1227.415974876068
 21
-1226.600300189315
 31
0.0
  0
LINE
  5
3D21B
  8
回08-記事
  6
CONTINUOUS
 62
     5
 10
1227.415974876068
 20
-1192.19636318144
 30
0.0
 11
1227.415974876068
 21
-1194.59636318144
 31
0.0
  0
INSERT
  5
3D21C
  8
回08-記事
  6
CONTINUOUS
 62
     5
  2
_OPEN
 10
1227.415974876068
 20
-1192.19636318144
 30
0.0
 41
2.0
 42
2.0
 43
2.0
 50
270.0
  0
INSERT
  5
3D21D
  8
回08-記事
  6
CONTINUOUS
 62
     5
  2
_OPEN
 10
1227.415974876068
 20
-1194.59636318144
 30
0.0
 41
2.0
 42
2.0
 43
2.0
 50
90.0
  0
TEXT
  5
3D21E
  8
回08-記事
  6
CONTINUOUS
 62
     5
 10
1226.665974876068
 20
-1226.846363181441
 30
0.0
 40
5.0
  1
0.6[0.024]
 50
90.0
1001
ACAD
1000
MTEXTBEGIN
1070
    73
1070
     1
1070
    44
1040
1.0
1070
    74
1070
     0
1000
MTEXTEND
  0
POINT
  5
3D21F
  8
DEFPOINTS
  6
CONTINUOUS
 62
     0
 10
1233.854056531609
 20
-1192.19636318144
 30
0.0
  0
POINT
  5
3D220
  8
DEFPOINTS
  6
CONTINUOUS
 62
     0
 10
1233.854056531609
 20
-1194.59636318144
 30
0.0
  0
POINT
  5
3D221
  8
DEFPOINTS
  6
CONTINUOUS
 62
     0
 10
1227.415974876068
 20
-1194.59636318144
 30
0.0
  0
ENDBLK
  5
3D082
  8
0
 62
     7
  0
BLOCK
  8
0
  2
*D7271
 70
     1
 10
0.0
 20
0.0
 30
0.0
  3
*D7271
  1

  0
LINE
  5
3D2EE
  8
回08-記事
  6
CONTINUOUS
 62
     5
 10
1350.028830770479
 20
-1276.180074794192
 30
0.0
 11
1307.613081508997
 21
-1276.180074794192
 31
0.0
  0
LINE
  5
3D2EF
  8
回08-記事
  6
CONTINUOUS
 62
     5
 10
1350.028830770479
 20
-1271.680074794192
 30
0.0
 11
1307.613081508997
 21
-1271.680074794192
 31
0.0
  0
LINE
  5
3D2F0
  8
回08-記事
  6
CONTINUOUS
 62
     5
 10
1308.613081508996
 20
-1269.680074794192
 30
0.0
 11
1308.613081508996
 21
-1218.533787786318
 31
0.0
  0
LINE
  5
3D2F1
  8
回08-記事
  6
CONTINUOUS
 62
     5
 10
1308.613081508996
 20
-1276.180074794192
 30
0.0
 11
1308.613081508996
 21
-1271.680074794192
 31
0.0
  0
LINE
  5
3D2F2
  8
回08-記事
  6
CONTINUOUS
 62
     5
 10
1308.613081508996
 20
-1278.180074794192
 30
0.0
 11
1308.613081508996
 21
-1280.180074794192
 31
0.0
  0
INSERT
  5
3D2F3
  8
回08-記事
  6
CONTINUOUS
 62
     5
  2
_OPEN
 10
1308.613081508996
 20
-1276.180074794192
 30
0.0
 41
2.0
 42
2.0
 43
2.0
 50
90.0
  0
INSERT
  5
3D2F4
  8
回08-記事
  6
CONTINUOUS
 62
     5
  2
_OPEN
 10
1308.613081508996
 20
-1271.680074794192
 30
0.0
 41
2.0
 42
2.0
 43
2.0
 50
270.0
  0
INSERT
  5
3D2F5
  8
回08-記事
  6
CONTINUOUS
 62
     5
 66
     1
  2
*X113111
 10
0.0
 20
0.0
 30
0.0
  0
SEQEND
  5
3D50A
  8
回08-記事
  6
CONTINUOUS
 62
     7
  0
POINT
  5
3D2F6
  8
DEFPOINTS
  6
CONTINUOUS
 62
     0
 10
1350.028830770479
 20
-1276.180074794192
 30
0.0
  0
POINT
  5
3D2F7
  8
DEFPOINTS
  6
CONTINUOUS
 62
     0
 10
1350.028830770479
 20
-1271.680074794192
 30
0.0
  0
POINT
  5
3D2F8
  8
DEFPOINTS
  6
CONTINUOUS
 62
     0
 10
1308.613081508996
 20
-1271.680074794192
 30
0.0
  0
ENDBLK
  5
3D090
  8
0
 62
     7
  0
BLOCK
  8
0
  2
*D7372
 70
     1
 10
0.0
 20
0.0
 30
0.0
  3
*D7372
  1

  0
LINE
  5
3D1EB
  8
回08-記事
  6
CONTINUOUS
 62
     5
 10
1686.52883077048
 20
-1271.680074794193
 30
0.0
 11
1703.838858183922
 21
-1271.680074794193
 31
0.0
  0
LINE
  5
3D1EC
  8
回08-記事
  6
CONTINUOUS
 62
     5
 10
1687.02883077048
 20
-1282.180074794193
 30
0.0
 11
1703.838858183922
 21
-1282.180074794193
 31
0.0
  0
LINE
  5
3D1ED
  8
回08-記事
  6
CONTINUOUS
 62
     5
 10
1702.838858183922
 20
-1269.680074794193
 30
0.0
 11
1702.838858183922
 21
-1267.680074794193
 31
0.0
  0
LINE
  5
3D1EE
  8
回08-記事
  6
CONTINUOUS
 62
     5
 10
1702.838858183922
 20
-1284.180074794193
 30
0.0
 11
1702.838858183922
 21
-1333.169814950601
 31
0.0
  0
LINE
  5
3D1EF
  8
回08-記事
  6
CONTINUOUS
 62
     5
 10
1702.838858183922
 20
-1271.680074794193
 30
0.0
 11
1702.838858183922
 21
-1282.180074794193
 31
0.0
  0
INSERT
  5
3D1F0
  8
回08-記事
  6
CONTINUOUS
 62
     5
  2
_OPEN
 10
1702.838858183922
 20
-1271.680074794193
 30
0.0
 41
2.0
 42
2.0
 43
2.0
 50
270.0
  0
INSERT
  5
3D1F1
  8
回08-記事
  6
CONTINUOUS
 62
     5
  2
_OPEN
 10
1702.838858183922
 20
-1282.180074794193
 30
0.0
 41
2.0
 42
2.0
 43
2.0
 50
90.0
  0
INSERT
  5
3D1F2
  8
回08-記事
  6
CONTINUOUS
 62
     5
 66
     1
  2
*X114112
 10
0.0
 20
0.0
 30
0.0
  0
SEQEND
  5
3D513
  8
回08-記事
  6
CONTINUOUS
 62
     7
  0
POINT
  5
3D1F3
  8
DEFPOINTS
  6
CONTINUOUS
 62
     0
 10
1686.52883077048
 20
-1271.680074794193
 30
0.0
  0
POINT
  5
3D1F4
  8
DEFPOINTS
  6
CONTINUOUS
 62
     0
 10
1687.02883077048
 20
-1282.180074794193
 30
0.0
  0
POINT
  5
3D1F5
  8
DEFPOINTS
  6
CONTINUOUS
 62
     0
 10
1702.838858183922
 20
-1282.180074794193
 30
0.0
  0
ENDBLK
  5
3D09E
  8
0
 62
     7
  0
BLOCK
  8
回08-記事
  2
*X7573
 70
     1
 10
0.0
 20
0.0
 30
0.0
  3
*X7573
  1

  0
LINE
  5
3D36C
  8
回08-記事
  6
CONTINUOUS
 62
     8
 10
436.1598610769162
 20
-1120.22817747591
 30
0.0
 11
434.287867354137
 21
-1118.356183753131
 31
0.0
  0
LINE
  5
3D36D
  8
回08-記事
  6
CONTINUOUS
 62
     8
 10
438.8115115063658
 20
-1120.22817747591
 30
0.0
 11
434.3839032208917
 21
-1115.800569190436
 31
0.0
  0
LINE
  5
3D36E
  8
回08-記事
  6
CONTINUOUS
 62
     8
 10
441.4631619358154
 20
-1120.22817747591
 30
0.0
 11
436.4631619358154
 21
-1115.22817747591
 31
0.0
  0
LINE
  5
3D36F
  8
回08-記事
  6
CONTINUOUS
 62
     8
 10
444.1148123652649
 20
-1120.22817747591
 30
0.0
 11
439.114812365265
 21
-1115.22817747591
 31
0.0
  0
LINE
  5
3D370
  8
回08-記事
  6
CONTINUOUS
 62
     8
 10
446.7664627947145
 20
-1120.22817747591
 30
0.0
 11
441.7664627947145
 21
-1115.22817747591
 31
0.0
  0
LINE
  5
3D371
  8
回08-記事
  6
CONTINUOUS
 62
     8
 10
449.4181132241641
 20
-1120.22817747591
 30
0.0
 11
444.4181132241641
 21
-1115.22817747591
 31
0.0
  0
LINE
  5
3D372
  8
回08-記事
  6
CONTINUOUS
 62
     8
 10
452.0697636536136
 20
-1120.22817747591
 30
0.0
 11
447.0697636536137
 21
-1115.22817747591
 31
0.0
  0
LINE
  5
3D373
  8
回08-記事
  6
CONTINUOUS
 62
     8
 10
454.7214140830631
 20
-1120.22817747591
 30
0.0
 11
449.7214140830632
 21
-1115.22817747591
 31
0.0
  0
LINE
  5
3D374
  8
回08-記事
  6
CONTINUOUS
 62
     8
 10
457.3730645125126
 20
-1120.22817747591
 30
0.0
 11
452.3730645125128
 21
-1115.22817747591
 31
0.0
  0
LINE
  5
3D375
  8
回08-記事
  6
CONTINUOUS
 62
     8
 10
459.8510484452345
 20
-1120.054510979183
 30
0.0
 11
455.0247149419623
 21
-1115.22817747591
 31
0.0
  0
LINE
  5
3D376
  8
回08-記事
  6
CONTINUOUS
 62
     8
 10
460.2878673541371
 20
-1117.839679458636
 30
0.0
 11
457.6763653714118
 21
-1115.22817747591
 31
0.0
  0
ENDBLK
  5
3D378
  8
回08-記事
  6
CONTINUOUS
 62
     7
  0
BLOCK
  8
回08-記事
  2
*X7674
 70
     1
 10
0.0
 20
0.0
 30
0.0
  3
*X7674
  1

  0
INSERT
  5
3D37B
  8
回07-寸法
  6
CONTINUOUS
 62
     5
  2
_OPEN
 10
479.632414485084
 20
-1109.588984620062
 30
0.0
 41
2.0
 42
2.0
 43
2.0
 50
288.654103799242
  0
LINE
  5
3D37C
  8
回07-寸法
  6
CONTINUOUS
 62
     5
 10
478.9927062157722
 20
-1107.694051024874
 30
0.0
 11
475.2423507220334
 21
-1096.584808015352
 31
0.0
  0
LINE
  5
3D37D
  8
回07-寸法
  6
CONTINUOUS
 62
     5
 10
475.2423507220334
 20
-1096.584808015352
 30
0.0
 11
472.7423507220334
 21
-1096.584808015352
 31
0.0
  0
ENDBLK
  5
3D37F
  8
回08-記事
  6
CONTINUOUS
 62
     7
  0
BLOCK
  8
回08-記事
  2
*X7775
 70
     1
 10
0.0
 20
0.0
 30
0.0
  3
*X7775
  1

  0
INSERT
  5
3D382
  8
回07-寸法
  6
CONTINUOUS
 62
     5
  2
_OPEN
 10
470.5427976929457
 20
-1115.102942904395
 30
0.0
 41
2.0
 42
2.0
 43
2.0
 50
285.5903600825698
  0
LINE
  5
3D383
  8
回07-寸法
  6
CONTINUOUS
 62
     5
 10
470.0052821602525
 20
-1113.17652730746
 30
0.0
 11
468.7171983028671
 21
-1108.56013079033
 31
0.0
  0
LINE
  5
3D384
  8
回07-寸法
  6
CONTINUOUS
 62
     5
 10
468.7171983028671
 20
-1108.56013079033
 30
0.0
 11
466.2171983028673
 21
-1108.56013079033
 31
0.0
  0
ENDBLK
  5
3D386
  8
回08-記事
  6
CONTINUOUS
 62
     7
  0
BLOCK
  8
回08-記事
  2
*X7876
 70
     1
 10
0.0
 20
0.0
 30
0.0
  3
*X7876
  1

  0
INSERT
  5
3D389
  8
回08-記事
  6
CONTINUOUS
 62
     5
  2
_OPEN
 10
407.4321320303377
 20
-1122.117473471423
 30
0.0
 41
2.0
 42
2.0
 43
2.0
 50
127.0241128672188
  0
LINE
  5
3D38A
  8
回08-記事
  6
CONTINUOUS
 62
     5
 10
408.636434179824
 20
-1123.714237803672
 30
0.0
 11
413.5692948061695
 21
-1130.254636247255
 31
0.0
  0
LINE
  5
3D38B
  8
回08-記事
  6
CONTINUOUS
 62
     5
 10
413.5692948061695
 20
-1130.254636247255
 30
0.0
 11
419.0692948061695
 21
-1130.254636247255
 31
0.0
  0
ENDBLK
  5
3D38D
  8
回08-記事
  6
CONTINUOUS
 62
     7
  0
BLOCK
  8
回08-記事
  2
*X7977
 70
     1
 10
0.0
 20
0.0
 30
0.0
  3
*X7977
  1

  0
LINE
  5
3D395
  8
回08-記事
  6
CONTINUOUS
 62
     8
 10
475.946541174484
 20
-1119.57187959349
 30
0.0
 11
476.7902432920625
 21
-1118.728177475912
 31
0.0
1001
ACAD
1010
0.0
1020
0.0
1030
0.0
  0
LINE
  5
3D396
  8
回08-記事
  6
CONTINUOUS
 62
     8
 10
475.9465411744844
 20
-1121.339646546456
 30
0.0
 11
478.5580102450293
 21
-1118.728177475911
 31
0.0
1001
ACAD
1010
0.0
1020
0.0
1030
0.0
  0
LINE
  5
3D397
  8
回08-記事
  6
CONTINUOUS
 62
     8
 10
475.9465411744843
 20
-1123.107413499423
 30
0.0
 11
480.3257771979954
 21
-1118.728177475912
 31
0.0
1001
ACAD
1010
0.0
1020
0.0
1030
0.0
  0
LINE
  5
3D398
  8
回08-記事
  6
CONTINUOUS
 62
     8
 10
476.0908613385465
 20
-1124.730860288327
 30
0.0
 11
482.0935441509618
 21
-1118.728177475912
 31
0.0
1001
ACAD
1010
0.0
1020
0.0
1030
0.0
  0
LINE
  5
3D399
  8
回08-記事
  6
CONTINUOUS
 62
     8
 10
477.8586282915129
 20
-1124.730860288327
 30
0.0
 11
483.8613111039283
 21
-1118.728177475912
 31
0.0
1001
ACAD
1010
0.0
1020
0.0
1030
0.0
  0
LINE
  5
3D39A
  8
回08-記事
  6
CONTINUOUS
 62
     8
 10
479.6263952444793
 20
-1124.730860288327
 30
0.0
 11
484.148024178885
 21
-1120.209231353922
 31
0.0
1001
ACAD
1010
0.0
1020
0.0
1030
0.0
  0
LINE
  5
3D39B
  8
回08-記事
  6
CONTINUOUS
 62
     8
 10
481.3941621974461
 20
-1124.730860288327
 30
0.0
 11
484.1480241788846
 21
-1121.976998306888
 31
0.0
1001
ACAD
1010
0.0
1020
0.0
1030
0.0
  0
LINE
  5
3D39C
  8
回08-記事
  6
CONTINUOUS
 62
     8
 10
483.1619291504124
 20
-1124.730860288327
 30
0.0
 11
484.1480241788846
 21
-1123.744765259855
 31
0.0
1001
ACAD
1010
0.0
1020
0.0
1030
0.0
  0
ENDBLK
  5
3D39E
  8
回08-記事
  6
CONTINUOUS
 62
     7
  0
BLOCK
  8
回08-記事
  2
*X8078
 70
     1
 10
0.0
 20
0.0
 30
0.0
  3
*X8078
  1

  0
INSERT
  5
3D3B6
  8
回08-記事
  6
CONTINUOUS
 62
     5
  2
_OPEN
 10
452.2359465565023
 20
-1274.680074794192
 30
0.0
 41
2.0
 42
2.0
 43
2.0
 50
248.8273103423739
  0
LINE
  5
3D3B7
  8
回08-記事
  6
CONTINUOUS
 62
     5
 10
452.9583068202008
 20
-1272.815082662994
 30
0.0
 11
463.0396907375389
 21
-1246.78693213717
 31
0.0
  0
LINE
  5
3D3B8
  8
回08-記事
  6
CONTINUOUS
 62
     5
 10
463.0396907375389
 20
-1246.78693213717
 30
0.0
 11
529.5396907375389
 21
-1246.78693213717
 31
0.0
  0
ENDBLK
  5
3D3BA
  8
回08-記事
  6
CONTINUOUS
 62
     7
  0
BLOCK
  8
回08-記事
  2
*X8179
 70
     1
 10
0.0
 20
0.0
 30
0.0
  3
*X8179
  1

  0
INSERT
  5
3D3BD
  8
回08-記事
  6
CONTINUOUS
 62
     5
  2
_OPEN
 10
449.8887085943758
 20
-1277.780074794193
 30
0.0
 41
1.999999999999999
 42
1.999999999999999
 43
2.0
 50
102.4352487014054
  0
LINE
  5
3D3BE
  8
回08-記事
  6
CONTINUOUS
 62
     5
 10
450.3193808764509
 20
-1279.733154768349
 30
0.0
 11
458.0540257079847
 21
-1314.809430991425
 31
0.0
  0
LINE
  5
3D3BF
  8
回08-記事
  6
CONTINUOUS
 62
     5
 10
458.0540257079847
 20
-1314.809430991425
 30
0.0
 11
492.5540257079846
 21
-1314.809430991425
 31
0.0
  0
ENDBLK
  5
3D3C1
  8
回08-記事
  6
CONTINUOUS
 62
     7
  0
BLOCK
  8
回08-記事
  2
*X8280
 70
     1
 10
0.0
 20
0.0
 30
0.0
  3
*X8280
  1

  0
INSERT
  5
3D3C4
  8
回08-記事
  6
CONTINUOUS
 62
     5
  2
_OPEN
 10
729.651140286547
 20
-1217.361913694511
 30
0.0
 41
2.0
 42
2.0
 43
2.0
 50
62.44674230402878
  0
LINE
  5
3D3C5
  8
回08-記事
  6
CONTINUOUS
 62
     5
 10
728.7259944668428
 20
-1219.135076183479
 30
0.0
 11
725.0199871029399
 21
-1226.238122105054
 31
0.0
  0
LINE
  5
3D3C6
  8
回08-記事
  6
CONTINUOUS
 62
     5
 10
725.0199871029399
 20
-1226.238122105054
 30
0.0
 11
698.5199871029399
 21
-1226.238122105054
 31
0.0
  0
ENDBLK
  5
3D3C8
  8
回08-記事
  6
CONTINUOUS
 62
     7
  0
BLOCK
  8
回08-記事
  2
*X8381
 70
     1
 10
0.0
 20
0.0
 30
0.0
  3
*X8381
  1

  0
INSERT
  5
3D3CB
  8
回08-記事
  6
CONTINUOUS
 62
     5
  2
_OPEN
 10
408.2222880941262
 20
-1276.180074794192
 30
0.0
 41
2.0
 42
2.0
 43
2.0
 50
52.48373407034835
  0
LINE
  5
3D3CC
  8
回08-記事
  6
CONTINUOUS
 62
     5
 10
407.0043148286272
 20
-1277.76643576337
 30
0.0
 11
396.2261796787112
 21
-1291.804521332793
 31
0.0
  0
LINE
  5
3D3CD
  8
回08-記事
  6
CONTINUOUS
 62
     5
 10
396.2261796787112
 20
-1291.804521332793
 30
0.0
 11
354.2136796787112
 21
-1291.804521332793
 31
0.0
  0
ENDBLK
  5
3D3CF
  8
回08-記事
  6
CONTINUOUS
 62
     7
  0
BLOCK
  8
回08-記事
  2
*X8482
 70
     1
 10
0.0
 20
0.0
 30
0.0
  3
*X8482
  1

  0
LINE
  5
3D40A
  8
回08-記事
  6
CONTINUOUS
 62
     8
 10
1380.540667668511
 20
-1120.22817747591
 30
0.0
 11
1378.668673945731
 21
-1118.356183753131
 31
0.0
  0
LINE
  5
3D40B
  8
回08-記事
  6
CONTINUOUS
 62
     8
 10
1383.19231809796
 20
-1120.22817747591
 30
0.0
 11
1378.764709812486
 21
-1115.800569190436
 31
0.0
  0
LINE
  5
3D40C
  8
回08-記事
  6
CONTINUOUS
 62
     8
 10
1385.843968527409
 20
-1120.22817747591
 30
0.0
 11
1380.84396852741
 21
-1115.22817747591
 31
0.0
  0
LINE
  5
3D40D
  8
回08-記事
  6
CONTINUOUS
 62
     8
 10
1388.495618956859
 20
-1120.22817747591
 30
0.0
 11
1383.495618956859
 21
-1115.22817747591
 31
0.0
  0
LINE
  5
3D40E
  8
回08-記事
  6
CONTINUOUS
 62
     8
 10
1391.147269386309
 20
-1120.22817747591
 30
0.0
 11
1386.147269386309
 21
-1115.22817747591
 31
0.0
  0
LINE
  5
3D40F
  8
回08-記事
  6
CONTINUOUS
 62
     8
 10
1393.798919815758
 20
-1120.22817747591
 30
0.0
 11
1388.798919815758
 21
-1115.22817747591
 31
0.0
  0
LINE
  5
3D410
  8
回08-記事
  6
CONTINUOUS
 62
     8
 10
1396.450570245208
 20
-1120.22817747591
 30
0.0
 11
1391.450570245208
 21
-1115.22817747591
 31
0.0
  0
LINE
  5
3D411
  8
回08-記事
  6
CONTINUOUS
 62
     8
 10
1399.102220674657
 20
-1120.22817747591
 30
0.0
 11
1394.102220674658
 21
-1115.22817747591
 31
0.0
  0
LINE
  5
3D412
  8
回08-記事
  6
CONTINUOUS
 62
     8
 10
1401.753871104107
 20
-1120.22817747591
 30
0.0
 11
1396.753871104107
 21
-1115.22817747591
 31
0.0
  0
LINE
  5
3D413
  8
回08-記事
  6
CONTINUOUS
 62
     8
 10
1404.231855036829
 20
-1120.054510979183
 30
0.0
 11
1399.405521533557
 21
-1115.22817747591
 31
0.0
  0
LINE
  5
3D414
  8
回08-記事
  6
CONTINUOUS
 62
     8
 10
1404.668673945731
 20
-1117.839679458636
 30
0.0
 11
1402.057171963006
 21
-1115.22817747591
 31
0.0
  0
ENDBLK
  5
3D416
  8
回08-記事
  6
CONTINUOUS
 62
     7
  0
BLOCK
  8
回08-記事
  2
*X8583
 70
     1
 10
0.0
 20
0.0
 30
0.0
  3
*X8583
  1

  0
INSERT
  5
3D419
  8
回07-寸法
  6
CONTINUOUS
 62
     5
  2
_OPEN
 10
1424.013221076678
 20
-1109.588984620062
 30
0.0
 41
2.0
 42
2.0
 43
2.0
 50
288.654103799242
  0
LINE
  5
3D41A
  8
回07-寸法
  6
CONTINUOUS
 62
     5
 10
1423.373512807367
 20
-1107.694051024874
 30
0.0
 11
1419.623157313628
 21
-1096.584808015352
 31
0.0
  0
LINE
  5
3D41B
  8
回07-寸法
  6
CONTINUOUS
 62
     5
 10
1419.623157313628
 20
-1096.584808015352
 30
0.0
 11
1417.123157313628
 21
-1096.584808015352
 31
0.0
  0
ENDBLK
  5
3D41D
  8
回08-記事
  6
CONTINUOUS
 62
     7
  0
BLOCK
  8
回08-記事
  2
*X8684
 70
     1
 10
0.0
 20
0.0
 30
0.0
  3
*X8684
  1

  0
INSERT
  5
3D420
  8
回07-寸法
  6
CONTINUOUS
 62
     5
  2
_OPEN
 10
1414.92360428454
 20
-1115.102942904395
 30
0.0
 41
2.0
 42
2.0
 43
2.0
 50
285.5903600825698
  0
LINE
  5
3D421
  8
回07-寸法
  6
CONTINUOUS
 62
     5
 10
1414.386088751847
 20
-1113.17652730746
 30
0.0
 11
1413.098004894462
 21
-1108.56013079033
 31
0.0
  0
LINE
  5
3D422
  8
回07-寸法
  6
CONTINUOUS
 62
     5
 10
1413.098004894462
 20
-1108.56013079033
 30
0.0
 11
1410.598004894462
 21
-1108.56013079033
 31
0.0
  0
ENDBLK
  5
3D424
  8
回08-記事
  6
CONTINUOUS
 62
     7
  0
BLOCK
  8
回08-記事
  2
*X8785
 70
     1
 10
0.0
 20
0.0
 30
0.0
  3
*X8785
  1

  0
INSERT
  5
3D427
  8
回08-記事
  6
CONTINUOUS
 62
     5
  2
_OPEN
 10
1351.812938621932
 20
-1122.117473471423
 30
0.0
 41
2.0
 42
2.0
 43
2.0
 50
127.0241128672196
  0
LINE
  5
3D428
  8
回08-記事
  6
CONTINUOUS
 62
     5
 10
1353.017240771419
 20
-1123.714237803672
 30
0.0
 11
1357.950101397764
 21
-1130.254636247255
 31
0.0
  0
LINE
  5
3D429
  8
回08-記事
  6
CONTINUOUS
 62
     5
 10
1357.950101397764
 20
-1130.254636247255
 30
0.0
 11
1363.450101397764
 21
-1130.254636247255
 31
0.0
  0
ENDBLK
  5
3D42B
  8
回08-記事
  6
CONTINUOUS
 62
     7
  0
BLOCK
  8
回08-記事
  2
*X8886
 70
     1
 10
0.0
 20
0.0
 30
0.0
  3
*X8886
  1

  0
LINE
  5
3D433
  8
回08-記事
  6
CONTINUOUS
 62
     8
 10
1420.327347766078
 20
-1119.57187959349
 30
0.0
 11
1421.171049883657
 21
-1118.728177475912
 31
0.0
1001
ACAD
1010
0.0
1020
0.0
1030
0.0
  0
LINE
  5
3D434
  8
回08-記事
  6
CONTINUOUS
 62
     8
 10
1420.327347766078
 20
-1121.339646546456
 30
0.0
 11
1422.938816836623
 21
-1118.728177475911
 31
0.0
1001
ACAD
1010
0.0
1020
0.0
1030
0.0
  0
LINE
  5
3D435
  8
回08-記事
  6
CONTINUOUS
 62
     8
 10
1420.327347766079
 20
-1123.107413499423
 30
0.0
 11
1424.70658378959
 21
-1118.728177475911
 31
0.0
1001
ACAD
1010
0.0
1020
0.0
1030
0.0
  0
LINE
  5
3D436
  8
回08-記事
  6
CONTINUOUS
 62
     8
 10
1420.471667930141
 20
-1124.730860288327
 30
0.0
 11
1426.474350742557
 21
-1118.728177475911
 31
0.0
1001
ACAD
1010
0.0
1020
0.0
1030
0.0
  0
LINE
  5
3D437
  8
回08-記事
  6
CONTINUOUS
 62
     8
 10
1422.239434883107
 20
-1124.730860288327
 30
0.0
 11
1428.242117695521
 21
-1118.728177475912
 31
0.0
1001
ACAD
1010
0.0
1020
0.0
1030
0.0
  0
LINE
  5
3D438
  8
回08-記事
  6
CONTINUOUS
 62
     8
 10
1424.007201836074
 20
-1124.730860288327
 30
0.0
 11
1428.528830770479
 21
-1120.209231353922
 31
0.0
1001
ACAD
1010
0.0
1020
0.0
1030
0.0
  0
LINE
  5
3D439
  8
回08-記事
  6
CONTINUOUS
 62
     8
 10
1425.774968789041
 20
-1124.730860288327
 30
0.0
 11
1428.52883077048
 21
-1121.976998306888
 31
0.0
1001
ACAD
1010
0.0
1020
0.0
1030
0.0
  0
LINE
  5
3D43A
  8
回08-記事
  6
CONTINUOUS
 62
     8
 10
1427.542735742007
 20
-1124.730860288327
 30
0.0
 11
1428.528830770479
 21
-1123.744765259854
 31
0.0
1001
ACAD
1010
0.0
1020
0.0
1030
0.0
  0
ENDBLK
  5
3D43C
  8
回08-記事
  6
CONTINUOUS
 62
     7
  0
BLOCK
  8
回08-記事
  2
*X8987
 70
     1
 10
0.0
 20
0.0
 30
0.0
  3
*X8987
  1

  0
INSERT
  5
3D43F
  8
回08-記事
  6
CONTINUOUS
 62
     5
  2
_OPEN
 10
1396.616753148097
 20
-1274.680074794192
 30
0.0
 41
2.0
 42
2.0
 43
2.0
 50
248.8273103423739
  0
LINE
  5
3D440
  8
回08-記事
  6
CONTINUOUS
 62
     5
 10
1397.339113411795
 20
-1272.815082662994
 30
0.0
 11
1407.420497329133
 21
-1246.78693213717
 31
0.0
  0
LINE
  5
3D441
  8
回08-記事
  6
CONTINUOUS
 62
     5
 10
1407.420497329133
 20
-1246.78693213717
 30
0.0
 11
1473.920497329133
 21
-1246.78693213717
 31
0.0
  0
ENDBLK
  5
3D443
  8
回08-記事
  6
CONTINUOUS
 62
     7
  0
BLOCK
  8
回08-記事
  2
*X9088
 70
     1
 10
0.0
 20
0.0
 30
0.0
  3
*X9088
  1

  0
INSERT
  5
3D446
  8
回08-記事
  6
CONTINUOUS
 62
     5
  2
_OPEN
 10
1394.26951518597
 20
-1277.780074794193
 30
0.0
 41
1.999999999999999
 42
1.999999999999999
 43
2.0
 50
102.4352487014055
  0
LINE
  5
3D447
  8
回08-記事
  6
CONTINUOUS
 62
     5
 10
1394.700187468045
 20
-1279.733154768349
 30
0.0
 11
1402.434832299579
 21
-1314.809430991425
 31
0.0
  0
LINE
  5
3D448
  8
回08-記事
  6
CONTINUOUS
 62
     5
 10
1402.434832299579
 20
-1314.809430991425
 30
0.0
 11
1436.934832299579
 21
-1314.809430991425
 31
0.0
  0
ENDBLK
  5
3D44A
  8
回08-記事
  6
CONTINUOUS
 62
     7
  0
BLOCK
  8
回08-記事
  2
*X9189
 70
     1
 10
0.0
 20
0.0
 30
0.0
  3
*X9189
  1

  0
INSERT
  5
3D44D
  8
回08-記事
  6
CONTINUOUS
 62
     5
  2
_OPEN
 10
1674.031946878142
 20
-1217.361913694511
 30
0.0
 41
2.0
 42
2.0
 43
2.0
 50
62.44674230402878
  0
LINE
  5
3D44E
  8
回08-記事
  6
CONTINUOUS
 62
     5
 10
1673.106801058437
 20
-1219.135076183479
 30
0.0
 11
1669.400793694534
 21
-1226.238122105054
 31
0.0
  0
LINE
  5
3D44F
  8
回08-記事
  6
CONTINUOUS
 62
     5
 10
1669.400793694534
 20
-1226.238122105054
 30
0.0
 11
1642.900793694535
 21
-1226.238122105054
 31
0.0
  0
ENDBLK
  5
3D451
  8
回08-記事
  6
CONTINUOUS
 62
     7
  0
BLOCK
  8
回08-記事
  2
*X9290
 70
     1
 10
0.0
 20
0.0
 30
0.0
  3
*X9290
  1

  0
INSERT
  5
3D454
  8
回08-記事
  6
CONTINUOUS
 62
     5
  2
_OPEN
 10
1352.603094685721
 20
-1276.180074794192
 30
0.0
 41
2.0
 42
2.0
 43
2.0
 50
52.48373407034821
  0
LINE
  5
3D455
  8
回08-記事
  6
CONTINUOUS
 62
     5
 10
1351.385121420222
 20
-1277.76643576337
 30
0.0
 11
1340.606986270306
 21
-1291.804521332793
 31
0.0
  0
LINE
  5
3D456
  8
回08-記事
  6
CONTINUOUS
 62
     5
 10
1340.606986270306
 20
-1291.804521332793
 30
0.0
 11
1298.594486270306
 21
-1291.804521332793
 31
0.0
  0
ENDBLK
  5
3D458
  8
回08-記事
  6
CONTINUOUS
 62
     7
  0
BLOCK
  8
回08-記事
  2
*X9391
 70
     1
 10
0.0
 20
0.0
 30
0.0
  3
*X9391
  1

  0
TEXT
  5
3D467
  8
回07-寸法
 62
     5
 10
583.1480241788836
 20
-958.2474143939197
 30
0.0
 40
5.0
  1
263
  0
TEXT
  5
3D468
  8
回07-寸法
 62
     5
 10
593.6480241788837
 20
-958.2474143939197
 30
0.0
 40
3.5
  1
±0.3
  0
TEXT
  5
3D469
  8
回07-寸法
 62
     5
 10
602.0480241788837
 20
-958.2474143939197
 30
0.0
 40
5.0
  1
 [10.354
  0
TEXT
  5
3D46A
  8
回07-寸法
 62
     5
 10
625.5480241788838
 20
-958.2474143939197
 30
0.0
 40
3.5
  1
±0.012
  0
TEXT
  5
3D46B
  8
回07-寸法
 62
     5
 10
638.1480241788836
 20
-958.2474143939197
 30
0.0
 40
5.0
  1
]
  0
ENDBLK
  5
3D46D
  8
回08-記事
  6
CONTINUOUS
 62
     7
  0
BLOCK
  8
回08-記事
  2
*X9492
 70
     1
 10
0.0
 20
0.0
 30
0.0
  3
*X9492
  1

  0
TEXT
  5
3D470
  8
回07-寸法
  6
CONTINUOUS
 62
     5
 10
410.4814435336938
 20
-971.154386815791
 30
0.0
 40
5.0
  1
7.5 [0.295]
  0
TEXT
  5
3D471
  8
回07-寸法
  6
CONTINUOUS
 62
     5
 10
441.4994953763286
 20
-971.154386815791
 30
0.0
 40
3.0
  1
(INSULATION AREA)
  0
ENDBLK
  5
3D473
  8
回08-記事
  6
CONTINUOUS
 62
     7
  0
BLOCK
  8
回08-記事
  2
*X9593
 70
     1
 10
0.0
 20
0.0
 30
0.0
  3
*X9593
  1

  0
TEXT
  5
3D476
  8
回07-寸法
  6
CONTINUOUS
 62
     5
 10
747.3980241788847
 20
-971.1542869722872
 30
0.0
 40
5.0
  1
4.5 [0.177]
  0
TEXT
  5
3D477
  8
回07-寸法
  6
CONTINUOUS
 62
     5
 10
777.8980241788847
 20
-971.1542869722872
 30
0.0
 40
2.968999999999999
  1
(INSULATION AREA)
  0
ENDBLK
  5
3D479
  8
回08-記事
  6
CONTINUOUS
 62
     7
  0
BLOCK
  8
回08-記事
  2
*X9694
 70
     1
 10
0.0
 20
0.0
 30
0.0
  3
*X9694
  1

  0
TEXT
  5
3D47C
  8
回07-寸法
  6
CONTINUOUS
 62
     5
 10
824.5225649542554
 20
-1013.47817747591
 30
0.0
 40
5.0
  1
5.45 [0.215]
 50
90.0
  0
TEXT
  5
3D47D
  8
回07-寸法
  6
CONTINUOUS
 62
     5
 10
824.5225649542554
 20
-979.4781774759099
 30
0.0
 40
2.968999999999999
  1
(INSULATION AREA)
 50
90.0
  0
ENDBLK
  5
3D47F
  8
回08-記事
  6
CONTINUOUS
 62
     7
  0
BLOCK
  8
回08-記事
  2
*X9795
 70
     1
 10
0.0
 20
0.0
 30
0.0
  3
*X9795
  1

  0
TEXT
  5
3D482
  8
回07-寸法
  6
CONTINUOUS
 62
     5
 10
419.6326801126451
 20
-1072.822148947709
 30
0.0
 40
5.0
  1
75
  0
TEXT
  5
3D483
  8
回07-寸法
  6
CONTINUOUS
 62
     5
 10
426.6326801126451
 20
-1072.822148947709
 30
0.0
 40
3.5
  1
±1
  0
TEXT
  5
3D484
  8
回07-寸法
  6
CONTINUOUS
 62
     5
 10
430.8326801126451
 20
-1072.822148947709
 30
0.0
 40
5.0
  1
 [2.953
  0
TEXT
  5
3D485
  8
回07-寸法
  6
CONTINUOUS
 62
     5
 10
451.3507319552799
 20
-1072.822148947709
 30
0.0
 40
3.5
  1
±0.039
  0
TEXT
  5
3D486
  8
回07-寸法
  6
CONTINUOUS
 62
     5
 10
464.6633682451243
 20
-1072.822148947709
 30
0.0
 40
5.0
  1
]
  0
ENDBLK
  5
3D488
  8
回08-記事
  6
CONTINUOUS
 62
     7
  0
BLOCK
  8
回08-記事
  2
*X9896
 70
     1
 10
0.0
 20
0.0
 30
0.0
  3
*X9896
  1

  0
TEXT
  5
3D48B
  8
回07-寸法
  6
CONTINUOUS
 62
     5
 10
389.9925708761475
 20
-1172.095939223464
 30
0.0
 40
5.0
  1
5
 50
90.0
  0
TEXT
  5
3D48C
  8
回07-寸法
  6
CONTINUOUS
 62
     5
 10
389.9925708761475
 20
-1168.595939223463
 30
0.0
 40
3.5
  1
±0.1
 50
90.0
  0
TEXT
  5
3D48D
  8
回07-寸法
  6
CONTINUOUS
 62
     5
 10
389.9925708761475
 20
-1160.895939223464
 30
0.0
 40
5.0
  1
 [0.197
 50
90.0
  0
TEXT
  5
3D48E
  8
回07-寸法
  6
CONTINUOUS
 62
     5
 10
389.9925708761475
 20
-1141.377887380828
 30
0.0
 40
3.5
  1
±0.004
 50
90.0
  0
TEXT
  5
3D48F
  8
回07-寸法
  6
CONTINUOUS
 62
     5
 10
389.9925708761475
 20
-1127.727887380828
 30
0.0
 40
5.0
  1
]
 50
90.0
  0
ENDBLK
  5
3D491
  8
回08-記事
  6
CONTINUOUS
 62
     7
  0
BLOCK
  8
回08-記事
  2
*X9997
 70
     1
 10
0.0
 20
0.0
 30
0.0
  3
*X9997
  1

  0
TEXT
  5
3D494
  8
回07-寸法
 62
     5
 10
844.5874161966568
 20
-1142.795012111202
 30
0.0
 40
5.0
  1
201
 50
90.0
  0
TEXT
  5
3D495
  8
回07-寸法
 62
     5
 10
844.5874161966568
 20
-1133.295012111201
 30
0.0
 40
3.5
  1
±0.3
 50
90.0
  0
TEXT
  5
3D496
  8
回07-寸法
 62
     5
 10
844.5874161966568
 20
-1124.895012111201
 30
0.0
 40
5.0
  1
 [7.913
 50
90.0
  0
TEXT
  5
3D497
  8
回07-寸法
 62
     5
 10
844.5874161966568
 20
-1105.376960268566
 30
0.0
 40
3.5
  1
±0.012
 50
90.0
  0
TEXT
  5
3D498
  8
回07-寸法
 62
     5
 10
844.5874161966568
 20
-1092.776960268566
 30
0.0
 40
5.0
  1
]
 50
90.0
  0
ENDBLK
  5
3D49A
  8
回08-記事
  6
CONTINUOUS
 62
     7
  0
BLOCK
  8
回08-記事
  2
*X10098
 70
     1
 10
0.0
 20
0.0
 30
0.0
  3
*X10098
  1

  0
TEXT
  5
3D49D
  8
回07-寸法
  6
CONTINUOUS
 62
     5
 10
824.5225649542554
 20
-1291.018958578272
 30
0.0
 40
5.0
  1
5.45 [0.215]
 50
90.0
  0
TEXT
  5
3D49E
  8
回07-寸法
  6
CONTINUOUS
 62
     5
 10
824.5225649542554
 20
-1257.018958578272
 30
0.0
 40
2.968999999999999
  1
(INSULATION AREA)
 50
90.0
  0
ENDBLK
  5
3D4A0
  8
回08-記事
  6
CONTINUOUS
 62
     7
  0
BLOCK
  8
回08-記事
  2
*X10199
 70
     1
 10
0.0
 20
0.0
 30
0.0
  3
*X10199
  1

  0
TEXT
  5
3D4A3
  8
回08-記事
  6
CONTINUOUS
 62
     5
 10
367.6350911610173
 20
-1266.285387786318
 30
0.0
 40
5.0
  1
0.3
 50
90.0
  0
TEXT
  5
3D4A4
  8
回08-記事
  6
CONTINUOUS
 62
     5
 10
367.6350911610173
 20
-1257.785387786318
 30
0.0
 40
3.281499999999998
  1
±0.05
 50
90.0
  0
TEXT
  5
3D4A5
  8
回08-記事
  6
CONTINUOUS
 62
     5
 10
367.6350911610173
 20
-1247.612737786318
 30
0.0
 40
5.0
  1
[0.012
 50
90.0
  0
TEXT
  5
3D4A6
  8
回08-記事
  6
CONTINUOUS
 62
     5
 10
367.6350911610173
 20
-1231.112737786318
 30
0.0
 40
3.281499999999998
  1
±0.002
 50
90.0
  0
TEXT
  5
3D4A7
  8
回08-記事
  6
CONTINUOUS
 62
     5
 10
367.6350911610173
 20
-1218.643037786318
 30
0.0
 40
5.0
  1
]
 50
90.0
  0
ENDBLK
  5
3D4A9
  8
回08-記事
  6
CONTINUOUS
 62
     7
  0
BLOCK
  8
回08-記事
  2
*X102100
 70
     1
 10
0.0
 20
0.0
 30
0.0
  3
*X102100
  1

  0
TEXT
  5
3D4AC
  8
回08-記事
  6
CONTINUOUS
 62
     5
 10
757.7080515923263
 20
-1334.997370793714
 30
0.0
 40
5.0
  1
2.1
 50
90.0
  0
TEXT
  5
3D4AD
  8
回08-記事
  6
CONTINUOUS
 62
     5
 10
757.7080515923263
 20
-1327.497370793714
 30
0.0
 40
3.281499999999998
  1
±0.2
 50
90.0
  0
TEXT
  5
3D4AE
  8
回08-記事
  6
CONTINUOUS
 62
     5
 10
757.7080515923263
 20
-1319.621770793714
 30
0.0
 40
5.0
  1
[0.079
 50
90.0
  0
TEXT
  5
3D4AF
  8
回08-記事
  6
CONTINUOUS
 62
     5
 10
757.7080515923263
 20
-1302.103718951079
 30
0.0
 40
3.281499999999998
  1
±0.008
 50
90.0
  0
TEXT
  5
3D4B0
  8
回08-記事
  6
CONTINUOUS
 62
     5
 10
757.7080515923263
 20
-1289.634018951079
 30
0.0
 40
5.0
  1
]
 50
90.0
  0
ENDBLK
  5
3D4B2
  8
回08-記事
  6
CONTINUOUS
 62
     7
  0
BLOCK
  8
回08-記事
  2
*X103101
 70
     1
 10
0.0
 20
0.0
 30
0.0
  3
*X103101
  1

  0
TEXT
  5
3D4B5
  8
回07-寸法
  6
CONTINUOUS
 62
     5
 10
253.8006815327515
 20
-1241.831724928994
 30
0.0
 40
5.0
  1
5
 50
90.0
  0
TEXT
  5
3D4B6
  8
回07-寸法
  6
CONTINUOUS
 62
     5
 10
253.8006815327515
 20
-1238.331724928994
 30
0.0
 40
3.333499999999999
  1
±1
 50
90.0
  0
TEXT
  5
3D4B7
  8
回07-寸法
  6
CONTINUOUS
 62
     5
 10
253.8006815327515
 20
-1234.331524928994
 30
0.0
 40
5.0
  1
[0.197
 50
90.0
  0
TEXT
  5
3D4B8
  8
回07-寸法
  6
CONTINUOUS
 62
     5
 10
253.8006815327515
 20
-1217.813473086359
 30
0.0
 40
3.333499999999999
  1
±0.004
 50
90.0
  0
TEXT
  5
3D4B9
  8
回07-寸法
  6
CONTINUOUS
 62
     5
 10
253.8006815327515
 20
-1204.812823086359
 30
0.0
 40
5.0
  1
]
 50
90.0
  0
ENDBLK
  5
3D4BB
  8
回08-記事
  6
CONTINUOUS
 62
     7
  0
BLOCK
  8
回08-記事
  2
*X104102
 70
     1
 10
0.0
 20
0.0
 30
0.0
  3
*X104102
  1

  0
TEXT
  5
3D4BE
  8
回07-寸法
 62
     5
 10
1527.528830770478
 20
-958.2474143939197
 30
0.0
 40
5.0
  1
263
  0
TEXT
  5
3D4BF
  8
回07-寸法
 62
     5
 10
1538.028830770478
 20
-958.2474143939197
 30
0.0
 40
3.5
  1
±0.3
  0
TEXT
  5
3D4C0
  8
回07-寸法
 62
     5
 10
1546.428830770478
 20
-958.2474143939197
 30
0.0
 40
5.0
  1
 [10.354
  0
TEXT
  5
3D4C1
  8
回07-寸法
 62
     5
 10
1569.928830770478
 20
-958.2474143939197
 30
0.0
 40
3.5
  1
±0.012
  0
TEXT
  5
3D4C2
  8
回07-寸法
 62
     5
 10
1582.528830770478
 20
-958.2474143939197
 30
0.0
 40
5.0
  1
]
  0
ENDBLK
  5
3D4C4
  8
回08-記事
  6
CONTINUOUS
 62
     7
  0
BLOCK
  8
回08-記事
  2
*X105103
 70
     1
 10
0.0
 20
0.0
 30
0.0
  3
*X105103
  1

  0
TEXT
  5
3D4C7
  8
回07-寸法
  6
CONTINUOUS
 62
     5
 10
1354.862250125288
 20
-971.154386815791
 30
0.0
 40
5.0
  1
7.5 [0.295]
  0
TEXT
  5
3D4C8
  8
回07-寸法
  6
CONTINUOUS
 62
     5
 10
1385.880301967923
 20
-971.154386815791
 30
0.0
 40
3.0
  1
(INSULATION AREA)
  0
ENDBLK
  5
3D4CA
  8
回08-記事
  6
CONTINUOUS
 62
     7
  0
BLOCK
  8
回08-記事
  2
*X106104
 70
     1
 10
0.0
 20
0.0
 30
0.0
  3
*X106104
  1

  0
TEXT
  5
3D4CD
  8
回07-寸法
  6
CONTINUOUS
 62
     5
 10
1691.77883077048
 20
-971.1542869722872
 30
0.0
 40
5.0
  1
4.5 [0.177]
  0
TEXT
  5
3D4CE
  8
回07-寸法
  6
CONTINUOUS
 62
     5
 10
1722.278830770479
 20
-971.1542869722872
 30
0.0
 40
2.968999999999999
  1
(INSULATION AREA)
  0
ENDBLK
  5
3D4D0
  8
回08-記事
  6
CONTINUOUS
 62
     7
  0
BLOCK
  8
回08-記事
  2
*X107105
 70
     1
 10
0.0
 20
0.0
 30
0.0
  3
*X107105
  1

  0
TEXT
  5
3D4D3
  8
回07-寸法
  6
CONTINUOUS
 62
     5
 10
1768.903371545851
 20
-1013.478177475911
 30
0.0
 40
5.0
  1
5.45 [0.215]
 50
90.0
  0
TEXT
  5
3D4D4
  8
回07-寸法
  6
CONTINUOUS
 62
     5
 10
1768.903371545851
 20
-979.4781774759108
 30
0.0
 40
2.968999999999999
  1
(INSULATION AREA)
 50
90.0
  0
ENDBLK
  5
3D4D6
  8
回08-記事
  6
CONTINUOUS
 62
     7
  0
BLOCK
  8
回08-記事
  2
*X108106
 70
     1
 10
0.0
 20
0.0
 30
0.0
  3
*X108106
  1

  0
TEXT
  5
3D4D9
  8
回07-寸法
  6
CONTINUOUS
 62
     5
 10
1364.013486704239
 20
-1072.822148947709
 30
0.0
 40
5.0
  1
75
  0
TEXT
  5
3D4DA
  8
回07-寸法
  6
CONTINUOUS
 62
     5
 10
1371.013486704239
 20
-1072.822148947709
 30
0.0
 40
3.5
  1
±1
  0
TEXT
  5
3D4DB
  8
回07-寸法
  6
CONTINUOUS
 62
     5
 10
1375.21348670424
 20
-1072.822148947709
 30
0.0
 40
5.0
  1
 [2.953
  0
TEXT
  5
3D4DC
  8
回07-寸法
  6
CONTINUOUS
 62
     5
 10
1395.731538546874
 20
-1072.822148947709
 30
0.0
 40
3.5
  1
±0.039
  0
TEXT
  5
3D4DD
  8
回07-寸法
  6
CONTINUOUS
 62
     5
 10
1409.044174836719
 20
-1072.822148947709
 30
0.0
 40
5.0
  1
]
  0
ENDBLK
  5
3D4DF
  8
回08-記事
  6
CONTINUOUS
 62
     7
  0
BLOCK
  8
回08-記事
  2
*X109107
 70
     1
 10
0.0
 20
0.0
 30
0.0
  3
*X109107
  1

  0
TEXT
  5
3D4E2
  8
回07-寸法
  6
CONTINUOUS
 62
     5
 10
1334.373377467742
 20
-1172.095939223463
 30
0.0
 40
5.0
  1
5
 50
90.0
  0
TEXT
  5
3D4E3
  8
回07-寸法
  6
CONTINUOUS
 62
     5
 10
1334.373377467742
 20
-1168.595939223463
 30
0.0
 40
3.5
  1
±0.1
 50
90.0
  0
TEXT
  5
3D4E4
  8
回07-寸法
  6
CONTINUOUS
 62
     5
 10
1334.373377467742
 20
-1160.895939223463
 30
0.0
 40
5.0
  1
 [0.197
 50
90.0
  0
TEXT
  5
3D4E5
  8
回07-寸法
  6
CONTINUOUS
 62
     5
 10
1334.373377467742
 20
-1141.377887380828
 30
0.0
 40
3.5
  1
±0.004
 50
90.0
  0
TEXT
  5
3D4E6
  8
回07-寸法
  6
CONTINUOUS
 62
     5
 10
1334.373377467742
 20
-1127.727887380828
 30
0.0
 40
5.0
  1
]
 50
90.0
  0
ENDBLK
  5
3D4E8
  8
回08-記事
  6
CONTINUOUS
 62
     7
  0
BLOCK
  8
回08-記事
  2
*X110108
 70
     1
 10
0.0
 20
0.0
 30
0.0
  3
*X110108
  1

  0
TEXT
  5
3D4EB
  8
回07-寸法
 62
     5
 10
1788.968222788251
 20
-1142.795012111202
 30
0.0
 40
5.0
  1
201
 50
90.0
  0
TEXT
  5
3D4EC
  8
回07-寸法
 62
     5
 10
1788.968222788251
 20
-1133.295012111201
 30
0.0
 40
3.5
  1
±0.3
 50
90.0
  0
TEXT
  5
3D4ED
  8
回07-寸法
 62
     5
 10
1788.968222788251
 20
-1124.895012111201
 30
0.0
 40
5.0
  1
 [7.913
 50
90.0
  0
TEXT
  5
3D4EE
  8
回07-寸法
 62
     5
 10
1788.968222788251
 20
-1105.376960268567
 30
0.0
 40
3.5
  1
±0.012
 50
90.0
  0
TEXT
  5
3D4EF
  8
回07-寸法
 62
     5
 10
1788.968222788251
 20
-1092.776960268567
 30
0.0
 40
5.0
  1
]
 50
90.0
  0
ENDBLK
  5
3D4F1
  8
回08-記事
  6
CONTINUOUS
 62
     7
  0
BLOCK
  8
回08-記事
  2
*X111109
 70
     1
 10
0.0
 20
0.0
 30
0.0
  3
*X111109
  1

  0
TEXT
  5
3D4F4
  8
回07-寸法
  6
CONTINUOUS
 62
     5
 10
1768.903371545851
 20
-1291.018958578273
 30
0.0
 40
5.0
  1
5.45 [0.215]
 50
90.0
  0
TEXT
  5
3D4F5
  8
回07-寸法
  6
CONTINUOUS
 62
     5
 10
1768.903371545851
 20
-1257.018958578273
 30
0.0
 40
2.968999999999999
  1
(INSULATION AREA)
 50
90.0
  0
ENDBLK
  5
3D4F7
  8
回08-記事
  6
CONTINUOUS
 62
     7
  0
BLOCK
  8
回08-記事
  2
*X112110
 70
     1
 10
0.0
 20
0.0
 30
0.0
  3
*X112110
  1

  0
TEXT
  5
3D4FA
  8
回07-寸法
  6
CONTINUOUS
 62
     5
 10
1198.181488124347
 20
-1243.498474928994
 30
0.0
 40
5.0
  1
5
 50
90.0
  0
TEXT
  5
3D4FB
  8
回07-寸法
  6
CONTINUOUS
 62
     5
 10
1198.181488124347
 20
-1239.998474928994
 30
0.0
 40
3.333499999999999
  1
±0.1
 50
90.0
  0
TEXT
  5
3D4FC
  8
回07-寸法
  6
CONTINUOUS
 62
     5
 10
1198.181488124347
 20
-1232.664774928994
 30
0.0
 40
5.0
  1
[0.197
 50
90.0
  0
TEXT
  5
3D4FD
  8
回07-寸法
  6
CONTINUOUS
 62
     5
 10
1198.181488124347
 20
-1216.146723086359
 30
0.0
 40
3.333499999999999
  1
±0.004
 50
90.0
  0
TEXT
  5
3D4FE
  8
回07-寸法
  6
CONTINUOUS
 62
     5
 10
1198.181488124347
 20
-1203.146073086359
 30
0.0
 40
5.0
  1
]
 50
90.0
  0
ENDBLK
  5
3D500
  8
回08-記事
  6
CONTINUOUS
 62
     7
  0
BLOCK
  8
回08-記事
  2
*X113111
 70
     1
 10
0.0
 20
0.0
 30
0.0
  3
*X113111
  1

  0
TEXT
  5
3D503
  8
回08-記事
  6
CONTINUOUS
 62
     5
 10
1307.863081508996
 20
-1267.926137786318
 30
0.0
 40
5.0
  1
0.3
 50
90.0
  0
TEXT
  5
3D504
  8
回08-記事
  6
CONTINUOUS
 62
     5
 10
1307.863081508996
 20
-1259.426137786318
 30
0.0
 40
3.281499999999998
  1
±0.05
 50
90.0
  0
TEXT
  5
3D505
  8
回08-記事
  6
CONTINUOUS
 62
     5
 10
1307.863081508996
 20
-1249.253487786318
 30
0.0
 40
5.0
  1
[0.012
 50
90.0
  0
TEXT
  5
3D506
  8
回08-記事
  6
CONTINUOUS
 62
     5
 10
1307.863081508996
 20
-1232.753487786318
 30
0.0
 40
3.281499999999998
  1
±0.002
 50
90.0
  0
TEXT
  5
3D507
  8
回08-記事
  6
CONTINUOUS
 62
     5
 10
1307.863081508996
 20
-1220.283787786318
 30
0.0
 40
5.0
  1
]
 50
90.0
  0
ENDBLK
  5
3D509
  8
回08-記事
  6
CONTINUOUS
 62
     7
  0
BLOCK
  8
回08-記事
  2
*X114112
 70
     1
 10
0.0
 20
0.0
 30
0.0
  3
*X114112
  1

  0
TEXT
  5
3D50C
  8
回08-記事
  6
CONTINUOUS
 62
     5
 10
1702.088858183921
 20
-1333.356620793715
 30
0.0
 40
5.0
  1
2.1
 50
90.0
  0
TEXT
  5
3D50D
  8
回08-記事
  6
CONTINUOUS
 62
     5
 10
1702.088858183921
 20
-1325.856620793715
 30
0.0
 40
3.281499999999998
  1
±0.2
 50
90.0
  0
TEXT
  5
3D50E
  8
回08-記事
  6
CONTINUOUS
 62
     5
 10
1702.088858183921
 20
-1317.981020793715
 30
0.0
 40
5.0
  1
[0.079
 50
90.0
  0
TEXT
  5
3D50F
  8
回08-記事
  6
CONTINUOUS
 62
     5
 10
1702.088858183921
 20
-1300.46296895108
 30
0.0
 40
3.281499999999998
  1
±0.008
 50
90.0
  0
TEXT
  5
3D510
  8
回08-記事
  6
CONTINUOUS
 62
     5
 10
1702.088858183921
 20
-1287.99326895108
 30
0.0
 40
5.0
  1
]
 50
90.0
  0
ENDBLK
  5
3D512
  8
回08-記事
  6
CONTINUOUS
 62
     7
  0
ENDSEC
  0
SECTION
  2
ENTITIES
  0
TEXT
  5
2BB5D
  8
回90-A2
 10
-3000.270512377555
 20
-2668.480721434059
 30
0.0
 40
3.599999999999998
  1
　　
  0
TEXT
  5
2D496
  8
回90-A1和
 10
7192.878919352988
 20
-2183.147294079677
 30
0.0
 40
8.0
  1

  0
TEXT
  5
2D497
  8
回90-A1和
 10
7189.107145810142
 20
-2171.213291047294
 30
0.0
 40
5.0
  1

  0
TEXT
  5
2D498
  8
回90-A1和
 10
7194.672389655112
 20
-2193.213291047294
 30
0.0
 40
5.0
  1

  0
TEXT
  5
2D499
  8
回90-A1和
 10
7162.878919352988
 20
-2183.147294079677
 30
0.0
 40
8.0
  1

  0
TEXT
  5
2D49A
  8
回90-A1和
 10
7159.107145810141
 20
-2171.213291047294
 30
0.0
 40
5.0
  1

  0
TEXT
  5
36AE9
  8
回90-A1和
 10
4618.543240624751
 20
-1669.762577280233
 30
0.0
 40
8.0
  1

  0
TEXT
  5
36AEA
  8
回90-A1和
 10
4614.771467081903
 20
-1657.828574247849
 30
0.0
 40
5.0
  1

  0
TEXT
  5
36AEB
  8
回90-A1和
 10
4620.336710926873
 20
-1679.828574247849
 30
0.0
 40
5.0
  1

  0
TEXT
  5
36AEC
  8
回90-A1和
 10
4588.54324062475
 20
-1669.762577280233
 30
0.0
 40
8.0
  1

  0
TEXT
  5
36AED
  8
回90-A1和
 10
4584.771467081904
 20
-1657.828574247849
 30
0.0
 40
5.0
  1

  0
TEXT
  5
39225
  8
回90-A2
 10
932.8630500663122
 20
-5392.527136578998
 30
0.0
 40
3.599999999999998
  1
　　
  0
POLYLINE
  5
3930C
  8
H05_GAG
  6
CONTINUOUS
 62
    20
 66
     1
 10
0.0
 20
0.0
 30
0.0
 70
     1
 40
0.2
 41
0.2
  0
VERTEX
  5
3D77B
  8
H05_GAG
  6
CONTINUOUS
 62
    20
 10
2794.007233667032
 20
-512.4597667544021
 30
0.0
 42
1.0
  0
VERTEX
  5
3D77D
  8
H05_GAG
  6
CONTINUOUS
 62
    20
 10
2794.707233667032
 20
-512.4597667544021
 30
0.0
 42
1.0
  0
SEQEND
  5
3D77C
  8
回08-記事
  6
CONTINUOUS
 62
     7
  0
POLYLINE
  5
3930D
  8
H05_GAG
  6
CONTINUOUS
 62
    20
 66
     1
 10
0.0
 20
0.0
 30
0.0
 70
     1
 40
0.2000000000000001
 41
0.2000000000000001
  0
VERTEX
  5
3D77E
  8
H05_GAG
  6
CONTINUOUS
 62
    20
 10
2792.407233667032
 20
-512.4597667544021
 30
0.0
 42
1.0
  0
VERTEX
  5
3D780
  8
H05_GAG
  6
CONTINUOUS
 62
    20
 10
2793.307233667032
 20
-512.4597667544021
 30
0.0
 42
1.0
  0
SEQEND
  5
3D77F
  8
回08-記事
  6
CONTINUOUS
 62
     7
  0
POLYLINE
  5
3930E
  8
H05_GAG
  6
CONTINUOUS
 62
    40
 66
     1
 10
0.0
 20
0.0
 30
0.0
 70
     1
 40
0.4
 41
0.4
  0
VERTEX
  5
3D781
  8
H05_GAG
  6
CONTINUOUS
 62
    40
 10
2795.657233667032
 20
-512.4597667544021
 30
0.0
 42
1.0
  0
VERTEX
  5
3D783
  8
H05_GAG
  6
CONTINUOUS
 62
    40
 10
2796.057233667032
 20
-512.4597667544021
 30
0.0
 42
1.0
  0
SEQEND
  5
3D782
  8
回08-記事
  6
CONTINUOUS
 62
     7
  0
POLYLINE
  5
3930F
  8
H05_GAG
  6
CONTINUOUS
 62
    40
 66
     1
 10
0.0
 20
0.0
 30
0.0
 70
     1
 40
0.4
 41
0.4
  0
VERTEX
  5
3D784
  8
H05_GAG
  6
CONTINUOUS
 62
    40
 10
2797.157233667032
 20
-512.4597667544021
 30
0.0
 42
1.0
  0
VERTEX
  5
3D786
  8
H05_GAG
  6
CONTINUOUS
 62
    40
 10
2797.557233667032
 20
-512.4597667544021
 30
0.0
 42
1.0
  0
SEQEND
  5
3D785
  8
回08-記事
  6
CONTINUOUS
 62
     7
  0
POLYLINE
  5
39310
  8
H05_GAG
  6
CONTINUOUS
 62
    40
 66
     1
 10
0.0
 20
0.0
 30
0.0
 70
     1
 40
0.4
 41
0.4
  0
VERTEX
  5
3D787
  8
H05_GAG
  6
CONTINUOUS
 62
    40
 10
2798.657233667032
 20
-512.4597667544021
 30
0.0
 42
1.0
  0
VERTEX
  5
3D789
  8
H05_GAG
  6
CONTINUOUS
 62
    40
 10
2799.057233667032
 20
-512.4597667544021
 30
0.0
 42
1.0
  0
SEQEND
  5
3D788
  8
回08-記事
  6
CONTINUOUS
 62
     7
  0
POLYLINE
  5
39311
  8
H05_GAG
  6
CONTINUOUS
 62
    40
 66
     1
 10
0.0
 20
0.0
 30
0.0
 70
     1
 40
0.4
 41
0.4
  0
VERTEX
  5
3D78A
  8
H05_GAG
  6
CONTINUOUS
 62
    40
 10
2800.157233667031
 20
-512.4597667544021
 30
0.0
 42
1.0
  0
VERTEX
  5
3D78C
  8
H05_GAG
  6
CONTINUOUS
 62
    40
 10
2800.557233667032
 20
-512.4597667544021
 30
0.0
 42
1.0
  0
SEQEND
  5
3D78B
  8
回08-記事
  6
CONTINUOUS
 62
     7
  0
POLYLINE
  5
39312
  8
H05_GAG
  6
CONTINUOUS
 62
    40
 66
     1
 10
0.0
 20
0.0
 30
0.0
 70
     1
 40
0.4
 41
0.4
  0
VERTEX
  5
3D78D
  8
H05_GAG
  6
CONTINUOUS
 62
    40
 10
2801.657233667032
 20
-512.4597667544011
 30
0.0
 42
1.0
  0
VERTEX
  5
3D78F
  8
H05_GAG
  6
CONTINUOUS
 62
    40
 10
2802.057233667032
 20
-512.4597667544011
 30
0.0
 42
1.0
  0
SEQEND
  5
3D78E
  8
回08-記事
  6
CONTINUOUS
 62
     7
  0
LINE
  5
3CD7F
  8
回91-枠英1
 10
1963.748179436902
 20
-862.4372775173906
 30
0.0
 11
1153.748179436902
 21
-862.4372775173906
 31
0.0
  0
LINE
  5
3CD80
  8
回91-枠英1
 10
1158.748179436902
 20
-867.4372775173905
 30
0.0
 11
1958.748179436902
 21
-867.4372775173905
 31
0.0
  0
LINE
  5
3CD81
  8
回91-枠英1
 10
1963.748179436902
 20
-1412.437277517391
 30
0.0
 11
1153.748179436902
 21
-1412.437277517391
 31
0.0
  0
LINE
  5
3CD82
  8
回91-枠英1
 10
1158.748179436902
 20
-1407.43727751739
 30
0.0
 11
1958.748179436902
 21
-1407.43727751739
 31
0.0
  0
LINE
  5
3CD83
  8
回91-枠英1
 10
1153.748179436902
 20
-1412.437277517391
 30
0.0
 11
1153.748179436902
 21
-862.4372775173906
 31
0.0
  0
LINE
  5
3CD84
  8
回91-枠英1
 10
1158.748179436902
 20
-867.4372775173905
 30
0.0
 11
1158.748179436902
 21
-1407.43727751739
 31
0.0
  0
TEXT
  5
3CD85
  8
回91-枠英1
 10
1154.772528772977
 20
-1364.648590221531
 30
0.0
 40
4.0
  1
6
  0
TEXT
  5
3CD86
  8
回91-枠英1
 10
1197.477564742554
 20
-1412.064854391339
 30
0.0
 40
4.0
  1
A
  0
LINE
  5
3CD87
  8
回91-枠英1
 10
1238.748179436902
 20
-1407.43727751739
 30
0.0
 11
1238.748179436902
 21
-1412.437277517391
 31
0.0
  0
LINE
  5
3CD88
  8
回91-枠英1
 10
1158.748179436902
 20
-1317.437277517391
 30
0.0
 11
1153.748179436902
 21
-1317.437277517391
 31
0.0
  0
TEXT
  5
3CD89
  8
回91-枠英1
 10
1154.772528772977
 20
-1274.648590221531
 30
0.0
 40
4.0
  1
5
  0
LINE
  5
3CD8A
  8
回91-枠英1
 10
1158.748179436902
 20
-1227.43727751739
 30
0.0
 11
1153.748179436902
 21
-1227.43727751739
 31
0.0
  0
TEXT
  5
3CD8B
  8
回91-枠英1
 10
1277.477564742554
 20
-1412.064854391339
 30
0.0
 40
4.0
  1
B
  0
LINE
  5
3CD8C
  8
回91-枠英1
 10
1318.748179436902
 20
-1407.43727751739
 30
0.0
 11
1318.748179436902
 21
-1412.437277517391
 31
0.0
  0
TEXT
  5
3CD8D
  8
回91-枠英1
 10
1357.477564742554
 20
-1412.064854391339
 30
0.0
 40
4.0
  1
C
  0
LINE
  5
3CD8E
  8
回91-枠英1
 10
1398.748179436902
 20
-1407.43727751739
 30
0.0
 11
1398.748179436902
 21
-1412.437277517391
 31
0.0
  0
TEXT
  5
3CD8F
  8
回91-枠英1
 10
1437.477564742554
 20
-1412.064854391339
 30
0.0
 40
4.0
  1
D
  0
LINE
  5
3CD90
  8
回91-枠英1
 10
1478.748179436902
 20
-1407.43727751739
 30
0.0
 11
1478.748179436902
 21
-1412.437277517391
 31
0.0
  0
TEXT
  5
3CD91
  8
回91-枠英1
 10
1517.477564742554
 20
-1412.064854391339
 30
0.0
 40
4.0
  1
E
  0
LINE
  5
3CD92
  8
回91-枠英1
 10
1558.748179436902
 20
-1407.43727751739
 30
0.0
 11
1558.748179436902
 21
-1412.437277517391
 31
0.0
  0
TEXT
  5
3CD93
  8
回91-枠英1
 10
1597.477564742554
 20
-1412.064854391339
 30
0.0
 40
4.0
  1
F
  0
LINE
  5
3CD94
  8
回91-枠英1
 10
1638.748179436902
 20
-1407.43727751739
 30
0.0
 11
1638.748179436902
 21
-1412.437277517391
 31
0.0
  0
TEXT
  5
3CD95
  8
回91-枠英1
 10
1154.772528772977
 20
-1184.648590221531
 30
0.0
 40
4.0
  1
4
  0
LINE
  5
3CD96
  8
回91-枠英1
 10
1158.748179436902
 20
-1137.43727751739
 30
0.0
 11
1153.748179436902
 21
-1137.43727751739
 31
0.0
  0
TEXT
  5
3CD97
  8
回91-枠英1
 10
1154.845620893058
 20
-1094.648590221531
 30
0.0
 40
4.0
  1
3
  0
LINE
  5
3CD98
  8
回91-枠英1
 10
1158.748179436902
 20
-1047.43727751739
 30
0.0
 11
1153.748179436902
 21
-1047.43727751739
 31
0.0
  0
TEXT
  5
3CD99
  8
回91-枠英1
 10
1154.851101737259
 20
-1004.648590221531
 30
0.0
 40
4.0
  1
2
  0
LINE
  5
3CD9A
  8
回91-枠英1
 10
1158.748179436902
 20
-957.4372775173905
 30
0.0
 11
1153.748179436902
 21
-957.4372775173905
 31
0.0
  0
TEXT
  5
3CD9B
  8
回91-枠英1
 10
1155.152600440561
 20
-914.6485902215314
 30
0.0
 40
4.0
  1
1
  0
TEXT
  5
3CD9C
  8
回91-枠英1
 10
1197.477564742554
 20
-867.0648543913394
 30
0.0
 40
4.0
  1
A
  0
LINE
  5
3CD9D
  8
回91-枠英1
 10
1238.748179436902
 20
-862.4372775173906
 30
0.0
 11
1238.748179436902
 21
-867.4372775173905
 31
0.0
  0
TEXT
  5
3CD9E
  8
回91-枠英1
 10
1277.477564742554
 20
-867.0648543913394
 30
0.0
 40
4.0
  1
B
  0
LINE
  5
3CD9F
  8
回91-枠英1
 10
1318.748179436902
 20
-862.4372775173906
 30
0.0
 11
1318.748179436902
 21
-867.4372775173905
 31
0.0
  0
TEXT
  5
3CDA0
  8
回91-枠英1
 10
1357.477564742554
 20
-867.0648543913394
 30
0.0
 40
4.0
  1
C
  0
LINE
  5
3CDA1
  8
回91-枠英1
 10
1398.748179436902
 20
-862.4372775173906
 30
0.0
 11
1398.748179436902
 21
-867.4372775173905
 31
0.0
  0
TEXT
  5
3CDA2
  8
回91-枠英1
 10
1437.477564742554
 20
-867.0648543913394
 30
0.0
 40
4.0
  1
D
  0
LINE
  5
3CDA3
  8
回91-枠英1
 10
1478.748179436902
 20
-862.4372775173906
 30
0.0
 11
1478.748179436902
 21
-867.4372775173905
 31
0.0
  0
TEXT
  5
3CDA4
  8
回91-枠英1
 10
1517.477564742554
 20
-867.0648543913394
 30
0.0
 40
4.0
  1
E
  0
LINE
  5
3CDA5
  8
回91-枠英1
 10
1558.748179436902
 20
-862.4372775173906
 30
0.0
 11
1558.748179436902
 21
-867.4372775173905
 31
0.0
  0
TEXT
  5
3CDA6
  8
回91-枠英1
 10
1597.477564742554
 20
-867.0648543913394
 30
0.0
 40
4.0
  1
F
  0
LINE
  5
3CDA7
  8
回91-枠英1
 10
1638.748179436902
 20
-862.4372775173906
 30
0.0
 11
1638.748179436902
 21
-867.4372775173905
 31
0.0
  0
LINE
  5
3CDA8
  8
回91-枠英1
 10
1963.748179436902
 20
-1412.437277517391
 30
0.0
 11
1963.748179436902
 21
-862.4372775173906
 31
0.0
  0
LINE
  5
3CDA9
  8
回91-枠英1
 10
1958.748179436902
 20
-867.4372775173905
 30
0.0
 11
1958.748179436902
 21
-1407.43727751739
 31
0.0
  0
LINE
  5
3CDAA
  8
回91-枠英1
 10
1785.414889436901
 20
-1374.10395251739
 30
0.0
 11
1872.081534436901
 21
-1374.10395251739
 31
0.0
  0
LINE
  5
3CDAB
  8
回91-枠英1
 10
1785.414889436901
 20
-1367.437287517391
 30
0.0
 11
1872.081534436901
 21
-1367.437287517391
 31
0.0
  0
TEXT
  5
3CDAC
  8
回91-枠英1
 10
1892.474384423282
 20
-1400.946523775085
 30
0.0
 40
6.666664999999999
  1
DMC Co., Ltd.
 72
     1
 11
1918.974377798282
 21
-1400.946523775085
 31
0.0
  0
LINE
  5
3CDAD
  8
回91-枠英1
 10
1785.414889436901
 20
-1394.103947517391
 30
0.0
 11
1872.081534436901
 21
-1394.103947517391
 31
0.0
  0
LINE
  5
3CDAE
  8
回91-枠英1
 10
1785.414889436901
 20
-1387.43728251739
 30
0.0
 11
1872.081534436901
 21
-1387.43728251739
 31
0.0
  0
TEXT
  5
3CDAF
  8
回91-枠英1
 10
1677.477564742554
 20
-1412.064854391339
 30
0.0
 40
4.0
  1
G
  0
LINE
  5
3CDB0
  8
回91-枠英1
 10
1718.748179436902
 20
-1407.43727751739
 30
0.0
 11
1718.748179436902
 21
-1412.437277517391
 31
0.0
  0
TEXT
  5
3CDB1
  8
回91-枠英1
 10
1757.477564742554
 20
-1412.064854391339
 30
0.0
 40
4.0
  1
H
  0
TEXT
  5
3CDB2
  8
回91-枠英1
 10
1816.148215086901
 20
-1372.840948940657
 30
0.0
 40
3.999998999999999
  1
PART　No.
 72
     1
 11
1828.748211936901
 21
-1372.840948940657
 31
0.0
  0
TEXT
  5
3CDB3
  8
回91-枠英1
 10
1800.948218886901
 20
-1405.90390359222
 30
0.0
 40
3.999998999999999
  1
DIMENSIONAL DRAWING
 72
     1
 11
1828.748211936901
 21
-1405.90390359222
 31
0.0
  0
TEXT
  5
3CDB4
  8
回91-枠英1
 10
1797.548219736901
 20
-1399.23723859222
 30
0.0
 40
3.999998999999999
  1
STANDARD TOUCHSCREEN
 72
     1
 11
1828.748211936901
 21
-1399.23723859222
 31
0.0
  0
LINE
  5
3CDB5
  8
回91-枠英1
 10
1789.414888436901
 20
-1400.77061251739
 30
0.0
 11
1868.081535436901
 21
-1400.77061251739
 31
0.0
  0
TEXT
  5
3CDB6
  8
回91-枠英1
 10
1799.748219186901
 20
-1384.114773754375
 30
0.0
 40
6.666664999999999
  1
QST-121A075H
 72
     1
 11
1828.748211936901
 21
-1384.114773754375
 31
0.0
  0
LINE
  5
3CDB7
  8
回91-枠英1
 10
1785.414889436901
 20
-1367.437287517391
 30
0.0
 11
1785.414889436901
 21
-1407.43727751739
 31
0.0
  0
LINE
  5
3CDB8
  8
回91-枠英1
 10
1798.748179436902
 20
-1407.43727751739
 30
0.0
 11
1798.748179436902
 21
-1412.437277517391
 31
0.0
  0
TEXT
  5
3CDB9
  8
回91-枠英1
 10
1837.477564742554
 20
-1412.064854391339
 30
0.0
 40
4.0
  1
I
  0
TEXT
  5
3CDBA
  8
回91-枠英1
 10
1822.348213536901
 20
-1393.11245484583
 30
0.0
 40
3.999998999999999
  1
TYPE
 72
     1
 11
1828.748211936901
 21
-1393.11245484583
 31
0.0
  0
LINE
  5
3CDBB
  8
回91-枠英1
 10
1872.081534436901
 20
-1367.437287517391
 30
0.0
 11
1872.081534436901
 21
-1407.43727751739
 31
0.0
  0
LINE
  5
3CDBC
  8
回91-枠英1
 10
1878.748179436902
 20
-1407.43727751739
 30
0.0
 11
1878.748179436902
 21
-1412.437277517391
 31
0.0
  0
TEXT
  5
3CDBD
  8
回91-枠英1
 10
1917.477564742554
 20
-1412.064854391339
 30
0.0
 40
4.0
  1
J
  0
TEXT
  5
3CDBE
  8
回91-枠英1
 10
1959.772528772977
 20
-1364.648590221531
 30
0.0
 40
4.0
  1
6
  0
LINE
  5
3CDBF
  8
回91-枠英1
 10
1963.748179436902
 20
-1317.437277517391
 30
0.0
 11
1958.748179436902
 21
-1317.437277517391
 31
0.0
  0
TEXT
  5
3CDC0
  8
回91-枠英1
 10
1959.772528772977
 20
-1274.648590221531
 30
0.0
 40
4.0
  1
5
  0
LINE
  5
3CDC1
  8
回91-枠英1
 10
1963.748179436902
 20
-1227.43727751739
 30
0.0
 11
1958.748179436902
 21
-1227.43727751739
 31
0.0
  0
TEXT
  5
3CDC2
  8
回91-枠英1
 10
1677.477564742554
 20
-867.0648543913394
 30
0.0
 40
4.0
  1
G
  0
LINE
  5
3CDC3
  8
回91-枠英1
 10
1718.748179436902
 20
-862.4372775173906
 30
0.0
 11
1718.748179436902
 21
-867.4372775173905
 31
0.0
  0
TEXT
  5
3CDC4
  8
回91-枠英1
 10
1757.477564742554
 20
-867.0648543913394
 30
0.0
 40
4.0
  1
H
  0
LINE
  5
3CDC5
  8
回91-枠英1
 10
1798.748179436902
 20
-862.4372775173906
 30
0.0
 11
1798.748179436902
 21
-867.4372775173905
 31
0.0
  0
TEXT
  5
3CDC6
  8
回91-枠英1
 10
1837.477564742554
 20
-867.0648543913394
 30
0.0
 40
4.0
  1
I
  0
LINE
  5
3CDC7
  8
回91-枠英1
 10
1878.748179436902
 20
-862.4372775173906
 30
0.0
 11
1878.748179436902
 21
-867.4372775173905
 31
0.0
  0
TEXT
  5
3CDC8
  8
回91-枠英1
 10
1959.772528772977
 20
-1184.648590221531
 30
0.0
 40
4.0
  1
4
  0
LINE
  5
3CDC9
  8
回91-枠英1
 10
1963.748179436902
 20
-1137.43727751739
 30
0.0
 11
1958.748179436902
 21
-1137.43727751739
 31
0.0
  0
TEXT
  5
3CDCA
  8
回91-枠英1
 10
1959.845620893058
 20
-1094.648590221531
 30
0.0
 40
4.0
  1
3
  0
LINE
  5
3CDCB
  8
回91-枠英1
 10
1963.748179436902
 20
-1047.43727751739
 30
0.0
 11
1958.748179436902
 21
-1047.43727751739
 31
0.0
  0
TEXT
  5
3CDCC
  8
回91-枠英1
 10
1959.851101737259
 20
-1004.648590221531
 30
0.0
 40
4.0
  1
2
  0
LINE
  5
3CDCD
  8
回91-枠英1
 10
1963.748179436902
 20
-957.4372775173905
 30
0.0
 11
1958.748179436902
 21
-957.4372775173905
 31
0.0
  0
TEXT
  5
3CDCE
  8
回91-枠英1
 10
1917.477564742554
 20
-867.0648543913394
 30
0.0
 40
4.0
  1
J
  0
TEXT
  5
3CDCF
  8
回91-枠英1
 10
1960.152600440561
 20
-914.6485902215314
 30
0.0
 40
4.0
  1
1
  0
LINE
  5
3CDD0
  8
回91-枠英1
 10
1958.748179436902
 20
-1374.10395251739
 30
0.0
 11
1872.081534436901
 21
-1374.10395251739
 31
0.0
  0
LINE
  5
3CDD1
  8
回91-枠英1
 10
1958.748179436902
 20
-1367.437287517391
 30
0.0
 11
1872.081534436901
 21
-1367.437287517391
 31
0.0
  0
LINE
  5
3CDD2
  8
回91-枠英1
 10
1958.748179436901
 20
-1387.43728251739
 30
0.0
 11
1872.081534436901
 21
-1387.43728251739
 31
0.0
  0
TEXT
  5
3CDD3
  8
回91-枠英1
 10
1911.011304055601
 20
-1372.840948940657
 30
0.0
 40
3.999998999999999
  1
DATE
 72
     1
 11
1917.411302455601
 21
-1372.840948940657
 31
0.0
  0
TEXT
  5
3CDD4
  8
回91-枠英1
 10
1892.077975455601
 20
-1384.114773754375
 30
0.0
 40
6.666664999999999
  1
Oct/06/2023
 72
     1
 11
1917.411302455601
 21
-1384.114773754375
 31
0.0
  0
POLYLINE
  5
3CDD5
  8
回08-記事
  6
CONTINUOUS
 62
     7
 66
     1
 10
0.0
 20
0.0
 30
0.0
 70
     1
  0
VERTEX
  5
3D790
  8
回08-記事
  6
CONTINUOUS
 62
     7
 10
1434.528830770479
 20
-1024.97817747591
 30
0.0
  0
VERTEX
  5
3D792
  8
回08-記事
  6
CONTINUOUS
 62
     7
 10
1681.528830770479
 20
-1024.97817747591
 30
0.0
  0
VERTEX
  5
3D793
  8
回08-記事
  6
CONTINUOUS
 62
     7
 10
1681.528830770479
 20
-1210.47817747591
 30
0.0
  0
VERTEX
  5
3D794
  8
回08-記事
  6
CONTINUOUS
 62
     7
 10
1434.528830770479
 20
-1210.47817747591
 30
0.0
  0
SEQEND
  5
3D791
  8
回08-記事
  6
CONTINUOUS
 62
     7
  0
LINE
  5
3CDD6
  8
回08-記事
  6
CONTINUOUS
 62
     7
 10
1425.028830770479
 20
-1282.180074794192
 30
0.0
 11
1687.028830770479
 21
-1282.180074794192
 31
0.0
  0
LINE
  5
3CDD7
  8
回08-記事
  6
CONTINUOUS
 62
     7
 10
1350.028830770479
 20
-1276.180074794192
 30
0.0
 11
1368.112176776573
 21
-1276.180074794192
 31
0.0
  0
LINE
  5
3CDD8
  8
回08-記事
  6
CONTINUOUS
 62
     7
 10
1368.112176776572
 20
-1276.180074794192
 30
0.0
 11
1687.028830770479
 21
-1276.180074794192
 31
0.0
  0
LINE
  5
3CDD9
  8
回08-記事
  6
CONTINUOUS
 62
     7
 10
1350.028830770479
 20
-1274.680074794192
 30
0.0
 11
1368.112176776573
 21
-1274.680074794192
 31
0.0
  0
LINE
  5
3CDDA
  8
回08-記事
  6
CONTINUOUS
 62
     7
 10
1368.112176776572
 20
-1274.680074794192
 30
0.0
 11
1686.528830770479
 21
-1274.680074794192
 31
0.0
  0
LINE
  5
3CDDB
  8
回08-記事
  6
CONTINUOUS
 62
     7
 10
1425.528830770479
 20
-1271.680074794192
 30
0.0
 11
1686.528830770479
 21
-1271.680074794192
 31
0.0
  0
LINE
  5
3CDDC
  8
回08-記事
  6
CONTINUOUS
 62
     7
 10
1416.046679052476
 20
-1273.680074794192
 30
0.0
 11
1425.528830770479
 21
-1273.680074794192
 31
0.0
  0
TEXT
  5
3CDDD
  8
回08-記事
  6
CONTINUOUS
 62
     5
 10
1416.756453125739
 20
-1304.758280452124
 30
0.0
 40
5.0
  1
REINFORCEMENT FILM
  0
LINE
  5
3CDDE
  8
回08-記事
  6
CONTINUOUS
 62
     5
 10
1378.061526756048
 20
-1275.067782381053
 30
0.0
 11
1376.656397582653
 21
-1282.714199639747
 31
0.0
  0
TEXT
  5
3CDDF
  8
回08-記事
  6
CONTINUOUS
 62
     5
 10
1375.407388113792
 20
-1288.935903154586
 30
0.0
 40
5.0
  1
TAIL
  0
TEXT
  5
3CDE0
  8
回08-記事
  6
CONTINUOUS
 62
     5
 10
1364.837728274055
 20
-1264.220163546577
 30
0.0
 40
5.0
  1
STIFFENER
  0
ARC
  5
3CDE1
  8
回08-記事
  6
CONTINUOUS
 62
     7
 10
1471.528830770479
 20
-1276.180074794192
 30
0.0
 40
0.5
 50
0.0
 51
180.0
  0
ARC
  5
3CDE2
  8
回08-記事
  6
CONTINUOUS
 62
     7
 10
1467.528830770479
 20
-1276.180074794192
 30
0.0
 40
0.5
 50
0.0
 51
180.0
  0
ARC
  5
3CDE3
  8
回08-記事
  6
CONTINUOUS
 62
     7
 10
1463.528830770479
 20
-1276.180074794192
 30
0.0
 40
0.5
 50
0.0
 51
180.0
  0
ARC
  5
3CDE4
  8
回08-記事
  6
CONTINUOUS
 62
     7
 10
1439.528830770479
 20
-1276.180074794192
 30
0.0
 40
0.5
 50
0.0
 51
180.0
  0
ARC
  5
3CDE5
  8
回08-記事
  6
CONTINUOUS
 62
     7
 10
1435.528830770479
 20
-1276.180074794192
 30
0.0
 40
0.5
 50
0.0
 51
180.0
  0
LINE
  5
3CDE6
  8
回08-記事
  6
CONTINUOUS
 62
     7
 10
1425.528830770479
 20
-1274.680074794192
 30
0.0
 11
1425.528830770479
 21
-1271.680074794192
 31
0.0
  0
LINE
  5
3CDE7
  8
回08-記事
  6
CONTINUOUS
 62
     7
 10
1428.028830770479
 20
-1276.180074794192
 30
0.0
 11
1428.028830770479
 21
-1274.680074794192
 31
0.0
  0
ARC
  5
3CDE8
  8
回08-記事
  6
CONTINUOUS
 62
     7
 10
1431.528830770479
 20
-1276.180074794192
 30
0.0
 40
0.5
 50
0.0
 51
180.0
  0
LINE
  5
3CDE9
  8
回08-記事
  6
CONTINUOUS
 62
     7
 10
1425.028830770479
 20
-1282.180074794192
 30
0.0
 11
1425.028830770479
 21
-1276.180074794192
 31
0.0
  0
ARC
  5
3CDEA
  8
回08-記事
  6
CONTINUOUS
 62
     7
 10
1459.528830770479
 20
-1276.180074794192
 30
0.0
 40
0.5
 50
0.0
 51
180.0
  0
ARC
  5
3CDEB
  8
回08-記事
  6
CONTINUOUS
 62
     7
 10
1455.528830770479
 20
-1276.180074794192
 30
0.0
 40
0.5
 50
0.0
 51
180.0
  0
ARC
  5
3CDEC
  8
回08-記事
  6
CONTINUOUS
 62
     7
 10
1451.528830770479
 20
-1276.180074794192
 30
0.0
 40
0.5
 50
0.0
 51
180.0
  0
ARC
  5
3CDED
  8
回08-記事
  6
CONTINUOUS
 62
     7
 10
1447.528830770479
 20
-1276.180074794192
 30
0.0
 40
0.5
 50
0.0
 51
180.0
  0
ARC
  5
3CDEE
  8
回08-記事
  6
CONTINUOUS
 62
     7
 10
1443.528830770479
 20
-1276.180074794192
 30
0.0
 40
0.5
 50
0.0
 51
180.0
  0
TEXT
  5
3CDEF
  8
回08-記事
  6
CONTINUOUS
 62
     5
 10
1537.991947403453
 20
-1267.73471203433
 30
0.0
 40
5.0
  1
ITO FILM (ANTI-GLARE(ANR))
  0
LINE
  5
3CDF0
  8
回08-記事
  6
CONTINUOUS
 62
     5
 10
1543.36211713359
 20
-1273.986891961218
 30
0.0
 11
1540.45936740727
 21
-1268.53007456796
 31
0.0
  0
LINE
  5
3CDF1
  8
回08-記事
  6
CONTINUOUS
 62
     5
 10
1520.059658952828
 20
-1280.657403292557
 30
0.0
 11
1524.471723887395
 21
-1289.886845703873
 31
0.0
  0
TEXT
  5
3CDF2
  8
回08-記事
  6
CONTINUOUS
 62
     5
 10
1524.747476995939
 20
-1294.292693844611
 30
0.0
 40
5.0
  1
ITO GLASS
  0
ARC
  5
3CDF3
  8
回08-記事
  6
CONTINUOUS
 62
     7
 10
1511.528830770479
 20
-1276.180074794192
 30
0.0
 40
0.5
 50
0.0
 51
180.0
  0
ARC
  5
3CDF4
  8
回08-記事
  6
CONTINUOUS
 62
     7
 10
1515.528830770479
 20
-1276.180074794192
 30
0.0
 40
0.5
 50
0.0
 51
180.0
  0
ARC
  5
3CDF5
  8
回08-記事
  6
CONTINUOUS
 62
     7
 10
1523.528830770479
 20
-1276.180074794192
 30
0.0
 40
0.5
 50
0.0
 51
180.0
  0
ARC
  5
3CDF6
  8
回08-記事
  6
CONTINUOUS
 62
     7
 10
1519.528830770479
 20
-1276.180074794192
 30
0.0
 40
0.5
 50
0.0
 51
180.0
  0
ARC
  5
3CDF7
  8
回08-記事
  6
CONTINUOUS
 62
     7
 10
1479.528830770479
 20
-1276.180074794192
 30
0.0
 40
0.5
 50
0.0
 51
180.0
  0
ARC
  5
3CDF8
  8
回08-記事
  6
CONTINUOUS
 62
     7
 10
1475.528830770479
 20
-1276.180074794192
 30
0.0
 40
0.5
 50
0.0
 51
180.0
  0
ARC
  5
3CDF9
  8
回08-記事
  6
CONTINUOUS
 62
     7
 10
1503.528830770479
 20
-1276.180074794192
 30
0.0
 40
0.5
 50
0.0
 51
180.0
  0
ARC
  5
3CDFA
  8
回08-記事
  6
CONTINUOUS
 62
     7
 10
1499.528830770479
 20
-1276.180074794192
 30
0.0
 40
0.5
 50
0.0
 51
180.0
  0
ARC
  5
3CDFB
  8
回08-記事
  6
CONTINUOUS
 62
     7
 10
1495.528830770479
 20
-1276.180074794192
 30
0.0
 40
0.5
 50
0.0
 51
180.0
  0
ARC
  5
3CDFC
  8
回08-記事
  6
CONTINUOUS
 62
     7
 10
1491.528830770479
 20
-1276.180074794192
 30
0.0
 40
0.5
 50
0.0
 51
180.0
  0
ARC
  5
3CDFD
  8
回08-記事
  6
CONTINUOUS
 62
     7
 10
1487.528830770479
 20
-1276.180074794192
 30
0.0
 40
0.5
 50
0.0
 51
180.0
  0
ARC
  5
3CDFE
  8
回08-記事
  6
CONTINUOUS
 62
     7
 10
1483.528830770479
 20
-1276.180074794192
 30
0.0
 40
0.5
 50
0.0
 51
180.0
  0
ARC
  5
3CDFF
  8
回08-記事
  6
CONTINUOUS
 62
     7
 10
1507.528830770479
 20
-1276.180074794192
 30
0.0
 40
0.5
 50
0.0
 51
180.0
  0
ARC
  5
3CE00
  8
回08-記事
  6
CONTINUOUS
 62
     7
 10
1579.528830770479
 20
-1276.180074794192
 30
0.0
 40
0.5
 50
0.0
 51
180.0
  0
ARC
  5
3CE01
  8
回08-記事
  6
CONTINUOUS
 62
     7
 10
1575.528830770479
 20
-1276.180074794192
 30
0.0
 40
0.5
 50
0.0
 51
180.0
  0
ARC
  5
3CE02
  8
回08-記事
  6
CONTINUOUS
 62
     7
 10
1571.528830770479
 20
-1276.180074794192
 30
0.0
 40
0.5
 50
0.0
 51
180.0
  0
ARC
  5
3CE03
  8
回08-記事
  6
CONTINUOUS
 62
     7
 10
1567.528830770479
 20
-1276.180074794192
 30
0.0
 40
0.5
 50
0.0
 51
180.0
  0
ARC
  5
3CE04
  8
回08-記事
  6
CONTINUOUS
 62
     7
 10
1563.528830770479
 20
-1276.180074794192
 30
0.0
 40
0.5
 50
0.0
 51
180.0
  0
ARC
  5
3CE05
  8
回08-記事
  6
CONTINUOUS
 62
     7
 10
1559.528830770479
 20
-1276.180074794192
 30
0.0
 40
0.5
 50
0.0
 51
180.0
  0
ARC
  5
3CE06
  8
回08-記事
  6
CONTINUOUS
 62
     7
 10
1555.528830770479
 20
-1276.180074794192
 30
0.0
 40
0.5
 50
0.0
 51
180.0
  0
ARC
  5
3CE07
  8
回08-記事
  6
CONTINUOUS
 62
     7
 10
1551.528830770479
 20
-1276.180074794192
 30
0.0
 40
0.5
 50
0.0
 51
180.0
  0
ARC
  5
3CE08
  8
回08-記事
  6
CONTINUOUS
 62
     7
 10
1547.528830770479
 20
-1276.180074794192
 30
0.0
 40
0.5
 50
0.0
 51
180.0
  0
ARC
  5
3CE09
  8
回08-記事
  6
CONTINUOUS
 62
     7
 10
1543.528830770479
 20
-1276.180074794192
 30
0.0
 40
0.5
 50
0.0
 51
180.0
  0
ARC
  5
3CE0A
  8
回08-記事
  6
CONTINUOUS
 62
     7
 10
1539.528830770479
 20
-1276.180074794192
 30
0.0
 40
0.5
 50
0.0
 51
180.0
  0
ARC
  5
3CE0B
  8
回08-記事
  6
CONTINUOUS
 62
     7
 10
1535.528830770479
 20
-1276.180074794192
 30
0.0
 40
0.5
 50
0.0
 51
180.0
  0
ARC
  5
3CE0C
  8
回08-記事
  6
CONTINUOUS
 62
     7
 10
1531.528830770479
 20
-1276.180074794192
 30
0.0
 40
0.5
 50
0.0
 51
180.0
  0
ARC
  5
3CE0D
  8
回08-記事
  6
CONTINUOUS
 62
     7
 10
1527.528830770479
 20
-1276.180074794192
 30
0.0
 40
0.5
 50
0.0
 51
180.0
  0
ARC
  5
3CE0E
  8
回08-記事
  6
CONTINUOUS
 62
     7
 10
1623.528830770479
 20
-1276.180074794192
 30
0.0
 40
0.5
 50
0.0
 51
180.0
  0
ARC
  5
3CE0F
  8
回08-記事
  6
CONTINUOUS
 62
     7
 10
1619.528830770479
 20
-1276.180074794192
 30
0.0
 40
0.5
 50
0.0
 51
180.0
  0
ARC
  5
3CE10
  8
回08-記事
  6
CONTINUOUS
 62
     7
 10
1611.528830770479
 20
-1276.180074794192
 30
0.0
 40
0.5
 50
0.0
 51
180.0
  0
ARC
  5
3CE11
  8
回08-記事
  6
CONTINUOUS
 62
     7
 10
1607.528830770479
 20
-1276.180074794192
 30
0.0
 40
0.5
 50
0.0
 51
180.0
  0
ARC
  5
3CE12
  8
回08-記事
  6
CONTINUOUS
 62
     7
 10
1603.528830770479
 20
-1276.180074794192
 30
0.0
 40
0.5
 50
0.0
 51
180.0
  0
ARC
  5
3CE13
  8
回08-記事
  6
CONTINUOUS
 62
     7
 10
1615.528830770479
 20
-1276.180074794192
 30
0.0
 40
0.5
 50
0.0
 51
180.0
  0
ARC
  5
3CE14
  8
回08-記事
  6
CONTINUOUS
 62
     7
 10
1635.528830770479
 20
-1276.180074794192
 30
0.0
 40
0.5
 50
0.0
 51
180.0
  0
ARC
  5
3CE15
  8
回08-記事
  6
CONTINUOUS
 62
     7
 10
1627.528830770479
 20
-1276.180074794192
 30
0.0
 40
0.5
 50
0.0
 51
180.0
  0
ARC
  5
3CE16
  8
回08-記事
  6
CONTINUOUS
 62
     7
 10
1631.528830770479
 20
-1276.180074794192
 30
0.0
 40
0.5
 50
0.0
 51
180.0
  0
ARC
  5
3CE17
  8
回08-記事
  6
CONTINUOUS
 62
     7
 10
1587.528830770479
 20
-1276.180074794192
 30
0.0
 40
0.5
 50
0.0
 51
180.0
  0
ARC
  5
3CE18
  8
回08-記事
  6
CONTINUOUS
 62
     7
 10
1583.528830770479
 20
-1276.180074794192
 30
0.0
 40
0.5
 50
0.0
 51
180.0
  0
ARC
  5
3CE19
  8
回08-記事
  6
CONTINUOUS
 62
     7
 10
1595.528830770479
 20
-1276.180074794192
 30
0.0
 40
0.5
 50
0.0
 51
180.0
  0
ARC
  5
3CE1A
  8
回08-記事
  6
CONTINUOUS
 62
     7
 10
1591.528830770479
 20
-1276.180074794192
 30
0.0
 40
0.5
 50
0.0
 51
180.0
  0
ARC
  5
3CE1B
  8
回08-記事
  6
CONTINUOUS
 62
     7
 10
1599.528830770479
 20
-1276.180074794192
 30
0.0
 40
0.5
 50
0.0
 51
180.0
  0
LINE
  5
3CE1C
  8
回08-記事
  6
CONTINUOUS
 62
     7
 10
1686.528830770479
 20
-1276.180074794192
 30
0.0
 11
1686.528830770479
 21
-1271.680074794192
 31
0.0
  0
ARC
  5
3CE1D
  8
回08-記事
  6
CONTINUOUS
 62
     7
 10
1659.528830770479
 20
-1276.180074794192
 30
0.0
 40
0.5
 50
0.0
 51
180.0
  0
ARC
  5
3CE1E
  8
回08-記事
  6
CONTINUOUS
 62
     7
 10
1655.528830770479
 20
-1276.180074794192
 30
0.0
 40
0.5
 50
0.0
 51
180.0
  0
ARC
  5
3CE1F
  8
回08-記事
  6
CONTINUOUS
 62
     7
 10
1651.528830770479
 20
-1276.180074794192
 30
0.0
 40
0.5
 50
0.0
 51
180.0
  0
ARC
  5
3CE20
  8
回08-記事
  6
CONTINUOUS
 62
     7
 10
1647.528830770479
 20
-1276.180074794192
 30
0.0
 40
0.5
 50
0.0
 51
180.0
  0
LINE
  5
3CE21
  8
回08-記事
  6
CONTINUOUS
 62
     7
 10
1685.528830770479
 20
-1276.180074794192
 30
0.0
 11
1685.528830770479
 21
-1274.680074794192
 31
0.0
  0
ARC
  5
3CE22
  8
回08-記事
  6
CONTINUOUS
 62
     7
 10
1683.528830770479
 20
-1276.180074794192
 30
0.0
 40
0.5
 50
0.0
 51
180.0
  0
LINE
  5
3CE23
  8
回08-記事
  6
CONTINUOUS
 62
     7
 10
1687.028830770479
 20
-1282.180074794192
 30
0.0
 11
1687.028830770479
 21
-1276.180074794192
 31
0.0
  0
ARC
  5
3CE24
  8
回08-記事
  6
CONTINUOUS
 62
     7
 10
1679.528830770479
 20
-1276.180074794192
 30
0.0
 40
0.5
 50
0.0
 51
180.0
  0
ARC
  5
3CE25
  8
回08-記事
  6
CONTINUOUS
 62
     7
 10
1675.528830770479
 20
-1276.180074794192
 30
0.0
 40
0.5
 50
0.0
 51
180.0
  0
ARC
  5
3CE26
  8
回08-記事
  6
CONTINUOUS
 62
     7
 10
1671.528830770479
 20
-1276.180074794192
 30
0.0
 40
0.5
 50
0.0
 51
180.0
  0
ARC
  5
3CE27
  8
回08-記事
  6
CONTINUOUS
 62
     7
 10
1667.528830770479
 20
-1276.180074794192
 30
0.0
 40
0.5
 50
0.0
 51
180.0
  0
ARC
  5
3CE28
  8
回08-記事
  6
CONTINUOUS
 62
     7
 10
1663.528830770479
 20
-1276.180074794192
 30
0.0
 40
0.5
 50
0.0
 51
180.0
  0
ARC
  5
3CE29
  8
回08-記事
  6
CONTINUOUS
 62
     7
 10
1643.528830770479
 20
-1276.180074794192
 30
0.0
 40
0.5
 50
0.0
 51
180.0
  0
ARC
  5
3CE2A
  8
回08-記事
  6
CONTINUOUS
 62
     7
 10
1639.528830770479
 20
-1276.180074794192
 30
0.0
 40
0.5
 50
0.0
 51
180.0
  0
DIMENSION
  5
3CE2B
  8
回08-記事
  6
CONTINUOUS
 62
     5
  2
*D3837
 10
1686.528830770479
 20
-1259.996348508903
 30
0.0
 11
1665.280799274416
 21
-1259.996348508903
 31
0.0
 70
   160
  1
(<>)
  3
DMC
 13
1687.028830770479
 23
-1282.180074794192
 33
0.0
 14
1686.528830770479
 24
-1276.180074794192
 34
0.0
1001
ACAD
1000
DSTYLE
1002
{
1070
   140
1040
5.0
1070
   170
1070
     1
1070
   371
1070
     9
1070
   372
1070
     9
1002
}
  0
DIMENSION
  5
3CE2C
  8
回08-記事
  6
CONTINUOUS
 62
     5
  2
*D3938
 10
1425.528830770479
 20
-1264.105889292883
 30
0.0
 11
1447.276862266542
 21
-1264.105889292883
 31
0.0
 70
   160
  1
(<>)
  3
DMC
 13
1425.028830770479
 23
-1276.180074794192
 33
0.0
 14
1425.528830770479
 24
-1271.680074794192
 34
0.0
1001
ACAD
1000
DSTYLE
1002
{
1070
   140
1040
5.0
1070
   170
1070
     1
1070
   371
1070
     9
1070
   372
1070
     9
1002
}
  0
POLYLINE
  5
3CE2D
  8
回08-記事
  6
CONTINUOUS
 62
     7
 66
     1
 10
0.0
 20
0.0
 30
0.0
 70
     1
  0
VERTEX
  5
3D795
  8
回08-記事
  6
CONTINUOUS
 62
     7
 10
1381.26951518597
 20
-1277.780074794193
 30
0.0
  0
VERTEX
  5
3D797
  8
回08-記事
  6
CONTINUOUS
 62
     7
 10
1407.269515185969
 20
-1277.780074794193
 30
0.0
  0
VERTEX
  5
3D798
  8
回08-記事
  6
CONTINUOUS
 62
     7
 10
1407.269515185969
 20
-1277.180074794192
 30
0.0
  0
VERTEX
  5
3D799
  8
回08-記事
  6
CONTINUOUS
 62
     7
 10
1381.26951518597
 20
-1277.180074794192
 30
0.0
  0
SEQEND
  5
3D796
  8
回08-記事
  6
CONTINUOUS
 62
     7
  0
LINE
  5
3CE2E
  8
回08-記事
  6
CONTINUOUS
 62
     7
 10
1424.011944955732
 20
-1278.180074794192
 30
0.0
 11
1424.011944955732
 21
-1283.105175325592
 31
0.0
  0
LINE
  5
3CE2F
  8
回08-記事
  6
CONTINUOUS
 62
     7
 10
1424.011944955732
 20
-1283.105175325592
 30
0.0
 11
1428.528830770479
 21
-1283.105175325592
 31
0.0
  0
LINE
  5
3CE30
  8
回08-記事
  6
CONTINUOUS
 62
     7
 10
1428.528830770479
 20
-1283.105175325592
 30
0.0
 11
1428.528830770479
 21
-1282.180074794192
 31
0.0
  0
TEXT
  5
3CE31
  8
回08-記事
  6
CONTINUOUS
 62
     5
 10
1432.77396015161
 20
-1293.910355331334
 30
0.0
 40
5.0
  1
PROTECTION TAPE
  0
LINE
  5
3CE32
  8
回08-記事
  6
CONTINUOUS
 62
     5
 10
1431.01091630245
 20
-1287.441282952577
 30
0.0
 11
1428.242499682062
 21
-1282.772158954927
 31
0.0
  0
TEXT
  5
3CE33
  8
回08-記事
  6
CONTINUOUS
 62
     5
 10
1435.971847475089
 20
-1115.729847237229
 30
0.0
 40
7.0
  1
XL
  0
TEXT
  5
3CE34
  8
回07-寸法
  6
CONTINUOUS
 62
     5
 10
1638.983827698699
 20
-1233.323895844889
 30
0.0
 40
5.0
  1
QST-121A
  0
TEXT
  5
3CE35
  8
回08-記事
  6
CONTINUOUS
 62
     5
 10
1560.585288381058
 20
-1206.88845586684
 30
0.0
 40
7.0
  1
YD
  0
TEXT
  5
3CE36
  8
回08-記事
  6
CONTINUOUS
 62
     5
 10
1670.006030839749
 20
-1115.729847237229
 30
0.0
 40
7.0
  1
XR
  0
DIMENSION
  5
3CE37
  8
回07-寸法
 62
     5
  2
*D4039
 10
1681.528830770479
 20
-999.7467123580499
 30
0.0
 11
1561.347834457136
 21
-999.7467123580499
 31
0.0
 70
   160
  1
<> (ACTIVE AREA)
  3
DMC
 13
1434.528830770479
 23
-1024.97817747591
 33
0.0
 14
1681.528830770479
 24
-1024.97817747591
 34
0.0
1001
ACAD
1000
DSTYLE
1002
{
1070
   140
1040
5.0
1070
   170
1070
     1
1070
   371
1070
     9
1070
   372
1070
     9
1002
}
  0
DIMENSION
  5
3CE38
  8
回07-寸法
 62
     5
  2
*D4140
 10
1683.028830770478
 20
-984.9217772271476
 30
0.0
 11
1561.768494034789
 21
-984.9217772271476
 31
0.0
 70
   160
  1
<> (VIEWING AREA)
  3
DMC
 13
1433.028830770479
 23
-1023.47817747591
 33
0.0
 14
1683.028830770478
 24
-1023.47817747591
 34
0.0
1001
ACAD
1000
DSTYLE
1002
{
1070
   140
1040
5.0
1070
   170
1070
     1
1070
   371
1070
     9
1070
   372
1070
     9
1002
}
  0
DIMENSION
  5
3CE39
  8
回07-寸法
 62
     5
  2
*D4241
 10
1688.028830770478
 20
-958.9974143939198
 30
0.0
 11
1556.028830770478
 21
-958.9974143939198
 31
0.0
 70
   160
  3
DMC
 13
1425.028830770478
 23
-1017.22817747591
 33
0.0
 14
1688.028830770478
 24
-1017.22817747591
 34
0.0
1001
ACAD
1000
DSTYLE
1002
{
1070
    47
1040
0.3
1070
   147
1040
0.5
1070
    48
1040
0.3
1070
    72
1070
     0
1070
    71
1070
     1
1070
   140
1040
5.0
1070
   170
1070
     1
1070
   371
1070
     9
1070
   372
1070
     9
1002
}
  0
TEXT
  5
3CE3A
  8
回08-記事
  6
CONTINUOUS
 62
     5
 10
1560.585288381058
 20
-1035.68812956046
 30
0.0
 40
7.0
  1
YU
  0
DIMENSION
  5
3CE3B
  8
回07-寸法
  6
CONTINUOUS
 62
     5
  2
*D4342
 10
1425.028830770479
 20
-999.7467123580499
 30
0.0
 11
1405.425277379886
 21
-999.7467123580499
 31
0.0
 70
   160
  3
DMC
 13
1434.528830770479
 23
-1024.97817747591
 33
0.0
 14
1425.028830770479
 24
-1017.22817747591
 34
0.0
1001
ACAD
1000
DSTYLE
1002
{
1070
   140
1040
5.0
1070
   170
1070
     1
1070
   371
1070
     9
1070
   372
1070
     9
1002
}
  0
DIMENSION
  5
3CE3C
  8
回07-寸法
  6
CONTINUOUS
 62
     5
  2
*D4443
 10
1425.028830770478
 20
-984.9217772271476
 30
0.0
 11
1408.778830770478
 21
-984.9217772271476
 31
0.0
 70
   160
  3
DMC
 13
1433.028830770479
 23
-1023.47817747591
 33
0.0
 14
1425.028830770478
 24
-1017.22817747591
 34
0.0
1001
ACAD
1000
DSTYLE
1002
{
1070
   140
1040
5.0
1070
   170
1070
     1
1070
   371
1070
     9
1070
   372
1070
     9
1002
}
  0
LINE
  5
3CE3D
  8
回07-寸法
  6
CENTER2
 62
     5
 10
1558.028830770479
 20
-1018.465719403976
 30
0.0
 11
1558.028830770479
 21
-1216.050521834363
 31
0.0
  0
POLYLINE
  5
3CE3E
  8
回04-下接
  6
CONTINUOUS
 62
     7
 66
     1
 10
0.0
 20
0.0
 30
0.0
 70
     1
  0
VERTEX
  5
3D79A
  8
回04-下接
  6
CONTINUOUS
 62
     7
 10
1425.028830770478
 20
-1017.22817747591
 30
0.0
  0
VERTEX
  5
3D79C
  8
回04-下接
  6
CONTINUOUS
 62
     7
 10
1688.028830770479
 20
-1017.22817747591
 30
0.0
  0
VERTEX
  5
3D79D
  8
回04-下接
  6
CONTINUOUS
 62
     7
 10
1688.028830770479
 20
-1218.22817747591
 30
0.0
  0
VERTEX
  5
3D79E
  8
回04-下接
  6
CONTINUOUS
 62
     7
 10
1425.028830770478
 20
-1218.22817747591
 30
0.0
  0
SEQEND
  5
3D79B
  8
回08-記事
  6
CONTINUOUS
 62
     7
  0
POLYLINE
  5
3CE3F
  8
回08-記事
  6
CONTINUOUS
 62
     7
 66
     1
 10
0.0
 20
0.0
 30
0.0
 70
     1
  0
VERTEX
  5
3D79F
  8
回08-記事
  6
CONTINUOUS
 62
     7
 10
1433.028830770479
 20
-1023.47817747591
 30
0.0
  0
VERTEX
  5
3D7A1
  8
回08-記事
  6
CONTINUOUS
 62
     7
 10
1683.028830770478
 20
-1023.47817747591
 30
0.0
  0
VERTEX
  5
3D7A2
  8
回08-記事
  6
CONTINUOUS
 62
     7
 10
1683.028830770478
 20
-1211.97817747591
 30
0.0
  0
VERTEX
  5
3D7A3
  8
回08-記事
  6
CONTINUOUS
 62
     7
 10
1433.028830770479
 20
-1211.97817747591
 30
0.0
  0
SEQEND
  5
3D7A0
  8
回08-記事
  6
CONTINUOUS
 62
     7
  0
TEXT
  5
3CE40
  8
回08-記事
  6
CONTINUOUS
 62
     5
 10
1349.9031966829
 20
-1123.204311669893
 30
0.0
 40
5.0
  1
1
 50
90.0
  0
POLYLINE
  5
3CE41
  8
回08-記事
  6
CONTINUOUS
 62
     7
 66
     1
 10
0.0
 20
0.0
 30
0.0
 70
     1
  0
VERTEX
  5
3D7A4
  8
回08-記事
  6
CONTINUOUS
 62
     7
 10
1355.028830770479
 20
-1277.180074794192
 30
0.0
  0
VERTEX
  5
3D7A6
  8
回08-記事
  6
CONTINUOUS
 62
     7
 10
1425.028830770479
 20
-1277.180074794192
 30
0.0
  0
VERTEX
  5
3D7A7
  8
回08-記事
  6
CONTINUOUS
 62
     7
 10
1425.028830770479
 20
-1276.180074794192
 30
0.0
  0
VERTEX
  5
3D7A8
  8
回08-記事
  6
CONTINUOUS
 62
     7
 10
1355.028830770479
 20
-1276.180074794192
 30
0.0
  0
SEQEND
  5
3D7A5
  8
回08-記事
  6
CONTINUOUS
 62
     7
  0
LINE
  5
3CE42
  8
回08-記事
  6
CONTINUOUS
 62
     7
 10
1420.837347766078
 20
-1278.180074794192
 30
0.0
 11
1420.837347766078
 21
-1277.180074794192
 31
0.0
  0
LINE
  5
3CE43
  8
回08-記事
  6
CONTINUOUS
 62
     7
 10
1420.837347766078
 20
-1278.180074794192
 30
0.0
 11
1424.011944955732
 21
-1278.180074794192
 31
0.0
  0
POLYLINE
  5
3CE44
  8
回08-記事
  6
DASHED2
 62
     7
 66
     1
 10
0.0
 20
0.0
 30
0.0
 70
     1
  0
VERTEX
  5
3D7A9
  8
回08-記事
  6
DASHED2
 62
     7
 10
1432.528830770479
 20
-1212.778177475909
 30
0.0
  0
VERTEX
  5
3D7AB
  8
回08-記事
  6
DASHED2
 62
     7
 10
1683.528830770478
 20
-1212.778177475909
 30
0.0
  0
VERTEX
  5
3D7AC
  8
回08-記事
  6
DASHED2
 62
     7
 10
1683.528830770478
 20
-1022.67817747591
 30
0.0
  0
VERTEX
  5
3D7AD
  8
回08-記事
  6
DASHED2
 62
     7
 10
1432.528830770479
 20
-1022.67817747591
 30
0.0
  0
SEQEND
  5
3D7AA
  8
回08-記事
  6
CONTINUOUS
 62
     7
  0
DIMENSION
  5
3CE45
  8
回07-寸法
  6
CONTINUOUS
 62
     5
  2
*D4544
 10
1425.028830770479
 20
-971.9042869722873
 30
0.0
 11
1388.070685495424
 21
-968.6530785747375
 31
0.0
 70
    32
  1
<>{\H0.6x;(INSULATION AREA)}
  3
DMC
 13
1432.528830770479
 23
-1022.67817747591
 33
0.0
 14
1425.028830770479
 24
-1017.22817747591
 34
0.0
1001
ACAD
1000
DSTYLE
1002
{
1070
   140
1040
5.0
1070
   170
1070
     1
1070
   371
1070
     9
1070
   372
1070
     9
1002
}
  0
DIMENSION
  5
3CE46
  8
回07-寸法
  6
CONTINUOUS
 62
     5
  2
*D4645
 10
1683.528830770478
 20
-971.9042869722873
 30
0.0
 11
1558.028830770479
 21
-968.6530785747375
 31
0.0
 70
    32
  3
DMC
 13
1432.528830770479
 23
-1022.67817747591
 33
0.0
 14
1683.528830770478
 24
-1022.67817747591
 34
0.0
1001
ACAD
1000
DSTYLE
1002
{
1070
   140
1040
5.0
1070
   170
1070
     1
1070
   371
1070
     9
1070
   372
1070
     9
1002
}
  0
DIMENSION
  5
3CE47
  8
回07-寸法
  6
CONTINUOUS
 62
     5
  2
*D4746
 10
1688.028830770479
 20
-971.9042869722873
 30
0.0
 11
1724.54922132166
 21
-968.6542869722869
 31
0.0
 70
    32
  1
<>{\H0.5938x;(INSULATION AREA)}
  3
DMC
 13
1683.528830770478
 23
-1022.67817747591
 33
0.0
 14
1688.028830770479
 24
-1017.22817747591
 34
0.0
1001
ACAD
1000
DSTYLE
1002
{
1070
   140
1040
5.0
1070
   170
1070
     1
1070
   371
1070
     9
1070
   372
1070
     9
1002
}
  0
DIMENSION
  5
3CE48
  8
回07-寸法
  6
CONTINUOUS
 62
     5
  2
*D4847
 10
1769.653371545851
 20
-1017.228177475911
 30
0.0
 11
1766.403371545851
 21
-978.9577869247301
 31
0.0
 70
    32
  1
<>{\H0.5938x;(INSULATION AREA)}
  3
DMC
 13
1683.528830770478
 23
-1022.67817747591
 33
0.0
 14
1688.028830770478
 24
-1017.22817747591
 34
0.0
 50
90.0
1001
ACAD
1000
DSTYLE
1002
{
1070
   140
1040
5.0
1070
   170
1070
     1
1070
   371
1070
     9
1070
   372
1070
     9
1002
}
  0
DIMENSION
  5
3CE49
  8
回07-寸法
  6
CONTINUOUS
 62
     5
  2
*D4948
 10
1688.028830770479
 20
-999.7467123580499
 30
0.0
 11
1709.276862266542
 21
-996.4967123580498
 31
0.0
 70
    32
  1
(<>)
  3
DMC
 13
1681.528830770479
 23
-1024.97817747591
 33
0.0
 14
1688.028830770479
 24
-1017.22817747591
 34
0.0
1001
ACAD
1000
DSTYLE
1002
{
1070
   140
1040
5.0
1070
   170
1070
     1
1070
   371
1070
     9
1070
   372
1070
     9
1002
}
  0
DIMENSION
  5
3CE4A
  8
回07-寸法
  6
CONTINUOUS
 62
     5
  2
*D5049
 10
1688.028830770479
 20
-984.9217772271476
 30
0.0
 11
1706.285598092778
 21
-981.6705688295984
 31
0.0
 70
    32
  1
(<>)
  3
DMC
 13
1683.028830770478
 23
-1023.47817747591
 33
0.0
 14
1688.028830770479
 24
-1017.22817747591
 34
0.0
1001
ACAD
1000
DSTYLE
1002
{
1070
   140
1040
5.0
1070
   170
1070
     1
1070
   371
1070
     9
1070
   372
1070
     9
1002
}
  0
DIMENSION
  5
3CE4B
  8
回07-寸法
  6
CONTINUOUS
 62
     5
  2
*D5150
 10
1735.883552260731
 20
-1017.228177475911
 30
0.0
 11
1732.63355226073
 21
-994.230145979848
 31
0.0
 70
    32
  1
(<>)
  3
DMC
 13
1681.528830770479
 23
-1024.97817747591
 33
0.0
 14
1688.028830770479
 24
-1017.22817747591
 34
0.0
 50
90.0
1001
ACAD
1000
DSTYLE
1002
{
1070
   140
1040
5.0
1070
   170
1070
     1
1070
   371
1070
     9
1070
   372
1070
     9
1002
}
  0
DIMENSION
  5
3CE4C
  8
回07-寸法
  6
CONTINUOUS
 62
     5
  2
*D5251
 10
1753.108493468456
 20
-1017.228177475911
 30
0.0
 11
1749.858493468456
 21
-993.9801459798479
 31
0.0
 70
    32
  1
(<>)
  3
DMC
 13
1683.028830770478
 23
-1023.47817747591
 33
0.0
 14
1688.028830770479
 24
-1017.22817747591
 34
0.0
 50
90.0
1001
ACAD
1000
DSTYLE
1002
{
1070
   140
1040
5.0
1070
   170
1070
     1
1070
   371
1070
     9
1070
   372
1070
     9
1002
}
  0
POLYLINE
  5
3CE4D
  8
回08-記事
  6
CONTINUOUS
 62
     7
 66
     1
 10
0.0
 20
0.0
 30
0.0
 70
     1
  0
VERTEX
  5
3D7AE
  8
回08-記事
  6
CONTINUOUS
 62
     7
 10
1381.26951518597
 20
-1274.680074794192
 30
0.0
  0
VERTEX
  5
3D7B0
  8
回08-記事
  6
CONTINUOUS
 62
     7
 10
1407.269515185969
 20
-1274.680074794192
 30
0.0
  0
VERTEX
  5
3D7B1
  8
回08-記事
  6
CONTINUOUS
 62
     7
 10
1407.269515185969
 20
-1274.080074794192
 30
0.0
  0
VERTEX
  5
3D7B2
  8
回08-記事
  6
CONTINUOUS
 62
     7
 10
1381.26951518597
 20
-1274.080074794192
 30
0.0
  0
SEQEND
  5
3D7AF
  8
回08-記事
  6
CONTINUOUS
 62
     7
  0
POLYLINE
  5
3CE4E
  8
回08-記事
  6
CONTINUOUS
 62
     8
 66
     1
 10
0.0
 20
0.0
 30
0.0
 70
     1
1001
ACAD
1000
ASC_BOUNDS
1002
{
1070
    19
1005
3CE4F
1002
}
  0
VERTEX
  5
3D7B3
  8
回08-記事
  6
CONTINUOUS
 62
     8
 10
1378.668673945731
 20
-1119.22817747591
 30
0.0
  0
VERTEX
  5
3D7B5
  8
回08-記事
  6
CONTINUOUS
 62
     8
 10
1378.668673945731
 20
-1116.22817747591
 30
0.0
 42
-0.4142135623730951
  0
VERTEX
  5
3D7B6
  8
回08-記事
  6
CONTINUOUS
 62
     8
 10
1379.668673945732
 20
-1115.22817747591
 30
0.0
  0
VERTEX
  5
3D7B7
  8
回08-記事
  6
CONTINUOUS
 62
     8
 10
1403.668673945731
 20
-1115.22817747591
 30
0.0
 42
-0.4142135623730951
  0
VERTEX
  5
3D7B8
  8
回08-記事
  6
CONTINUOUS
 62
     8
 10
1404.668673945731
 20
-1116.22817747591
 30
0.0
  0
VERTEX
  5
3D7B9
  8
回08-記事
  6
CONTINUOUS
 62
     8
 10
1404.668673945731
 20
-1119.22817747591
 30
0.0
 42
-0.4142135623730951
  0
VERTEX
  5
3D7BA
  8
回08-記事
  6
CONTINUOUS
 62
     8
 10
1403.668673945731
 20
-1120.22817747591
 30
0.0
  0
VERTEX
  5
3D7BB
  8
回08-記事
  6
CONTINUOUS
 62
     8
 10
1379.668673945732
 20
-1120.22817747591
 30
0.0
 42
-0.4142135623730946
  0
SEQEND
  5
3D7B4
  8
回08-記事
  6
CONTINUOUS
 62
     7
  0
INSERT
  5
3CE4F
  8
回08-記事
  6
CONTINUOUS
 62
     8
 66
     1
  2
*X8482
 10
0.0
 20
0.0
 30
0.0
1001
ACAD
1000
HATCH
1002
{
1070
    19
1000
ANSI31
1040
15.0
1040
1.570796326794896
1000
ASC_BOUNDS
1070
     1
1070
     2
1070
     1
1005
3CE4E
1000
ASC_SEEDPOINT
1011
1580.9553478349
1021
-1137.678978010281
1031
0.0
1000
R14_HATCH_DATA
1000
3CE4F
1011
1.0
1021
0.0
1031
0.0
1011
0.0
1021
1.0
1031
0.0
1011
0.0
1021
0.0
1031
1.0
1040
0.0
1010
0.0
1020
0.0
1030
1.0
1000
ANSI31
1070
     0
1070
     1
1071
        1
1071
        1
1071
        8
1070
     1
1040
1378.668673945731
1040
-1119.22817747591
1040
1378.668673945731
1040
-1116.22817747591
1070
     2
1040
1379.668673945732
1040
-1116.22817747591
1040
1.0
1040
3.141592653589792
1040
4.712388980384688
1070
     0
1070
     1
1040
1379.668673945732
1040
-1115.22817747591
1040
1403.668673945731
1040
-1115.22817747591
1070
     2
1040
1403.668673945731
1040
-1116.22817747591
1040
1.0
1040
4.712388980384688
1040
6.283185307179585
1070
     0
1070
     1
1040
1404.668673945731
1040
-1116.22817747591
1040
1404.668673945731
1040
-1119.22817747591
1070
     2
1040
1403.668673945731
1040
-1119.22817747591
1040
1.0
1040
6.283185307179585
1040
7.853981633974482
1070
     0
1070
     1
1040
1403.668673945731
1040
-1120.22817747591
1040
1379.668673945732
1040
-1120.22817747591
1070
     2
1040
1379.668673945732
1040
-1119.22817747591
1040
1.0
1040
1.570796326794896
1040
3.141592653589792
1070
     0
1071
        1
1005
3CE4E
1070
     0
1070
     1
1040
1.570796326794896
1040
15.0
1070
     0
1070
     1
1040
2.356194490192344
1040
1580.9553478349
1040
-1137.678978010281
1040
-1.325825214724775
1040
-1.325825214724775
1070
     0
1071
        1
1040
1580.9553478349
1040
-1137.678978010281
1040
0.0
1002
}
  0
SEQEND
  5
3D417
  8
回08-記事
  6
CONTINUOUS
 62
     7
  0
INSERT
  5
3CE50
  8
回07-寸法
  6
CONTINUOUS
 62
     7
 66
     1
  2
*X8583
 10
0.0
 20
0.0
 30
0.0
  0
SEQEND
  5
3D41E
  8
回08-記事
  6
CONTINUOUS
 62
     7
  0
TEXT
  5
3CE51
  8
回07-寸法
  6
CONTINUOUS
 62
     5
 10
1406.122272819387
 20
-1096.084808015352
 30
0.0
 40
4.0
  1
2-R2
1001
ACAD
1000
MTEXTBEGIN
1070
    73
1070
     1
1070
    44
1040
1.0
1070
    74
1070
     0
1000
MTEXTEND
  0
INSERT
  5
3CE52
  8
回07-寸法
  6
CONTINUOUS
 62
     7
 66
     1
  2
*X8684
 10
0.0
 20
0.0
 30
0.0
  0
SEQEND
  5
3D425
  8
回08-記事
  6
CONTINUOUS
 62
     7
  0
TEXT
  5
3CE53
  8
回07-寸法
  6
CONTINUOUS
 62
     5
 10
1399.998004894462
 20
-1108.060130790331
 30
0.0
 40
4.0
  1
4-R1
1001
ACAD
1000
MTEXTBEGIN
1070
    73
1070
     1
1070
    44
1040
1.0
1070
    74
1070
     0
1000
MTEXTEND
  0
DIMENSION
  5
3CE54
  8
回07-寸法
  6
CONTINUOUS
 62
     7
  2
*D5352
 10
1425.028830770478
 20
-1073.572148947709
 30
0.0
 11
1387.528830770479
 21
-1070.322148947709
 31
0.0
 70
    32
  3
DMC
 13
1350.02883077048
 23
-1116.789879678761
 33
0.0
 14
1425.028830770478
 24
-1109.051053131444
 34
0.0
1001
ACAD
1000
DSTYLE
1002
{
1070
    47
1040
1.0
1070
   147
1040
0.5
1070
    48
1040
1.0
1070
    72
1070
     0
1070
    71
1070
     1
1070
   140
1040
5.0
1070
   170
1070
     1
1070
   371
1070
     9
1070
   372
1070
     9
1002
}
  0
DIMENSION
  5
3CE55
  8
回07-寸法
  6
CONTINUOUS
 62
     7
  2
*D5453
 10
1335.123377467742
 20
-1115.228177475911
 30
0.0
 11
1335.123377467742
 21
-1148.911913302146
 31
0.0
 70
   160
  3
DMC
 13
1350.52883077048
 23
-1120.22817747591
 33
0.0
 14
1350.52883077048
 24
-1115.22817747591
 34
0.0
 50
90.0
1001
ACAD
1000
DSTYLE
1002
{
1070
    47
1040
0.1
1070
   147
1040
0.5
1070
    48
1040
0.1
1070
    72
1070
     0
1070
    71
1070
     1
1070
   140
1040
5.0
1070
   170
1070
     1
1070
   371
1070
     9
1070
   372
1070
     9
1002
}
  0
DIMENSION
  5
3CE56
  8
回07-寸法
  6
CONTINUOUS
 62
     7
  2
*D5554
 10
1335.123377467743
 20
-1017.22817747591
 30
0.0
 11
1331.873377467743
 21
-1066.22817747591
 31
0.0
 70
    32
  1
(<>[])
  3
DMC
 13
1350.52883077048
 23
-1115.22817747591
 33
0.0
 14
1425.028830770479
 24
-1017.22817747591
 34
0.0
 50
90.0
1001
ACAD
1000
DSTYLE
1002
{
1070
   340
1005
11
1070
   140
1040
5.0
1070
   170
1070
     1
1070
   371
1070
     9
1070
   372
1070
     9
1002
}
  0
DIMENSION
  5
3CE57
  8
回07-寸法
  6
CONTINUOUS
 62
     7
  2
*D5655
 10
1420.428053944004
 20
-1138.51412129615
 30
0.0
 11
1398.127867581344
 21
-1138.51412129615
 31
0.0
 70
   160
  3
DMC
 13
1425.028830770478
 23
-1126.405301820377
 33
0.0
 14
1420.428053944004
 24
-1125.72817747591
 34
0.0
1001
ACAD
1000
DSTYLE
1002
{
1070
   140
1040
5.0
1070
   170
1070
     1
1070
   371
1070
     9
1070
   372
1070
     9
1002
}
  0
DIMENSION
  5
3CE58
  8
回07-寸法
  6
CONTINUOUS
 62
     7
  2
*D5756
 10
1414.905598185344
 20
-1149.347133988398
 30
0.0
 11
1393.138126532873
 21
-1146.0947171933
 31
0.0
 70
    32
  3
DMC
 13
1425.028830770478
 23
-1126.405301820377
 33
0.0
 14
1414.905598185344
 24
-1120.22817747591
 34
0.0
1001
ACAD
1000
DSTYLE
1002
{
1070
   140
1040
5.0
1070
   170
1070
     1
1070
   371
1070
     9
1070
   372
1070
     9
1002
}
  0
DIMENSION
  5
3CE59
  8
回07-寸法
  6
CONTINUOUS
 62
     7
  2
*D5857
 10
1394.319337105093
 20
-1125.72817747591
 30
0.0
 11
1394.319337105093
 21
-1091.72817747591
 31
0.0
 70
   160
  3
DMC
 13
1422.18495260915
 23
-1109.72817747591
 33
0.0
 14
1422.18495260915
 24
-1125.72817747591
 34
0.0
 50
90.0
1001
ACAD
1000
DSTYLE
1002
{
1070
   140
1040
5.0
1070
   170
1070
     1
1070
   371
1070
     9
1070
   372
1070
     9
1002
}
  0
TEXT
  5
3CE5A
  8
回08-記事
  6
CONTINUOUS
 62
     5
 10
1349.891923115445
 20
-1114.718379833091
 30
0.0
 40
5.0
  1
4
 50
90.0
  0
LINE
  5
3CE5B
  8
回07-寸法
  6
CENTER2
 62
     5
 10
1349.509666128029
 20
-1117.72817747591
 30
0.0
 11
1688.028830770479
 21
-1117.72817747591
 31
0.0
  0
DIMENSION
  5
3CE5C
  8
回07-寸法
 62
     5
  2
*D5958
 10
1735.88355226073
 20
-1024.978177475911
 30
0.0
 11
1735.88355226073
 21
-1112.387634594213
 31
0.0
 70
   160
  1
<> (ACTIVE AREA)
  3
DMC
 13
1681.528830770479
 23
-1210.47817747591
 33
0.0
 14
1681.528830770479
 24
-1024.97817747591
 34
0.0
 50
90.0
1001
ACAD
1000
DSTYLE
1002
{
1070
   140
1040
5.0
1070
   170
1070
     1
1070
   371
1070
     9
1070
   372
1070
     9
1002
}
  0
DIMENSION
  5
3CE5D
  8
回07-寸法
 62
     5
  2
*D6059
 10
1753.108493468455
 20
-1211.978177475911
 30
0.0
 11
1753.108493468455
 21
-1112.387634594213
 31
0.0
 70
   160
  1
<> (VIEWING AREA)
  3
DMC
 13
1683.028830770478
 23
-1023.47817747591
 33
0.0
 14
1683.028830770478
 24
-1211.97817747591
 34
0.0
 50
90.0
1001
ACAD
1000
DSTYLE
1002
{
1070
   140
1040
5.0
1070
   170
1070
     1
1070
   371
1070
     9
1070
   372
1070
     9
1002
}
  0
DIMENSION
  5
3CE5E
  8
回07-寸法
 62
     5
  2
*D6160
 10
1789.718222788252
 20
-1218.228177475911
 30
0.0
 11
1789.718222788251
 21
-1116.785986189884
 31
0.0
 70
   160
  3
DMC
 13
1688.028830770478
 23
-1017.22817747591
 33
0.0
 14
1688.028830770478
 24
-1218.22817747591
 34
0.0
 50
90.0
1001
ACAD
1000
DSTYLE
1002
{
1070
    47
1040
0.3
1070
   147
1040
0.5
1070
    48
1040
0.3
1070
    72
1070
     0
1070
    71
1070
     1
1070
   140
1040
5.0
1070
   170
1070
     1
1070
   371
1070
     9
1070
   372
1070
     9
1002
}
  0
DIMENSION
  5
3CE5F
  8
回07-寸法
  6
CONTINUOUS
 62
     5
  2
*D6261
 10
1735.88355226073
 20
-1218.228177475911
 30
0.0
 11
1735.88355226073
 21
-1239.228177475911
 31
0.0
 70
   160
  3
DMC
 13
1681.528830770479
 23
-1210.47817747591
 33
0.0
 14
1688.028830770478
 24
-1218.22817747591
 34
0.0
 50
90.0
1001
ACAD
1000
DSTYLE
1002
{
1070
   140
1040
5.0
1070
   170
1070
     1
1070
   371
1070
     9
1070
   372
1070
     9
1002
}
  0
DIMENSION
  5
3CE60
  8
回07-寸法
  6
CONTINUOUS
 62
     5
  2
*D6362
 10
1753.108493468455
 20
-1218.228177475911
 30
0.0
 11
1753.108493468455
 21
-1239.627783775123
 31
0.0
 70
   160
  3
DMC
 13
1683.028830770479
 23
-1211.97817747591
 33
0.0
 14
1688.028830770479
 24
-1218.22817747591
 34
0.0
 50
90.0
1001
ACAD
1000
DSTYLE
1002
{
1070
   140
1040
5.0
1070
   170
1070
     1
1070
   371
1070
     9
1070
   372
1070
     9
1002
}
  0
DIMENSION
  5
3CE61
  8
回07-寸法
  6
CONTINUOUS
 62
     5
  2
*D6463
 10
1769.653371545851
 20
-1212.77817747591
 30
0.0
 11
1766.403371545851
 21
-1117.72817747591
 31
0.0
 70
    32
  3
DMC
 13
1683.528830770478
 23
-1022.67817747591
 33
0.0
 14
1683.528830770478
 24
-1212.778177475909
 34
0.0
 50
90.0
1001
ACAD
1000
DSTYLE
1002
{
1070
   140
1040
5.0
1070
   170
1070
     1
1070
   371
1070
     9
1070
   372
1070
     9
1002
}
  0
DIMENSION
  5
3CE62
  8
回07-寸法
  6
CONTINUOUS
 62
     5
  2
*D6564
 10
1769.653371545851
 20
-1218.228177475911
 30
0.0
 11
1766.403371545851
 21
-1256.498568027092
 31
0.0
 70
    32
  1
<>{\H0.5938x;(INSULATION AREA)}
  3
DMC
 13
1683.528830770478
 23
-1212.778177475909
 33
0.0
 14
1688.028830770479
 24
-1218.22817747591
 34
0.0
 50
90.0
1001
ACAD
1000
DSTYLE
1002
{
1070
   140
1040
5.0
1070
   170
1070
     1
1070
   371
1070
     9
1070
   372
1070
     9
1002
}
  0
CIRCLE
  5
3CE63
  8
回08-記事
  6
DASHED2
 62
     5
 10
1349.407195797813
 20
-1117.54438755297
 30
0.0
 40
7.423913285795606
  0
INSERT
  5
3CE64
  8
回08-記事
  6
CONTINUOUS
 62
     3
 66
     1
  2
*X8785
 10
0.0
 20
0.0
 30
0.0
  0
SEQEND
  5
3D42C
  8
回08-記事
  6
CONTINUOUS
 62
     7
  0
TEXT
  5
3CE65
  8
回08-記事
  6
CONTINUOUS
 62
     5
 10
1359.700101397764
 20
-1129.754636247255
 30
0.0
 40
5.0
  1
A
1001
ACAD
1000
MTEXTBEGIN
1070
    73
1070
     1
1070
    44
1040
1.0
1070
    74
1070
     0
1000
MTEXTEND
  0
LINE
  5
3CE66
  8
回08-記事
  6
CONTINUOUS
 62
     7
 10
1416.046679052476
 20
-1273.680074794192
 30
0.0
 11
1416.046679052476
 21
-1274.680074794192
 31
0.0
  0
LINE
  5
3CE67
  8
回08-記事
  6
CONTINUOUS
 62
     7
 10
1360.028830770479
 20
-1271.680074794192
 30
0.0
 11
1350.028830770479
 21
-1271.680074794192
 31
0.0
  0
LINE
  5
3CE68
  8
回08-記事
  6
CONTINUOUS
 62
     7
 10
1350.028830770479
 20
-1276.180074794192
 30
0.0
 11
1350.028830770479
 21
-1271.680074794192
 31
0.0
  0
LINE
  5
3CE69
  8
回08-記事
  6
CONTINUOUS
 62
     7
 10
1360.028830770478
 20
-1274.680074794192
 30
0.0
 11
1360.028830770478
 21
-1271.680074794192
 31
0.0
  0
LINE
  5
3CE6A
  8
回08-記事
  6
CONTINUOUS
 62
     5
 10
1409.481008582266
 20
-1276.707531484247
 30
0.0
 11
1417.847293695318
 21
-1298.82092444445
 31
0.0
  0
LINE
  5
3CE6B
  8
回08-記事
  6
CONTINUOUS
 62
     5
 10
1418.809517105039
 20
-1274.126943063019
 30
0.0
 11
1417.847293695318
 21
-1298.82092444445
 31
0.0
  0
LINE
  5
3CE6C
  8
回08-記事
  6
CONTINUOUS
 62
     5
 10
1358.084151419627
 20
-1272.912498116493
 30
0.0
 11
1364.837728274055
 21
-1264.220163546577
 31
0.0
  0
DIMENSION
  5
3CE6D
  8
回08-記事
  6
CONTINUOUS
 62
     7
  2
*D6665
 10
1360.028830770479
 20
-1257.755610754324
 30
0.0
 11
1329.771773353099
 21
-1257.755610754324
 31
0.0
 70
   160
  1
(<>[])
  3
DMC
 13
1350.028830770479
 23
-1271.680074794192
 33
0.0
 14
1360.028830770479
 24
-1271.680074794192
 34
0.0
1001
ACAD
1000
DSTYLE
1002
{
1070
   340
1005
11
1070
   140
1040
5.0
1070
   170
1070
     1
1070
   371
1070
     9
1070
   372
1070
     9
1002
}
  0
DIMENSION
  5
3CE6E
  8
回08-記事
  6
CONTINUOUS
 62
     7
  2
*D6766
 10
1350.028830770479
 20
-1298.222887856727
 30
0.0
 11
1371.287566596715
 21
-1298.222887856727
 31
0.0
 70
   160
  3
DMC
 13
1355.028830770479
 23
-1276.180074794192
 33
0.0
 14
1350.028830770479
 24
-1276.180074794192
 34
0.0
1001
ACAD
1000
DSTYLE
1002
{
1070
   140
1040
5.0
1070
   170
1070
     1
1070
   371
1070
     9
1070
   372
1070
     9
1002
}
  0
LINE
  5
3CE6F
  8
回05-ﾃｰﾙ
  6
BYBLOCK
 62
     7
 10
1350.528830770479
 20
-1120.22817747591
 30
0.0
 11
1414.492577525681
 21
-1120.22817747591
 31
0.0
  0
LINE
  5
3CE70
  8
回05-ﾃｰﾙ
  6
BYBLOCK
 62
     7
 10
1350.528830770479
 20
-1115.22817747591
 30
0.0
 11
1414.492577525681
 21
-1115.22817747591
 31
0.0
  0
ARC
  5
3CE71
  8
回05-ﾃｰﾙ
  6
BYBLOCK
 62
     7
 10
1350.528830770479
 20
-1119.72817747591
 30
0.0
 40
0.5
 50
180.0
 51
270.0
  0
ARC
  5
3CE72
  8
回05-ﾃｰﾙ
  6
BYBLOCK
 62
     7
 10
1350.528830770479
 20
-1115.72817747591
 30
0.0
 40
0.5
 50
90.0
 51
180.0
  0
LINE
  5
3CE73
  8
回05-ﾃｰﾙ
  6
BYBLOCK
 62
     7
 10
1350.028830770479
 20
-1119.72817747591
 30
0.0
 11
1350.028830770479
 21
-1115.72817747591
 31
0.0
  0
LINE
  5
3CE74
  8
回05-ﾃｰﾙ
  6
BYBLOCK
 62
     7
 10
1420.84107444782
 20
-1109.72817747591
 30
0.0
 11
1423.528830770479
 21
-1109.72817747591
 31
0.0
  0
LINE
  5
3CE75
  8
回05-ﾃｰﾙ
  6
BYBLOCK
 62
     7
 10
1415.198242272434
 20
-1114.936723356706
 30
0.0
 11
1420.135742079303
 21
-1110.019300723632
 31
0.0
  0
ARC
  5
3CE76
  8
回05-ﾃｰﾙ
  6
BYBLOCK
 62
     7
 10
1423.528830770479
 20
-1107.72817747591
 30
0.0
 40
2.0
 50
270.0
 51
318.5903778907297
  0
ARC
  5
3CE77
  8
回05-ﾃｰﾙ
  6
BYBLOCK
 62
     7
 10
1420.841074447819
 20
-1110.72817747591
 30
0.0
 40
1.0
 50
90.0
 51
134.856401855785
  0
ARC
  5
3CE78
  8
回05-ﾃｰﾙ
  6
BYBLOCK
 62
     7
 10
1414.492577525681
 20
-1114.22817747591
 30
0.0
 40
1.0
 50
270.0
 51
314.8832729797039
  0
LINE
  5
3CE79
  8
回05-ﾃｰﾙ
  6
BYBLOCK
 62
     7
 10
1415.198242272434
 20
-1120.519631595116
 30
0.0
 11
1420.135742079303
 21
-1125.43705422819
 31
0.0
  0
ARC
  5
3CE7A
  8
回05-ﾃｰﾙ
  6
BYBLOCK
 62
     7
 10
1420.841074447819
 20
-1124.72817747591
 30
0.0
 40
1.0
 50
225.143598144215
 51
270.0
  0
ARC
  5
3CE7B
  8
回05-ﾃｰﾙ
  6
BYBLOCK
 62
     7
 10
1414.492577525681
 20
-1121.228177475912
 30
0.0
 40
1.0
 50
45.11672702029605
 51
90.0
  0
LINE
  5
3CE7C
  8
回05-ﾃｰﾙ
  6
BYBLOCK
 62
     7
 10
1420.84107444782
 20
-1125.72817747591
 30
0.0
 11
1423.528830770479
 21
-1125.72817747591
 31
0.0
  0
ARC
  5
3CE7D
  8
回05-ﾃｰﾙ
  6
BYBLOCK
 62
     7
 10
1423.528830770479
 20
-1127.72817747591
 30
0.0
 40
2.0
 50
41.40962210927022
 51
90.0
  0
POLYLINE
  5
3CE7E
  8
回08-記事
  6
CONTINUOUS
 62
     8
 66
     1
 10
0.0
 20
0.0
 30
0.0
 70
     1
1001
ACAD
1000
ASC_BOUNDS
1002
{
1070
    19
1005
3CE7F
1002
}
  0
VERTEX
  5
3D7BC
  8
回08-記事
  6
CONTINUOUS
 62
     8
 10
1420.327347766078
 20
-1124.730860288327
 30
0.0
  0
VERTEX
  5
3D7BE
  8
回08-記事
  6
CONTINUOUS
 62
     8
 10
1420.327347766078
 20
-1118.728177475912
 30
0.0
  0
VERTEX
  5
3D7BF
  8
回08-記事
  6
CONTINUOUS
 62
     8
 10
1428.528830770479
 20
-1118.728177475912
 30
0.0
  0
VERTEX
  5
3D7C0
  8
回08-記事
  6
CONTINUOUS
 62
     8
 10
1428.528830770479
 20
-1124.730860288327
 30
0.0
  0
SEQEND
  5
3D7BD
  8
回08-記事
  6
CONTINUOUS
 62
     7
  0
INSERT
  5
3CE7F
  8
回08-記事
  6
CONTINUOUS
 62
     8
 66
     1
  2
*X8886
 10
0.0
 20
0.0
 30
0.0
1001
ACAD
1010
0.0
1020
0.0
1030
0.0
  0
SEQEND
  5
3D43D
  8
回08-記事
  6
CONTINUOUS
 62
     7
  0
TEXT
  5
3CE80
  8
回04-下接
  6
CONTINUOUS
 62
     7
 10
1669.947704218652
 20
-1217.039182307826
 30
0.0
 40
1.5
  1
QST-121A
1001
ACAD
1000
MTEXTBEGIN
1070
    73
1070
     1
1070
    44
1040
1.0
1070
    74
1070
     0
1000
MTEXTEND
  0
LINE
  5
3CE81
  8
回08-記事
  6
CONTINUOUS
 62
     5
 10
1839.346312326113
 20
-999.9856712112103
 30
0.0
 11
1885.695061311644
 21
-999.9856712112103
 31
0.0
  0
LINE
  5
3CE82
  8
回08-記事
  6
CONTINUOUS
 62
     5
 10
1868.679356204627
 20
-1030.080612333322
 30
0.0
 11
1870.96504793542
 21
-1034.651995794908
 31
0.0
  0
TEXT
  5
3CE83
  8
回08-記事
  6
CONTINUOUS
 62
     5
 10
1867.259964348679
 20
-1016.608662288328
 30
0.0
 40
4.444400587653644
  1
YU
  0
LINE
  5
3CE84
  8
回08-記事
  6
CONTINUOUS
 62
     5
 10
1839.346312326113
 20
-1033.00121843378
 30
0.0
 11
1853.504902769638
 21
-1033.00121843378
 31
0.0
  0
LINE
  5
3CE85
  8
回08-記事
  6
CONTINUOUS
 62
     5
 10
1839.346312326113
 20
-1018.080730746657
 30
0.0
 11
1866.012715852034
 21
-1018.080730746657
 31
0.0
  0
TEXT
  5
3CE86
  8
回08-記事
  6
CONTINUOUS
 62
     5
 10
1834.184205404166
 20
-1020.461277209209
 30
0.0
 40
5.079314957318453
  1
3
  0
TEXT
  5
3CE87
  8
回08-記事
  6
CONTINUOUS
 62
     5
 10
1833.991691999728
 20
-1035.888427483001
 30
0.0
 40
5.079314957318453
  1
2
  0
TEXT
  5
3CE88
  8
回08-記事
  6
CONTINUOUS
 62
     5
 10
1834.3811804597
 20
-1052.029298324049
 30
0.0
 40
5.079314957318453
  1
1
  0
LINE
  5
3CE89
  8
回08-記事
  6
CONTINUOUS
 62
     5
 10
1863.727024121241
 20
-1039.032904945596
 30
0.0
 11
1868.298407582828
 21
-1041.318596676389
 31
0.0
  0
TEXT
  5
3CE8A
  8
回08-記事
  6
CONTINUOUS
 62
     5
 10
1854.337513059575
 20
-1047.38115153752
 30
0.0
 40
4.444400587653644
  1
YD
  0
LINE
  5
3CE8B
  8
回08-記事
  6
CONTINUOUS
 62
     5
 10
1866.012715852034
 20
-1049.191534860232
 30
0.0
 11
1866.012715852034
 21
-1044.747134272579
 31
0.0
  0
LINE
  5
3CE8C
  8
回08-記事
  6
CONTINUOUS
 62
     5
 10
1863.727024121241
 20
-1043.604288407182
 30
0.0
 11
1866.012715852034
 21
-1044.747134272579
 31
0.0
  0
LINE
  5
3CE8D
  8
回08-記事
  6
CONTINUOUS
 62
     5
 10
1863.727024121241
 20
-1043.604288407182
 30
0.0
 11
1868.298407582828
 21
-1041.318596676389
 31
0.0
  0
LINE
  5
3CE8E
  8
回08-記事
  6
CONTINUOUS
 62
     5
 10
1854.965205819867
 20
-1030.080612333322
 30
0.0
 11
1857.25089755066
 21
-1034.651995794908
 31
0.0
  0
LINE
  5
3CE8F
  8
回08-記事
  6
CONTINUOUS
 62
     5
 10
1853.504902769638
 20
-1033.00121843378
 30
0.0
 11
1854.965205819867
 21
-1030.080612333322
 31
0.0
  0
TEXT
  5
3CE90
  8
回08-記事
  6
CONTINUOUS
 62
     5
 10
1844.708137173675
 20
-1031.139487248542
 30
0.0
 40
4.444400587653644
  1
XL
  0
LINE
  5
3CE91
  8
回08-記事
  6
CONTINUOUS
 62
     5
 10
1866.012715852034
 20
-1021.890216964646
 30
0.0
 11
1866.012715852034
 21
-1018.080730746657
 31
0.0
  0
LINE
  5
3CE92
  8
回08-記事
  6
CONTINUOUS
 62
     5
 10
1866.393664473834
 20
-1034.651995794908
 30
0.0
 11
1868.679356204627
 21
-1030.080612333322
 31
0.0
  0
LINE
  5
3CE93
  8
回08-記事
  6
CONTINUOUS
 62
     5
 10
1864.10797274304
 20
-1030.080612333322
 30
0.0
 11
1866.393664473834
 21
-1034.651995794908
 31
0.0
  0
LINE
  5
3CE94
  8
回08-記事
  6
CONTINUOUS
 62
     5
 10
1866.012715852034
 20
-1021.890216964646
 30
0.0
 11
1868.298407582828
 21
-1023.033062830042
 31
0.0
  0
LINE
  5
3CE95
  8
回08-記事
  6
CONTINUOUS
 62
     5
 10
1863.727024121241
 20
-1034.461521484009
 30
0.0
 11
1868.298407582828
 21
-1032.175829753216
 31
0.0
  0
LINE
  5
3CE96
  8
回08-記事
  6
CONTINUOUS
 62
     5
 10
1863.727024121241
 20
-1034.461521484009
 30
0.0
 11
1868.298407582828
 21
-1036.747213214802
 31
0.0
  0
LINE
  5
3CE97
  8
回08-記事
  6
CONTINUOUS
 62
     5
 10
1863.727024121241
 20
-1039.032904945596
 30
0.0
 11
1868.298407582828
 21
-1036.747213214802
 31
0.0
  0
LINE
  5
3CE98
  8
回08-記事
  6
CONTINUOUS
 62
     5
 10
1863.727024121241
 20
-1029.890138022422
 30
0.0
 11
1868.298407582828
 21
-1027.604446291629
 31
0.0
  0
LINE
  5
3CE99
  8
回08-記事
  6
CONTINUOUS
 62
     5
 10
1863.727024121241
 20
-1025.318754560836
 30
0.0
 11
1868.298407582828
 21
-1023.033062830042
 31
0.0
  0
LINE
  5
3CE9A
  8
回08-記事
  6
CONTINUOUS
 62
     5
 10
1863.727024121241
 20
-1025.318754560836
 30
0.0
 11
1868.298407582828
 21
-1027.604446291629
 31
0.0
  0
LINE
  5
3CE9B
  8
回08-記事
  6
CONTINUOUS
 62
     5
 10
1863.727024121241
 20
-1029.890138022422
 30
0.0
 11
1868.298407582828
 21
-1032.175829753216
 31
0.0
  0
LINE
  5
3CE9C
  8
回08-記事
  6
CONTINUOUS
 62
     5
 10
1859.536589281453
 20
-1030.080612333322
 30
0.0
 11
1861.822281012247
 21
-1034.651995794908
 31
0.0
  0
LINE
  5
3CE9D
  8
回08-記事
  6
CONTINUOUS
 62
     5
 10
1857.25089755066
 20
-1034.651995794908
 30
0.0
 11
1859.536589281453
 21
-1030.080612333322
 31
0.0
  0
LINE
  5
3CE9E
  8
回08-記事
  6
CONTINUOUS
 62
     5
 10
1861.822281012247
 20
-1034.651995794908
 30
0.0
 11
1864.10797274304
 21
-1030.080612333322
 31
0.0
  0
LINE
  5
3CE9F
  8
回08-記事
  6
CONTINUOUS
 62
     5
 10
1880.107814858593
 20
-1034.651995794908
 30
0.0
 11
1881.568117908822
 21
-1031.73138969445
 31
0.0
  0
LINE
  5
3CEA0
  8
回08-記事
  6
CONTINUOUS
 62
     5
 10
1877.8221231278
 20
-1030.080612333322
 30
0.0
 11
1880.107814858593
 21
-1034.651995794908
 31
0.0
  0
LINE
  5
3CEA1
  8
回08-記事
  6
CONTINUOUS
 62
     5
 10
1875.536431397006
 20
-1034.651995794908
 30
0.0
 11
1877.8221231278
 21
-1030.080612333322
 31
0.0
  0
LINE
  5
3CEA2
  8
回08-記事
  6
CONTINUOUS
 62
     5
 10
1870.96504793542
 20
-1034.651995794908
 30
0.0
 11
1873.250739666213
 21
-1030.080612333322
 31
0.0
  0
LINE
  5
3CEA3
  8
回08-記事
  6
CONTINUOUS
 62
     5
 10
1873.250739666213
 20
-1030.080612333322
 30
0.0
 11
1875.536431397006
 21
-1034.651995794908
 31
0.0
  0
LINE
  5
3CEA4
  8
回08-記事
  6
CONTINUOUS
 62
     5
 10
1881.568117908822
 20
-1031.73138969445
 30
0.0
 11
1885.695061311644
 21
-1031.73138969445
 31
0.0
  0
LINE
  5
3CEA5
  8
回08-記事
  6
CONTINUOUS
 62
     5
 10
1885.695061311644
 20
-1031.73138969445
 30
0.0
 11
1885.695061311644
 21
-999.9856712112103
 31
0.0
  0
TEXT
  5
3CEA6
  8
回08-記事
  6
CONTINUOUS
 62
     5
 10
1881.809562964858
 20
-1038.21338114593
 30
0.0
 40
4.444400587653644
  1
XR
  0
TEXT
  5
3CEA7
  8
回08-記事
  6
CONTINUOUS
 62
     5
 10
1833.893960234037
 20
-1002.20227864529
 30
0.0
 40
5.079314957318453
  1
4
  0
LINE
  5
3CEA8
  8
回08-記事
  6
CONTINUOUS
 62
     5
 10
1866.012715852034
 20
-1049.191534860232
 30
0.0
 11
1839.346312326113
 21
-1049.191534860232
 31
0.0
  0
TEXT
  5
3CEA9
  8
回08-記事
  6
CONTINUOUS
 62
     5
 10
1836.426615274477
 20
-1067.792494275616
 30
0.0
 40
5.0
  1
PIN ASSIGNMENT
  0
DIMENSION
  5
3CEAA
  8
回08-記事
  6
CONTINUOUS
 62
     7
  2
*D7271
 10
1308.613081508996
 20
-1271.680074794192
 30
0.0
 11
1305.363081508996
 21
-1243.106931290255
 31
0.0
 70
    32
  1
0.3{\H0.6563x;±0.05}[0.012{\H0.6563x;±0.002}]
  3
DMC
 13
1350.028830770479
 23
-1276.180074794192
 33
0.0
 14
1350.028830770479
 24
-1271.680074794192
 34
0.0
 50
90.0
1001
ACAD
1000
DSTYLE
1002
{
1070
   140
1040
5.0
1070
   170
1070
     1
1070
   371
1070
     9
1070
   372
1070
     9
1002
}
  0
INSERT
  5
3CEAB
  8
回08-記事
  6
CONTINUOUS
 62
     1
 66
     1
  2
*X8987
 10
0.0
 20
0.0
 30
0.0
  0
SEQEND
  5
3D444
  8
回08-記事
  6
CONTINUOUS
 62
     7
  0
TEXT
  5
3CEAC
  8
回08-記事
  6
CONTINUOUS
 62
     5
 10
1409.170497329133
 20
-1246.28693213717
 30
0.0
 40
5.0
  1
Tail information label
1001
ACAD
1000
MTEXTBEGIN
1070
    73
1070
     1
1070
    44
1040
1.0
1070
    74
1070
     0
1000
MTEXTEND
  0
TEXT
  5
3CEAD
  8
回08-記事
  6
CONTINUOUS
 62
     5
 10
1410.079070113988
 20
-1252.950342007496
 30
0.0
 40
5.0
  1
QST-121A075H
  0
INSERT
  5
3CEAE
  8
回08-記事
  6
CONTINUOUS
 62
     7
 66
     1
  2
*X9088
 10
0.0
 20
0.0
 30
0.0
  0
SEQEND
  5
3D44B
  8
回08-記事
  6
CONTINUOUS
 62
     7
  0
TEXT
  5
3CEAF
  8
回08-記事
  6
CONTINUOUS
 62
     5
 10
1404.184832299579
 20
-1314.309430991425
 30
0.0
 40
5.0
  1
LOT LABEL
1001
ACAD
1000
MTEXTBEGIN
1070
    73
1070
     1
1070
    44
1040
1.0
1070
    74
1070
     0
1000
MTEXTEND
  0
DIMENSION
  5
3CEB0
  8
回08-記事
  6
CONTINUOUS
 62
     7
  2
*D7372
 10
1702.838858183922
 20
-1282.180074794193
 30
0.0
 11
1699.58885818392
 21
-1309.674944872397
 31
0.0
 70
    32
  1
2.1{\H0.6563x;±0.2}[0.079{\H0.6563x;±0.008}]
  3
DMC
 13
1686.528830770479
 23
-1271.680074794192
 33
0.0
 14
1687.028830770479
 24
-1282.180074794192
 34
0.0
 50
90.0
1001
ACAD
1000
DSTYLE
1002
{
1070
   140
1040
5.0
1070
   170
1070
     1
1070
   371
1070
     9
1070
   372
1070
     9
1002
}
  0
INSERT
  5
3CEB1
  8
回08-記事
  6
CONTINUOUS
 62
     7
 66
     1
  2
*X9189
 10
0.0
 20
0.0
 30
0.0
  0
SEQEND
  5
3D452
  8
回08-記事
  6
CONTINUOUS
 62
     7
  0
TEXT
  5
3CEB2
  8
回08-記事
  6
CONTINUOUS
 62
     5
 10
1642.150793694534
 20
-1225.738122105054
 30
0.0
 40
5.0
  1
Part No.
1001
ACAD
1000
MTEXTBEGIN
1070
    73
1070
     1
1070
    44
1040
1.0
1070
    74
1070
     0
1000
MTEXTEND
  0
INSERT
  5
3CEB3
  8
回08-記事
  6
CONTINUOUS
 62
     8
 66
     1
  2
*X9290
 10
0.0
 20
0.0
 30
0.0
  0
SEQEND
  5
3D459
  8
回08-記事
  6
CONTINUOUS
 62
     7
  0
TEXT
  5
3CEB4
  8
回08-記事
  6
CONTINUOUS
 62
     5
 10
1297.844486270306
 20
-1290.054521332793
 30
0.0
 40
5.0
  1
Trace Expose
1001
ACAD
1000
MTEXTBEGIN
1070
    73
1070
     1
1070
    44
1040
1.0
1070
    74
1070
     0
1000
MTEXTEND
  0
TEXT
  5
3CEB5
  8
回08-記事
  6
CONTINUOUS
 62
     5
 10
1225.574296488246
 20
-1165.399290054065
 30
0.0
 40
5.0
  1
SECTION A
  0
LINE
  5
3CEB6
  8
ACC
  6
BYBLOCK
 62
     8
 10
1235.854056531608
 20
-1197.396363181441
 30
0.0
 11
1259.84226877714
 21
-1197.396363181441
 31
0.0
  0
LINE
  5
3CEB7
  8
ACC
  6
BYBLOCK
 62
     8
 10
1235.854056531608
 20
-1177.39636318144
 30
0.0
 11
1259.84226877714
 21
-1177.39636318144
 31
0.0
  0
ARC
  5
3CEB8
  8
ACC
  6
BYBLOCK
 62
     8
 10
1235.854056531608
 20
-1195.39636318144
 30
0.0
 40
2.0
 50
180.0
 51
270.0
  0
ARC
  5
3CEB9
  8
ACC
  6
BYBLOCK
 62
     8
 10
1235.854056531608
 20
-1179.39636318144
 30
0.0
 40
2.0
 50
90.0
 51
180.0
  0
LINE
  5
3CEBA
  8
ACC
  6
BYBLOCK
 62
     8
 10
1233.854056531608
 20
-1195.39636318144
 30
0.0
 11
1233.854056531608
 21
-1179.39636318144
 31
0.0
  0
POLYLINE
  5
3CEBB
  8
ACC
  6
CONTINUOUS
 62
     8
 66
     1
 10
0.0
 20
0.0
 30
0.0
 40
2.399999999999999
 41
2.399999999999999
  0
VERTEX
  5
3D7C1
  8
ACC
  6
CONTINUOUS
 62
     8
 10
1233.854056531608
 20
-1185.39636318144
 30
0.0
  0
VERTEX
  5
3D7C3
  8
ACC
  6
CONTINUOUS
 62
     8
 10
1253.854056531608
 20
-1185.39636318144
 30
0.0
  0
SEQEND
  5
3D7C2
  8
回08-記事
  6
CONTINUOUS
 62
     7
  0
POLYLINE
  5
3CEBC
  8
ACC
  6
CONTINUOUS
 62
     8
 66
     1
 10
0.0
 20
0.0
 30
0.0
 40
2.399999999999999
 41
2.399999999999999
  0
VERTEX
  5
3D7C4
  8
ACC
  6
CONTINUOUS
 62
     8
 10
1233.854056531608
 20
-1181.39636318144
 30
0.0
  0
VERTEX
  5
3D7C6
  8
ACC
  6
CONTINUOUS
 62
     8
 10
1253.854056531608
 20
-1181.39636318144
 30
0.0
  0
SEQEND
  5
3D7C5
  8
回08-記事
  6
CONTINUOUS
 62
     7
  0
POLYLINE
  5
3CEBD
  8
ACC
  6
CONTINUOUS
 62
     8
 66
     1
 10
0.0
 20
0.0
 30
0.0
 40
2.399999999999999
 41
2.399999999999999
  0
VERTEX
  5
3D7C7
  8
ACC
  6
CONTINUOUS
 62
     8
 10
1233.854056531608
 20
-1193.39636318144
 30
0.0
  0
VERTEX
  5
3D7C9
  8
ACC
  6
CONTINUOUS
 62
     8
 10
1253.854056531608
 20
-1193.39636318144
 30
0.0
  0
SEQEND
  5
3D7C8
  8
回08-記事
  6
CONTINUOUS
 62
     7
  0
POLYLINE
  5
3CEBE
  8
ACC
  6
CONTINUOUS
 62
     8
 66
     1
 10
0.0
 20
0.0
 30
0.0
 40
2.399999999999999
 41
2.399999999999999
  0
VERTEX
  5
3D7CA
  8
ACC
  6
CONTINUOUS
 62
     8
 10
1233.854056531608
 20
-1189.39636318144
 30
0.0
  0
VERTEX
  5
3D7CC
  8
ACC
  6
CONTINUOUS
 62
     8
 10
1253.854056531608
 20
-1189.39636318144
 30
0.0
  0
SEQEND
  5
3D7CB
  8
回08-記事
  6
CONTINUOUS
 62
     7
  0
TEXT
  5
3CEBF
  8
ACC
  6
CONTINUOUS
 62
     7
 10
1238.495381041295
 20
-1201.269495795854
 30
0.0
 40
5.0
  1
1
 50
90.0
  0
TEXT
  5
3CEC0
  8
ACC
  6
CONTINUOUS
 62
     7
 10
1238.495381041295
 20
-1175.798103657486
 30
0.0
 40
5.0
  1
4
 50
90.0
  0
DIMENSION
  5
3CEC1
  8
回07-寸法
  6
CONTINUOUS
 62
     7
  2
*D6867
 10
1198.931488124347
 20
-1197.396363181441
 30
0.0
 11
1195.681488124346
 21
-1222.322274007677
 31
0.0
 70
    32
  1
5{\H0.6667x;±0.1}[0.197{\H0.6667x;±0.004}]
  3
DMC
 13
1235.854056531608
 23
-1177.39636318144
 33
0.0
 14
1235.854056531608
 24
-1197.396363181441
 34
0.0
 50
90.0
1001
ACAD
1000
DSTYLE
1002
{
1070
   140
1040
5.0
1070
   170
1070
     1
1070
   371
1070
     9
1070
   372
1070
     9
1002
}
  0
DIMENSION
  5
3CEC2
  8
回07-寸法
  6
CONTINUOUS
 62
     7
  2
*D6968
 10
1208.275072433107
 20
-1193.39636318144
 30
0.0
 11
1208.275072433107
 21
-1210.311522493753
 31
0.0
 70
   160
  1
3[0.118]
  3
DMC
 13
1233.854056531608
 23
-1181.39636318144
 33
0.0
 14
1233.854056531608
 24
-1193.39636318144
 34
0.0
 50
90.0
1001
ACAD
1000
DSTYLE
1002
{
1070
   140
1040
5.0
1070
   170
1070
     1
1070
   371
1070
     9
1070
   372
1070
     9
1002
}
  0
DIMENSION
  5
3CEC3
  8
回07-寸法
  6
CONTINUOUS
 62
     7
  2
*D7069
 10
1218.045794911819
 20
-1189.39636318144
 30
0.0
 11
1218.045794911819
 21
-1210.473943335191
 31
0.0
 70
   160
  1
1[0.039]
  3
DMC
 13
1233.854056531608
 23
-1193.39636318144
 33
0.0
 14
1233.854056531608
 24
-1189.39636318144
 34
0.0
 50
90.0
1001
ACAD
1000
DSTYLE
1002
{
1070
   140
1040
5.0
1070
   170
1070
     1
1070
   371
1070
     9
1070
   372
1070
     9
1002
}
  0
LINE
  5
3CEC4
  8
回08-記事
  6
CONTINUOUS
 62
     7
 10
1253.854056531608
 20
-1177.39636318144
 30
0.0
 11
1253.854056531608
 21
-1197.39636318144
 31
0.0
  0
DIMENSION
  5
3CEC5
  8
回08-記事
  6
CONTINUOUS
 62
     7
  2
*D7170
 10
1227.415974876068
 20
-1194.59636318144
 30
0.0
 11
1224.165974876068
 21
-1212.598331685377
 31
0.0
 70
    32
  1
0.6[0.024]
  3
DMC
 13
1233.854056531608
 23
-1192.19636318144
 33
0.0
 14
1233.854056531608
 24
-1194.59636318144
 34
0.0
 50
90.0
1001
ACAD
1000
DSTYLE
1002
{
1070
   140
1040
5.0
1070
   170
1070
     1
1070
   371
1070
     9
1070
   372
1070
     9
1002
}
  0
TEXT
  5
3D336
  8
回03-記事
  6
CONTINUOUS
 62
     5
 10
1533.876060561491
 20
-1345.169090116383
 30
0.0
 40
6.240000000000001
  1
TOLERANCE=±0.5mm
  0
TEXT
  5
3D337
  8
回03-記事
  6
CONTINUOUS
 62
     5
 10
1533.876060561491
 20
-1356.114707544842
 30
0.0
 40
6.240000000000001
  1
EXCEPT WHERE INDICATED
  0
TEXT
  5
3D338
  8
回03-記事
  6
CONTINUOUS
 62
     5
 10
1533.876060561491
 20
-1367.060324973302
 30
0.0
 40
6.240000000000001
  1
Unit: mm
  0
TEXT
  5
3D339
  8
回03-記事
  6
CONTINUOUS
 62
     5
 10
1533.876060561491
 20
-1378.005942401762
 30
0.0
 40
6.240000000000001
  1
Edges and corners of ITO glass may be chamfered 
  0
TEXT
  5
3D33A
  8
回03-記事
  6
CONTINUOUS
 62
     5
 10
1533.876060561491
 20
-1388.951559830221
 30
0.0
 40
6.240000000000001
  1
without affecting product specification.
  0
ENDSEC
  0
EOF
