  0
SECTION
  2
HEADER
  9
$ACADVER
  1
AC1009
  9
$INSBASE
 10
0.0
 20
0.0
 30
0.0
  9
$EXTMIN
 10
1184.112628585168
 20
-1451.398084733275
 30
0.0
  9
$EXTMAX
 10
3041.599248260164
 20
-764.1418986457538
 30
0.0
  9
$LIMMIN
 10
0.0
 20
0.0
  9
$LIMMAX
 10
3000.0
 20
2500.0
  9
$ORTHOMODE
 70
     1
  9
$REGENMODE
 70
     1
  9
$FILLMODE
 70
     1
  9
$QTEXTMODE
 70
     0
  9
$MIRRTEXT
 70
     1
  9
$DRAGMODE
 70
     2
  9
$LTSCALE
 40
0.5
  9
$OSMODE
 70
    37
  9
$ATTMODE
 70
     1
  9
$TEXTSIZE
 40
3.0
  9
$TRACEWID
 40
1.0
  9
$TEXTSTYLE
  7
STANDARD
  9
$CLAYER
  8
回08-記事
  9
$CELTYPE
  6
CONTINUOUS
  9
$CECOLOR
 62
     7
  9
$DIMSCALE
 40
1.0
  9
$DIMASZ
 40
2.0
  9
$DIMEXO
 40
0.0
  9
$DIMDLI
 40
0.0
  9
$DIMRND
 40
0.0
  9
$DIMDLE
 40
0.0
  9
$DIMEXE
 40
1.0
  9
$DIMTP
 40
0.0
  9
$DIMTM
 40
0.0
  9
$DIMTXT
 40
5.0
  9
$DIMCEN
 40
2.0
  9
$DIMTSZ
 40
0.0
  9
$DIMTOL
 70
     0
  9
$DIMLIM
 70
     0
  9
$DIMTIH
 70
     0
  9
$DIMTOH
 70
     0
  9
$DIMSE1
 70
     0
  9
$DIMSE2
 70
     0
  9
$DIMTAD
 70
     3
  9
$DIMZIN
 70
     8
  9
$DIMBLK
  1
OPEN
  9
$DIMASO
 70
     1
  9
$DIMSHO
 70
     1
  9
$DIMPOST
  1

  9
$DIMAPOST
  1

  9
$DIMALT
 70
     1
  9
$DIMALTD
 70
     3
  9
$DIMALTF
 40
0.03937007874016
  9
$DIMLFAC
 40
1.0
  9
$DIMTOFL
 70
     1
  9
$DIMTVP
 40
0.0
  9
$DIMTIX
 70
     0
  9
$DIMSOXD
 70
     0
  9
$DIMSAH
 70
     0
  9
$DIMBLK1
  1

  9
$DIMBLK2
  1

  9
$DIMSTYLE
  2
DMC
  9
$DIMCLRD
 70
     5
  9
$DIMCLRE
 70
     5
  9
$DIMCLRT
 70
     5
  9
$DIMTFAC
 40
0.7
  9
$DIMGAP
 40
0.5
  9
$LUNITS
 70
     2
  9
$LUPREC
 70
     4
  9
$SKETCHINC
 40
1.0
  9
$FILLETRAD
 40
0.0
  9
$AUNITS
 70
     0
  9
$AUPREC
 70
     0
  9
$MENU
  1
.
  9
$ELEVATION
 40
0.0
  9
$PELEVATION
 40
0.0
  9
$THICKNESS
 40
0.0
  9
$LIMCHECK
 70
     0
  9
$BLIPMODE
 70
     0
  9
$CHAMFERA
 40
1.0
  9
$CHAMFERB
 40
1.0
  9
$SKPOLY
 70
     0
  9
$TDCREATE
 40
2451810.404221065
  9
$TDUPDATE
 40
2460224.583813391
  9
$TDINDWG
 40
3.810387986
  9
$TDUSRTIMER
 40
3.810387292
  9
$USRTIMER
 70
     1
  9
$ANGBASE
 50
0.0
  9
$ANGDIR
 70
     0
  9
$PDMODE
 70
     0
  9
$PDSIZE
 40
0.0
  9
$PLINEWID
 40
0.2
  9
$COORDS
 70
     0
  9
$SPLFRAME
 70
     0
  9
$SPLINETYPE
 70
     6
  9
$SPLINESEGS
 70
     8
  9
$ATTDIA
 70
     1
  9
$ATTREQ
 70
     1
  9
$HANDLING
 70
     1
  9
$HANDSEED
  5
4B4
  9
$SURFTAB1
 70
     6
  9
$SURFTAB2
 70
     6
  9
$SURFTYPE
 70
     6
  9
$SURFU
 70
     6
  9
$SURFV
 70
     6
  9
$UCSNAME
  2

  9
$UCSORG
 10
0.0
 20
0.0
 30
0.0
  9
$UCSXDIR
 10
1.0
 20
0.0
 30
0.0
  9
$UCSYDIR
 10
0.0
 20
1.0
 30
0.0
  9
$PUCSNAME
  2

  9
$PUCSORG
 10
0.0
 20
0.0
 30
0.0
  9
$PUCSXDIR
 10
1.0
 20
0.0
 30
0.0
  9
$PUCSYDIR
 10
0.0
 20
1.0
 30
0.0
  9
$USERI1
 70
     0
  9
$USERI2
 70
     0
  9
$USERI3
 70
     0
  9
$USERI4
 70
     0
  9
$USERI5
 70
     0
  9
$USERR1
 40
0.0
  9
$USERR2
 40
0.0
  9
$USERR3
 40
0.0
  9
$USERR4
 40
0.0
  9
$USERR5
 40
0.0
  9
$WORLDVIEW
 70
     1
  9
$SHADEDGE
 70
     3
  9
$SHADEDIF
 70
    70
  9
$TILEMODE
 70
     1
  9
$MAXACTVP
 70
    64
  9
$PLIMCHECK
 70
     0
  9
$PEXTMIN
 10
1.000000000000000E+20
 20
1.000000000000000E+20
 30
1.000000000000000E+20
  9
$PEXTMAX
 10
-1.000000000000000E+20
 20
-1.000000000000000E+20
 30
-1.000000000000000E+20
  9
$PLIMMIN
 10
0.0
 20
0.0
  9
$PLIMMAX
 10
420.0
 20
297.0
  9
$UNITMODE
 70
     0
  9
$VISRETAIN
 70
     1
  9
$PLINEGEN
 70
     0
  9
$PSLTSCALE
 70
     1
  0
ENDSEC
  0
SECTION
  2
TABLES
  0
TABLE
  2
VPORT
 70
     1
  0
VPORT
  2
*ACTIVE
 70
     0
 10
0.0
 20
0.0
 11
1.0
 21
1.0
 12
2646.337357280956
 22
-1129.465080155223
 13
0.0
 23
0.0
 14
10.0
 24
10.0
 15
10.0
 25
10.0
 16
0.0
 26
0.0
 36
1.0
 17
0.0
 27
0.0
 37
0.0
 40
665.6528539764731
 41
2.216284987277353
 42
50.0
 43
0.0
 44
0.0
 50
0.0
 51
0.0
 71
     0
 72
   500
 73
     1
 74
     1
 75
     0
 76
     0
 77
     0
 78
     0
  0
ENDTAB
  0
TABLE
  2
LTYPE
 70
     3
  0
LTYPE
  2
CONTINUOUS
 70
     0
  3
Solid line
 72
    65
 73
     0
 40
0.0
  0
LTYPE
  2
DASHED2
 70
     0
  3
Dashed (.5x) _ _ _ _ _ _ _ _ _ _ _ _ _ _ _ _ _
 72
    65
 73
     2
 40
9.524999999999998
 49
6.349999999999999
 49
-3.174999999999999
  0
LTYPE
  2
CENTER2
 70
     0
  3
Center (.5x) ___ _ ___ _ ___ _ ___ _ ___ _ ___
 72
    65
 73
     4
 40
28.575
 49
19.05
 49
-3.174999999999999
 49
3.174999999999999
 49
-3.174999999999999
  0
ENDTAB
  0
TABLE
  2
LAYER
 70
     9
  0
LAYER
  2
0
 70
     0
 62
     7
  6
CONTINUOUS
  0
LAYER
  2
DEFPOINTS
 70
     0
 62
     7
  6
CONTINUOUS
  0
LAYER
  2
回04-下接
 70
     0
 62
     7
  6
CONTINUOUS
  0
LAYER
  2
回08-記事
 70
     0
 62
     7
  6
CONTINUOUS
  0
LAYER
  2
ACC
 70
     0
 62
     7
  6
CONTINUOUS
  0
LAYER
  2
回05-ﾃｰﾙ
 70
     0
 62
     7
  6
CONTINUOUS
  0
LAYER
  2
回07-寸法
 70
     0
 62
     7
  6
CONTINUOUS
  0
LAYER
  2
回91-枠英1
 70
     0
 62
     7
  6
CONTINUOUS
  0
LAYER
  2
回03-記事
 70
     0
 62
     7
  6
CONTINUOUS
  0
ENDTAB
  0
TABLE
  2
STYLE
 70
     1
  0
STYLE
  2
STANDARD
 70
     0
 40
5.0
 41
1.0
 50
0.0
 71
     0
 42
3.0
  3
isocp.shx
  4
bigfont.shx
  0
ENDTAB
  0
TABLE
  2
VIEW
 70
     0
  0
ENDTAB
  0
TABLE
  2
UCS
 70
     0
  0
ENDTAB
  0
TABLE
  2
APPID
 70
     3
  0
APPID
  2
ACAD
 70
     0
  0
APPID
  2
ACAECLAYERSTANDARD
 70
     0
  0
APPID
  2
ACAD_NAV_VCDISPLAY
 70
     0
  0
ENDTAB
  0
TABLE
  2
DIMSTYLE
 70
     1
  0
DIMSTYLE
  2
DMC
 70
     0
  3

  4

  5
OPEN
  6

  7

 40
1.0
 41
2.0
 42
0.0
 43
0.0
 44
1.0
 45
0.0
 46
0.0
 47
0.0
 48
0.0
140
3.0
141
2.0
142
0.0
143
0.03937007874016
144
1.0
145
0.0
146
0.7
147
0.5
 71
     0
 72
     0
 73
     0
 74
     0
 75
     0
 76
     0
 77
     3
 78
     8
170
     0
171
     3
172
     1
173
     0
174
     0
175
     0
176
     5
177
     5
178
     5
  0
ENDTAB
  0
ENDSEC
  0
SECTION
  2
BLOCKS
  0
BLOCK
  8
0
  2
$MODEL_SPACE
 70
     0
 10
0.0
 20
0.0
 30
0.0
  3
$MODEL_SPACE
  1

  0
ENDBLK
  8
0
  5
20
  0
BLOCK
 67
     1
  8
0
  2
$PAPER_SPACE
 70
     0
 10
0.0
 20
0.0
 30
0.0
  3
$PAPER_SPACE
  1

  0
ENDBLK
  5
25
 67
     1
  8
0
  0
BLOCK
  8
0
  2
_OPEN
 70
     0
 10
0.0
 20
0.0
 30
0.0
  3
_OPEN
  1

  0
LINE
  5
14
  8
0
  6
CONTINUOUS
 62
     0
 10
-1.0
 20
0.1666666666666666
 30
0.0
 11
0.0
 21
0.0
 31
0.0
  0
LINE
  5
15
  8
0
  6
CONTINUOUS
 62
     0
 10
-1.0
 20
-0.1666666666666666
 30
0.0
 11
0.0
 21
0.0
 31
0.0
  0
LINE
  5
16
  8
0
  6
CONTINUOUS
 62
     0
 10
0.0
 20
0.0
 30
0.0
 11
-1.0
 21
0.0
 31
0.0
  0
ENDBLK
  5
17
  8
0
  0
BLOCK
  8
0
  2
*D1
 70
     1
 10
0.0
 20
0.0
 30
0.0
  3
*D1
  1

  0
LINE
  5
29E
  8
回07-寸法
  6
CONTINUOUS
 62
     5
 10
2829.684674890405
 20
-1303.228500663466
 30
0.0
 11
2829.684674890405
 21
-1291.9037298007
 31
0.0
  0
LINE
  5
29F
  8
回07-寸法
  6
CONTINUOUS
 62
     5
 10
2829.184674890404
 20
-1300.395720907388
 30
0.0
 11
2829.184674890404
 21
-1291.9037298007
 31
0.0
  0
LINE
  5
2A0
  8
回07-寸法
  6
CONTINUOUS
 62
     5
 10
2831.684674890404
 20
-1292.903729800699
 30
0.0
 11
2833.684674890405
 21
-1292.903729800699
 31
0.0
  0
LINE
  5
2A1
  8
回07-寸法
  6
CONTINUOUS
 62
     5
 10
2827.184674890405
 20
-1292.903729800699
 30
0.0
 11
2790.688611898278
 21
-1292.903729800699
 31
0.0
  0
LINE
  5
2A2
  8
回07-寸法
  6
CONTINUOUS
 62
     5
 10
2829.684674890405
 20
-1292.903729800699
 30
0.0
 11
2829.184674890404
 21
-1292.903729800699
 31
0.0
  0
INSERT
  5
2A3
  8
回07-寸法
  6
CONTINUOUS
 62
     5
 66
     1
  2
_OPEN
 10
2829.684674890405
 20
-1292.903729800699
 30
0.0
 41
2.0
 42
2.0
 43
2.0
 50
180.0
  0
SEQEND
  5
2A4
  8
回08-記事
  6
CONTINUOUS
 62
     7
  0
INSERT
  5
2A5
  8
回07-寸法
  6
CONTINUOUS
 62
     5
 66
     1
  2
_OPEN
 10
2829.184674890404
 20
-1292.903729800699
 30
0.0
 41
2.0
 42
2.0
 43
2.0
  0
SEQEND
  5
2A6
  8
回08-記事
  6
CONTINUOUS
 62
     7
  0
TEXT
  5
2A7
  8
回07-寸法
  6
CONTINUOUS
 62
     5
 10
2790.436643394342
 20
-1292.153729800699
 30
0.0
 40
5.0
  1
(0.5 [0.020])
1001
ACAD
1000
MTEXTBEGIN
1070
    73
1070
     1
1070
    44
1040
1.0
1070
    74
1070
     0
1000
MTEXTEND
  0
POINT
  5
2A8
  8
DEFPOINTS
  6
CONTINUOUS
 62
     0
 10
2829.684674890405
 20
-1303.228500663466
 30
0.0
  0
POINT
  5
2A9
  8
DEFPOINTS
  6
CONTINUOUS
 62
     0
 10
2829.184674890404
 20
-1300.395720907388
 30
0.0
  0
POINT
  5
2AA
  8
DEFPOINTS
  6
CONTINUOUS
 62
     0
 10
2829.184674890404
 20
-1292.903729800699
 30
0.0
  0
ENDBLK
  5
2AB
  8
0
 62
     7
  0
BLOCK
  8
0
  2
*D2
 70
     1
 10
0.0
 20
0.0
 30
0.0
  3
*D2
  1

  0
LINE
  5
28D
  8
回07-寸法
  6
CONTINUOUS
 62
     5
 10
2501.684674890404
 20
-1305.468614431221
 30
0.0
 11
2501.684674890404
 21
-1284.854632249506
 31
0.0
  0
LINE
  5
28E
  8
回07-寸法
  6
CONTINUOUS
 62
     5
 10
2502.184674890405
 20
-1300.395720907388
 30
0.0
 11
2502.184674890405
 21
-1284.854632249506
 31
0.0
  0
LINE
  5
28F
  8
回07-寸法
  6
CONTINUOUS
 62
     5
 10
2499.684674890405
 20
-1285.854632249506
 30
0.0
 11
2497.684674890404
 21
-1285.854632249506
 31
0.0
  0
LINE
  5
290
  8
回07-寸法
  6
CONTINUOUS
 62
     5
 10
2504.184674890405
 20
-1285.854632249506
 30
0.0
 11
2540.680737882531
 21
-1285.854632249506
 31
0.0
  0
LINE
  5
291
  8
回07-寸法
  6
CONTINUOUS
 62
     5
 10
2501.684674890404
 20
-1285.854632249506
 30
0.0
 11
2502.184674890405
 21
-1285.854632249506
 31
0.0
  0
INSERT
  5
292
  8
回07-寸法
  6
CONTINUOUS
 62
     5
 66
     1
  2
_OPEN
 10
2501.684674890404
 20
-1285.854632249506
 30
0.0
 41
2.0
 42
2.0
 43
2.0
  0
SEQEND
  5
293
  8
回08-記事
  6
CONTINUOUS
 62
     7
  0
INSERT
  5
294
  8
回07-寸法
  6
CONTINUOUS
 62
     5
 66
     1
  2
_OPEN
 10
2502.184674890405
 20
-1285.854632249506
 30
0.0
 41
2.0
 42
2.0
 43
2.0
 50
180.0
  0
SEQEND
  5
295
  8
回08-記事
  6
CONTINUOUS
 62
     7
  0
TEXT
  5
296
  8
回07-寸法
  6
CONTINUOUS
 62
     5
 10
2505.932706386468
 20
-1285.104632249506
 30
0.0
 40
5.0
  1
(0.5 [0.020])
1001
ACAD
1000
MTEXTBEGIN
1070
    73
1070
     1
1070
    44
1040
1.0
1070
    74
1070
     0
1000
MTEXTEND
  0
POINT
  5
297
  8
DEFPOINTS
  6
CONTINUOUS
 62
     0
 10
2501.684674890404
 20
-1305.468614431221
 30
0.0
  0
POINT
  5
298
  8
DEFPOINTS
  6
CONTINUOUS
 62
     0
 10
2502.184674890405
 20
-1300.395720907388
 30
0.0
  0
POINT
  5
299
  8
DEFPOINTS
  6
CONTINUOUS
 62
     0
 10
2502.184674890405
 20
-1285.854632249506
 30
0.0
  0
ENDBLK
  5
29A
  8
0
 62
     7
  0
BLOCK
  8
0
  2
*D3
 70
     1
 10
0.0
 20
0.0
 30
0.0
  3
*D3
  1

  0
LINE
  5
273
  8
回07-寸法
  6
CONTINUOUS
 62
     5
 10
2513.684674890404
 20
-982.3970009379436
 30
0.0
 11
2513.684674890404
 21
-949.0495116440525
 31
0.0
  0
LINE
  5
274
  8
回07-寸法
  6
CONTINUOUS
 62
     5
 10
2818.684674890405
 20
-982.3970009379436
 30
0.0
 11
2818.684674890405
 21
-949.0495116440525
 31
0.0
  0
LINE
  5
275
  8
回07-寸法
  6
CONTINUOUS
 62
     5
 10
2515.684674890405
 20
-950.0495116440525
 30
0.0
 11
2816.684674890405
 21
-950.0495116440525
 31
0.0
  0
INSERT
  5
276
  8
回07-寸法
  6
CONTINUOUS
 62
     5
 66
     1
  2
_OPEN
 10
2513.684674890404
 20
-950.0495116440525
 30
0.0
 41
2.0
 42
2.0
 43
2.0
 50
180.0
  0
SEQEND
  5
277
  8
回08-記事
  6
CONTINUOUS
 62
     7
  0
INSERT
  5
278
  8
回07-寸法
  6
CONTINUOUS
 62
     5
 66
     1
  2
_OPEN
 10
2818.684674890405
 20
-950.0495116440525
 30
0.0
 41
2.0
 42
2.0
 43
2.0
  0
SEQEND
  5
279
  8
回08-記事
  6
CONTINUOUS
 62
     7
  0
TEXT
  5
27A
  8
回07-寸法
  6
CONTINUOUS
 62
     5
 10
2624.710159798656
 20
-949.2995116440525
 30
0.0
 40
5.0
  1
305 [12.008] (ACTIVE AREA)
1001
ACAD
1000
MTEXTBEGIN
1070
    73
1070
     1
1070
    44
1040
1.0
1070
    74
1070
     0
1000
MTEXTEND
  0
POINT
  5
27B
  8
DEFPOINTS
  6
CONTINUOUS
 62
     0
 10
2513.684674890404
 20
-982.3970009379436
 30
0.0
  0
POINT
  5
27C
  8
DEFPOINTS
  6
CONTINUOUS
 62
     0
 10
2818.684674890405
 20
-982.3970009379436
 30
0.0
  0
POINT
  5
27D
  8
DEFPOINTS
  6
CONTINUOUS
 62
     0
 10
2818.684674890405
 20
-950.0495116440525
 30
0.0
  0
ENDBLK
  5
27E
  8
0
 62
     7
  0
BLOCK
  8
0
  2
*D4
 70
     1
 10
0.0
 20
0.0
 30
0.0
  3
*D4
  1

  0
LINE
  5
264
  8
回07-寸法
  6
CONTINUOUS
 62
     5
 10
2511.684674890405
 20
-980.3970009379437
 30
0.0
 11
2511.684674890405
 21
-933.0798448488948
 31
0.0
  0
LINE
  5
265
  8
回07-寸法
  6
CONTINUOUS
 62
     5
 10
2820.684674890405
 20
-980.3970009379437
 30
0.0
 11
2820.684674890405
 21
-933.0798448488948
 31
0.0
  0
LINE
  5
266
  8
回07-寸法
  6
CONTINUOUS
 62
     5
 10
2513.684674890404
 20
-934.079844848895
 30
0.0
 11
2818.684674890405
 21
-934.079844848895
 31
0.0
  0
INSERT
  5
267
  8
回07-寸法
  6
CONTINUOUS
 62
     5
 66
     1
  2
_OPEN
 10
2511.684674890405
 20
-934.079844848895
 30
0.0
 41
2.0
 42
2.0
 43
2.0
 50
180.0
  0
SEQEND
  5
268
  8
回08-記事
  6
CONTINUOUS
 62
     7
  0
INSERT
  5
269
  8
回07-寸法
  6
CONTINUOUS
 62
     5
 66
     1
  2
_OPEN
 10
2820.684674890405
 20
-934.079844848895
 30
0.0
 41
2.0
 42
2.0
 43
2.0
  0
SEQEND
  5
26A
  8
回08-記事
  6
CONTINUOUS
 62
     7
  0
TEXT
  5
26B
  8
回07-寸法
  6
CONTINUOUS
 62
     5
 10
2623.701133877338
 20
-933.329844848895
 30
0.0
 40
5.0
  1
309 [12.165] (VIEWING AREA)
1001
ACAD
1000
MTEXTBEGIN
1070
    73
1070
     1
1070
    44
1040
1.0
1070
    74
1070
     0
1000
MTEXTEND
  0
POINT
  5
26C
  8
DEFPOINTS
  6
CONTINUOUS
 62
     0
 10
2511.684674890405
 20
-980.3970009379437
 30
0.0
  0
POINT
  5
26D
  8
DEFPOINTS
  6
CONTINUOUS
 62
     0
 10
2820.684674890405
 20
-980.3970009379437
 30
0.0
  0
POINT
  5
26E
  8
DEFPOINTS
  6
CONTINUOUS
 62
     0
 10
2820.684674890405
 20
-934.079844848895
 30
0.0
  0
ENDBLK
  5
26F
  8
0
 62
     7
  0
BLOCK
  8
0
  2
*D5
 70
     1
 10
0.0
 20
0.0
 30
0.0
  3
*D5
  1

  0
LINE
  5
255
  8
回07-寸法
  6
CONTINUOUS
 62
     5
 10
2501.684674890404
 20
-971.8970009379441
 30
0.0
 11
2501.684674890404
 21
-907.5237542441518
 31
0.0
  0
LINE
  5
256
  8
回07-寸法
  6
CONTINUOUS
 62
     5
 10
2829.684674890405
 20
-973.8970009379436
 30
0.0
 11
2829.684674890405
 21
-907.5237542441518
 31
0.0
  0
LINE
  5
257
  8
回07-寸法
  6
CONTINUOUS
 62
     5
 10
2503.684674890405
 20
-908.5237542441518
 30
0.0
 11
2827.684674890404
 21
-908.5237542441518
 31
0.0
  0
INSERT
  5
258
  8
回07-寸法
  6
CONTINUOUS
 62
     5
 66
     1
  2
_OPEN
 10
2501.684674890404
 20
-908.5237542441518
 30
0.0
 41
2.0
 42
2.0
 43
2.0
 50
180.0
  0
SEQEND
  5
259
  8
回08-記事
  6
CONTINUOUS
 62
     7
  0
INSERT
  5
25A
  8
回07-寸法
  6
CONTINUOUS
 62
     5
 66
     1
  2
_OPEN
 10
2829.684674890405
 20
-908.5237542441518
 30
0.0
 41
2.0
 42
2.0
 43
2.0
  0
SEQEND
  5
25B
  8
回08-記事
  6
CONTINUOUS
 62
     7
  0
TEXT
  5
25C
  8
回07-寸法
  6
CONTINUOUS
 62
     5
 10
2648.757890701893
 20
-907.7738540876557
 30
0.0
 40
5.0
  1
328 [12.913]
1001
ACAD
1000
MTEXTBEGIN
1070
    73
1070
     1
1070
    44
1040
1.0
1070
    74
1070
     0
1000
MTEXTEND
  0
POINT
  5
25D
  8
DEFPOINTS
  6
CONTINUOUS
 62
     0
 10
2501.684674890404
 20
-971.8970009379441
 30
0.0
  0
POINT
  5
25E
  8
DEFPOINTS
  6
CONTINUOUS
 62
     0
 10
2829.684674890405
 20
-973.8970009379436
 30
0.0
  0
POINT
  5
25F
  8
DEFPOINTS
  6
CONTINUOUS
 62
     0
 10
2829.684674890405
 20
-908.5237542441518
 30
0.0
  0
ENDBLK
  5
260
  8
0
 62
     7
  0
BLOCK
  8
0
  2
*D6
 70
     1
 10
0.0
 20
0.0
 30
0.0
  3
*D6
  1

  0
LINE
  5
246
  8
回07-寸法
  6
CONTINUOUS
 62
     5
 10
2818.684674890406
 20
-1211.397000937944
 30
0.0
 11
2879.184257885932
 21
-1211.397000937944
 31
0.0
  0
LINE
  5
247
  8
回07-寸法
  6
CONTINUOUS
 62
     5
 10
2818.684674890406
 20
-982.397000937944
 30
0.0
 11
2879.184257885931
 21
-982.397000937944
 31
0.0
  0
LINE
  5
248
  8
回07-寸法
  6
CONTINUOUS
 62
     5
 10
2878.184257885932
 20
-1209.397000937944
 30
0.0
 11
2878.184257885932
 21
-984.3970009379441
 31
0.0
  0
INSERT
  5
249
  8
回07-寸法
  6
CONTINUOUS
 62
     5
 66
     1
  2
_OPEN
 10
2878.184257885932
 20
-1211.397000937944
 30
0.0
 41
2.0
 42
2.0
 43
2.0
 50
270.0
  0
SEQEND
  5
24A
  8
回08-記事
  6
CONTINUOUS
 62
     7
  0
INSERT
  5
24B
  8
回07-寸法
  6
CONTINUOUS
 62
     5
 66
     1
  2
_OPEN
 10
2878.184257885931
 20
-982.397000937944
 30
0.0
 41
2.0
 42
2.0
 43
2.0
 50
90.0
  0
SEQEND
  5
24C
  8
回08-記事
  6
CONTINUOUS
 62
     7
  0
TEXT
  5
24D
  8
回07-寸法
  6
CONTINUOUS
 62
     5
 10
2877.433049488381
 20
-1136.98888786562
 30
0.0
 40
5.0
  1
229 [9.016] (ACTIVE AREA)
 50
90.0
1001
ACAD
1000
MTEXTBEGIN
1070
    73
1070
     1
1070
    44
1040
1.0
1070
    74
1070
     0
1000
MTEXTEND
  0
POINT
  5
24E
  8
DEFPOINTS
  6
CONTINUOUS
 62
     0
 10
2818.684674890406
 20
-1211.397000937944
 30
0.0
  0
POINT
  5
24F
  8
DEFPOINTS
  6
CONTINUOUS
 62
     0
 10
2818.684674890406
 20
-982.397000937944
 30
0.0
  0
POINT
  5
250
  8
DEFPOINTS
  6
CONTINUOUS
 62
     0
 10
2878.184257885931
 20
-982.397000937944
 30
0.0
  0
ENDBLK
  5
251
  8
0
 62
     7
  0
BLOCK
  8
0
  2
*D7
 70
     1
 10
0.0
 20
0.0
 30
0.0
  3
*D7
  1

  0
LINE
  5
237
  8
回07-寸法
  6
CONTINUOUS
 62
     5
 10
2828.684674890406
 20
-1222.897000937944
 30
0.0
 11
2937.401608031857
 21
-1222.897000937944
 31
0.0
  0
LINE
  5
238
  8
回07-寸法
  6
CONTINUOUS
 62
     5
 10
2826.684674890405
 20
-970.8970009379445
 30
0.0
 11
2937.401608031857
 21
-970.8970009379445
 31
0.0
  0
LINE
  5
239
  8
回07-寸法
  6
CONTINUOUS
 62
     5
 10
2936.401608031857
 20
-1220.897000937944
 30
0.0
 11
2936.401608031857
 21
-972.8970009379445
 31
0.0
  0
INSERT
  5
23A
  8
回07-寸法
  6
CONTINUOUS
 62
     5
 66
     1
  2
_OPEN
 10
2936.401608031857
 20
-1222.897000937944
 30
0.0
 41
2.0
 42
2.0
 43
2.0
 50
270.0
  0
SEQEND
  5
23B
  8
回08-記事
  6
CONTINUOUS
 62
     7
  0
INSERT
  5
23C
  8
回07-寸法
  6
CONTINUOUS
 62
     5
 66
     1
  2
_OPEN
 10
2936.401608031857
 20
-970.8970009379445
 30
0.0
 41
2.0
 42
2.0
 43
2.0
 50
90.0
  0
SEQEND
  5
23D
  8
回08-記事
  6
CONTINUOUS
 62
     7
  0
TEXT
  5
23E
  8
回07-寸法
  6
CONTINUOUS
 62
     5
 10
2935.650499477811
 20
-1111.82681917281
 30
0.0
 40
5.0
  1
252 [9.921]
 50
90.0
1001
ACAD
1000
MTEXTBEGIN
1070
    73
1070
     1
1070
    44
1040
1.0
1070
    74
1070
     0
1000
MTEXTEND
  0
POINT
  5
23F
  8
DEFPOINTS
  6
CONTINUOUS
 62
     0
 10
2828.684674890406
 20
-1222.897000937944
 30
0.0
  0
POINT
  5
240
  8
DEFPOINTS
  6
CONTINUOUS
 62
     0
 10
2826.684674890405
 20
-970.8970009379445
 30
0.0
  0
POINT
  5
241
  8
DEFPOINTS
  6
CONTINUOUS
 62
     0
 10
2936.401608031857
 20
-970.8970009379445
 30
0.0
  0
ENDBLK
  5
242
  8
0
 62
     7
  0
BLOCK
  8
0
  2
*D8
 70
     1
 10
0.0
 20
0.0
 30
0.0
  3
*D8
  1

  0
LINE
  5
225
  8
回07-寸法
  6
CONTINUOUS
 62
     5
 10
2510.384674890405
 20
-979.0970009379444
 30
0.0
 11
2510.384674890405
 21
-919.6767207568646
 31
0.0
  0
LINE
  5
226
  8
回07-寸法
  6
CONTINUOUS
 62
     5
 10
2821.984674890405
 20
-979.0970009379444
 30
0.0
 11
2821.984674890405
 21
-919.6767207568646
 31
0.0
  0
LINE
  5
227
  8
回07-寸法
  6
CONTINUOUS
 62
     5
 10
2512.384674890404
 20
-920.6767207568645
 30
0.0
 11
2819.984674890405
 21
-920.6767207568645
 31
0.0
  0
INSERT
  5
228
  8
回07-寸法
  6
CONTINUOUS
 62
     5
 66
     1
  2
_OPEN
 10
2510.384674890405
 20
-920.6767207568645
 30
0.0
 41
2.0
 42
2.0
 43
2.0
 50
180.0
  0
SEQEND
  5
229
  8
回08-記事
  6
CONTINUOUS
 62
     7
  0
INSERT
  5
22A
  8
回07-寸法
  6
CONTINUOUS
 62
     5
 66
     1
  2
_OPEN
 10
2821.984674890405
 20
-920.6767207568645
 30
0.0
 41
2.0
 42
2.0
 43
2.0
  0
SEQEND
  5
22B
  8
回08-記事
  6
CONTINUOUS
 62
     7
  0
TEXT
  5
22C
  8
回07-寸法
  6
CONTINUOUS
 62
     5
 10
2646.934674890405
 20
-919.9267207568645
 30
0.0
 40
5.0
  1
311.6 [12.268]
1001
ACAD
1000
MTEXTBEGIN
1070
    73
1070
     1
1070
    44
1040
1.0
1070
    74
1070
     0
1000
MTEXTEND
  0
POINT
  5
22D
  8
DEFPOINTS
  6
CONTINUOUS
 62
     0
 10
2510.384674890405
 20
-979.0970009379444
 30
0.0
  0
POINT
  5
22E
  8
DEFPOINTS
  6
CONTINUOUS
 62
     0
 10
2821.984674890405
 20
-979.0970009379444
 30
0.0
  0
POINT
  5
22F
  8
DEFPOINTS
  6
CONTINUOUS
 62
     0
 10
2821.984674890405
 20
-920.6767207568645
 30
0.0
  0
ENDBLK
  5
230
  8
0
 62
     7
  0
BLOCK
  8
0
  2
*D9
 70
     1
 10
0.0
 20
0.0
 30
0.0
  3
*D9
  1

  0
LINE
  5
214
  8
回07-寸法
  6
CONTINUOUS
 62
     5
 10
2821.984674890405
 20
-979.0970009379444
 30
0.0
 11
2821.984674890405
 21
-919.6767207568646
 31
0.0
  0
LINE
  5
215
  8
回07-寸法
  6
CONTINUOUS
 62
     5
 10
2829.684674890405
 20
-970.897000937944
 30
0.0
 11
2829.684674890405
 21
-919.6767207568646
 31
0.0
  0
LINE
  5
216
  8
回07-寸法
  6
CONTINUOUS
 62
     5
 10
2819.984674890405
 20
-920.6767207568645
 30
0.0
 11
2817.984674890405
 21
-920.6767207568645
 31
0.0
  0
LINE
  5
217
  8
回07-寸法
  6
CONTINUOUS
 62
     5
 10
2831.684674890404
 20
-920.6767207568645
 30
0.0
 11
2899.225455992767
 21
-920.6767207568645
 31
0.0
  0
LINE
  5
218
  8
回07-寸法
  6
CONTINUOUS
 62
     5
 10
2821.984674890405
 20
-920.6767207568645
 30
0.0
 11
2829.684674890405
 21
-920.6767207568645
 31
0.0
  0
INSERT
  5
219
  8
回07-寸法
  6
CONTINUOUS
 62
     5
 66
     1
  2
_OPEN
 10
2821.984674890405
 20
-920.6767207568645
 30
0.0
 41
2.0
 42
2.0
 43
2.0
  0
SEQEND
  5
21A
  8
回08-記事
  6
CONTINUOUS
 62
     7
  0
INSERT
  5
21B
  8
回07-寸法
  6
CONTINUOUS
 62
     5
 66
     1
  2
_OPEN
 10
2829.684674890405
 20
-920.6767207568645
 30
0.0
 41
2.0
 42
2.0
 43
2.0
 50
180.0
  0
SEQEND
  5
21C
  8
回08-記事
  6
CONTINUOUS
 62
     7
  0
INSERT
  5
21D
  8
回07-寸法
  6
CONTINUOUS
 62
     5
 66
     1
  2
*X46
 10
0.0
 20
0.0
 30
0.0
  0
SEQEND
  5
470
  8
回08-記事
  6
CONTINUOUS
 62
     7
  0
POINT
  5
21E
  8
DEFPOINTS
  6
CONTINUOUS
 62
     0
 10
2821.984674890405
 20
-979.0970009379444
 30
0.0
  0
POINT
  5
21F
  8
DEFPOINTS
  6
CONTINUOUS
 62
     0
 10
2829.684674890405
 20
-970.897000937944
 30
0.0
  0
POINT
  5
220
  8
DEFPOINTS
  6
CONTINUOUS
 62
     0
 10
2829.684674890405
 20
-920.6767207568645
 30
0.0
  0
ENDBLK
  5
221
  8
0
 62
     7
  0
BLOCK
  8
0
  2
*D10
 70
     1
 10
0.0
 20
0.0
 30
0.0
  3
*D10
  1

  0
LINE
  5
203
  8
回07-寸法
  6
CONTINUOUS
 62
     5
 10
2510.384674890405
 20
-979.0970009379444
 30
0.0
 11
2510.384674890405
 21
-919.6767207568646
 31
0.0
  0
LINE
  5
204
  8
回07-寸法
  6
CONTINUOUS
 62
     5
 10
2501.684674890404
 20
-970.897000937944
 30
0.0
 11
2501.684674890404
 21
-919.6767207568646
 31
0.0
  0
LINE
  5
205
  8
回07-寸法
  6
CONTINUOUS
 62
     5
 10
2512.384674890404
 20
-920.6767207568645
 30
0.0
 11
2514.384674890405
 21
-920.6767207568645
 31
0.0
  0
LINE
  5
206
  8
回07-寸法
  6
CONTINUOUS
 62
     5
 10
2499.684674890405
 20
-920.6767207568645
 30
0.0
 11
2431.643893788042
 21
-920.6767207568645
 31
0.0
  0
LINE
  5
207
  8
回07-寸法
  6
CONTINUOUS
 62
     5
 10
2510.384674890405
 20
-920.6767207568645
 30
0.0
 11
2501.684674890404
 21
-920.6767207568645
 31
0.0
  0
INSERT
  5
208
  8
回07-寸法
  6
CONTINUOUS
 62
     5
 66
     1
  2
_OPEN
 10
2510.384674890405
 20
-920.6767207568645
 30
0.0
 41
2.0
 42
2.0
 43
2.0
 50
180.0
  0
SEQEND
  5
209
  8
回08-記事
  6
CONTINUOUS
 62
     7
  0
INSERT
  5
20A
  8
回07-寸法
  6
CONTINUOUS
 62
     5
 66
     1
  2
_OPEN
 10
2501.684674890404
 20
-920.6767207568645
 30
0.0
 41
2.0
 42
2.0
 43
2.0
  0
SEQEND
  5
20B
  8
回08-記事
  6
CONTINUOUS
 62
     7
  0
INSERT
  5
20C
  8
回07-寸法
  6
CONTINUOUS
 62
     5
 66
     1
  2
*X47
 10
0.0
 20
0.0
 30
0.0
  0
SEQEND
  5
476
  8
回08-記事
  6
CONTINUOUS
 62
     7
  0
POINT
  5
20D
  8
DEFPOINTS
  6
CONTINUOUS
 62
     0
 10
2510.384674890405
 20
-979.0970009379444
 30
0.0
  0
POINT
  5
20E
  8
DEFPOINTS
  6
CONTINUOUS
 62
     0
 10
2501.684674890404
 20
-970.897000937944
 30
0.0
  0
POINT
  5
20F
  8
DEFPOINTS
  6
CONTINUOUS
 62
     0
 10
2501.684674890404
 20
-920.6767207568645
 30
0.0
  0
ENDBLK
  5
210
  8
0
 62
     7
  0
BLOCK
  8
0
  2
*D11
 70
     1
 10
0.0
 20
0.0
 30
0.0
  3
*D11
  1

  0
LINE
  5
1F2
  8
回07-寸法
  6
CONTINUOUS
 62
     5
 10
2821.984674890406
 20
-979.0970009379448
 30
0.0
 11
2918.81846793035
 21
-979.0970009379448
 31
0.0
  0
LINE
  5
1F3
  8
回07-寸法
  6
CONTINUOUS
 62
     5
 10
2826.684674890405
 20
-970.8970009379445
 30
0.0
 11
2918.81846793035
 21
-970.8970009379445
 31
0.0
  0
LINE
  5
1F4
  8
回07-寸法
  6
CONTINUOUS
 62
     5
 10
2917.818467930351
 20
-981.0970009379447
 30
0.0
 11
2917.818467930351
 21
-983.0970009379448
 31
0.0
  0
LINE
  5
1F5
  8
回07-寸法
  6
CONTINUOUS
 62
     5
 10
2917.818467930351
 20
-968.8970009379445
 30
0.0
 11
2917.818467930351
 21
-901.3562198355824
 31
0.0
  0
LINE
  5
1F6
  8
回07-寸法
  6
CONTINUOUS
 62
     5
 10
2917.818467930351
 20
-979.0970009379448
 30
0.0
 11
2917.818467930351
 21
-970.8970009379445
 31
0.0
  0
INSERT
  5
1F7
  8
回07-寸法
  6
CONTINUOUS
 62
     5
 66
     1
  2
_OPEN
 10
2917.818467930351
 20
-979.0970009379448
 30
0.0
 41
2.0
 42
2.0
 43
2.0
 50
90.0
  0
SEQEND
  5
1F8
  8
回08-記事
  6
CONTINUOUS
 62
     7
  0
INSERT
  5
1F9
  8
回07-寸法
  6
CONTINUOUS
 62
     5
 66
     1
  2
_OPEN
 10
2917.818467930351
 20
-970.8970009379445
 30
0.0
 41
2.0
 42
2.0
 43
2.0
 50
270.0
  0
SEQEND
  5
1FA
  8
回08-記事
  6
CONTINUOUS
 62
     7
  0
INSERT
  5
1FB
  8
回07-寸法
  6
CONTINUOUS
 62
     5
 66
     1
  2
*X48
 10
0.0
 20
0.0
 30
0.0
  0
SEQEND
  5
47C
  8
回08-記事
  6
CONTINUOUS
 62
     7
  0
POINT
  5
1FC
  8
DEFPOINTS
  6
CONTINUOUS
 62
     0
 10
2821.984674890406
 20
-979.0970009379448
 30
0.0
  0
POINT
  5
1FD
  8
DEFPOINTS
  6
CONTINUOUS
 62
     0
 10
2826.684674890405
 20
-970.8970009379445
 30
0.0
  0
POINT
  5
1FE
  8
DEFPOINTS
  6
CONTINUOUS
 62
     0
 10
2917.818467930351
 20
-970.8970009379445
 30
0.0
  0
ENDBLK
  5
1FF
  8
0
 62
     7
  0
BLOCK
  8
0
  2
*D12
 70
     1
 10
0.0
 20
0.0
 30
0.0
  3
*D12
  1

  0
LINE
  5
1E0
  8
回07-寸法
  6
CONTINUOUS
 62
     5
 10
2513.684674890404
 20
-982.3970009379436
 30
0.0
 11
2513.684674890404
 21
-949.0495116440525
 31
0.0
  0
LINE
  5
1E1
  8
回07-寸法
  6
CONTINUOUS
 62
     5
 10
2501.684674890404
 20
-971.8970009379441
 30
0.0
 11
2501.684674890404
 21
-949.0495116440525
 31
0.0
  0
LINE
  5
1E2
  8
回07-寸法
  6
CONTINUOUS
 62
     5
 10
2515.684674890405
 20
-950.0495116440525
 30
0.0
 11
2517.684674890404
 21
-950.0495116440525
 31
0.0
  0
LINE
  5
1E3
  8
回07-寸法
  6
CONTINUOUS
 62
     5
 10
2499.684674890405
 20
-950.0495116440525
 30
0.0
 11
2469.184674890405
 21
-950.0495116440525
 31
0.0
  0
LINE
  5
1E4
  8
回07-寸法
  6
CONTINUOUS
 62
     5
 10
2513.684674890404
 20
-950.0495116440525
 30
0.0
 11
2501.684674890404
 21
-950.0495116440525
 31
0.0
  0
INSERT
  5
1E5
  8
回07-寸法
  6
CONTINUOUS
 62
     5
 66
     1
  2
_OPEN
 10
2513.684674890404
 20
-950.0495116440525
 30
0.0
 41
2.0
 42
2.0
 43
2.0
 50
180.0
  0
SEQEND
  5
1E6
  8
回08-記事
  6
CONTINUOUS
 62
     7
  0
INSERT
  5
1E7
  8
回07-寸法
  6
CONTINUOUS
 62
     5
 66
     1
  2
_OPEN
 10
2501.684674890404
 20
-950.0495116440525
 30
0.0
 41
2.0
 42
2.0
 43
2.0
  0
SEQEND
  5
1E8
  8
回08-記事
  6
CONTINUOUS
 62
     7
  0
TEXT
  5
1E9
  8
回07-寸法
  6
CONTINUOUS
 62
     5
 10
2468.934674890405
 20
-949.2995116440525
 30
0.0
 40
5.0
  1
12 [0.472]
1001
ACAD
1000
MTEXTBEGIN
1070
    73
1070
     1
1070
    44
1040
1.0
1070
    74
1070
     0
1000
MTEXTEND
  0
POINT
  5
1EA
  8
DEFPOINTS
  6
CONTINUOUS
 62
     0
 10
2513.684674890404
 20
-982.3970009379436
 30
0.0
  0
POINT
  5
1EB
  8
DEFPOINTS
  6
CONTINUOUS
 62
     0
 10
2501.684674890404
 20
-971.8970009379441
 30
0.0
  0
POINT
  5
1EC
  8
DEFPOINTS
  6
CONTINUOUS
 62
     0
 10
2501.684674890404
 20
-950.0495116440525
 30
0.0
  0
ENDBLK
  5
1ED
  8
0
 62
     7
  0
BLOCK
  8
0
  2
*D13
 70
     1
 10
0.0
 20
0.0
 30
0.0
  3
*D13
  1

  0
LINE
  5
1CF
  8
回07-寸法
  6
CONTINUOUS
 62
     5
 10
2511.684674890405
 20
-980.3970009379437
 30
0.0
 11
2511.684674890405
 21
-933.0798448488948
 31
0.0
  0
LINE
  5
1D0
  8
回07-寸法
  6
CONTINUOUS
 62
     5
 10
2501.684674890404
 20
-971.8970009379441
 30
0.0
 11
2501.684674890404
 21
-933.0798448488948
 31
0.0
  0
LINE
  5
1D1
  8
回07-寸法
  6
CONTINUOUS
 62
     5
 10
2513.684674890404
 20
-934.079844848895
 30
0.0
 11
2515.684674890405
 21
-934.079844848895
 31
0.0
  0
LINE
  5
1D2
  8
回07-寸法
  6
CONTINUOUS
 62
     5
 10
2499.684674890405
 20
-934.079844848895
 30
0.0
 11
2469.167203237934
 21
-934.079844848895
 31
0.0
  0
LINE
  5
1D3
  8
回07-寸法
  6
CONTINUOUS
 62
     5
 10
2511.684674890405
 20
-934.079844848895
 30
0.0
 11
2501.684674890404
 21
-934.079844848895
 31
0.0
  0
INSERT
  5
1D4
  8
回07-寸法
  6
CONTINUOUS
 62
     5
 66
     1
  2
_OPEN
 10
2511.684674890405
 20
-934.079844848895
 30
0.0
 41
2.0
 42
2.0
 43
2.0
 50
180.0
  0
SEQEND
  5
1D5
  8
回08-記事
  6
CONTINUOUS
 62
     7
  0
INSERT
  5
1D6
  8
回07-寸法
  6
CONTINUOUS
 62
     5
 66
     1
  2
_OPEN
 10
2501.684674890404
 20
-934.079844848895
 30
0.0
 41
2.0
 42
2.0
 43
2.0
  0
SEQEND
  5
1D7
  8
回08-記事
  6
CONTINUOUS
 62
     7
  0
TEXT
  5
1D8
  8
回07-寸法
  6
CONTINUOUS
 62
     5
 10
2468.916913142852
 20
-933.3299446923987
 30
0.0
 40
5.0
  1
10 [0.394]
1001
ACAD
1000
MTEXTBEGIN
1070
    73
1070
     1
1070
    44
1040
1.0
1070
    74
1070
     0
1000
MTEXTEND
  0
POINT
  5
1D9
  8
DEFPOINTS
  6
CONTINUOUS
 62
     0
 10
2511.684674890405
 20
-980.3970009379437
 30
0.0
  0
POINT
  5
1DA
  8
DEFPOINTS
  6
CONTINUOUS
 62
     0
 10
2501.684674890404
 20
-971.8970009379441
 30
0.0
  0
POINT
  5
1DB
  8
DEFPOINTS
  6
CONTINUOUS
 62
     0
 10
2501.684674890404
 20
-934.079844848895
 30
0.0
  0
ENDBLK
  5
1DC
  8
0
 62
     7
  0
BLOCK
  8
0
  2
*D14
 70
     1
 10
0.0
 20
0.0
 30
0.0
  3
*D14
  1

  0
LINE
  5
1BE
  8
回07-寸法
  6
CONTINUOUS
 62
     5
 10
2818.684674890405
 20
-982.3970009379436
 30
0.0
 11
2818.684674890405
 21
-949.0495116440525
 31
0.0
  0
LINE
  5
1BF
  8
回07-寸法
  6
CONTINUOUS
 62
     5
 10
2829.684674890405
 20
-973.8970009379436
 30
0.0
 11
2829.684674890405
 21
-949.0495116440525
 31
0.0
  0
LINE
  5
1C0
  8
回07-寸法
  6
CONTINUOUS
 62
     5
 10
2816.684674890405
 20
-950.0495116440525
 30
0.0
 11
2814.684674890404
 21
-950.0495116440525
 31
0.0
  0
LINE
  5
1C1
  8
回07-寸法
  6
CONTINUOUS
 62
     5
 10
2831.684674890404
 20
-950.0495116440525
 30
0.0
 11
2865.180737882531
 21
-950.0495116440525
 31
0.0
  0
LINE
  5
1C2
  8
回07-寸法
  6
CONTINUOUS
 62
     5
 10
2818.684674890405
 20
-950.0495116440525
 30
0.0
 11
2829.684674890405
 21
-950.0495116440525
 31
0.0
  0
INSERT
  5
1C3
  8
回07-寸法
  6
CONTINUOUS
 62
     5
 66
     1
  2
_OPEN
 10
2818.684674890405
 20
-950.0495116440525
 30
0.0
 41
2.0
 42
2.0
 43
2.0
  0
SEQEND
  5
1C4
  8
回08-記事
  6
CONTINUOUS
 62
     7
  0
INSERT
  5
1C5
  8
回07-寸法
  6
CONTINUOUS
 62
     5
 66
     1
  2
_OPEN
 10
2829.684674890405
 20
-950.0495116440525
 30
0.0
 41
2.0
 42
2.0
 43
2.0
 50
180.0
  0
SEQEND
  5
1C6
  8
回08-記事
  6
CONTINUOUS
 62
     7
  0
TEXT
  5
1C7
  8
回07-寸法
  6
CONTINUOUS
 62
     5
 10
2833.432706386468
 20
-949.2995116440525
 30
0.0
 40
5.0
  1
(11 [0.433])
1001
ACAD
1000
MTEXTBEGIN
1070
    73
1070
     1
1070
    44
1040
1.0
1070
    74
1070
     0
1000
MTEXTEND
  0
POINT
  5
1C8
  8
DEFPOINTS
  6
CONTINUOUS
 62
     0
 10
2818.684674890405
 20
-982.3970009379436
 30
0.0
  0
POINT
  5
1C9
  8
DEFPOINTS
  6
CONTINUOUS
 62
     0
 10
2829.684674890405
 20
-973.8970009379436
 30
0.0
  0
POINT
  5
1CA
  8
DEFPOINTS
  6
CONTINUOUS
 62
     0
 10
2829.684674890405
 20
-950.0495116440525
 30
0.0
  0
ENDBLK
  5
1CB
  8
0
 62
     7
  0
BLOCK
  8
0
  2
*D15
 70
     1
 10
0.0
 20
0.0
 30
0.0
  3
*D15
  1

  0
LINE
  5
1AD
  8
回07-寸法
  6
CONTINUOUS
 62
     5
 10
2820.684674890405
 20
-980.3970009379437
 30
0.0
 11
2820.684674890405
 21
-933.0798448488948
 31
0.0
  0
LINE
  5
1AE
  8
回07-寸法
  6
CONTINUOUS
 62
     5
 10
2829.684674890405
 20
-973.8970009379436
 30
0.0
 11
2829.684674890405
 21
-933.0798448488948
 31
0.0
  0
LINE
  5
1AF
  8
回07-寸法
  6
CONTINUOUS
 62
     5
 10
2818.684674890405
 20
-934.079844848895
 30
0.0
 11
2816.684674890405
 21
-934.079844848895
 31
0.0
  0
LINE
  5
1B0
  8
回07-寸法
  6
CONTINUOUS
 62
     5
 10
2831.684674890404
 20
-934.079844848895
 30
0.0
 11
2863.698209535002
 21
-934.079844848895
 31
0.0
  0
LINE
  5
1B1
  8
回07-寸法
  6
CONTINUOUS
 62
     5
 10
2820.684674890405
 20
-934.079844848895
 30
0.0
 11
2829.684674890405
 21
-934.079844848895
 31
0.0
  0
INSERT
  5
1B2
  8
回07-寸法
  6
CONTINUOUS
 62
     5
 66
     1
  2
_OPEN
 10
2820.684674890405
 20
-934.079844848895
 30
0.0
 41
2.0
 42
2.0
 43
2.0
  0
SEQEND
  5
1B3
  8
回08-記事
  6
CONTINUOUS
 62
     7
  0
INSERT
  5
1B4
  8
回07-寸法
  6
CONTINUOUS
 62
     5
 66
     1
  2
_OPEN
 10
2829.684674890405
 20
-934.079844848895
 30
0.0
 41
2.0
 42
2.0
 43
2.0
 50
180.0
  0
SEQEND
  5
1B5
  8
回08-記事
  6
CONTINUOUS
 62
     7
  0
TEXT
  5
1B6
  8
回07-寸法
  6
CONTINUOUS
 62
     5
 10
2833.432416291386
 20
-933.3286364513456
 30
0.0
 40
5.0
  1
(9 [0.354])
1001
ACAD
1000
MTEXTBEGIN
1070
    73
1070
     1
1070
    44
1040
1.0
1070
    74
1070
     0
1000
MTEXTEND
  0
POINT
  5
1B7
  8
DEFPOINTS
  6
CONTINUOUS
 62
     0
 10
2820.684674890405
 20
-980.3970009379437
 30
0.0
  0
POINT
  5
1B8
  8
DEFPOINTS
  6
CONTINUOUS
 62
     0
 10
2829.684674890405
 20
-973.8970009379436
 30
0.0
  0
POINT
  5
1B9
  8
DEFPOINTS
  6
CONTINUOUS
 62
     0
 10
2829.684674890405
 20
-934.079844848895
 30
0.0
  0
ENDBLK
  5
1BA
  8
0
 62
     7
  0
BLOCK
  8
0
  2
*D16
 70
     1
 10
0.0
 20
0.0
 30
0.0
  3
*D16
  1

  0
LINE
  5
19C
  8
回07-寸法
  6
CONTINUOUS
 62
     5
 10
2818.684674890406
 20
-982.397000937944
 30
0.0
 11
2879.184257885931
 21
-982.397000937944
 31
0.0
  0
LINE
  5
19D
  8
回07-寸法
  6
CONTINUOUS
 62
     5
 10
2826.684674890405
 20
-970.8970009379445
 30
0.0
 11
2879.184257885931
 21
-970.8970009379445
 31
0.0
  0
LINE
  5
19E
  8
回07-寸法
  6
CONTINUOUS
 62
     5
 10
2878.184257885931
 20
-984.3970009379441
 30
0.0
 11
2878.184257885931
 21
-986.3970009379441
 31
0.0
  0
LINE
  5
19F
  8
回07-寸法
  6
CONTINUOUS
 62
     5
 10
2878.184257885931
 20
-968.8970009379445
 30
0.0
 11
2878.184257885931
 21
-930.400937945817
 31
0.0
  0
LINE
  5
1A0
  8
回07-寸法
  6
CONTINUOUS
 62
     5
 10
2878.184257885931
 20
-982.397000937944
 30
0.0
 11
2878.184257885931
 21
-970.8970009379445
 31
0.0
  0
INSERT
  5
1A1
  8
回07-寸法
  6
CONTINUOUS
 62
     5
 66
     1
  2
_OPEN
 10
2878.184257885931
 20
-982.397000937944
 30
0.0
 41
2.0
 42
2.0
 43
2.0
 50
90.0
  0
SEQEND
  5
1A2
  8
回08-記事
  6
CONTINUOUS
 62
     7
  0
INSERT
  5
1A3
  8
回07-寸法
  6
CONTINUOUS
 62
     5
 66
     1
  2
_OPEN
 10
2878.184257885931
 20
-970.8970009379445
 30
0.0
 41
2.0
 42
2.0
 43
2.0
 50
270.0
  0
SEQEND
  5
1A4
  8
回08-記事
  6
CONTINUOUS
 62
     7
  0
TEXT
  5
1A5
  8
回07-寸法
  6
CONTINUOUS
 62
     5
 10
2877.43425788593
 20
-967.1489694418806
 30
0.0
 40
5.0
  1
(11.5 [0.453])
 50
90.0
1001
ACAD
1000
MTEXTBEGIN
1070
    73
1070
     1
1070
    44
1040
1.0
1070
    74
1070
     0
1000
MTEXTEND
  0
POINT
  5
1A6
  8
DEFPOINTS
  6
CONTINUOUS
 62
     0
 10
2818.684674890406
 20
-982.397000937944
 30
0.0
  0
POINT
  5
1A7
  8
DEFPOINTS
  6
CONTINUOUS
 62
     0
 10
2826.684674890405
 20
-970.8970009379445
 30
0.0
  0
POINT
  5
1A8
  8
DEFPOINTS
  6
CONTINUOUS
 62
     0
 10
2878.184257885931
 20
-970.8970009379445
 30
0.0
  0
ENDBLK
  5
1A9
  8
0
 62
     7
  0
BLOCK
  8
0
  2
*D17
 70
     1
 10
0.0
 20
0.0
 30
0.0
  3
*D17
  1

  0
LINE
  5
18B
  8
回07-寸法
  6
CONTINUOUS
 62
     5
 10
2820.684674890406
 20
-980.397000937944
 30
0.0
 11
2900.416869589481
 21
-980.397000937944
 31
0.0
  0
LINE
  5
18C
  8
回07-寸法
  6
CONTINUOUS
 62
     5
 10
2826.684674890405
 20
-970.8970009379445
 30
0.0
 11
2900.416869589481
 21
-970.8970009379445
 31
0.0
  0
LINE
  5
18D
  8
回07-寸法
  6
CONTINUOUS
 62
     5
 10
2899.416869589481
 20
-982.397000937944
 30
0.0
 11
2899.416869589481
 21
-984.3970009379441
 31
0.0
  0
LINE
  5
18E
  8
回07-寸法
  6
CONTINUOUS
 62
     5
 10
2899.416869589481
 20
-968.8970009379445
 30
0.0
 11
2899.416869589481
 21
-931.8834662933456
 31
0.0
  0
LINE
  5
18F
  8
回07-寸法
  6
CONTINUOUS
 62
     5
 10
2899.416869589481
 20
-980.397000937944
 30
0.0
 11
2899.416869589481
 21
-970.8970009379445
 31
0.0
  0
INSERT
  5
190
  8
回07-寸法
  6
CONTINUOUS
 62
     5
 66
     1
  2
_OPEN
 10
2899.416869589481
 20
-980.397000937944
 30
0.0
 41
2.0
 42
2.0
 43
2.0
 50
90.0
  0
SEQEND
  5
191
  8
回08-記事
  6
CONTINUOUS
 62
     7
  0
INSERT
  5
192
  8
回07-寸法
  6
CONTINUOUS
 62
     5
 66
     1
  2
_OPEN
 10
2899.416869589481
 20
-970.8970009379445
 30
0.0
 41
2.0
 42
2.0
 43
2.0
 50
270.0
  0
SEQEND
  5
193
  8
回08-記事
  6
CONTINUOUS
 62
     7
  0
TEXT
  5
194
  8
回07-寸法
  6
CONTINUOUS
 62
     5
 10
2898.665661191931
 20
-967.1492595369622
 30
0.0
 40
5.0
  1
(9.5 [0.374])
 50
90.0
1001
ACAD
1000
MTEXTBEGIN
1070
    73
1070
     1
1070
    44
1040
1.0
1070
    74
1070
     0
1000
MTEXTEND
  0
POINT
  5
195
  8
DEFPOINTS
  6
CONTINUOUS
 62
     0
 10
2820.684674890406
 20
-980.397000937944
 30
0.0
  0
POINT
  5
196
  8
DEFPOINTS
  6
CONTINUOUS
 62
     0
 10
2826.684674890405
 20
-970.8970009379445
 30
0.0
  0
POINT
  5
197
  8
DEFPOINTS
  6
CONTINUOUS
 62
     0
 10
2899.416869589481
 20
-970.8970009379445
 30
0.0
  0
ENDBLK
  5
198
  8
0
 62
     7
  0
BLOCK
  8
0
  2
*D18
 70
     1
 10
0.0
 20
0.0
 30
0.0
  3
*D18
  1

  0
LINE
  5
17A
  8
回07-寸法
  6
CONTINUOUS
 62
     5
 10
2818.684674890406
 20
-1211.397000937944
 30
0.0
 11
2879.184257885932
 21
-1211.397000937944
 31
0.0
  0
LINE
  5
17B
  8
回07-寸法
  6
CONTINUOUS
 62
     5
 10
2828.684674890406
 20
-1222.897000937944
 30
0.0
 11
2879.184257885932
 21
-1222.897000937944
 31
0.0
  0
LINE
  5
17C
  8
回07-寸法
  6
CONTINUOUS
 62
     5
 10
2878.184257885932
 20
-1209.397000937944
 30
0.0
 11
2878.184257885932
 21
-1207.397000937944
 31
0.0
  0
LINE
  5
17D
  8
回07-寸法
  6
CONTINUOUS
 62
     5
 10
2878.184257885932
 20
-1224.897000937944
 30
0.0
 11
2878.184257885932
 21
-1259.397000937944
 31
0.0
  0
LINE
  5
17E
  8
回07-寸法
  6
CONTINUOUS
 62
     5
 10
2878.184257885932
 20
-1211.397000937944
 30
0.0
 11
2878.184257885932
 21
-1222.897000937944
 31
0.0
  0
INSERT
  5
17F
  8
回07-寸法
  6
CONTINUOUS
 62
     5
 66
     1
  2
_OPEN
 10
2878.184257885932
 20
-1211.397000937944
 30
0.0
 41
2.0
 42
2.0
 43
2.0
 50
270.0
  0
SEQEND
  5
180
  8
回08-記事
  6
CONTINUOUS
 62
     7
  0
INSERT
  5
181
  8
回07-寸法
  6
CONTINUOUS
 62
     5
 66
     1
  2
_OPEN
 10
2878.184257885932
 20
-1222.897000937944
 30
0.0
 41
2.0
 42
2.0
 43
2.0
 50
90.0
  0
SEQEND
  5
182
  8
回08-記事
  6
CONTINUOUS
 62
     7
  0
TEXT
  5
183
  8
回07-寸法
  6
CONTINUOUS
 62
     5
 10
2877.43425788593
 20
-1259.647000937944
 30
0.0
 40
5.0
  1
11.5 [0.453]
 50
90.0
1001
ACAD
1000
MTEXTBEGIN
1070
    73
1070
     1
1070
    44
1040
1.0
1070
    74
1070
     0
1000
MTEXTEND
  0
POINT
  5
184
  8
DEFPOINTS
  6
CONTINUOUS
 62
     0
 10
2818.684674890406
 20
-1211.397000937944
 30
0.0
  0
POINT
  5
185
  8
DEFPOINTS
  6
CONTINUOUS
 62
     0
 10
2828.684674890406
 20
-1222.897000937944
 30
0.0
  0
POINT
  5
186
  8
DEFPOINTS
  6
CONTINUOUS
 62
     0
 10
2878.184257885932
 20
-1222.897000937944
 30
0.0
  0
ENDBLK
  5
187
  8
0
 62
     7
  0
BLOCK
  8
0
  2
*D19
 70
     1
 10
0.0
 20
0.0
 30
0.0
  3
*D19
  1

  0
LINE
  5
14F
  8
回07-寸法
  6
CONTINUOUS
 62
     5
 10
2426.684674890405
 20
-1094.90203138025
 30
0.0
 11
2426.684674890405
 21
-1053.215918632047
 31
0.0
  0
LINE
  5
150
  8
回07-寸法
  6
CONTINUOUS
 62
     5
 10
2501.684674890404
 20
-1088.224907035783
 30
0.0
 11
2501.684674890404
 21
-1053.215918632047
 31
0.0
  0
LINE
  5
151
  8
回07-寸法
  6
CONTINUOUS
 62
     5
 10
2428.684674890405
 20
-1054.215918632046
 30
0.0
 11
2499.684674890405
 21
-1054.215918632046
 31
0.0
  0
INSERT
  5
152
  8
回07-寸法
  6
CONTINUOUS
 62
     5
 66
     1
  2
_OPEN
 10
2426.684674890405
 20
-1054.215918632046
 30
0.0
 41
2.0
 42
2.0
 43
2.0
 50
180.0
  0
SEQEND
  5
153
  8
回08-記事
  6
CONTINUOUS
 62
     7
  0
INSERT
  5
154
  8
回07-寸法
  6
CONTINUOUS
 62
     5
 66
     1
  2
_OPEN
 10
2501.684674890404
 20
-1054.215918632046
 30
0.0
 41
2.0
 42
2.0
 43
2.0
  0
SEQEND
  5
155
  8
回08-記事
  6
CONTINUOUS
 62
     7
  0
TEXT
  5
156
  8
回07-寸法
  6
CONTINUOUS
 62
     5
 10
2443.92368046515
 20
-1053.466018475551
 30
0.0
 40
5.0
  1
75 [2.953]±1.0
1001
ACAD
1000
MTEXTBEGIN
1070
    73
1070
     1
1070
    44
1040
1.0
1070
    74
1070
     0
1000
MTEXTEND
  0
POINT
  5
157
  8
DEFPOINTS
  6
CONTINUOUS
 62
     0
 10
2426.684674890405
 20
-1094.90203138025
 30
0.0
  0
POINT
  5
158
  8
DEFPOINTS
  6
CONTINUOUS
 62
     0
 10
2501.684674890404
 20
-1088.224907035783
 30
0.0
  0
POINT
  5
159
  8
DEFPOINTS
  6
CONTINUOUS
 62
     0
 10
2501.684674890404
 20
-1054.215918632046
 30
0.0
  0
ENDBLK
  5
15A
  8
0
 62
     7
  0
BLOCK
  8
0
  2
*D20
 70
     1
 10
0.0
 20
0.0
 30
0.0
  3
*D20
  1

  0
LINE
  5
140
  8
回07-寸法
  6
CONTINUOUS
 62
     5
 10
2427.184674890405
 20
-1094.40203138025
 30
0.0
 11
2404.355446352176
 21
-1094.40203138025
 31
0.0
  0
LINE
  5
141
  8
回07-寸法
  6
CONTINUOUS
 62
     5
 10
2502.684674890405
 20
-970.897000937944
 30
0.0
 11
2404.355446352176
 21
-970.897000937944
 31
0.0
  0
LINE
  5
142
  8
回07-寸法
  6
CONTINUOUS
 62
     5
 10
2405.355446352176
 20
-1092.40203138025
 30
0.0
 11
2405.355446352176
 21
-972.8970009379441
 31
0.0
  0
INSERT
  5
143
  8
回07-寸法
  6
CONTINUOUS
 62
     5
 66
     1
  2
_OPEN
 10
2405.355446352176
 20
-1094.40203138025
 30
0.0
 41
2.0
 42
2.0
 43
2.0
 50
270.0
  0
SEQEND
  5
144
  8
回08-記事
  6
CONTINUOUS
 62
     7
  0
INSERT
  5
145
  8
回07-寸法
  6
CONTINUOUS
 62
     5
 66
     1
  2
_OPEN
 10
2405.355446352176
 20
-970.897000937944
 30
0.0
 41
2.0
 42
2.0
 43
2.0
 50
90.0
  0
SEQEND
  5
146
  8
回08-記事
  6
CONTINUOUS
 62
     7
  0
TEXT
  5
147
  8
回07-寸法
  6
CONTINUOUS
 62
     5
 10
2404.605446352176
 20
-1054.649516159096
 30
0.0
 40
5.0
  1
(123.51 [4.862])
 50
90.0
1001
ACAD
1000
MTEXTBEGIN
1070
    73
1070
     1
1070
    44
1040
1.0
1070
    74
1070
     0
1000
MTEXTEND
  0
POINT
  5
148
  8
DEFPOINTS
  6
CONTINUOUS
 62
     0
 10
2427.184674890405
 20
-1094.40203138025
 30
0.0
  0
POINT
  5
149
  8
DEFPOINTS
  6
CONTINUOUS
 62
     0
 10
2502.684674890405
 20
-970.897000937944
 30
0.0
  0
POINT
  5
14A
  8
DEFPOINTS
  6
CONTINUOUS
 62
     0
 10
2405.355446352176
 20
-970.897000937944
 30
0.0
  0
ENDBLK
  5
14B
  8
0
 62
     7
  0
BLOCK
  8
0
  2
*D21
 70
     1
 10
0.0
 20
0.0
 30
0.0
  3
*D21
  1

  0
LINE
  5
12F
  8
回07-寸法
  6
CONTINUOUS
 62
     5
 10
2497.496918567747
 20
-1088.902031380251
 30
0.0
 11
2468.803362974911
 21
-1088.902031380251
 31
0.0
  0
LINE
  5
130
  8
回07-寸法
  6
CONTINUOUS
 62
     5
 10
2497.496918567747
 20
-1104.902031380252
 30
0.0
 11
2468.803362974911
 21
-1104.902031380252
 31
0.0
  0
LINE
  5
131
  8
回07-寸法
  6
CONTINUOUS
 62
     5
 10
2469.803362974911
 20
-1106.902031380252
 30
0.0
 11
2469.803362974911
 21
-1108.902031380251
 31
0.0
  0
LINE
  5
132
  8
回07-寸法
  6
CONTINUOUS
 62
     5
 10
2469.803362974911
 20
-1086.90203138025
 30
0.0
 11
2469.803362974911
 21
-1056.902031380249
 31
0.0
  0
LINE
  5
133
  8
回07-寸法
  6
CONTINUOUS
 62
     5
 10
2469.803362974911
 20
-1104.902031380252
 30
0.0
 11
2469.803362974911
 21
-1088.902031380251
 31
0.0
  0
INSERT
  5
134
  8
回07-寸法
  6
CONTINUOUS
 62
     5
 66
     1
  2
_OPEN
 10
2469.803362974911
 20
-1104.902031380252
 30
0.0
 41
2.0
 42
2.0
 43
2.0
 50
90.0
  0
SEQEND
  5
135
  8
回08-記事
  6
CONTINUOUS
 62
     7
  0
INSERT
  5
136
  8
回07-寸法
  6
CONTINUOUS
 62
     5
 66
     1
  2
_OPEN
 10
2469.803362974911
 20
-1088.902031380251
 30
0.0
 41
2.0
 42
2.0
 43
2.0
 50
270.0
  0
SEQEND
  5
137
  8
回08-記事
  6
CONTINUOUS
 62
     7
  0
TEXT
  5
138
  8
回07-寸法
  6
CONTINUOUS
 62
     5
 10
2469.05336297491
 20
-1085.15203138025
 30
0.0
 40
5.0
  1
16 [0.630]
 50
90.0
1001
ACAD
1000
MTEXTBEGIN
1070
    73
1070
     1
1070
    44
1040
1.0
1070
    74
1070
     0
1000
MTEXTEND
  0
POINT
  5
139
  8
DEFPOINTS
  6
CONTINUOUS
 62
     0
 10
2497.496918567747
 20
-1088.902031380251
 30
0.0
  0
POINT
  5
13A
  8
DEFPOINTS
  6
CONTINUOUS
 62
     0
 10
2497.496918567747
 20
-1104.902031380252
 30
0.0
  0
POINT
  5
13B
  8
DEFPOINTS
  6
CONTINUOUS
 62
     0
 10
2469.803362974911
 20
-1104.902031380252
 30
0.0
  0
ENDBLK
  5
13C
  8
0
 62
     7
  0
BLOCK
  8
0
  2
*D22
 70
     1
 10
0.0
 20
0.0
 30
0.0
  3
*D22
  1

  0
LINE
  5
11E
  8
回07-寸法
  6
CONTINUOUS
 62
     5
 10
2501.684674890404
 20
-1105.579155724718
 30
0.0
 11
2501.684674890404
 21
-1120.434030350534
 31
0.0
  0
LINE
  5
11F
  8
回07-寸法
  6
CONTINUOUS
 62
     5
 10
2497.083898063929
 20
-1104.902031380251
 30
0.0
 11
2497.083898063929
 21
-1120.434030350534
 31
0.0
  0
LINE
  5
120
  8
回07-寸法
  6
CONTINUOUS
 62
     5
 10
2503.684674890405
 20
-1119.434030350534
 30
0.0
 11
2505.684674890405
 21
-1119.434030350534
 31
0.0
  0
LINE
  5
121
  8
回07-寸法
  6
CONTINUOUS
 62
     5
 10
2495.08389806393
 20
-1119.434030350534
 30
0.0
 11
2457.772165558026
 21
-1119.434030350534
 31
0.0
  0
LINE
  5
122
  8
回07-寸法
  6
CONTINUOUS
 62
     5
 10
2501.684674890404
 20
-1119.434030350534
 30
0.0
 11
2497.083898063929
 21
-1119.434030350534
 31
0.0
  0
INSERT
  5
123
  8
回07-寸法
  6
CONTINUOUS
 62
     5
 66
     1
  2
_OPEN
 10
2501.684674890404
 20
-1119.434030350534
 30
0.0
 41
2.0
 42
2.0
 43
2.0
 50
180.0
  0
SEQEND
  5
124
  8
回08-記事
  6
CONTINUOUS
 62
     7
  0
INSERT
  5
125
  8
回07-寸法
  6
CONTINUOUS
 62
     5
 66
     1
  2
_OPEN
 10
2497.083898063929
 20
-1119.434030350534
 30
0.0
 41
2.0
 42
2.0
 43
2.0
  0
SEQEND
  5
126
  8
回08-記事
  6
CONTINUOUS
 62
     7
  0
TEXT
  5
127
  8
回07-寸法
  6
CONTINUOUS
 62
     5
 10
2457.522165558027
 20
-1118.684030350534
 30
0.0
 40
5.0
  1
4.6 [0.181]
1001
ACAD
1000
MTEXTBEGIN
1070
    73
1070
     1
1070
    44
1040
1.0
1070
    74
1070
     0
1000
MTEXTEND
  0
POINT
  5
128
  8
DEFPOINTS
  6
CONTINUOUS
 62
     0
 10
2501.684674890404
 20
-1105.579155724718
 30
0.0
  0
POINT
  5
129
  8
DEFPOINTS
  6
CONTINUOUS
 62
     0
 10
2497.083898063929
 20
-1104.902031380251
 30
0.0
  0
POINT
  5
12A
  8
DEFPOINTS
  6
CONTINUOUS
 62
     0
 10
2497.083898063929
 20
-1119.434030350534
 30
0.0
  0
ENDBLK
  5
12B
  8
0
 62
     7
  0
BLOCK
  8
0
  2
*D23
 70
     1
 10
0.0
 20
0.0
 30
0.0
  3
*D23
  1

  0
LINE
  5
10D
  8
回07-寸法
  6
CONTINUOUS
 62
     5
 10
2501.684674890404
 20
-1105.579155724718
 30
0.0
 11
2501.684674890404
 21
-1130.684479412093
 31
0.0
  0
LINE
  5
10E
  8
回07-寸法
  6
CONTINUOUS
 62
     5
 10
2491.561442305269
 20
-1099.402031380249
 30
0.0
 11
2491.561442305269
 21
-1130.684479412093
 31
0.0
  0
LINE
  5
10F
  8
回07-寸法
  6
CONTINUOUS
 62
     5
 10
2503.684674890405
 20
-1129.684479412093
 30
0.0
 11
2505.684674890405
 21
-1129.684479412093
 31
0.0
  0
LINE
  5
110
  8
回07-寸法
  6
CONTINUOUS
 62
     5
 10
2489.561442305268
 20
-1129.684479412093
 30
0.0
 11
2452.026499000325
 21
-1129.684479412093
 31
0.0
  0
LINE
  5
111
  8
回07-寸法
  6
CONTINUOUS
 62
     5
 10
2501.684674890404
 20
-1129.684479412093
 30
0.0
 11
2491.561442305269
 21
-1129.684479412093
 31
0.0
  0
INSERT
  5
112
  8
回07-寸法
  6
CONTINUOUS
 62
     5
 66
     1
  2
_OPEN
 10
2501.684674890404
 20
-1129.684479412093
 30
0.0
 41
2.0
 42
2.0
 43
2.0
 50
180.0
  0
SEQEND
  5
113
  8
回08-記事
  6
CONTINUOUS
 62
     7
  0
INSERT
  5
114
  8
回07-寸法
  6
CONTINUOUS
 62
     5
 66
     1
  2
_OPEN
 10
2491.561442305269
 20
-1129.684479412093
 30
0.0
 41
2.0
 42
2.0
 43
2.0
  0
SEQEND
  5
115
  8
回08-記事
  6
CONTINUOUS
 62
     7
  0
TEXT
  5
116
  8
回07-寸法
  6
CONTINUOUS
 62
     5
 10
2451.775918810162
 20
-1128.934679099101
 30
0.0
 40
5.0
  1
10.12 [0.399]
1001
ACAD
1000
MTEXTBEGIN
1070
    73
1070
     1
1070
    44
1040
1.0
1070
    74
1070
     0
1000
MTEXTEND
  0
POINT
  5
117
  8
DEFPOINTS
  6
CONTINUOUS
 62
     0
 10
2501.684674890404
 20
-1105.579155724718
 30
0.0
  0
POINT
  5
118
  8
DEFPOINTS
  6
CONTINUOUS
 62
     0
 10
2491.561442305269
 20
-1099.402031380249
 30
0.0
  0
POINT
  5
119
  8
DEFPOINTS
  6
CONTINUOUS
 62
     0
 10
2491.561442305269
 20
-1129.684479412093
 30
0.0
  0
ENDBLK
  5
11A
  8
0
 62
     7
  0
BLOCK
  8
0
  2
*D24
 70
     1
 10
0.0
 20
0.0
 30
0.0
  3
*D24
  1

  0
LINE
  5
F4
  8
回07-寸法
  6
CONTINUOUS
 62
     5
 10
2426.684674890405
 20
-1300.228500663465
 30
0.0
 11
2426.684674890405
 21
-1282.869467347575
 31
0.0
  0
LINE
  5
F5
  8
回07-寸法
  6
CONTINUOUS
 62
     5
 10
2436.684674890404
 20
-1300.228500663465
 30
0.0
 11
2436.684674890404
 21
-1282.869467347575
 31
0.0
  0
LINE
  5
F6
  8
回07-寸法
  6
CONTINUOUS
 62
     5
 10
2424.684674890404
 20
-1283.869467347575
 30
0.0
 11
2390.170560055643
 21
-1283.869467347575
 31
0.0
  0
LINE
  5
F7
  8
回07-寸法
  6
CONTINUOUS
 62
     5
 10
2426.684674890405
 20
-1283.869467347575
 30
0.0
 11
2436.684674890404
 21
-1283.869467347575
 31
0.0
  0
LINE
  5
F8
  8
回07-寸法
  6
CONTINUOUS
 62
     5
 10
2438.684674890405
 20
-1283.869467347575
 30
0.0
 11
2440.684674890404
 21
-1283.869467347575
 31
0.0
  0
INSERT
  5
F9
  8
回07-寸法
  6
CONTINUOUS
 62
     5
 66
     1
  2
_OPEN
 10
2426.684674890405
 20
-1283.869467347575
 30
0.0
 41
2.0
 42
2.0
 43
2.0
  0
SEQEND
  5
FA
  8
回08-記事
  6
CONTINUOUS
 62
     7
  0
INSERT
  5
FB
  8
回07-寸法
  6
CONTINUOUS
 62
     5
 66
     1
  2
_OPEN
 10
2436.684674890404
 20
-1283.869467347575
 30
0.0
 41
2.0
 42
2.0
 43
2.0
 50
180.0
  0
SEQEND
  5
FC
  8
回08-記事
  6
CONTINUOUS
 62
     7
  0
TEXT
  5
FD
  8
回07-寸法
  6
CONTINUOUS
 62
     5
 10
2389.918591551706
 20
-1283.119467347575
 30
0.0
 40
5.0
  1
(10 [0.394])
1001
ACAD
1000
MTEXTBEGIN
1070
    73
1070
     1
1070
    44
1040
1.0
1070
    74
1070
     0
1000
MTEXTEND
  0
POINT
  5
FE
  8
DEFPOINTS
  6
CONTINUOUS
 62
     0
 10
2426.684674890405
 20
-1300.228500663465
 30
0.0
  0
POINT
  5
FF
  8
DEFPOINTS
  6
CONTINUOUS
 62
     0
 10
2436.684674890404
 20
-1300.228500663465
 30
0.0
  0
POINT
  5
100
  8
DEFPOINTS
  6
CONTINUOUS
 62
     0
 10
2436.684674890404
 20
-1283.869467347575
 30
0.0
  0
ENDBLK
  5
101
  8
0
 62
     7
  0
BLOCK
  8
0
  2
*D25
 70
     1
 10
0.0
 20
0.0
 30
0.0
  3
*D25
  1

  0
LINE
  5
E3
  8
回07-寸法
  6
CONTINUOUS
 62
     5
 10
2426.684674890405
 20
-1305.468614431221
 30
0.0
 11
2426.684674890405
 21
-1331.076250161262
 31
0.0
  0
LINE
  5
E4
  8
回07-寸法
  6
CONTINUOUS
 62
     5
 10
2431.684674890405
 20
-1306.468614431222
 30
0.0
 11
2431.684674890405
 21
-1331.076250161262
 31
0.0
  0
LINE
  5
E5
  8
回07-寸法
  6
CONTINUOUS
 62
     5
 10
2424.684674890404
 20
-1330.076250161262
 30
0.0
 11
2422.684674890405
 21
-1330.076250161262
 31
0.0
  0
LINE
  5
E6
  8
回07-寸法
  6
CONTINUOUS
 62
     5
 10
2433.684674890404
 20
-1330.076250161262
 30
0.0
 11
2460.202146542876
 21
-1330.076250161262
 31
0.0
  0
LINE
  5
E7
  8
回07-寸法
  6
CONTINUOUS
 62
     5
 10
2426.684674890405
 20
-1330.076250161262
 30
0.0
 11
2431.684674890405
 21
-1330.076250161262
 31
0.0
  0
INSERT
  5
E8
  8
回07-寸法
  6
CONTINUOUS
 62
     5
 66
     1
  2
_OPEN
 10
2426.684674890405
 20
-1330.076250161262
 30
0.0
 41
2.0
 42
2.0
 43
2.0
  0
SEQEND
  5
E9
  8
回08-記事
  6
CONTINUOUS
 62
     7
  0
INSERT
  5
EA
  8
回07-寸法
  6
CONTINUOUS
 62
     5
 66
     1
  2
_OPEN
 10
2431.684674890405
 20
-1330.076250161262
 30
0.0
 41
2.0
 42
2.0
 43
2.0
 50
180.0
  0
SEQEND
  5
EB
  8
回08-記事
  6
CONTINUOUS
 62
     7
  0
TEXT
  5
EC
  8
回07-寸法
  6
CONTINUOUS
 62
     5
 10
2435.434384795323
 20
-1329.326350004766
 30
0.0
 40
5.0
  1
5 [0.197]
1001
ACAD
1000
MTEXTBEGIN
1070
    73
1070
     1
1070
    44
1040
1.0
1070
    74
1070
     0
1000
MTEXTEND
  0
POINT
  5
ED
  8
DEFPOINTS
  6
CONTINUOUS
 62
     0
 10
2426.684674890405
 20
-1305.468614431221
 30
0.0
  0
POINT
  5
EE
  8
DEFPOINTS
  6
CONTINUOUS
 62
     0
 10
2431.684674890405
 20
-1306.468614431222
 30
0.0
  0
POINT
  5
EF
  8
DEFPOINTS
  6
CONTINUOUS
 62
     0
 10
2431.684674890405
 20
-1330.076250161262
 30
0.0
  0
ENDBLK
  5
F0
  8
0
 62
     7
  0
BLOCK
  8
0
  2
*D26
 70
     1
 10
0.0
 20
0.0
 30
0.0
  3
*D26
  1

  0
LINE
  5
D1
  8
回07-寸法
  6
CONTINUOUS
 62
     5
 10
2426.684674890405
 20
-1300.228500663465
 30
0.0
 11
2384.366456362656
 21
-1300.228500663465
 31
0.0
  0
LINE
  5
D3
  8
回07-寸法
  6
CONTINUOUS
 62
     5
 10
2426.684674890405
 20
-1305.468614431221
 30
0.0
 11
2384.366456362656
 21
-1305.468614431221
 31
0.0
  0
LINE
  5
D4
  8
回07-寸法
  6
CONTINUOUS
 62
     5
 10
2385.366456362656
 20
-1298.228500663465
 30
0.0
 11
2385.366456362656
 21
-1245.441463655591
 31
0.0
  0
LINE
  5
D5
  8
回07-寸法
  6
CONTINUOUS
 62
     5
 10
2385.366456362656
 20
-1300.228500663465
 30
0.0
 11
2385.366456362656
 21
-1305.468614431221
 31
0.0
  0
LINE
  5
D6
  8
回07-寸法
  6
CONTINUOUS
 62
     5
 10
2385.366456362656
 20
-1307.468614431222
 30
0.0
 11
2385.366456362656
 21
-1309.468614431222
 31
0.0
  0
INSERT
  5
D7
  8
回07-寸法
  6
CONTINUOUS
 62
     5
 66
     1
  2
_OPEN
 10
2385.366456362656
 20
-1300.228500663465
 30
0.0
 41
2.0
 42
2.0
 43
2.0
 50
270.0
  0
SEQEND
  5
D8
  8
回08-記事
  6
CONTINUOUS
 62
     7
  0
INSERT
  5
D9
  8
回07-寸法
  6
CONTINUOUS
 62
     5
 66
     1
  2
_OPEN
 10
2385.366456362656
 20
-1305.468614431221
 30
0.0
 41
2.0
 42
2.0
 43
2.0
 50
90.0
  0
SEQEND
  5
DA
  8
回08-記事
  6
CONTINUOUS
 62
     7
  0
INSERT
  5
DB
  8
回07-寸法
  6
CONTINUOUS
 62
     5
 66
     1
  2
*X49
 10
0.0
 20
0.0
 30
0.0
  0
SEQEND
  5
485
  8
回08-記事
  6
CONTINUOUS
 62
     7
  0
POINT
  5
DC
  8
DEFPOINTS
  6
CONTINUOUS
 62
     0
 10
2426.684674890405
 20
-1300.228500663465
 30
0.0
  0
POINT
  5
DD
  8
DEFPOINTS
  6
CONTINUOUS
 62
     0
 10
2426.684674890405
 20
-1305.468614431221
 30
0.0
  0
POINT
  5
DE
  8
DEFPOINTS
  6
CONTINUOUS
 62
     0
 10
2385.366456362656
 20
-1305.468614431221
 30
0.0
  0
ENDBLK
  5
DF
  8
0
 62
     7
  0
BLOCK
  8
0
  2
*D27
 70
     1
 10
0.0
 20
0.0
 30
0.0
  3
*D27
  1

  0
LINE
  5
BC
  8
回04-下接
  6
CONTINUOUS
 62
     5
 10
2821.984674890406
 20
-979.0970009379448
 30
0.0
 11
2918.81846793035
 21
-979.0970009379448
 31
0.0
  0
LINE
  5
BD
  8
回04-下接
  6
CONTINUOUS
 62
     5
 10
2821.984674890406
 20
-1214.697000937944
 30
0.0
 11
2918.81846793035
 21
-1214.697000937944
 31
0.0
  0
LINE
  5
BE
  8
回04-下接
  6
CONTINUOUS
 62
     5
 10
2917.81846793035
 20
-981.0970009379447
 30
0.0
 11
2917.81846793035
 21
-1212.697000937944
 31
0.0
  0
INSERT
  5
BF
  8
回04-下接
  6
CONTINUOUS
 62
     5
 66
     1
  2
_OPEN
 10
2917.81846793035
 20
-979.0970009379448
 30
0.0
 41
2.0
 42
2.0
 43
2.0
 50
90.0
  0
SEQEND
  5
C0
  8
回08-記事
  6
CONTINUOUS
 62
     7
  0
INSERT
  5
C1
  8
回04-下接
  6
CONTINUOUS
 62
     5
 66
     1
  2
_OPEN
 10
2917.818467930351
 20
-1214.697000937944
 30
0.0
 41
2.0
 42
2.0
 43
2.0
 50
270.0
  0
SEQEND
  5
C2
  8
回08-記事
  6
CONTINUOUS
 62
     7
  0
TEXT
  5
C3
  8
回04-下接
  6
CONTINUOUS
 62
     5
 10
2917.0672595328
 20
-1115.906026859262
 30
0.0
 40
5.0
  1
235.6 [9.276]
 50
90.0
1001
ACAD
1000
MTEXTBEGIN
1070
    73
1070
     1
1070
    44
1040
1.0
1070
    74
1070
     0
1000
MTEXTEND
  0
POINT
  5
C4
  8
DEFPOINTS
  6
CONTINUOUS
 62
     0
 10
2821.984674890406
 20
-979.0970009379448
 30
0.0
  0
POINT
  5
C5
  8
DEFPOINTS
  6
CONTINUOUS
 62
     0
 10
2821.984674890406
 20
-1214.697000937944
 30
0.0
  0
POINT
  5
C6
  8
DEFPOINTS
  6
CONTINUOUS
 62
     0
 10
2917.818467930351
 20
-1214.697000937944
 30
0.0
  0
ENDBLK
  5
C7
  8
0
 62
     7
  0
BLOCK
  8
0
  2
*D28
 70
     1
 10
0.0
 20
0.0
 30
0.0
  3
*D28
  1

  0
LINE
  5
AB
  8
回04-下接
  6
CONTINUOUS
 62
     5
 10
2821.984674890406
 20
-1214.697000937944
 30
0.0
 11
2918.81846793035
 21
-1214.697000937944
 31
0.0
  0
LINE
  5
AC
  8
回04-下接
  6
CONTINUOUS
 62
     5
 10
2828.684674890406
 20
-1222.897000937944
 30
0.0
 11
2918.81846793035
 21
-1222.897000937944
 31
0.0
  0
LINE
  5
AD
  8
回04-下接
  6
CONTINUOUS
 62
     5
 10
2917.81846793035
 20
-1212.697000937944
 30
0.0
 11
2917.81846793035
 21
-1210.697000937944
 31
0.0
  0
LINE
  5
AE
  8
回04-下接
  6
CONTINUOUS
 62
     5
 10
2917.81846793035
 20
-1224.897000937944
 30
0.0
 11
2917.81846793035
 21
-1292.437782040306
 31
0.0
  0
LINE
  5
AF
  8
回04-下接
  6
CONTINUOUS
 62
     5
 10
2917.81846793035
 20
-1214.697000937944
 30
0.0
 11
2917.81846793035
 21
-1222.897000937944
 31
0.0
  0
INSERT
  5
B0
  8
回04-下接
  6
CONTINUOUS
 62
     5
 66
     1
  2
_OPEN
 10
2917.81846793035
 20
-1214.697000937944
 30
0.0
 41
2.0
 42
2.0
 43
2.0
 50
270.0
  0
SEQEND
  5
B1
  8
回08-記事
  6
CONTINUOUS
 62
     7
  0
INSERT
  5
B2
  8
回04-下接
  6
CONTINUOUS
 62
     5
 66
     1
  2
_OPEN
 10
2917.81846793035
 20
-1222.897000937944
 30
0.0
 41
2.0
 42
2.0
 43
2.0
 50
90.0
  0
SEQEND
  5
B3
  8
回08-記事
  6
CONTINUOUS
 62
     7
  0
INSERT
  5
B4
  8
回04-下接
  6
CONTINUOUS
 62
     5
 66
     1
  2
*X50
 10
0.0
 20
0.0
 30
0.0
  0
SEQEND
  5
48B
  8
回08-記事
  6
CONTINUOUS
 62
     7
  0
POINT
  5
B5
  8
DEFPOINTS
  6
CONTINUOUS
 62
     0
 10
2821.984674890406
 20
-1214.697000937944
 30
0.0
  0
POINT
  5
B6
  8
DEFPOINTS
  6
CONTINUOUS
 62
     0
 10
2828.684674890406
 20
-1222.897000937944
 30
0.0
  0
POINT
  5
B7
  8
DEFPOINTS
  6
CONTINUOUS
 62
     0
 10
2917.81846793035
 20
-1222.897000937944
 30
0.0
  0
ENDBLK
  5
B8
  8
0
 62
     7
  0
BLOCK
  8
0
  2
*D29
 70
     1
 10
0.0
 20
0.0
 30
0.0
  3
*D29
  1

  0
LINE
  5
9C
  8
回04-下接
  6
CONTINUOUS
 62
     5
 10
2820.684674890406
 20
-980.397000937944
 30
0.0
 11
2900.416869589482
 21
-980.397000937944
 31
0.0
  0
LINE
  5
9D
  8
回04-下接
  6
CONTINUOUS
 62
     5
 10
2820.684674890406
 20
-1213.397000937944
 30
0.0
 11
2900.416869589482
 21
-1213.397000937944
 31
0.0
  0
LINE
  5
9E
  8
回04-下接
  6
CONTINUOUS
 62
     5
 10
2899.416869589482
 20
-982.397000937944
 30
0.0
 11
2899.416869589482
 21
-1211.397000937944
 31
0.0
  0
INSERT
  5
9F
  8
回04-下接
  6
CONTINUOUS
 62
     5
 66
     1
  2
_OPEN
 10
2899.416869589482
 20
-980.397000937944
 30
0.0
 41
2.0
 42
2.0
 43
2.0
 50
90.0
  0
SEQEND
  5
A0
  8
回08-記事
  6
CONTINUOUS
 62
     7
  0
INSERT
  5
A1
  8
回04-下接
  6
CONTINUOUS
 62
     5
 66
     1
  2
_OPEN
 10
2899.416869589483
 20
-1213.397000937944
 30
0.0
 41
2.0
 42
2.0
 43
2.0
 50
270.0
  0
SEQEND
  5
A2
  8
回08-記事
  6
CONTINUOUS
 62
     7
  0
TEXT
  5
A3
  8
回04-下接
  6
CONTINUOUS
 62
     5
 10
2898.665661191932
 20
-1136.905042607294
 30
0.0
 40
5.0
  1
233 [9.173](VIEWING AREA)
 50
90.0
1001
ACAD
1000
MTEXTBEGIN
1070
    73
1070
     1
1070
    44
1040
1.0
1070
    74
1070
     0
1000
MTEXTEND
  0
POINT
  5
A4
  8
DEFPOINTS
  6
CONTINUOUS
 62
     0
 10
2820.684674890406
 20
-980.397000937944
 30
0.0
  0
POINT
  5
A5
  8
DEFPOINTS
  6
CONTINUOUS
 62
     0
 10
2820.684674890406
 20
-1213.397000937944
 30
0.0
  0
POINT
  5
A6
  8
DEFPOINTS
  6
CONTINUOUS
 62
     0
 10
2899.416869589483
 20
-1213.397000937944
 30
0.0
  0
ENDBLK
  5
A7
  8
0
 62
     7
  0
BLOCK
  8
0
  2
*D30
 70
     1
 10
0.0
 20
0.0
 30
0.0
  3
*D30
  1

  0
LINE
  5
8B
  8
回04-下接
  6
CONTINUOUS
 62
     5
 10
2820.684674890406
 20
-1213.397000937944
 30
0.0
 11
2900.416869589482
 21
-1213.397000937944
 31
0.0
  0
LINE
  5
8C
  8
回04-下接
  6
CONTINUOUS
 62
     5
 10
2828.684674890406
 20
-1222.897000937944
 30
0.0
 11
2900.416869589482
 21
-1222.897000937944
 31
0.0
  0
LINE
  5
8D
  8
回04-下接
  6
CONTINUOUS
 62
     5
 10
2899.416869589482
 20
-1211.397000937944
 30
0.0
 11
2899.416869589482
 21
-1209.397000937944
 31
0.0
  0
LINE
  5
8E
  8
回04-下接
  6
CONTINUOUS
 62
     5
 10
2899.416869589482
 20
-1224.897000937944
 30
0.0
 11
2899.416869589482
 21
-1258.104107719131
 31
0.0
  0
LINE
  5
8F
  8
回04-下接
  6
CONTINUOUS
 62
     5
 10
2899.416869589482
 20
-1213.397000937944
 30
0.0
 11
2899.416869589482
 21
-1222.897000937944
 31
0.0
  0
INSERT
  5
90
  8
回04-下接
  6
CONTINUOUS
 62
     5
 66
     1
  2
_OPEN
 10
2899.416869589482
 20
-1213.397000937944
 30
0.0
 41
2.0
 42
2.0
 43
2.0
 50
270.0
  0
SEQEND
  5
91
  8
回08-記事
  6
CONTINUOUS
 62
     7
  0
INSERT
  5
92
  8
回04-下接
  6
CONTINUOUS
 62
     5
 66
     1
  2
_OPEN
 10
2899.416869589482
 20
-1222.897000937944
 30
0.0
 41
2.0
 42
2.0
 43
2.0
 50
90.0
  0
SEQEND
  5
93
  8
回08-記事
  6
CONTINUOUS
 62
     7
  0
TEXT
  5
94
  8
回04-下接
  6
CONTINUOUS
 62
     5
 10
2898.666869589481
 20
-1258.268606171173
 30
0.0
 40
5.0
  1
9.5 [0.374]
 50
90.0
1001
ACAD
1000
MTEXTBEGIN
1070
    73
1070
     1
1070
    44
1040
1.0
1070
    74
1070
     0
1000
MTEXTEND
  0
POINT
  5
95
  8
DEFPOINTS
  6
CONTINUOUS
 62
     0
 10
2820.684674890406
 20
-1213.397000937944
 30
0.0
  0
POINT
  5
96
  8
DEFPOINTS
  6
CONTINUOUS
 62
     0
 10
2828.684674890406
 20
-1222.897000937944
 30
0.0
  0
POINT
  5
97
  8
DEFPOINTS
  6
CONTINUOUS
 62
     0
 10
2899.416869589482
 20
-1222.897000937944
 30
0.0
  0
ENDBLK
  5
98
  8
0
 62
     7
  0
BLOCK
  8
0
  2
*D31
 70
     1
 10
0.0
 20
0.0
 30
0.0
  3
*D31
  1

  0
LINE
  5
74
  8
回07-寸法
  6
CONTINUOUS
 62
     5
 10
2427.184674890405
 20
-1094.40203138025
 30
0.0
 11
2412.990943377512
 21
-1094.40203138025
 31
0.0
  0
LINE
  5
75
  8
回07-寸法
  6
CONTINUOUS
 62
     5
 10
2427.184674890405
 20
-1099.40203138025
 30
0.0
 11
2412.990943377512
 21
-1099.40203138025
 31
0.0
  0
LINE
  5
76
  8
回07-寸法
  6
CONTINUOUS
 62
     5
 10
2413.990943377512
 20
-1092.402031380251
 30
0.0
 11
2413.990943377512
 21
-1090.40203138025
 31
0.0
  0
LINE
  5
77
  8
回07-寸法
  6
CONTINUOUS
 62
     5
 10
2413.990943377512
 20
-1101.402031380251
 30
0.0
 11
2413.990943377512
 21
-1149.269503032722
 31
0.0
  0
LINE
  5
78
  8
回07-寸法
  6
CONTINUOUS
 62
     5
 10
2413.990943377512
 20
-1094.40203138025
 30
0.0
 11
2413.990943377512
 21
-1099.40203138025
 31
0.0
  0
INSERT
  5
79
  8
回07-寸法
  6
CONTINUOUS
 62
     5
 66
     1
  2
_OPEN
 10
2413.990943377512
 20
-1094.40203138025
 30
0.0
 41
2.0
 42
2.0
 43
2.0
 50
270.0
  0
SEQEND
  5
7A
  8
回08-記事
  6
CONTINUOUS
 62
     7
  0
INSERT
  5
7B
  8
回07-寸法
  6
CONTINUOUS
 62
     5
 66
     1
  2
_OPEN
 10
2413.990943377512
 20
-1099.40203138025
 30
0.0
 41
2.0
 42
2.0
 43
2.0
 50
90.0
  0
SEQEND
  5
7C
  8
回08-記事
  6
CONTINUOUS
 62
     7
  0
INSERT
  5
7D
  8
回07-寸法
  6
CONTINUOUS
 62
     5
 66
     1
  2
*X51
 10
0.0
 20
0.0
 30
0.0
  0
SEQEND
  5
494
  8
回08-記事
  6
CONTINUOUS
 62
     7
  0
POINT
  5
7E
  8
DEFPOINTS
  6
CONTINUOUS
 62
     0
 10
2427.184674890405
 20
-1094.40203138025
 30
0.0
  0
POINT
  5
80
  8
DEFPOINTS
  6
CONTINUOUS
 62
     0
 10
2427.184674890405
 20
-1099.40203138025
 30
0.0
  0
POINT
  5
81
  8
DEFPOINTS
  6
CONTINUOUS
 62
     0
 10
2413.990943377512
 20
-1099.40203138025
 30
0.0
  0
ENDBLK
  5
82
  8
0
 62
     7
  0
BLOCK
  8
0
  2
*D32
 70
     1
 10
0.0
 20
0.0
 30
0.0
  3
*D32
  1

  0
LINE
  5
2BC
  8
回07-寸法
  6
CONTINUOUS
 62
     5
 10
2829.184674890406
 20
-1300.395720907388
 30
0.0
 11
2843.56106247789
 21
-1300.395720907388
 31
0.0
  0
LINE
  5
2BD
  8
回07-寸法
  6
CONTINUOUS
 62
     5
 10
2829.684674890406
 20
-1309.468614431222
 30
0.0
 11
2843.56106247789
 21
-1309.468614431222
 31
0.0
  0
LINE
  5
2BE
  8
回07-寸法
  6
CONTINUOUS
 62
     5
 10
2842.56106247789
 20
-1298.395720907388
 30
0.0
 11
2842.56106247789
 21
-1296.395720907388
 31
0.0
  0
LINE
  5
2BF
  8
回07-寸法
  6
CONTINUOUS
 62
     5
 10
2842.56106247789
 20
-1311.468614431222
 30
0.0
 11
2842.56106247789
 21
-1360.45835458763
 31
0.0
  0
LINE
  5
2C0
  8
回07-寸法
  6
CONTINUOUS
 62
     5
 10
2842.56106247789
 20
-1300.395720907388
 30
0.0
 11
2842.56106247789
 21
-1309.468614431222
 31
0.0
  0
INSERT
  5
2C1
  8
回07-寸法
  6
CONTINUOUS
 62
     5
 66
     1
  2
_OPEN
 10
2842.56106247789
 20
-1300.395720907388
 30
0.0
 41
2.0
 42
2.0
 43
2.0
 50
270.0
  0
SEQEND
  5
2C2
  8
回08-記事
  6
CONTINUOUS
 62
     7
  0
INSERT
  5
2C3
  8
回07-寸法
  6
CONTINUOUS
 62
     5
 66
     1
  2
_OPEN
 10
2842.56106247789
 20
-1309.468614431222
 30
0.0
 41
2.0
 42
2.0
 43
2.0
 50
90.0
  0
SEQEND
  5
2C4
  8
回08-記事
  6
CONTINUOUS
 62
     7
  0
INSERT
  5
2C5
  8
回07-寸法
  6
CONTINUOUS
 62
     5
 66
     1
  2
*X52
 10
0.0
 20
0.0
 30
0.0
  0
SEQEND
  5
49D
  8
回08-記事
  6
CONTINUOUS
 62
     7
  0
POINT
  5
2C6
  8
DEFPOINTS
  6
CONTINUOUS
 62
     0
 10
2829.184674890406
 20
-1300.395720907388
 30
0.0
  0
POINT
  5
2C7
  8
DEFPOINTS
  6
CONTINUOUS
 62
     0
 10
2829.684674890406
 20
-1309.468614431222
 30
0.0
  0
POINT
  5
2C8
  8
DEFPOINTS
  6
CONTINUOUS
 62
     0
 10
2842.56106247789
 20
-1309.468614431222
 30
0.0
  0
ENDBLK
  5
2C9
  8
0
 62
     7
  0
BLOCK
  8
0
  2
*D33
 70
     1
 10
0.0
 20
0.0
 30
0.0
  3
*D33
  1

  0
LINE
  5
359
  8
回07-寸法
  6
CONTINUOUS
 62
     5
 10
2346.149183758219
 20
-1177.396363181441
 30
0.0
 11
2308.226615350958
 21
-1177.396363181441
 31
0.0
  0
LINE
  5
35A
  8
回07-寸法
  6
CONTINUOUS
 62
     5
 10
2346.149183758219
 20
-1197.396363181441
 30
0.0
 11
2308.226615350958
 21
-1197.396363181441
 31
0.0
  0
LINE
  5
35B
  8
回07-寸法
  6
CONTINUOUS
 62
     5
 10
2309.226615350959
 20
-1175.396363181441
 30
0.0
 11
2309.226615350959
 21
-1173.396363181441
 31
0.0
  0
LINE
  5
35C
  8
回07-寸法
  6
CONTINUOUS
 62
     5
 10
2309.226615350959
 20
-1199.396363181441
 30
0.0
 11
2309.226615350959
 21
-1243.248184833913
 31
0.0
  0
LINE
  5
35D
  8
回07-寸法
  6
CONTINUOUS
 62
     5
 10
2309.226615350959
 20
-1177.396363181441
 30
0.0
 11
2309.226615350959
 21
-1197.396363181441
 31
0.0
  0
INSERT
  5
35E
  8
回07-寸法
  6
CONTINUOUS
 62
     5
 66
     1
  2
_OPEN
 10
2309.226615350959
 20
-1177.396363181441
 30
0.0
 41
2.0
 42
2.0
 43
2.0
 50
270.0
  0
SEQEND
  5
35F
  8
回08-記事
  6
CONTINUOUS
 62
     7
  0
INSERT
  5
360
  8
回07-寸法
  6
CONTINUOUS
 62
     5
 66
     1
  2
_OPEN
 10
2309.226615350959
 20
-1197.396363181441
 30
0.0
 41
2.0
 42
2.0
 43
2.0
 50
90.0
  0
SEQEND
  5
361
  8
回08-記事
  6
CONTINUOUS
 62
     7
  0
INSERT
  5
362
  8
回07-寸法
  6
CONTINUOUS
 62
     5
 66
     1
  2
*X53
 10
0.0
 20
0.0
 30
0.0
  0
SEQEND
  5
4A6
  8
回08-記事
  6
CONTINUOUS
 62
     7
  0
POINT
  5
363
  8
DEFPOINTS
  6
CONTINUOUS
 62
     0
 10
2346.149183758219
 20
-1177.396363181441
 30
0.0
  0
POINT
  5
364
  8
DEFPOINTS
  6
CONTINUOUS
 62
     0
 10
2346.149183758219
 20
-1197.396363181441
 30
0.0
  0
POINT
  5
365
  8
DEFPOINTS
  6
CONTINUOUS
 62
     0
 10
2309.226615350959
 20
-1197.396363181441
 30
0.0
  0
ENDBLK
  5
366
  8
0
 62
     7
  0
BLOCK
  8
0
  2
*D34
 70
     1
 10
0.0
 20
0.0
 30
0.0
  3
*D34
  1

  0
LINE
  5
348
  8
回07-寸法
  6
CONTINUOUS
 62
     5
 10
2344.149183758219
 20
-1181.396363181441
 30
0.0
 11
2317.570199659717
 21
-1181.396363181441
 31
0.0
  0
LINE
  5
349
  8
回07-寸法
  6
CONTINUOUS
 62
     5
 10
2344.149183758219
 20
-1193.396363181441
 30
0.0
 11
2317.570199659717
 21
-1193.396363181441
 31
0.0
  0
LINE
  5
34A
  8
回07-寸法
  6
CONTINUOUS
 62
     5
 10
2318.570199659717
 20
-1179.396363181441
 30
0.0
 11
2318.570199659717
 21
-1177.396363181441
 31
0.0
  0
LINE
  5
34B
  8
回07-寸法
  6
CONTINUOUS
 62
     5
 10
2318.570199659717
 20
-1195.396363181441
 30
0.0
 11
2318.570199659717
 21
-1220.561522493753
 31
0.0
  0
LINE
  5
34C
  8
回07-寸法
  6
CONTINUOUS
 62
     5
 10
2318.570199659717
 20
-1181.396363181441
 30
0.0
 11
2318.570199659717
 21
-1193.396363181441
 31
0.0
  0
INSERT
  5
34D
  8
回07-寸法
  6
CONTINUOUS
 62
     5
 66
     1
  2
_OPEN
 10
2318.570199659717
 20
-1181.396363181441
 30
0.0
 41
2.0
 42
2.0
 43
2.0
 50
270.0
  0
SEQEND
  5
34E
  8
回08-記事
  6
CONTINUOUS
 62
     7
  0
INSERT
  5
34F
  8
回07-寸法
  6
CONTINUOUS
 62
     5
 66
     1
  2
_OPEN
 10
2318.570199659717
 20
-1193.396363181441
 30
0.0
 41
2.0
 42
2.0
 43
2.0
 50
90.0
  0
SEQEND
  5
350
  8
回08-記事
  6
CONTINUOUS
 62
     7
  0
TEXT
  5
351
  8
回07-寸法
  6
CONTINUOUS
 62
     5
 10
2317.820199659716
 20
-1220.811522493754
 30
0.0
 40
5.0
  1
3[0.118]
 50
90.0
1001
ACAD
1000
MTEXTBEGIN
1070
    73
1070
     1
1070
    44
1040
1.0
1070
    74
1070
     0
1000
MTEXTEND
  0
POINT
  5
352
  8
DEFPOINTS
  6
CONTINUOUS
 62
     0
 10
2344.149183758219
 20
-1181.396363181441
 30
0.0
  0
POINT
  5
353
  8
DEFPOINTS
  6
CONTINUOUS
 62
     0
 10
2344.149183758219
 20
-1193.396363181441
 30
0.0
  0
POINT
  5
354
  8
DEFPOINTS
  6
CONTINUOUS
 62
     0
 10
2318.570199659717
 20
-1193.396363181441
 30
0.0
  0
ENDBLK
  5
355
  8
0
 62
     7
  0
BLOCK
  8
0
  2
*D35
 70
     1
 10
0.0
 20
0.0
 30
0.0
  3
*D35
  1

  0
LINE
  5
337
  8
回07-寸法
  6
CONTINUOUS
 62
     5
 10
2344.149183758219
 20
-1193.396363181441
 30
0.0
 11
2327.340922138429
 21
-1193.396363181441
 31
0.0
  0
LINE
  5
338
  8
回07-寸法
  6
CONTINUOUS
 62
     5
 10
2344.149183758219
 20
-1189.396363181441
 30
0.0
 11
2327.340922138429
 21
-1189.396363181441
 31
0.0
  0
LINE
  5
339
  8
回07-寸法
  6
CONTINUOUS
 62
     5
 10
2328.340922138429
 20
-1187.396363181441
 30
0.0
 11
2328.340922138429
 21
-1185.396363181441
 31
0.0
  0
LINE
  5
33A
  8
回07-寸法
  6
CONTINUOUS
 62
     5
 10
2328.340922138429
 20
-1195.396363181441
 30
0.0
 11
2328.340922138429
 21
-1221.232679161427
 31
0.0
  0
LINE
  5
33B
  8
回07-寸法
  6
CONTINUOUS
 62
     5
 10
2328.340922138429
 20
-1189.396363181441
 30
0.0
 11
2328.340922138429
 21
-1193.396363181441
 31
0.0
  0
INSERT
  5
33C
  8
回07-寸法
  6
CONTINUOUS
 62
     5
 66
     1
  2
_OPEN
 10
2328.340922138429
 20
-1189.396363181441
 30
0.0
 41
2.0
 42
2.0
 43
2.0
 50
270.0
  0
SEQEND
  5
33D
  8
回08-記事
  6
CONTINUOUS
 62
     7
  0
INSERT
  5
33E
  8
回07-寸法
  6
CONTINUOUS
 62
     5
 66
     1
  2
_OPEN
 10
2328.340922138429
 20
-1193.396363181441
 30
0.0
 41
2.0
 42
2.0
 43
2.0
 50
90.0
  0
SEQEND
  5
33F
  8
回08-記事
  6
CONTINUOUS
 62
     7
  0
TEXT
  5
340
  8
回07-寸法
  6
CONTINUOUS
 62
     5
 10
2327.591021981932
 20
-1221.482969256509
 30
0.0
 40
5.0
  1
1[0.039]
 50
90.0
1001
ACAD
1000
MTEXTBEGIN
1070
    73
1070
     1
1070
    44
1040
1.0
1070
    74
1070
     0
1000
MTEXTEND
  0
POINT
  5
341
  8
DEFPOINTS
  6
CONTINUOUS
 62
     0
 10
2344.149183758219
 20
-1193.396363181441
 30
0.0
  0
POINT
  5
342
  8
DEFPOINTS
  6
CONTINUOUS
 62
     0
 10
2344.149183758219
 20
-1189.396363181441
 30
0.0
  0
POINT
  5
343
  8
DEFPOINTS
  6
CONTINUOUS
 62
     0
 10
2328.340922138429
 20
-1189.396363181441
 30
0.0
  0
ENDBLK
  5
344
  8
0
 62
     7
  0
BLOCK
  8
0
  2
*D36
 70
     1
 10
0.0
 20
0.0
 30
0.0
  3
*D36
  1

  0
LINE
  5
325
  8
回08-記事
  6
CONTINUOUS
 62
     5
 10
2344.149183758219
 20
-1192.196363181441
 30
0.0
 11
2336.711102102679
 21
-1192.196363181441
 31
0.0
  0
LINE
  5
326
  8
回08-記事
  6
CONTINUOUS
 62
     5
 10
2344.149183758219
 20
-1194.596363181441
 30
0.0
 11
2336.711102102679
 21
-1194.596363181441
 31
0.0
  0
LINE
  5
327
  8
回08-記事
  6
CONTINUOUS
 62
     5
 10
2337.711102102679
 20
-1190.196363181441
 30
0.0
 11
2337.711102102679
 21
-1188.19636318144
 31
0.0
  0
LINE
  5
328
  8
回08-記事
  6
CONTINUOUS
 62
     5
 10
2337.711102102679
 20
-1196.596363181441
 30
0.0
 11
2337.711102102679
 21
-1226.600300189315
 31
0.0
  0
LINE
  5
329
  8
回08-記事
  6
CONTINUOUS
 62
     5
 10
2337.711102102679
 20
-1192.196363181441
 30
0.0
 11
2337.711102102679
 21
-1194.596363181441
 31
0.0
  0
INSERT
  5
32A
  8
回08-記事
  6
CONTINUOUS
 62
     5
 66
     1
  2
_OPEN
 10
2337.711102102679
 20
-1192.196363181441
 30
0.0
 41
2.0
 42
2.0
 43
2.0
 50
270.0
  0
SEQEND
  5
32B
  8
回08-記事
  6
CONTINUOUS
 62
     7
  0
INSERT
  5
32C
  8
回08-記事
  6
CONTINUOUS
 62
     5
 66
     1
  2
_OPEN
 10
2337.711102102679
 20
-1194.596363181441
 30
0.0
 41
2.0
 42
2.0
 43
2.0
 50
90.0
  0
SEQEND
  5
32D
  8
回08-記事
  6
CONTINUOUS
 62
     7
  0
TEXT
  5
32E
  8
回08-記事
  6
CONTINUOUS
 62
     5
 10
2336.961102102678
 20
-1226.846363181441
 30
0.0
 40
5.0
  1
0.6[0.024]
 50
90.0
1001
ACAD
1000
MTEXTBEGIN
1070
    73
1070
     1
1070
    44
1040
1.0
1070
    74
1070
     0
1000
MTEXTEND
  0
POINT
  5
32F
  8
DEFPOINTS
  6
CONTINUOUS
 62
     0
 10
2344.149183758219
 20
-1192.196363181441
 30
0.0
  0
POINT
  5
330
  8
DEFPOINTS
  6
CONTINUOUS
 62
     0
 10
2344.149183758219
 20
-1194.596363181441
 30
0.0
  0
POINT
  5
331
  8
DEFPOINTS
  6
CONTINUOUS
 62
     0
 10
2337.711102102679
 20
-1194.596363181441
 30
0.0
  0
ENDBLK
  5
332
  8
0
 62
     7
  0
BLOCK
  8
回08-記事
  2
*X37
 70
     1
 10
0.0
 20
0.0
 30
0.0
  3
*X37
  1

  0
INSERT
  5
3D4
  8
回08-記事
  6
CONTINUOUS
 62
     5
  2
_OPEN
 10
2429.020969333848
 20
-1305.468614431221
 30
0.0
 41
2.0
 42
2.0
 43
2.0
 50
52.48373407034927
  0
LINE
  5
3D5
  8
回08-記事
  6
CONTINUOUS
 62
     5
 10
2427.802996068348
 20
-1307.054975400399
 30
0.0
 11
2417.024860918433
 21
-1321.093060969822
 31
0.0
  0
LINE
  5
3D6
  8
回08-記事
  6
CONTINUOUS
 62
     5
 10
2417.024860918433
 20
-1321.093060969822
 30
0.0
 11
2375.012360918433
 21
-1321.093060969822
 31
0.0
  0
ENDBLK
  5
3D8
  8
回08-記事
  6
CONTINUOUS
 62
     7
  0
BLOCK
  8
回08-記事
  2
*X38
 70
     1
 10
0.0
 20
0.0
 30
0.0
  3
*X38
  1

  0
INSERT
  5
3DB
  8
回08-記事
  6
CONTINUOUS
 62
     5
  2
_OPEN
 10
2473.821112547651
 20
-1307.068614431222
 30
0.0
 41
1.999999999999999
 42
1.999999999999999
 43
2.0
 50
102.4352487014059
  0
LINE
  5
3DC
  8
回08-記事
  6
CONTINUOUS
 62
     5
 10
2474.251784829726
 20
-1309.021694405379
 30
0.0
 11
2481.98642966126
 21
-1344.097970628454
 31
0.0
  0
LINE
  5
3DD
  8
回08-記事
  6
CONTINUOUS
 62
     5
 10
2481.98642966126
 20
-1344.097970628454
 30
0.0
 11
2516.48642966126
 21
-1344.097970628454
 31
0.0
  0
ENDBLK
  5
3DF
  8
回08-記事
  6
CONTINUOUS
 62
     7
  0
BLOCK
  8
回08-記事
  2
*X39
 70
     1
 10
0.0
 20
0.0
 30
0.0
  3
*X39
  1

  0
INSERT
  5
3E2
  8
回08-記事
  6
CONTINUOUS
 62
     5
  2
_OPEN
 10
2473.588716844222
 20
-1303.228500663466
 30
0.0
 41
1.999999999999999
 42
1.999999999999999
 43
2.0
 50
252.8540111904513
  0
LINE
  5
3E3
  8
回08-記事
  6
CONTINUOUS
 62
     5
 10
2474.178331651359
 20
-1301.317387276142
 30
0.0
 11
2484.392461025258
 21
-1268.210417861499
 31
0.0
  0
LINE
  5
3E4
  8
回08-記事
  6
CONTINUOUS
 62
     5
 10
2484.392461025258
 20
-1268.210417861499
 30
0.0
 11
2550.892461025258
 21
-1268.210417861499
 31
0.0
  0
ENDBLK
  5
3E6
  8
回08-記事
  6
CONTINUOUS
 62
     7
  0
BLOCK
  8
回08-記事
  2
*X40
 70
     1
 10
0.0
 20
0.0
 30
0.0
  3
*X40
  1

  0
INSERT
  5
3E9
  8
回08-記事
  6
CONTINUOUS
 62
     5
  2
_OPEN
 10
2429.322421213067
 20
-1101.841594292238
 30
0.0
 41
1.999999999999999
 42
1.999999999999999
 43
2.0
 50
113.760535494441
  0
LINE
  5
3EA
  8
回08-記事
  6
CONTINUOUS
 62
     5
 10
2430.128251192405
 20
-1103.672069106159
 30
0.0
 11
2433.205596096212
 21
-1110.662380318943
 31
0.0
  0
LINE
  5
3EB
  8
回08-記事
  6
CONTINUOUS
 62
     5
 10
2433.205596096212
 20
-1110.662380318943
 30
0.0
 11
2438.705596096212
 21
-1110.662380318943
 31
0.0
  0
ENDBLK
  5
3ED
  8
回08-記事
  6
CONTINUOUS
 62
     7
  0
BLOCK
  8
回08-記事
  2
*X41
 70
     1
 10
0.0
 20
0.0
 30
0.0
  3
*X41
  1

  0
LINE
  5
3F0
  8
回08-記事
  6
CONTINUOUS
 62
     8
 10
2496.984674890405
 20
-1099.511843162413
 30
0.0
 11
2498.194486672569
 21
-1098.302031380249
 31
0.0
1001
ACAD
1010
0.0
1020
0.0
1030
0.0
  0
LINE
  5
3F1
  8
回08-記事
  6
CONTINUOUS
 62
     8
 10
2496.984674890405
 20
-1101.279610115379
 30
0.0
 11
2499.962253625535
 21
-1098.30203138025
 31
0.0
1001
ACAD
1010
0.0
1020
0.0
1030
0.0
  0
LINE
  5
3F2
  8
回08-記事
  6
CONTINUOUS
 62
     8
 10
2496.984674890405
 20
-1103.047377068346
 30
0.0
 11
2501.730020578502
 21
-1098.302031380249
 31
0.0
1001
ACAD
1010
0.0
1020
0.0
1030
0.0
  0
LINE
  5
3F3
  8
回08-記事
  6
CONTINUOUS
 62
     8
 10
2497.497787531469
 20
-1104.30203138025
 30
0.0
 11
2503.497787531468
 21
-1098.302031380249
 31
0.0
1001
ACAD
1010
0.0
1020
0.0
1030
0.0
  0
LINE
  5
3F4
  8
回08-記事
  6
CONTINUOUS
 62
     8
 10
2499.265554484435
 20
-1104.30203138025
 30
0.0
 11
2505.184674890406
 21
-1098.382910974279
 31
0.0
1001
ACAD
1010
0.0
1020
0.0
1030
0.0
  0
LINE
  5
3F5
  8
回08-記事
  6
CONTINUOUS
 62
     8
 10
2501.033321437401
 20
-1104.30203138025
 30
0.0
 11
2505.184674890405
 21
-1100.150677927246
 31
0.0
1001
ACAD
1010
0.0
1020
0.0
1030
0.0
  0
LINE
  5
3F6
  8
回08-記事
  6
CONTINUOUS
 62
     8
 10
2502.801088390367
 20
-1104.30203138025
 30
0.0
 11
2505.184674890405
 21
-1101.918444880212
 31
0.0
1001
ACAD
1010
0.0
1020
0.0
1030
0.0
  0
LINE
  5
3F7
  8
回08-記事
  6
CONTINUOUS
 62
     8
 10
2504.568855343334
 20
-1104.30203138025
 30
0.0
 11
2505.184674890405
 21
-1103.686211833178
 31
0.0
1001
ACAD
1010
0.0
1020
0.0
1030
0.0
  0
ENDBLK
  5
3F9
  8
回08-記事
  6
CONTINUOUS
 62
     7
  0
BLOCK
  8
回08-記事
  2
*X42
 70
     1
 10
0.0
 20
0.0
 30
0.0
  3
*X42
  1

  0
INSERT
  5
410
  8
回07-寸法
  6
CONTINUOUS
 62
     5
  2
_OPEN
 10
2491.294351855103
 20
-1094.200842315979
 30
0.0
 41
2.0
 42
2.0
 43
2.0
 50
280.9584895908466
  0
LINE
  5
411
  8
回07-寸法
  6
CONTINUOUS
 62
     5
 10
2490.914156329041
 20
-1092.237311984672
 30
0.0
 11
2489.640916967355
 21
-1085.661632013947
 31
0.0
  0
LINE
  5
412
  8
回07-寸法
  6
CONTINUOUS
 62
     5
 10
2489.640916967355
 20
-1085.661632013947
 30
0.0
 11
2474.640916967354
 21
-1085.661632013947
 31
0.0
  0
ENDBLK
  5
414
  8
回08-記事
  6
CONTINUOUS
 62
     7
  0
BLOCK
  8
回08-記事
  2
*X43
 70
     1
 10
0.0
 20
0.0
 30
0.0
  3
*X43
  1

  0
INSERT
  5
417
  8
回07-寸法
  6
CONTINUOUS
 62
     5
  2
_OPEN
 10
2500.09964837099
 20
-1088.268881875915
 30
0.0
 41
2.0
 42
2.0
 43
2.0
 50
285.3120503730877
  0
LINE
  5
418
  8
回07-寸法
  6
CONTINUOUS
 62
     5
 10
2499.571496553836
 20
-1086.339878076531
 30
0.0
 11
2496.638601907313
 21
-1075.62787305718
 31
0.0
  0
LINE
  5
419
  8
回07-寸法
  6
CONTINUOUS
 62
     5
 10
2496.638601907313
 20
-1075.62787305718
 30
0.0
 11
2481.137496289512
 21
-1075.62787305718
 31
0.0
  0
ENDBLK
  5
41B
  8
回08-記事
  6
CONTINUOUS
 62
     7
  0
BLOCK
  8
回08-記事
  2
*X44
 70
     1
 10
0.0
 20
0.0
 30
0.0
  3
*X44
  1

  0
LINE
  5
41E
  8
回08-記事
  6
CONTINUOUS
 62
     8
 10
2460.821112547651
 20
-1096.123077604025
 30
0.0
 11
2462.042158771426
 21
-1094.902031380249
 31
0.0
1001
ACAD
1010
0.0
1020
0.0
1030
0.0
  0
LINE
  5
41F
  8
回08-記事
  6
CONTINUOUS
 62
     8
 10
2460.821112547651
 20
-1097.183737775805
 30
0.0
 11
2463.102818943207
 21
-1094.90203138025
 31
0.0
1001
ACAD
1010
0.0
1020
0.0
1030
0.0
  0
LINE
  5
420
  8
回08-記事
  6
CONTINUOUS
 62
     8
 10
2460.866292982235
 20
-1098.199217513001
 30
0.0
 11
2464.163479114986
 21
-1094.90203138025
 31
0.0
1001
ACAD
1010
0.0
1020
0.0
1030
0.0
  0
LINE
  5
421
  8
回08-記事
  6
CONTINUOUS
 62
     8
 10
2461.344841023684
 20
-1098.781329643332
 30
0.0
 11
2465.224139286766
 21
-1094.90203138025
 31
0.0
1001
ACAD
1010
0.0
1020
0.0
1030
0.0
  0
LINE
  5
422
  8
回08-記事
  6
CONTINUOUS
 62
     8
 10
2462.284799458546
 20
-1098.90203138025
 30
0.0
 11
2466.284799458546
 21
-1094.902031380249
 31
0.0
1001
ACAD
1010
0.0
1020
0.0
1030
0.0
  0
LINE
  5
423
  8
回08-記事
  6
CONTINUOUS
 62
     8
 10
2463.345459630326
 20
-1098.90203138025
 30
0.0
 11
2467.345459630326
 21
-1094.90203138025
 31
0.0
1001
ACAD
1010
0.0
1020
0.0
1030
0.0
  0
LINE
  5
424
  8
回08-記事
  6
CONTINUOUS
 62
     8
 10
2464.406119802106
 20
-1098.90203138025
 30
0.0
 11
2468.406119802106
 21
-1094.90203138025
 31
0.0
1001
ACAD
1010
0.0
1020
0.0
1030
0.0
  0
LINE
  5
425
  8
回08-記事
  6
CONTINUOUS
 62
     8
 10
2465.466779973886
 20
-1098.90203138025
 30
0.0
 11
2469.466779973886
 21
-1094.90203138025
 31
0.0
1001
ACAD
1010
0.0
1020
0.0
1030
0.0
  0
LINE
  5
426
  8
回08-記事
  6
CONTINUOUS
 62
     8
 10
2466.527440145667
 20
-1098.90203138025
 30
0.0
 11
2470.527440145666
 21
-1094.902031380249
 31
0.0
1001
ACAD
1010
0.0
1020
0.0
1030
0.0
  0
LINE
  5
427
  8
回08-記事
  6
CONTINUOUS
 62
     8
 10
2467.588100317446
 20
-1098.90203138025
 30
0.0
 11
2471.588100317446
 21
-1094.90203138025
 31
0.0
1001
ACAD
1010
0.0
1020
0.0
1030
0.0
  0
LINE
  5
428
  8
回08-記事
  6
CONTINUOUS
 62
     8
 10
2468.648760489225
 20
-1098.90203138025
 30
0.0
 11
2472.648760489226
 21
-1094.90203138025
 31
0.0
1001
ACAD
1010
0.0
1020
0.0
1030
0.0
  0
LINE
  5
429
  8
回08-記事
  6
CONTINUOUS
 62
     8
 10
2469.709420661006
 20
-1098.90203138025
 30
0.0
 11
2473.709420661006
 21
-1094.90203138025
 31
0.0
1001
ACAD
1010
0.0
1020
0.0
1030
0.0
  0
LINE
  5
42A
  8
回08-記事
  6
CONTINUOUS
 62
     8
 10
2470.770080832787
 20
-1098.90203138025
 30
0.0
 11
2474.770080832787
 21
-1094.90203138025
 31
0.0
1001
ACAD
1010
0.0
1020
0.0
1030
0.0
  0
LINE
  5
42B
  8
回08-記事
  6
CONTINUOUS
 62
     8
 10
2471.830741004566
 20
-1098.90203138025
 30
0.0
 11
2475.830741004566
 21
-1094.90203138025
 31
0.0
1001
ACAD
1010
0.0
1020
0.0
1030
0.0
  0
LINE
  5
42C
  8
回08-記事
  6
CONTINUOUS
 62
     8
 10
2472.891401176346
 20
-1098.90203138025
 30
0.0
 11
2476.891401176346
 21
-1094.90203138025
 31
0.0
1001
ACAD
1010
0.0
1020
0.0
1030
0.0
  0
LINE
  5
42D
  8
回08-記事
  6
CONTINUOUS
 62
     8
 10
2473.952061348126
 20
-1098.90203138025
 30
0.0
 11
2477.952061348127
 21
-1094.902031380249
 31
0.0
1001
ACAD
1010
0.0
1020
0.0
1030
0.0
  0
LINE
  5
42E
  8
回08-記事
  6
CONTINUOUS
 62
     8
 10
2475.012721519906
 20
-1098.90203138025
 30
0.0
 11
2479.012721519906
 21
-1094.90203138025
 31
0.0
1001
ACAD
1010
0.0
1020
0.0
1030
0.0
  0
LINE
  5
42F
  8
回08-記事
  6
CONTINUOUS
 62
     8
 10
2476.073381691687
 20
-1098.90203138025
 30
0.0
 11
2480.073381691686
 21
-1094.90203138025
 31
0.0
1001
ACAD
1010
0.0
1020
0.0
1030
0.0
  0
LINE
  5
430
  8
回08-記事
  6
CONTINUOUS
 62
     8
 10
2477.134041863467
 20
-1098.90203138025
 30
0.0
 11
2481.134041863466
 21
-1094.90203138025
 31
0.0
1001
ACAD
1010
0.0
1020
0.0
1030
0.0
  0
LINE
  5
431
  8
回08-記事
  6
CONTINUOUS
 62
     8
 10
2478.194702035247
 20
-1098.90203138025
 30
0.0
 11
2482.194702035246
 21
-1094.90203138025
 31
0.0
1001
ACAD
1010
0.0
1020
0.0
1030
0.0
  0
LINE
  5
432
  8
回08-記事
  6
CONTINUOUS
 62
     8
 10
2479.255362207027
 20
-1098.90203138025
 30
0.0
 11
2483.255362207026
 21
-1094.90203138025
 31
0.0
1001
ACAD
1010
0.0
1020
0.0
1030
0.0
  0
LINE
  5
433
  8
回08-記事
  6
CONTINUOUS
 62
     8
 10
2480.316022378806
 20
-1098.90203138025
 30
0.0
 11
2484.316022378806
 21
-1094.90203138025
 31
0.0
1001
ACAD
1010
0.0
1020
0.0
1030
0.0
  0
LINE
  5
434
  8
回08-記事
  6
CONTINUOUS
 62
     8
 10
2481.376682550587
 20
-1098.90203138025
 30
0.0
 11
2485.376682550586
 21
-1094.90203138025
 31
0.0
1001
ACAD
1010
0.0
1020
0.0
1030
0.0
  0
LINE
  5
435
  8
回08-記事
  6
CONTINUOUS
 62
     8
 10
2482.437342722366
 20
-1098.90203138025
 30
0.0
 11
2486.309801055222
 21
-1095.029573047395
 31
0.0
1001
ACAD
1010
0.0
1020
0.0
1030
0.0
  0
LINE
  5
436
  8
回08-記事
  6
CONTINUOUS
 62
     8
 10
2483.498002894146
 20
-1098.90203138025
 30
0.0
 11
2486.780407835423
 21
-1095.619626438973
 31
0.0
1001
ACAD
1010
0.0
1020
0.0
1030
0.0
  0
LINE
  5
437
  8
回08-記事
  6
CONTINUOUS
 62
     8
 10
2484.558663065925
 20
-1098.902031380251
 30
0.0
 11
2486.821112547651
 21
-1096.639581898525
 31
0.0
1001
ACAD
1010
0.0
1020
0.0
1030
0.0
  0
LINE
  5
438
  8
回08-記事
  6
CONTINUOUS
 62
     8
 10
2485.619323237706
 20
-1098.90203138025
 30
0.0
 11
2486.821112547651
 21
-1097.700242070305
 31
0.0
1001
ACAD
1010
0.0
1020
0.0
1030
0.0
  0
ENDBLK
  5
43A
  8
回08-記事
  6
CONTINUOUS
 62
     7
  0
BLOCK
  8
回08-記事
  2
*X45
 70
     1
 10
0.0
 20
0.0
 30
0.0
  3
*X45
  1

  0
INSERT
  5
44B
  8
回07-寸法
  6
CONTINUOUS
 62
     5
  2
_OPEN
 10
2802.679059473566
 20
-1222.227160228184
 30
0.0
 41
2.0
 42
2.0
 43
2.0
 50
51.06506981038571
  0
LINE
  5
44C
  8
回07-寸法
  6
CONTINUOUS
 62
     5
 10
2801.422184684804
 20
-1223.782880564676
 30
0.0
 11
2795.398924520878
 21
-1231.238283770136
 31
0.0
  0
LINE
  5
44D
  8
回07-寸法
  6
CONTINUOUS
 62
     5
 10
2795.398924520878
 20
-1231.238283770136
 30
0.0
 11
2768.898924520878
 21
-1231.238283770136
 31
0.0
  0
ENDBLK
  5
44F
  8
回08-記事
  6
CONTINUOUS
 62
     7
  0
BLOCK
  8
回08-記事
  2
*X46
 70
     1
 10
0.0
 20
0.0
 30
0.0
  3
*X46
  1

  0
TEXT
  5
46C
  8
回07-寸法
  6
CONTINUOUS
 62
     5
 10
2833.434674890405
 20
-919.9267207568645
 30
0.0
 40
5.0
  1
7.7 [0.303]
  0
TEXT
  5
46D
  8
回07-寸法
  6
CONTINUOUS
 62
     5
 10
2864.434674890405
 20
-919.9267207568645
 30
0.0
 40
2.968999999999999
  1
(INSULATION AREA)
  0
ENDBLK
  5
46F
  8
回08-記事
  6
CONTINUOUS
 62
     7
  0
BLOCK
  8
回08-記事
  2
*X47
 70
     1
 10
0.0
 20
0.0
 30
0.0
  3
*X47
  1

  0
TEXT
  5
472
  8
回07-寸法
  6
CONTINUOUS
 62
     5
 10
2431.393893788043
 20
-919.9267207568645
 30
0.0
 40
5.0
  1
8.7 [0.343]
  0
TEXT
  5
473
  8
回07-寸法
  6
CONTINUOUS
 62
     5
 10
2462.893893788042
 20
-919.9267207568645
 30
0.0
 40
2.968999999999999
  1
(INSULATION AREA)
  0
ENDBLK
  5
475
  8
回08-記事
  6
CONTINUOUS
 62
     7
  0
BLOCK
  8
回08-記事
  2
*X48
 70
     1
 10
0.0
 20
0.0
 30
0.0
  3
*X48
  1

  0
TEXT
  5
478
  8
回07-寸法
  6
CONTINUOUS
 62
     5
 10
2917.06846793035
 20
-967.1470009379454
 30
0.0
 40
5.0
  1
8.2 [0.323]
 50
90.0
  0
TEXT
  5
479
  8
回07-寸法
  6
CONTINUOUS
 62
     5
 10
2917.06846793035
 20
-936.1470009379454
 30
0.0
 40
2.968999999999999
  1
(INSULATION AREA)
 50
90.0
  0
ENDBLK
  5
47B
  8
回08-記事
  6
CONTINUOUS
 62
     7
  0
BLOCK
  8
回08-記事
  2
*X49
 70
     1
 10
0.0
 20
0.0
 30
0.0
  3
*X49
  1

  0
TEXT
  5
47E
  8
回07-寸法
  6
CONTINUOUS
 62
     5
 10
2384.616456362656
 20
-1294.833813655592
 30
0.0
 40
5.0
  1
0.3
 50
90.0
  0
TEXT
  5
47F
  8
回07-寸法
  6
CONTINUOUS
 62
     5
 10
2384.616456362656
 20
-1286.333813655591
 30
0.0
 40
3.281499999999999
  1
±0.05
 50
90.0
  0
TEXT
  5
480
  8
回07-寸法
  6
CONTINUOUS
 62
     5
 10
2384.616456362656
 20
-1276.161163655592
 30
0.0
 40
5.0
  1
[0.012
 50
90.0
  0
TEXT
  5
481
  8
回07-寸法
  6
CONTINUOUS
 62
     5
 10
2384.616456362656
 20
-1259.661163655592
 30
0.0
 40
3.281499999999999
  1
±0.002
 50
90.0
  0
TEXT
  5
482
  8
回07-寸法
  6
CONTINUOUS
 62
     5
 10
2384.616456362656
 20
-1247.191463655592
 30
0.0
 40
5.0
  1
]
 50
90.0
  0
ENDBLK
  5
484
  8
回08-記事
  6
CONTINUOUS
 62
     7
  0
BLOCK
  8
回08-記事
  2
*X50
 70
     1
 10
0.0
 20
0.0
 30
0.0
  3
*X50
  1

  0
TEXT
  5
487
  8
回04-下接
  6
CONTINUOUS
 62
     5
 10
2917.068467930349
 20
-1292.687782040307
 30
0.0
 40
5.0
  1
8.2 [0.323]
 50
90.0
  0
TEXT
  5
488
  8
回04-下接
  6
CONTINUOUS
 62
     5
 10
2917.068467930349
 20
-1261.687782040307
 30
0.0
 40
2.968999999999999
  1
(INSULATION AREA)
 50
90.0
  0
ENDBLK
  5
48A
  8
回08-記事
  6
CONTINUOUS
 62
     7
  0
BLOCK
  8
回08-記事
  2
*X51
 70
     1
 10
0.0
 20
0.0
 30
0.0
  3
*X51
  1

  0
TEXT
  5
48D
  8
回07-寸法
  6
CONTINUOUS
 62
     5
 10
2413.240943377511
 20
-1149.519793127804
 30
0.0
 40
5.0
  1
5
 50
90.0
  0
TEXT
  5
48E
  8
回07-寸法
  6
CONTINUOUS
 62
     5
 10
2413.240943377511
 20
-1146.019793127804
 30
0.0
 40
3.5
  1
±0.1
 50
90.0
  0
TEXT
  5
48F
  8
回07-寸法
  6
CONTINUOUS
 62
     5
 10
2413.240943377511
 20
-1138.319793127804
 30
0.0
 40
5.0
  1
 [0.197
 50
90.0
  0
TEXT
  5
490
  8
回07-寸法
  6
CONTINUOUS
 62
     5
 10
2413.240943377511
 20
-1118.801741285169
 30
0.0
 40
3.5
  1
±0.004
 50
90.0
  0
TEXT
  5
491
  8
回07-寸法
  6
CONTINUOUS
 62
     5
 10
2413.240943377511
 20
-1105.151741285169
 30
0.0
 40
5.0
  1
]
 50
90.0
  0
ENDBLK
  5
493
  8
回08-記事
  6
CONTINUOUS
 62
     7
  0
BLOCK
  8
回08-記事
  2
*X52
 70
     1
 10
0.0
 20
0.0
 30
0.0
  3
*X52
  1

  0
TEXT
  5
496
  8
回07-寸法
  6
CONTINUOUS
 62
     5
 10
2841.811062477889
 20
-1360.645160430744
 30
0.0
 40
5.0
  1
2.1
 50
90.0
  0
TEXT
  5
497
  8
回07-寸法
  6
CONTINUOUS
 62
     5
 10
2841.811062477889
 20
-1353.145160430744
 30
0.0
 40
3.281499999999999
  1
±0.2
 50
90.0
  0
TEXT
  5
498
  8
回07-寸法
  6
CONTINUOUS
 62
     5
 10
2841.811062477889
 20
-1345.269560430744
 30
0.0
 40
5.0
  1
[0.079
 50
90.0
  0
TEXT
  5
499
  8
回07-寸法
  6
CONTINUOUS
 62
     5
 10
2841.811062477889
 20
-1327.751508588109
 30
0.0
 40
3.281499999999999
  1
±0.008
 50
90.0
  0
TEXT
  5
49A
  8
回07-寸法
  6
CONTINUOUS
 62
     5
 10
2841.811062477889
 20
-1315.281808588109
 30
0.0
 40
5.0
  1
]
 50
90.0
  0
ENDBLK
  5
49C
  8
回08-記事
  6
CONTINUOUS
 62
     7
  0
BLOCK
  8
回08-記事
  2
*X53
 70
     1
 10
0.0
 20
0.0
 30
0.0
  3
*X53
  1

  0
TEXT
  5
49F
  8
回07-寸法
  6
CONTINUOUS
 62
     5
 10
2308.476615350958
 20
-1243.498474928995
 30
0.0
 40
5.0
  1
5
 50
90.0
  0
TEXT
  5
4A0
  8
回07-寸法
  6
CONTINUOUS
 62
     5
 10
2308.476615350958
 20
-1239.998474928995
 30
0.0
 40
3.333499999999999
  1
±0.1
 50
90.0
  0
TEXT
  5
4A1
  8
回07-寸法
  6
CONTINUOUS
 62
     5
 10
2308.476615350958
 20
-1232.664774928995
 30
0.0
 40
5.0
  1
[0.197
 50
90.0
  0
TEXT
  5
4A2
  8
回07-寸法
  6
CONTINUOUS
 62
     5
 10
2308.476615350958
 20
-1216.14672308636
 30
0.0
 40
3.333499999999999
  1
±0.004
 50
90.0
  0
TEXT
  5
4A3
  8
回07-寸法
  6
CONTINUOUS
 62
     5
 10
2308.476615350958
 20
-1203.14607308636
 30
0.0
 40
5.0
  1
]
 50
90.0
  0
ENDBLK
  5
4A5
  8
回08-記事
  6
CONTINUOUS
 62
     7
  0
ENDSEC
  0
SECTION
  2
ENTITIES
  0
TEXT
  5
5E
  8
回03-記事
  6
CONTINUOUS
 62
     5
 10
2623.598306131607
 20
-1389.953034199409
 30
0.0
 40
4.8
  1
without affecting product specification.
  0
TEXT
  5
60
  8
回03-記事
  6
CONTINUOUS
 62
     5
 10
2623.598306131607
 20
-1381.533328485209
 30
0.0
 40
4.8
  1
Edges and corners of ITO glass may be chamfered 
  0
TEXT
  5
61
  8
回03-記事
  6
CONTINUOUS
 62
     5
 10
2623.598306131607
 20
-1373.11362277101
 30
0.0
 40
4.8
  1
Unit: mm
  0
TEXT
  5
62
  8
回03-記事
  6
CONTINUOUS
 62
     5
 10
2623.598306131607
 20
-1364.69391705681
 30
0.0
 40
4.8
  1
EXCEPT WHERE INDICATED
  0
TEXT
  5
63
  8
回03-記事
  6
CONTINUOUS
 62
     5
 10
2623.598306131607
 20
-1356.27421134261
 30
0.0
 40
4.8
  1
TOLERANCE=±0.5mm
  0
TEXT
  5
64
  8
回08-記事
  6
CONTINUOUS
 62
     5
 10
2374.262360918433
 20
-1319.343060969822
 30
0.0
 40
5.0
  1
Trace Expose
1001
ACAD
1000
MTEXTBEGIN
1070
    73
1070
     1
1070
    44
1040
1.0
1070
    74
1070
     0
1000
MTEXTEND
  0
INSERT
  5
65
  8
回08-記事
  6
CONTINUOUS
 62
     8
 66
     1
  2
*X37
 10
0.0
 20
0.0
 30
0.0
  0
SEQEND
  5
3D9
  8
回08-記事
  6
CONTINUOUS
 62
     7
  0
TEXT
  5
66
  8
回08-記事
  6
CONTINUOUS
 62
     5
 10
2483.73642966126
 20
-1343.597970628454
 30
0.0
 40
5.0
  1
LOT LABEL
1001
ACAD
1000
MTEXTBEGIN
1070
    73
1070
     1
1070
    44
1040
1.0
1070
    74
1070
     0
1000
MTEXTEND
  0
INSERT
  5
67
  8
回08-記事
  6
CONTINUOUS
 62
     7
 66
     1
  2
*X38
 10
0.0
 20
0.0
 30
0.0
  0
SEQEND
  5
3E0
  8
回08-記事
  6
CONTINUOUS
 62
     7
  0
TEXT
  5
68
  8
回08-記事
  6
CONTINUOUS
 62
     5
 10
2487.051033810113
 20
-1276.28027150347
 30
0.0
 40
5.0
  1
QST-150A075H
  0
TEXT
  5
69
  8
回08-記事
  6
CONTINUOUS
 62
     5
 10
2486.142461025258
 20
-1267.710417861499
 30
0.0
 40
5.0
  1
Tail information label
1001
ACAD
1000
MTEXTBEGIN
1070
    73
1070
     1
1070
    44
1040
1.0
1070
    74
1070
     0
1000
MTEXTEND
  0
INSERT
  5
6A
  8
回08-記事
  6
CONTINUOUS
 62
     1
 66
     1
  2
*X39
 10
0.0
 20
0.0
 30
0.0
  0
SEQEND
  5
3E7
  8
回08-記事
  6
CONTINUOUS
 62
     7
  0
TEXT
  5
6B
  8
回08-記事
  6
CONTINUOUS
 62
     5
 10
2434.955596096212
 20
-1110.162380318943
 30
0.0
 40
5.0
  1
A
1001
ACAD
1000
MTEXTBEGIN
1070
    73
1070
     1
1070
    44
1040
1.0
1070
    74
1070
     0
1000
MTEXTEND
  0
INSERT
  5
6C
  8
回08-記事
  6
CONTINUOUS
 62
     7
 66
     1
  2
*X40
 10
0.0
 20
0.0
 30
0.0
  0
SEQEND
  5
3EE
  8
回08-記事
  6
CONTINUOUS
 62
     7
  0
DIMENSION
  5
6D
  8
回07-寸法
  6
CONTINUOUS
 62
    18
  2
*D31
 10
2413.990943377512
 20
-1099.40203138025
 30
0.0
 11
2410.740943377511
 21
-1126.335767206487
 31
0.0
 70
     0
  3
DMC
 13
2427.184674890405
 23
-1094.40203138025
 33
0.0
 14
2427.184674890405
 24
-1099.40203138025
 34
0.0
 50
90.0
1001
ACAD
1000
DSTYLE
1002
{
1070
    47
1040
0.1
1070
   147
1040
0.5
1070
    48
1040
0.1
1070
    72
1070
     0
1070
    71
1070
     1
1070
   140
1040
5.0
1070
   170
1070
     1
1070
   371
1070
     9
1070
   372
1070
     9
1002
}
  0
INSERT
  5
83
  8
回08-記事
  6
CONTINUOUS
 62
     8
 66
     1
  2
*X41
 10
0.0
 20
0.0
 30
0.0
1001
ACAD
1010
0.0
1020
0.0
1030
0.0
  0
SEQEND
  5
3FA
  8
回08-記事
  6
CONTINUOUS
 62
     7
  0
POLYLINE
  5
84
  8
回08-記事
  6
CONTINUOUS
 62
     8
 66
     1
 10
0.0
 20
0.0
 30
0.0
 70
     1
1001
ACAD
1000
ASC_BOUNDS
1002
{
1070
    19
1005
83
1002
}
  0
VERTEX
  5
3FB
  8
回08-記事
  6
CONTINUOUS
 62
     8
 10
2496.984674890405
 20
-1104.30203138025
 30
0.0
  0
VERTEX
  5
3FD
  8
回08-記事
  6
CONTINUOUS
 62
     8
 10
2505.184674890405
 20
-1104.30203138025
 30
0.0
  0
VERTEX
  5
3FE
  8
回08-記事
  6
CONTINUOUS
 62
     8
 10
2505.184674890405
 20
-1098.30203138025
 30
0.0
  0
VERTEX
  5
3FF
  8
回08-記事
  6
CONTINUOUS
 62
     8
 10
2496.984674890405
 20
-1098.30203138025
 30
0.0
  0
SEQEND
  5
3FC
  8
回08-記事
  6
CONTINUOUS
 62
     7
  0
DIMENSION
  5
85
  8
回04-下接
  6
CONTINUOUS
 62
    18
  2
*D30
 10
2899.416869589482
 20
-1222.897000937944
 30
0.0
 11
2899.416869589481
 21
-1242.500554328538
 31
0.0
 70
   128
  3
DMC
 13
2820.684674890405
 23
-1213.397000937944
 33
0.0
 14
2828.684674890405
 24
-1222.897000937943
 34
0.0
 50
90.0
1001
ACAD
1000
DSTYLE
1002
{
1070
   140
1040
5.0
1070
   170
1070
     1
1070
   371
1070
     9
1070
   372
1070
     9
1002
}
  0
DIMENSION
  5
99
  8
回04-下接
  6
CONTINUOUS
 62
    18
  2
*D29
 10
2899.416869589483
 20
-1213.397000937944
 30
0.0
 11
2896.165661191932
 21
-1096.897000937945
 31
0.0
 70
     0
  1
<>(VIEWING AREA)
  3
DMC
 13
2820.684674890405
 23
-980.3970009379437
 33
0.0
 14
2820.684674890405
 24
-1213.397000937944
 34
0.0
 50
90.0
1001
ACAD
1000
DSTYLE
1002
{
1070
   140
1040
5.0
1070
   170
1070
     1
1070
   371
1070
     9
1070
   372
1070
     9
1002
}
  0
DIMENSION
  5
A8
  8
回04-下接
  6
CONTINUOUS
 62
    18
  2
*D28
 10
2917.81846793035
 20
-1222.897000937944
 30
0.0
 11
2917.818467930349
 21
-1259.667391489126
 31
0.0
 70
   128
  1
<>{\H0.5938x;(INSULATION AREA)}
  3
DMC
 13
2821.984674890405
 23
-1214.697000937944
 33
0.0
 14
2828.684674890405
 24
-1222.897000937943
 34
0.0
 50
90.0
1001
ACAD
1000
DSTYLE
1002
{
1070
   140
1040
5.0
1070
   170
1070
     1
1070
   371
1070
     9
1070
   372
1070
     9
1002
}
  0
DIMENSION
  5
B9
  8
回04-下接
  6
CONTINUOUS
 62
    18
  2
*D27
 10
2917.818467930351
 20
-1214.697000937944
 30
0.0
 11
2914.5672595328
 21
-1096.897000937945
 31
0.0
 70
     0
  3
DMC
 13
2821.984674890405
 23
-979.0970009379444
 33
0.0
 14
2821.984674890405
 24
-1214.697000937944
 34
0.0
 50
90.0
1001
ACAD
1000
DSTYLE
1002
{
1070
   140
1040
5.0
1070
   170
1070
     1
1070
   371
1070
     9
1070
   372
1070
     9
1002
}
  0
TEXT
  5
C8
  8
回08-記事
  6
CONTINUOUS
 62
     5
 10
2517.43975077142
 20
-1297.213489107177
 30
0.0
 40
5.0
  1
ADHESIVE SHEET
  0
LINE
  5
C9
  8
回08-記事
  6
CONTINUOUS
 62
     5
 10
2516.821762813174
 20
-1295.161158059544
 30
0.0
 11
2507.42916695047
 21
-1304.544537730878
 31
0.0
  0
TEXT
  5
CA
  8
回08-記事
  6
CONTINUOUS
 62
     5
 10
2755.761814473072
 20
-1328.706195451419
 30
0.0
 40
5.0
  1
ADHESIVE SHEET
  0
LINE
  5
CB
  8
回08-記事
  6
CONTINUOUS
 62
     5
 10
2809.998543712658
 20
-1325.071634172451
 30
0.0
 11
2824.693684204316
 21
-1304.544537730878
 31
0.0
  0
POLYLINE
  5
CC
  8
回08-記事
  6
CONTINUOUS
 62
     7
 66
     1
 10
0.0
 20
0.0
 30
0.0
 70
     1
  0
VERTEX
  5
400
  8
回08-記事
  6
CONTINUOUS
 62
     7
 10
2511.684674890405
 20
-1213.397000937944
 30
0.0
  0
VERTEX
  5
402
  8
回08-記事
  6
CONTINUOUS
 62
     7
 10
2511.684674890405
 20
-980.3970009379437
 30
0.0
  0
VERTEX
  5
403
  8
回08-記事
  6
CONTINUOUS
 62
     7
 10
2820.684674890405
 20
-980.3970009379437
 30
0.0
  0
VERTEX
  5
404
  8
回08-記事
  6
CONTINUOUS
 62
     7
 10
2820.684674890405
 20
-1213.397000937944
 30
0.0
  0
SEQEND
  5
401
  8
回08-記事
  6
CONTINUOUS
 62
     7
  0
POLYLINE
  5
CD
  8
回08-記事
  6
CONTINUOUS
 62
     7
 66
     1
 10
0.0
 20
0.0
 30
0.0
 70
     1
  0
VERTEX
  5
405
  8
回08-記事
  6
CONTINUOUS
 62
     7
 10
2513.684674890404
 20
-982.3970009379436
 30
0.0
  0
VERTEX
  5
407
  8
回08-記事
  6
CONTINUOUS
 62
     7
 10
2513.684674890404
 20
-1211.397000937944
 30
0.0
  0
VERTEX
  5
408
  8
回08-記事
  6
CONTINUOUS
 62
     7
 10
2818.684674890405
 20
-1211.397000937944
 30
0.0
  0
VERTEX
  5
409
  8
回08-記事
  6
CONTINUOUS
 62
     7
 10
2818.684674890405
 20
-982.3970009379436
 30
0.0
  0
SEQEND
  5
406
  8
回08-記事
  6
CONTINUOUS
 62
     7
  0
DIMENSION
  5
CE
  8
回07-寸法
  6
CONTINUOUS
 62
    18
  2
*D26
 10
2385.366456362656
 20
-1305.468614431221
 30
0.0
 11
2385.366456362656
 21
-1270.014607159528
 31
0.0
 70
   128
  1
0.3{\H0.6563x;±0.05}[0.012{\H0.6563x;±0.002}]
  3
DMC
 13
2426.684674890405
 23
-1300.228500663465
 33
0.0
 14
2426.684674890405
 24
-1305.468614431221
 34
0.0
 50
90.0
1001
ACAD
1000
DSTYLE
1002
{
1070
   140
1040
5.0
1070
   170
1070
     1
1070
   371
1070
     9
1070
   372
1070
     9
1002
}
  0
DIMENSION
  5
E0
  8
回07-寸法
  6
CONTINUOUS
 62
    18
  2
*D25
 10
2431.684674890405
 20
-1330.076250161262
 30
0.0
 11
2447.943410716641
 21
-1330.076250161262
 31
0.0
 70
   128
  3
DMC
 13
2426.684674890405
 23
-1305.468614431221
 33
0.0
 14
2431.684674890405
 24
-1306.468614431222
 34
0.0
1001
ACAD
1000
DSTYLE
1002
{
1070
   140
1040
5.0
1070
   170
1070
     1
1070
   371
1070
     9
1070
   372
1070
     9
1002
}
  0
DIMENSION
  5
F1
  8
回07-寸法
  6
CONTINUOUS
 62
    18
  2
*D24
 10
2436.684674890404
 20
-1283.869467347575
 30
0.0
 11
2406.427617473024
 21
-1283.869467347575
 31
0.0
 70
   128
  1
(<>[])
  3
DMC
 13
2426.684674890405
 23
-1300.228500663465
 33
0.0
 14
2436.684674890404
 24
-1300.228500663465
 34
0.0
1001
ACAD
1000
DSTYLE
1002
{
1070
   340
1005
C
1070
   140
1040
5.0
1070
   170
1070
     1
1070
   371
1070
     9
1070
   372
1070
     9
1002
}
  0
LINE
  5
102
  8
回08-記事
  6
CONTINUOUS
 62
    18
 10
2431.684674890405
 20
-1305.468614431221
 30
0.0
 11
2431.684674890405
 21
-1306.468614431222
 31
0.0
  0
LINE
  5
103
  8
回08-記事
  6
CONTINUOUS
 62
    18
 10
2426.684674890405
 20
-1305.468614431221
 30
0.0
 11
2426.684674890405
 21
-1300.228500663465
 31
0.0
  0
LINE
  5
104
  8
回08-記事
  6
CONTINUOUS
 62
    18
 10
2426.684674890405
 20
-1305.468614431221
 30
0.0
 11
2426.684674890405
 21
-1300.228500663465
 31
0.0
  0
LINE
  5
105
  8
回08-記事
  6
CONTINUOUS
 62
    18
 10
2436.684674890404
 20
-1300.228500663465
 30
0.0
 11
2426.684674890405
 21
-1300.228500663465
 31
0.0
  0
LINE
  5
106
  8
回08-記事
  6
CONTINUOUS
 62
    18
 10
2436.684674890404
 20
-1300.228500663465
 30
0.0
 11
2436.684674890404
 21
-1303.228500663466
 31
0.0
  0
LINE
  5
107
  8
回08-記事
  6
CONTINUOUS
 62
     7
 10
2501.684674890404
 20
-1306.468614431222
 30
0.0
 11
2431.684674890405
 21
-1306.468614431222
 31
0.0
  0
LINE
  5
108
  8
回08-記事
  6
CONTINUOUS
 62
    18
 10
2491.938414086561
 20
-1302.228500663465
 30
0.0
 11
2491.938414086561
 21
-1303.228500663466
 31
0.0
  0
POLYLINE
  5
109
  8
回08-記事
  6
CONTINUOUS
 62
     7
 66
     1
 10
0.0
 20
0.0
 30
0.0
 70
     1
  0
VERTEX
  5
40A
  8
回08-記事
  6
CONTINUOUS
 62
     7
 10
2460.821112547651
 20
-1303.228500663466
 30
0.0
  0
VERTEX
  5
40C
  8
回08-記事
  6
CONTINUOUS
 62
     7
 10
2486.82111254765
 20
-1303.228500663466
 30
0.0
  0
VERTEX
  5
40D
  8
回08-記事
  6
CONTINUOUS
 62
     7
 10
2486.82111254765
 20
-1302.628500663465
 30
0.0
  0
VERTEX
  5
40E
  8
回08-記事
  6
CONTINUOUS
 62
     7
 10
2460.821112547651
 20
-1302.628500663465
 30
0.0
  0
SEQEND
  5
40B
  8
回08-記事
  6
CONTINUOUS
 62
     7
  0
DIMENSION
  5
10A
  8
回07-寸法
  6
CONTINUOUS
 62
    18
  2
*D23
 10
2491.561442305269
 20
-1129.684479412093
 30
0.0
 11
2469.793970652797
 21
-1129.684479412093
 31
0.0
 70
   128
  3
DMC
 13
2501.684674890404
 23
-1105.579155724718
 33
0.0
 14
2491.561442305269
 24
-1099.402031380249
 34
0.0
1001
ACAD
1000
DSTYLE
1002
{
1070
   140
1040
5.0
1070
   170
1070
     1
1070
   371
1070
     9
1070
   372
1070
     9
1002
}
  0
DIMENSION
  5
11B
  8
回07-寸法
  6
CONTINUOUS
 62
    18
  2
*D22
 10
2497.083898063929
 20
-1119.434030350534
 30
0.0
 11
2472.272165558026
 21
-1119.434030350534
 31
0.0
 70
   128
  3
DMC
 13
2501.684674890404
 23
-1105.579155724718
 33
0.0
 14
2497.083898063929
 24
-1104.902031380251
 34
0.0
1001
ACAD
1000
DSTYLE
1002
{
1070
   140
1040
5.0
1070
   170
1070
     1
1070
   371
1070
     9
1070
   372
1070
     9
1002
}
  0
DIMENSION
  5
12C
  8
回07-寸法
  6
CONTINUOUS
 62
    18
  2
*D21
 10
2469.803362974911
 20
-1104.902031380252
 30
0.0
 11
2469.80336297491
 21
-1070.90203138025
 31
0.0
 70
   128
  3
DMC
 13
2497.496918567746
 23
-1088.90203138025
 33
0.0
 14
2497.496918567746
 24
-1104.902031380251
 34
0.0
 50
90.0
1001
ACAD
1000
DSTYLE
1002
{
1070
   140
1040
5.0
1070
   170
1070
     1
1070
   371
1070
     9
1070
   372
1070
     9
1002
}
  0
DIMENSION
  5
13D
  8
回07-寸法
  6
CONTINUOUS
 62
    18
  2
*D20
 10
2405.355446352176
 20
-970.897000937944
 30
0.0
 11
2405.355446352176
 21
-1032.649516159096
 31
0.0
 70
   128
  1
(<>[])
  3
DMC
 13
2427.184674890405
 23
-1094.40203138025
 33
0.0
 14
2502.684674890405
 24
-970.897000937944
 34
0.0
 50
90.0
1001
ACAD
1000
DSTYLE
1002
{
1070
   340
1005
C
1070
   140
1040
5.0
1070
   170
1070
     1
1070
   371
1070
     9
1070
   372
1070
     9
1002
}
  0
DIMENSION
  5
14C
  8
回07-寸法
  6
CONTINUOUS
 62
    18
  2
*D19
 10
2501.684674890404
 20
-1054.215918632046
 30
0.0
 11
2464.184674890404
 21
-1050.964710234498
 31
0.0
 70
     0
  1
<>%%P1.0
  3
DMC
 13
2426.684674890405
 23
-1094.90203138025
 33
0.0
 14
2501.684674890404
 24
-1088.224907035783
 34
0.0
1001
ACAD
1000
DSTYLE
1002
{
1070
   140
1040
5.0
1070
   170
1070
     1
1070
   371
1070
     9
1070
   372
1070
     9
1002
}
  0
CIRCLE
  5
15B
  8
回07-寸法
  6
DASHED2
 62
     5
 10
2426.684674890405
 20
-1096.897000937943
 30
0.0
 40
9.346734548717904
  0
TEXT
  5
15D
  8
回07-寸法
  6
CONTINUOUS
 62
     5
 10
2474.024663166118
 20
-1085.557539726726
 30
0.0
 40
5.0
  1
4-R1
1001
ACAD
1000
MTEXTBEGIN
1070
    73
1070
     1
1070
    44
1040
1.0
1070
    74
1070
     0
1000
MTEXTEND
  0
INSERT
  5
15E
  8
回07-寸法
  6
CONTINUOUS
 62
     7
 66
     1
  2
*X42
 10
0.0
 20
0.0
 30
0.0
  0
SEQEND
  5
415
  8
回08-記事
  6
CONTINUOUS
 62
     7
  0
TEXT
  5
15F
  8
回07-寸法
  6
CONTINUOUS
 62
     5
 10
2480.387496289512
 20
-1075.12787305718
 30
0.0
 40
5.0
  1
2-R2
1001
ACAD
1000
MTEXTBEGIN
1070
    73
1070
     1
1070
    44
1040
1.0
1070
    74
1070
     0
1000
MTEXTEND
  0
INSERT
  5
160
  8
回07-寸法
  6
CONTINUOUS
 62
     7
 66
     1
  2
*X43
 10
0.0
 20
0.0
 30
0.0
  0
SEQEND
  5
41C
  8
回08-記事
  6
CONTINUOUS
 62
     7
  0
INSERT
  5
161
  8
回08-記事
  6
CONTINUOUS
 62
     8
 66
     1
  2
*X44
 10
0.0
 20
0.0
 30
0.0
1001
ACAD
1010
0.0
1020
0.0
1030
0.0
  0
SEQEND
  5
43B
  8
回08-記事
  6
CONTINUOUS
 62
     7
  0
POLYLINE
  5
162
  8
回08-記事
  6
CONTINUOUS
 62
     8
 66
     1
 10
0.0
 20
0.0
 30
0.0
 70
     1
1001
ACAD
1000
ASC_BOUNDS
1002
{
1070
    19
1005
161
1002
}
  0
VERTEX
  5
43C
  8
回08-記事
  6
CONTINUOUS
 62
     8
 10
2461.821112547651
 20
-1094.90203138025
 30
0.0
  0
VERTEX
  5
43E
  8
回08-記事
  6
CONTINUOUS
 62
     8
 10
2485.821112547651
 20
-1094.90203138025
 30
0.0
 42
-0.4142135623730951
  0
VERTEX
  5
43F
  8
回08-記事
  6
CONTINUOUS
 62
     8
 10
2486.821112547651
 20
-1095.90203138025
 30
0.0
  0
VERTEX
  5
440
  8
回08-記事
  6
CONTINUOUS
 62
     8
 10
2486.821112547651
 20
-1097.90203138025
 30
0.0
 42
-0.4142135623730951
  0
VERTEX
  5
441
  8
回08-記事
  6
CONTINUOUS
 62
     8
 10
2485.821112547651
 20
-1098.90203138025
 30
0.0
  0
VERTEX
  5
442
  8
回08-記事
  6
CONTINUOUS
 62
     8
 10
2461.821112547651
 20
-1098.90203138025
 30
0.0
 42
-0.4142135623730951
  0
VERTEX
  5
443
  8
回08-記事
  6
CONTINUOUS
 62
     8
 10
2460.821112547651
 20
-1097.90203138025
 30
0.0
  0
VERTEX
  5
444
  8
回08-記事
  6
CONTINUOUS
 62
     8
 10
2460.821112547651
 20
-1095.90203138025
 30
0.0
 42
-0.4142135623730951
  0
SEQEND
  5
43D
  8
回08-記事
  6
CONTINUOUS
 62
     7
  0
TEXT
  5
163
  8
回08-記事
  6
CONTINUOUS
 62
     5
 10
2426.477000443501
 20
-1103.04085723201
 30
0.0
 40
5.0
  1
1
 50
90.0
  0
TEXT
  5
164
  8
回08-記事
  6
CONTINUOUS
 62
     5
 10
2426.399366816792
 20
-1093.882835670483
 30
0.0
 40
5.0
  1
4
 50
90.0
  0
ARC
  5
165
  8
回05-ﾃｰﾙ
  6
BYBLOCK
 62
     7
 10
2500.184674890405
 20
-1106.90203138025
 30
0.0
 40
2.0
 50
41.40962210927023
 51
90.0
  0
LINE
  5
169
  8
回05-ﾃｰﾙ
  6
BYBLOCK
 62
     7
 10
2497.496918567746
 20
-1104.902031380251
 30
0.0
 11
2500.184674890405
 21
-1104.902031380251
 31
0.0
  0
ARC
  5
16A
  8
回05-ﾃｰﾙ
  6
BYBLOCK
 62
     7
 10
2491.148421645608
 20
-1100.402031380251
 30
0.0
 40
1.0
 50
45.11672702029605
 51
90.0
  0
ARC
  5
16B
  8
回05-ﾃｰﾙ
  6
BYBLOCK
 62
     7
 10
2497.496918567745
 20
-1103.90203138025
 30
0.0
 40
1.0
 50
225.1435981442333
 51
270.0
  0
LINE
  5
16C
  8
回05-ﾃｰﾙ
  6
BYBLOCK
 62
     7
 10
2491.854086392358
 20
-1099.693485499455
 30
0.0
 11
2496.791586199228
 21
-1104.610908132529
 31
0.0
  0
ARC
  5
16D
  8
回05-ﾃｰﾙ
  6
BYBLOCK
 62
     7
 10
2491.148421645608
 20
-1093.402031380249
 30
0.0
 40
1.0
 50
270.0
 51
314.8832729797039
  0
ARC
  5
16E
  8
回05-ﾃｰﾙ
  6
BYBLOCK
 62
     7
 10
2497.496918567745
 20
-1089.90203138025
 30
0.0
 40
1.0
 50
90.0
 51
134.8564018557666
  0
ARC
  5
16F
  8
回05-ﾃｰﾙ
  6
BYBLOCK
 62
     7
 10
2500.184674890405
 20
-1086.90203138025
 30
0.0
 40
2.0
 50
270.0
 51
318.5903778907297
  0
LINE
  5
170
  8
回05-ﾃｰﾙ
  6
BYBLOCK
 62
     7
 10
2491.854086392358
 20
-1094.110577261045
 30
0.0
 11
2496.791586199228
 21
-1089.193154627971
 31
0.0
  0
LINE
  5
171
  8
回05-ﾃｰﾙ
  6
BYBLOCK
 62
     7
 10
2497.496918567746
 20
-1088.90203138025
 30
0.0
 11
2500.184674890405
 21
-1088.90203138025
 31
0.0
  0
LINE
  5
172
  8
回05-ﾃｰﾙ
  6
BYBLOCK
 62
     7
 10
2426.684674890405
 20
-1098.90203138025
 30
0.0
 11
2426.684674890405
 21
-1094.90203138025
 31
0.0
  0
ARC
  5
173
  8
回05-ﾃｰﾙ
  6
BYBLOCK
 62
     7
 10
2427.184674890405
 20
-1094.90203138025
 30
0.0
 40
0.5
 50
90.0
 51
180.0
  0
ARC
  5
174
  8
回05-ﾃｰﾙ
  6
BYBLOCK
 62
     7
 10
2427.184674890405
 20
-1098.90203138025
 30
0.0
 40
0.5
 50
180.0
 51
270.0
  0
LINE
  5
175
  8
回05-ﾃｰﾙ
  6
BYBLOCK
 62
     7
 10
2427.184674890405
 20
-1094.40203138025
 30
0.0
 11
2491.148421645608
 21
-1094.40203138025
 31
0.0
  0
LINE
  5
176
  8
回05-ﾃｰﾙ
  6
BYBLOCK
 62
     7
 10
2427.184674890405
 20
-1099.40203138025
 30
0.0
 11
2491.148421645608
 21
-1099.40203138025
 31
0.0
  0
DIMENSION
  5
177
  8
回07-寸法
  6
CONTINUOUS
 62
     5
  2
*D18
 10
2878.184257885932
 20
-1222.897000937944
 30
0.0
 11
2878.18425788593
 21
-1243.147000937945
 31
0.0
 70
   128
  3
DMC
 13
2818.684674890405
 23
-1211.397000937944
 33
0.0
 14
2828.684674890405
 24
-1222.897000937943
 34
0.0
 50
90.0
1001
ACAD
1000
DSTYLE
1002
{
1070
   140
1040
5.0
1070
   170
1070
     1
1070
   371
1070
     9
1070
   372
1070
     9
1002
}
  0
DIMENSION
  5
188
  8
回07-寸法
  6
CONTINUOUS
 62
     5
  2
*D17
 10
2899.416869589481
 20
-970.8970009379445
 30
0.0
 11
2899.416869589481
 21
-949.390233615645
 31
0.0
 70
   128
  1
(<>)
  3
DMC
 13
2820.684674890405
 23
-980.3970009379437
 33
0.0
 14
2826.684674890405
 24
-970.897000937944
 34
0.0
 50
90.0
1001
ACAD
1000
DSTYLE
1002
{
1070
   140
1040
5.0
1070
   170
1070
     1
1070
   371
1070
     9
1070
   372
1070
     9
1002
}
  0
DIMENSION
  5
199
  8
回07-寸法
  6
CONTINUOUS
 62
     5
  2
*D16
 10
2878.184257885931
 20
-970.8970009379445
 30
0.0
 11
2878.18425788593
 21
-948.6489694418805
 31
0.0
 70
   128
  1
(<>)
  3
DMC
 13
2818.684674890405
 23
-982.3970009379436
 33
0.0
 14
2826.684674890405
 24
-970.897000937944
 34
0.0
 50
90.0
1001
ACAD
1000
DSTYLE
1002
{
1070
   140
1040
5.0
1070
   170
1070
     1
1070
   371
1070
     9
1070
   372
1070
     9
1002
}
  0
DIMENSION
  5
1AA
  8
回07-寸法
  6
CONTINUOUS
 62
     5
  2
*D15
 10
2829.684674890405
 20
-934.079844848895
 30
0.0
 11
2848.691442212703
 21
-934.079844848895
 31
0.0
 70
   128
  1
(<>)
  3
DMC
 13
2820.684674890405
 23
-980.3970009379437
 33
0.0
 14
2829.684674890405
 24
-973.8970009379436
 34
0.0
1001
ACAD
1000
DSTYLE
1002
{
1070
   140
1040
5.0
1070
   170
1070
     1
1070
   371
1070
     9
1070
   372
1070
     9
1002
}
  0
DIMENSION
  5
1BB
  8
回07-寸法
  6
CONTINUOUS
 62
     5
  2
*D14
 10
2829.684674890405
 20
-950.0495116440525
 30
0.0
 11
2849.432706386468
 21
-950.0495116440525
 31
0.0
 70
   128
  1
(<>)
  3
DMC
 13
2818.684674890405
 23
-982.3970009379436
 33
0.0
 14
2829.684674890405
 24
-973.8970009379436
 34
0.0
1001
ACAD
1000
DSTYLE
1002
{
1070
   140
1040
5.0
1070
   170
1070
     1
1070
   371
1070
     9
1070
   372
1070
     9
1002
}
  0
DIMENSION
  5
1CC
  8
回07-寸法
  6
CONTINUOUS
 62
     5
  2
*D13
 10
2501.684674890404
 20
-934.079844848895
 30
0.0
 11
2483.425939064169
 21
-934.079844848895
 31
0.0
 70
   128
  3
DMC
 13
2511.684674890405
 23
-980.3970009379437
 33
0.0
 14
2501.684674890404
 24
-971.8970009379441
 34
0.0
1001
ACAD
1000
DSTYLE
1002
{
1070
   140
1040
5.0
1070
   170
1070
     1
1070
   371
1070
     9
1070
   372
1070
     9
1002
}
  0
DIMENSION
  5
1DD
  8
回07-寸法
  6
CONTINUOUS
 62
     5
  2
*D12
 10
2501.684674890404
 20
-950.0495116440525
 30
0.0
 11
2483.434674890405
 21
-950.0495116440525
 31
0.0
 70
   128
  3
DMC
 13
2513.684674890404
 23
-982.3970009379436
 33
0.0
 14
2501.684674890404
 24
-971.8970009379441
 34
0.0
1001
ACAD
1000
DSTYLE
1002
{
1070
   140
1040
5.0
1070
   170
1070
     1
1070
   371
1070
     9
1070
   372
1070
     9
1002
}
  0
TEXT
  5
1EE
  8
回04-下接
  6
CONTINUOUS
 62
     7
 10
2797.989353177786
 20
-1221.691897058197
 30
0.0
 40
2.0
  1
QST-150A
  0
DIMENSION
  5
1EF
  8
回07-寸法
  6
CONTINUOUS
 62
     8
  2
*D11
 10
2917.818467930351
 20
-970.8970009379445
 30
0.0
 11
2914.56846793035
 21
-934.126610386764
 31
0.0
 70
     0
  1
<>{\H0.5938x;(INSULATION AREA)}
  3
DMC
 13
2821.984674890405
 23
-979.0970009379444
 33
0.0
 14
2826.684674890405
 24
-970.897000937944
 34
0.0
 50
90.0
1001
ACAD
1000
DSTYLE
1002
{
1070
   140
1040
5.0
1070
   170
1070
     1
1070
   371
1070
     9
1070
   372
1070
     9
1002
}
  0
DIMENSION
  5
200
  8
回07-寸法
  6
CONTINUOUS
 62
     8
  2
*D10
 10
2501.684674890404
 20
-920.6767207568645
 30
0.0
 11
2464.664284339223
 21
-917.4267207568645
 31
0.0
 70
     0
  1
<>{\H0.5938x;(INSULATION AREA)}
  3
DMC
 13
2510.384674890405
 23
-979.0970009379444
 33
0.0
 14
2501.684674890404
 24
-970.897000937944
 34
0.0
1001
ACAD
1000
DSTYLE
1002
{
1070
   140
1040
5.0
1070
   170
1070
     1
1070
   371
1070
     9
1070
   372
1070
     9
1002
}
  0
DIMENSION
  5
211
  8
回07-寸法
  6
CONTINUOUS
 62
     8
  2
*D9
 10
2829.684674890405
 20
-920.6767207568645
 30
0.0
 11
2866.455065441586
 21
-917.4267207568645
 31
0.0
 70
     0
  1
<>{\H0.5938x;(INSULATION AREA)}
  3
DMC
 13
2821.984674890405
 23
-979.0970009379444
 33
0.0
 14
2829.684674890405
 24
-970.897000937944
 34
0.0
1001
ACAD
1000
DSTYLE
1002
{
1070
   140
1040
5.0
1070
   170
1070
     1
1070
   371
1070
     9
1070
   372
1070
     9
1002
}
  0
DIMENSION
  5
222
  8
回07-寸法
  6
CONTINUOUS
 62
     8
  2
*D8
 10
2821.984674890405
 20
-920.6767207568645
 30
0.0
 11
2666.184674890405
 21
-917.4267207568645
 31
0.0
 70
     0
  3
DMC
 13
2510.384674890405
 23
-979.0970009379444
 33
0.0
 14
2821.984674890405
 24
-979.0970009379444
 34
0.0
1001
ACAD
1000
DSTYLE
1002
{
1070
   140
1040
5.0
1070
   170
1070
     1
1070
   371
1070
     9
1070
   372
1070
     9
1002
}
  0
POLYLINE
  5
231
  8
回08-記事
  6
DASHED2
 62
     7
 66
     1
 10
0.0
 20
0.0
 30
0.0
 70
     1
  0
VERTEX
  5
445
  8
回08-記事
  6
DASHED2
 62
     7
 10
2821.984674890405
 20
-1214.697000937944
 30
0.0
  0
VERTEX
  5
447
  8
回08-記事
  6
DASHED2
 62
     7
 10
2510.384674890405
 20
-1214.697000937944
 30
0.0
  0
VERTEX
  5
448
  8
回08-記事
  6
DASHED2
 62
     7
 10
2510.384674890405
 20
-979.0970009379444
 30
0.0
  0
VERTEX
  5
449
  8
回08-記事
  6
DASHED2
 62
     7
 10
2821.984674890405
 20
-979.0970009379444
 30
0.0
  0
SEQEND
  5
446
  8
回08-記事
  6
CONTINUOUS
 62
     7
  0
TEXT
  5
232
  8
回07-寸法
  6
CONTINUOUS
 62
     5
 10
2768.648924520878
 20
-1230.151640707524
 30
0.0
 40
5.0
  1
Part No.
1001
ACAD
1000
MTEXTBEGIN
1070
    73
1070
     1
1070
    44
1040
1.0
1070
    74
1070
     0
1000
MTEXTEND
  0
INSERT
  5
233
  8
回07-寸法
  6
CONTINUOUS
 62
     7
 66
     1
  2
*X45
 10
0.0
 20
0.0
 30
0.0
  0
SEQEND
  5
450
  8
回08-記事
  6
CONTINUOUS
 62
     7
  0
DIMENSION
  5
234
  8
回07-寸法
  6
CONTINUOUS
 62
     7
  2
*D7
 10
2936.401608031857
 20
-970.8970009379445
 30
0.0
 11
2936.401608031856
 21
-1095.808767330175
 31
0.0
 70
   128
  3
DMC
 13
2828.684674890405
 23
-1222.897000937943
 33
0.0
 14
2826.684674890405
 24
-970.897000937944
 34
0.0
 50
90.0
1001
ACAD
1000
DSTYLE
1002
{
1070
   140
1040
5.0
1070
   170
1070
     1
1070
   371
1070
     9
1070
   372
1070
     9
1002
}
  0
DIMENSION
  5
243
  8
回07-寸法
  6
CONTINUOUS
 62
     7
  2
*D6
 10
2878.184257885931
 20
-982.397000937944
 30
0.0
 11
2878.18425788593
 21
-1096.971820274953
 31
0.0
 70
   128
  1
<> (ACTIVE AREA)
  3
DMC
 13
2818.684674890405
 23
-1211.397000937944
 33
0.0
 14
2818.684674890405
 24
-982.3970009379436
 34
0.0
 50
90.0
1001
ACAD
1000
DSTYLE
1002
{
1070
   140
1040
5.0
1070
   170
1070
     1
1070
   371
1070
     9
1070
   372
1070
     9
1002
}
  0
DIMENSION
  5
252
  8
回07-寸法
  6
CONTINUOUS
 62
     7
  2
*D5
 10
2829.684674890405
 20
-908.5237542441518
 30
0.0
 11
2666.016916623211
 21
-908.5237542441518
 31
0.0
 70
   128
  3
DMC
 13
2501.684674890404
 23
-971.8970009379441
 33
0.0
 14
2829.684674890405
 24
-973.8970009379436
 34
0.0
1001
ACAD
1000
DSTYLE
1002
{
1070
   140
1040
5.0
1070
   170
1070
     1
1070
   371
1070
     9
1070
   372
1070
     9
1002
}
  0
DIMENSION
  5
261
  8
回07-寸法
  6
CONTINUOUS
 62
     7
  2
*D4
 10
2820.684674890405
 20
-934.079844848895
 30
0.0
 11
2666.459175546687
 21
-934.079844848895
 31
0.0
 70
   128
  1
<> (VIEWING AREA)
  3
DMC
 13
2511.684674890405
 23
-980.3970009379437
 33
0.0
 14
2820.684674890405
 24
-980.3970009379437
 34
0.0
1001
ACAD
1000
DSTYLE
1002
{
1070
   140
1040
5.0
1070
   170
1070
     1
1070
   371
1070
     9
1070
   372
1070
     9
1002
}
  0
DIMENSION
  5
270
  8
回07-寸法
  6
CONTINUOUS
 62
     7
  2
*D3
 10
2818.684674890405
 20
-950.0495116440525
 30
0.0
 11
2666.459175546687
 21
-950.0495116440525
 31
0.0
 70
   128
  1
<> (ACTIVE AREA)
  3
DMC
 13
2513.684674890404
 23
-982.3970009379436
 33
0.0
 14
2818.684674890405
 24
-982.3970009379436
 34
0.0
1001
ACAD
1000
DSTYLE
1002
{
1070
   140
1040
5.0
1070
   170
1070
     1
1070
   371
1070
     9
1070
   372
1070
     9
1002
}
  0
TEXT
  5
27F
  8
回07-寸法
  6
CONTINUOUS
 62
     5
 10
2768.118390276012
 20
-1238.690395686395
 30
0.0
 40
5.0
  1
QST-150A
  0
LINE
  5
280
  8
回07-寸法
  6
CENTER2
 62
     5
 10
2831.223639578354
 20
-1096.897000937943
 30
0.0
 11
2421.564191552903
 21
-1096.897000937943
 31
0.0
  0
LINE
  5
282
  8
回07-寸法
  6
CENTER2
 62
     5
 10
2666.184674890405
 20
-969.1761542338495
 30
0.0
 11
2666.184674890405
 21
-1224.920525023792
 31
0.0
  0
TEXT
  5
283
  8
回08-記事
  6
CONTINUOUS
 62
     5
 10
2802.750393891595
 20
-1094.58954687189
 30
0.0
 40
7.0
  1
XR
  0
TEXT
  5
284
  8
回08-記事
  6
CONTINUOUS
 62
     5
 10
2516.206732856553
 20
-1093.94250719153
 30
0.0
 40
7.0
  1
XL
  0
TEXT
  5
285
  8
回08-記事
  6
CONTINUOUS
 62
     5
 10
2650.940283468713
 20
-1209.314481762534
 30
0.0
 40
7.0
  1
YD
  0
TEXT
  5
286
  8
回08-記事
  6
CONTINUOUS
 62
     5
 10
2651.27560463424
 20
-991.1368146550158
 30
0.0
 40
7.0
  1
YU
  0
POLYLINE
  5
287
  8
回04-下接
  6
CONTINUOUS
 62
     7
 66
     1
 10
0.0
 20
0.0
 30
0.0
 70
     1
  0
VERTEX
  5
451
  8
回04-下接
  6
CONTINUOUS
 62
     7
 10
2501.684674890404
 20
-970.897000937944
 30
0.0
  0
VERTEX
  5
453
  8
回04-下接
  6
CONTINUOUS
 62
     7
 10
2829.684674890405
 20
-970.8970009379445
 30
0.0
  0
VERTEX
  5
454
  8
回04-下接
  6
CONTINUOUS
 62
     7
 10
2829.684674890405
 20
-970.8970009379445
 30
0.0
  0
VERTEX
  5
455
  8
回04-下接
  6
CONTINUOUS
 62
     7
 10
2829.684674890405
 20
-1222.897000937944
 30
0.0
  0
VERTEX
  5
456
  8
回04-下接
  6
CONTINUOUS
 62
     7
 10
2829.684674890405
 20
-1222.897000937944
 30
0.0
  0
VERTEX
  5
457
  8
回04-下接
  6
CONTINUOUS
 62
     7
 10
2501.684674890404
 20
-1222.897000937943
 30
0.0
  0
VERTEX
  5
458
  8
回04-下接
  6
CONTINUOUS
 62
     7
 10
2501.684674890404
 20
-1222.897000937943
 30
0.0
  0
VERTEX
  5
459
  8
回04-下接
  6
CONTINUOUS
 62
     7
 10
2501.684674890404
 20
-970.897000937944
 30
0.0
  0
SEQEND
  5
452
  8
回08-記事
  6
CONTINUOUS
 62
     7
  0
LINE
  5
288
  8
回08-記事
  6
CONTINUOUS
 62
     5
 10
2490.16644832539
 20
-1305.987797568573
 30
0.0
 11
2499.468439601255
 21
-1329.285434599591
 31
0.0
  0
LINE
  5
289
  8
回08-記事
  6
CONTINUOUS
 62
     7
 10
2491.938414086561
 20
-1306.468614431223
 30
0.0
 11
2501.684674890404
 21
-1306.468614431223
 31
0.0
  0
DIMENSION
  5
28A
  8
回07-寸法
  6
CONTINUOUS
 62
     7
  2
*D2
 10
2502.184674890405
 20
-1285.854632249506
 30
0.0
 11
2523.432706386468
 21
-1282.604632249506
 31
0.0
 70
     0
  1
(<>)
  3
DMC
 13
2501.684674890404
 23
-1305.468614431221
 33
0.0
 14
2502.184674890405
 24
-1300.395720907388
 34
0.0
1001
ACAD
1000
DSTYLE
1002
{
1070
   140
1040
5.0
1070
   170
1070
     1
1070
   371
1070
     9
1070
   372
1070
     9
1002
}
  0
DIMENSION
  5
29B
  8
回07-寸法
  6
CONTINUOUS
 62
     7
  2
*D1
 10
2829.184674890404
 20
-1292.903729800699
 30
0.0
 11
2807.936643394342
 21
-1289.6537298007
 31
0.0
 70
     0
  1
(<>)
  3
DMC
 13
2829.684674890405
 23
-1303.228500663466
 33
0.0
 14
2829.184674890404
 24
-1300.395720907388
 34
0.0
1001
ACAD
1000
DSTYLE
1002
{
1070
   140
1040
5.0
1070
   170
1070
     1
1070
   371
1070
     9
1070
   372
1070
     9
1002
}
  0
LINE
  5
2AC
  8
回08-記事
  6
CONTINUOUS
 62
     7
 10
2829.184674890404
 20
-1303.228500663466
 30
0.0
 11
2829.184674890404
 21
-1300.395720907388
 31
0.0
  0
LINE
  5
2AD
  8
回08-記事
  6
CONTINUOUS
 62
     5
 10
2502.595304032665
 20
-1310.872614866273
 30
0.0
 11
2514.345343148458
 21
-1318.69696909127
 31
0.0
  0
TEXT
  5
2AE
  8
回08-記事
  6
CONTINUOUS
 62
     5
 10
2515.550474837251
 20
-1322.308819169003
 30
0.0
 40
5.0
  1
PROTECTION TAPE
  0
LINE
  5
2AF
  8
回08-記事
  6
CONTINUOUS
 62
     7
 10
2505.184674890405
 20
-1310.872614866273
 30
0.0
 11
2505.184674890405
 21
-1309.468614431222
 31
0.0
  0
LINE
  5
2B0
  8
回08-記事
  6
CONTINUOUS
 62
     7
 10
2500.160713151655
 20
-1310.872614866273
 30
0.0
 11
2505.184674890405
 21
-1310.872614866273
 31
0.0
  0
LINE
  5
2B1
  8
回08-記事
  6
CONTINUOUS
 62
     7
 10
2500.160713151655
 20
-1307.905100525638
 30
0.0
 11
2500.160713151655
 21
-1310.872614866273
 31
0.0
  0
LINE
  5
2B2
  8
回08-記事
  6
CONTINUOUS
 62
     7
 10
2497.493191886004
 20
-1307.905100525638
 30
0.0
 11
2500.160713151655
 21
-1307.905100525638
 31
0.0
  0
LINE
  5
2B3
  8
回08-記事
  6
CONTINUOUS
 62
     7
 10
2497.493191886004
 20
-1306.468614431223
 30
0.0
 11
2497.493191886004
 21
-1307.905100525638
 31
0.0
  0
POLYLINE
  5
2B4
  8
回08-記事
  6
CONTINUOUS
 62
     7
 66
     1
 10
0.0
 20
0.0
 30
0.0
 70
     1
  0
VERTEX
  5
45A
  8
回08-記事
  6
CONTINUOUS
 62
     7
 10
2460.821112547651
 20
-1307.068614431222
 30
0.0
  0
VERTEX
  5
45C
  8
回08-記事
  6
CONTINUOUS
 62
     7
 10
2486.82111254765
 20
-1307.068614431222
 30
0.0
  0
VERTEX
  5
45D
  8
回08-記事
  6
CONTINUOUS
 62
     7
 10
2486.82111254765
 20
-1306.468614431222
 30
0.0
  0
VERTEX
  5
45E
  8
回08-記事
  6
CONTINUOUS
 62
     7
 10
2460.821112547651
 20
-1306.468614431222
 30
0.0
  0
SEQEND
  5
45B
  8
回08-記事
  6
CONTINUOUS
 62
     7
  0
ARC
  5
2B5
  8
回08-記事
  6
CONTINUOUS
 62
     7
 10
2806.684674890405
 20
-1305.468614431221
 30
0.0
 40
1.0
 50
0.0
 51
180.0
  0
ARC
  5
2B6
  8
回08-記事
  6
CONTINUOUS
 62
     7
 10
2816.684674890405
 20
-1305.468614431221
 30
0.0
 40
1.0
 50
0.0
 51
180.0
  0
LINE
  5
2B7
  8
回08-記事
  6
CONTINUOUS
 62
     7
 10
2829.684674890405
 20
-1309.468614431222
 30
0.0
 11
2829.684674890405
 21
-1303.228500663466
 31
0.0
  0
LINE
  5
2B8
  8
回08-記事
  6
CONTINUOUS
 62
     7
 10
2819.684674890405
 20
-1303.228500663466
 30
0.0
 11
2819.684674890405
 21
-1305.468614431221
 31
0.0
  0
DIMENSION
  5
2B9
  8
回07-寸法
  6
CONTINUOUS
 62
     5
  2
*D32
 10
2842.56106247789
 20
-1309.468614431222
 30
0.0
 11
2839.311062477889
 21
-1336.963484509427
 31
0.0
 70
     0
  1
2.1{\H0.6563x;±0.2}[0.079{\H0.6563x;±0.008}]
  3
DMC
 13
2829.184674890404
 23
-1300.395720907388
 33
0.0
 14
2829.684674890405
 24
-1309.468614431222
 34
0.0
 50
90.0
1001
ACAD
1000
DSTYLE
1002
{
1070
   140
1040
5.0
1070
   170
1070
     1
1070
   371
1070
     9
1070
   372
1070
     9
1002
}
  0
ARC
  5
2CA
  8
回08-記事
  6
CONTINUOUS
 62
     7
 10
2786.684674890405
 20
-1305.468614431221
 30
0.0
 40
1.0
 50
0.0
 51
180.0
  0
ARC
  5
2CB
  8
回08-記事
  6
CONTINUOUS
 62
     7
 10
2796.684674890405
 20
-1305.468614431221
 30
0.0
 40
1.0
 50
0.0
 51
180.0
  0
ARC
  5
2CC
  8
回08-記事
  6
CONTINUOUS
 62
     7
 10
2756.684674890405
 20
-1305.468614431221
 30
0.0
 40
1.0
 50
0.0
 51
180.0
  0
ARC
  5
2CD
  8
回08-記事
  6
CONTINUOUS
 62
     7
 10
2766.684674890405
 20
-1305.468614431221
 30
0.0
 40
1.0
 50
0.0
 51
180.0
  0
ARC
  5
2CE
  8
回08-記事
  6
CONTINUOUS
 62
     7
 10
2776.684674890404
 20
-1305.468614431221
 30
0.0
 40
1.0
 50
0.0
 51
180.0
  0
ARC
  5
2CF
  8
回08-記事
  6
CONTINUOUS
 62
     7
 10
2736.684674890405
 20
-1305.468614431221
 30
0.0
 40
1.0
 50
0.0
 51
180.0
  0
ARC
  5
2D0
  8
回08-記事
  6
CONTINUOUS
 62
     7
 10
2746.684674890405
 20
-1305.468614431221
 30
0.0
 40
1.0
 50
0.0
 51
180.0
  0
ARC
  5
2D1
  8
回08-記事
  6
CONTINUOUS
 62
     7
 10
2706.684674890404
 20
-1305.468614431221
 30
0.0
 40
1.0
 50
0.0
 51
180.0
  0
ARC
  5
2D2
  8
回08-記事
  6
CONTINUOUS
 62
     7
 10
2716.684674890405
 20
-1305.468614431221
 30
0.0
 40
1.0
 50
0.0
 51
180.0
  0
ARC
  5
2D3
  8
回08-記事
  6
CONTINUOUS
 62
     7
 10
2726.684674890405
 20
-1305.468614431221
 30
0.0
 40
1.0
 50
0.0
 51
180.0
  0
ARC
  5
2D4
  8
回08-記事
  6
CONTINUOUS
 62
     7
 10
2686.684674890404
 20
-1305.468614431221
 30
0.0
 40
1.0
 50
0.0
 51
180.0
  0
ARC
  5
2D5
  8
回08-記事
  6
CONTINUOUS
 62
     7
 10
2696.684674890405
 20
-1305.468614431221
 30
0.0
 40
1.0
 50
0.0
 51
180.0
  0
ARC
  5
2D6
  8
回08-記事
  6
CONTINUOUS
 62
     7
 10
2656.684674890405
 20
-1305.468614431221
 30
0.0
 40
1.0
 50
0.0
 51
180.0
  0
ARC
  5
2D7
  8
回08-記事
  6
CONTINUOUS
 62
     7
 10
2666.684674890405
 20
-1305.468614431221
 30
0.0
 40
1.0
 50
0.0
 51
180.0
  0
ARC
  5
2D8
  8
回08-記事
  6
CONTINUOUS
 62
     7
 10
2676.684674890405
 20
-1305.468614431221
 30
0.0
 40
1.0
 50
0.0
 51
180.0
  0
ARC
  5
2D9
  8
回08-記事
  6
CONTINUOUS
 62
     7
 10
2636.684674890405
 20
-1305.468614431221
 30
0.0
 40
1.0
 50
0.0
 51
180.0
  0
ARC
  5
2DA
  8
回08-記事
  6
CONTINUOUS
 62
     7
 10
2646.684674890405
 20
-1305.468614431221
 30
0.0
 40
1.0
 50
0.0
 51
180.0
  0
ARC
  5
2DB
  8
回08-記事
  6
CONTINUOUS
 62
     7
 10
2616.684674890405
 20
-1305.468614431221
 30
0.0
 40
1.0
 50
0.0
 51
180.0
  0
ARC
  5
2DC
  8
回08-記事
  6
CONTINUOUS
 62
     7
 10
2626.684674890404
 20
-1305.468614431221
 30
0.0
 40
1.0
 50
0.0
 51
180.0
  0
TEXT
  5
2DD
  8
回08-記事
  6
CONTINUOUS
 62
     5
 10
2633.839525717363
 20
-1290.162901032385
 30
0.0
 40
5.0
  1
ITO FILM (ANTI-GLARE(ANR))
  0
ARC
  5
2DE
  8
回08-記事
  6
CONTINUOUS
 62
     7
 10
2586.684674890405
 20
-1305.468614431221
 30
0.0
 40
1.0
 50
0.0
 51
180.0
  0
ARC
  5
2DF
  8
回08-記事
  6
CONTINUOUS
 62
     7
 10
2596.684674890405
 20
-1305.468614431221
 30
0.0
 40
1.0
 50
0.0
 51
180.0
  0
ARC
  5
2E0
  8
回08-記事
  6
CONTINUOUS
 62
     7
 10
2566.684674890405
 20
-1305.468614431221
 30
0.0
 40
1.0
 50
0.0
 51
180.0
  0
ARC
  5
2E1
  8
回08-記事
  6
CONTINUOUS
 62
     7
 10
2576.684674890405
 20
-1305.468614431221
 30
0.0
 40
1.0
 50
0.0
 51
180.0
  0
ARC
  5
2E2
  8
回08-記事
  6
CONTINUOUS
 62
     7
 10
2606.684674890404
 20
-1305.468614431221
 30
0.0
 40
1.0
 50
0.0
 51
180.0
  0
LINE
  5
2E3
  8
回08-記事
  6
CONTINUOUS
 62
     5
 10
2616.558740486818
 20
-1308.39708190602
 30
0.0
 11
2628.308779602611
 21
-1315.921766542803
 31
0.0
  0
ARC
  5
2E4
  8
回08-記事
  6
CONTINUOUS
 62
     7
 10
2536.684674890405
 20
-1305.468614431221
 30
0.0
 40
1.0
 50
0.0
 51
180.0
  0
ARC
  5
2E5
  8
回08-記事
  6
CONTINUOUS
 62
     7
 10
2546.684674890405
 20
-1305.468614431221
 30
0.0
 40
1.0
 50
0.0
 51
180.0
  0
ARC
  5
2E6
  8
回08-記事
  6
CONTINUOUS
 62
     7
 10
2516.684674890405
 20
-1305.468614431221
 30
0.0
 40
1.0
 50
0.0
 51
180.0
  0
ARC
  5
2E7
  8
回08-記事
  6
CONTINUOUS
 62
     7
 10
2526.684674890404
 20
-1305.468614431221
 30
0.0
 40
1.0
 50
0.0
 51
180.0
  0
LINE
  5
2E8
  8
回08-記事
  6
CONTINUOUS
 62
     7
 10
2512.684674890405
 20
-1303.228500663466
 30
0.0
 11
2512.684674890405
 21
-1305.468614431221
 31
0.0
  0
LINE
  5
2E9
  8
回08-記事
  6
CONTINUOUS
 62
     7
 10
2502.184674890405
 20
-1303.228500663466
 30
0.0
 11
2502.184674890405
 21
-1300.395720907388
 31
0.0
  0
TEXT
  5
2EA
  8
回08-記事
  6
CONTINUOUS
 62
     5
 10
2501.578568305453
 20
-1332.443253002213
 30
0.0
 40
5.0
  1
REINFORCEMENT FILM
  0
LINE
  5
2EB
  8
回08-記事
  6
CONTINUOUS
 62
     7
 10
2501.684674890404
 20
-1309.468614431222
 30
0.0
 11
2501.684674890404
 21
-1305.468614431221
 31
0.0
  0
LINE
  5
2EC
  8
回08-記事
  6
CONTINUOUS
 62
     5
 10
2458.690770951883
 20
-1304.413072908878
 30
0.0
 11
2457.483523443479
 21
-1314.600621052243
 31
0.0
  0
TEXT
  5
2ED
  8
回08-記事
  6
CONTINUOUS
 62
     5
 10
2455.242531518793
 20
-1320.887368366833
 30
0.0
 40
5.0
  1
TAIL
  0
LINE
  5
2EE
  8
回08-記事
  6
CONTINUOUS
 62
     5
 10
2623.294618290366
 20
-1299.794497782345
 30
0.0
 11
2633.839525717363
 21
-1289.259937216454
 31
0.0
  0
TEXT
  5
2EF
  8
回08-記事
  6
CONTINUOUS
 62
     5
 10
2629.513911291404
 20
-1319.533616620536
 30
0.0
 40
5.0
  1
ITO GLASS
  0
ARC
  5
2F0
  8
回08-記事
  6
CONTINUOUS
 62
     7
 10
2556.684674890405
 20
-1305.468614431221
 30
0.0
 40
1.0
 50
0.0
 51
180.0
  0
TEXT
  5
2F1
  8
回08-記事
  6
CONTINUOUS
 62
     5
 10
2443.312880599819
 20
-1295.194696475597
 30
0.0
 40
5.0
  1
STIFFENER
  0
LINE
  5
2F2
  8
回08-記事
  6
CONTINUOUS
 62
     5
 10
2446.014391453579
 20
-1295.522125854551
 30
0.0
 11
2435.174559952366
 21
-1301.782508465195
 31
0.0
  0
LINE
  5
2F3
  8
回08-記事
  6
CONTINUOUS
 62
     5
 10
2493.483774043143
 20
-1302.62217569628
 30
0.0
 11
2499.468439601255
 21
-1329.285434599591
 31
0.0
  0
LINE
  5
2F4
  8
回08-記事
  6
CONTINUOUS
 62
     7
 10
2502.184674890405
 20
-1302.228500663465
 30
0.0
 11
2491.938414086561
 21
-1302.228500663465
 31
0.0
  0
LINE
  5
2F5
  8
回08-記事
  6
CONTINUOUS
 62
     7
 10
2829.684674890405
 20
-1303.228500663466
 30
0.0
 11
2426.684674890405
 21
-1303.228500663466
 31
0.0
  0
LINE
  5
2F6
  8
回08-記事
  6
CONTINUOUS
 62
     7
 10
2829.684674890405
 20
-1305.468614431221
 30
0.0
 11
2426.684674890405
 21
-1305.468614431221
 31
0.0
  0
LINE
  5
2F7
  8
回08-記事
  6
CONTINUOUS
 62
     7
 10
2829.184674890404
 20
-1300.395720907388
 30
0.0
 11
2502.184674890405
 21
-1300.395720907388
 31
0.0
  0
LINE
  5
2F8
  8
回08-記事
  6
CONTINUOUS
 62
     7
 10
2829.684674890405
 20
-1309.468614431222
 30
0.0
 11
2501.684674890404
 21
-1309.468614431222
 31
0.0
  0
TEXT
  5
2F9
  8
回08-記事
  6
CONTINUOUS
 62
     5
 10
2952.932757167826
 20
-1067.792494275616
 30
0.0
 40
5.0
  1
PIN ASSIGNMENT
  0
LINE
  5
2FA
  8
回08-記事
  6
CONTINUOUS
 62
     5
 10
2982.518857745384
 20
-1049.191534860232
 30
0.0
 11
2955.852454219462
 21
-1049.191534860232
 31
0.0
  0
TEXT
  5
2FB
  8
回08-記事
  6
CONTINUOUS
 62
     5
 10
2950.400102127386
 20
-1002.20227864529
 30
0.0
 40
5.079314957318453
  1
4
  0
TEXT
  5
2FC
  8
回08-記事
  6
CONTINUOUS
 62
     5
 10
2998.315704858207
 20
-1038.21338114593
 30
0.0
 40
4.444400587653645
  1
XR
  0
LINE
  5
2FD
  8
回08-記事
  6
CONTINUOUS
 62
     5
 10
3002.201203204993
 20
-1031.73138969445
 30
0.0
 11
3002.201203204993
 21
-999.9856712112103
 31
0.0
  0
LINE
  5
2FE
  8
回08-記事
  6
CONTINUOUS
 62
     5
 10
2998.074259802172
 20
-1031.73138969445
 30
0.0
 11
3002.201203204993
 21
-1031.73138969445
 31
0.0
  0
LINE
  5
2FF
  8
回08-記事
  6
CONTINUOUS
 62
     5
 10
2989.756881559562
 20
-1030.080612333322
 30
0.0
 11
2992.042573290356
 21
-1034.651995794908
 31
0.0
  0
LINE
  5
300
  8
回08-記事
  6
CONTINUOUS
 62
     5
 10
2987.47118982877
 20
-1034.651995794908
 30
0.0
 11
2989.756881559562
 21
-1030.080612333322
 31
0.0
  0
LINE
  5
301
  8
回08-記事
  6
CONTINUOUS
 62
     5
 10
2992.042573290356
 20
-1034.651995794908
 30
0.0
 11
2994.32826502115
 21
-1030.080612333322
 31
0.0
  0
LINE
  5
302
  8
回08-記事
  6
CONTINUOUS
 62
     5
 10
2994.32826502115
 20
-1030.080612333322
 30
0.0
 11
2996.613956751943
 21
-1034.651995794908
 31
0.0
  0
LINE
  5
303
  8
回08-記事
  6
CONTINUOUS
 62
     5
 10
2996.613956751943
 20
-1034.651995794908
 30
0.0
 11
2998.074259802172
 21
-1031.73138969445
 31
0.0
  0
LINE
  5
304
  8
回08-記事
  6
CONTINUOUS
 62
     5
 10
2978.328422905596
 20
-1034.651995794908
 30
0.0
 11
2980.614114636389
 21
-1030.080612333322
 31
0.0
  0
LINE
  5
305
  8
回08-記事
  6
CONTINUOUS
 62
     5
 10
2973.75703944401
 20
-1034.651995794908
 30
0.0
 11
2976.042731174803
 21
-1030.080612333322
 31
0.0
  0
LINE
  5
306
  8
回08-記事
  6
CONTINUOUS
 62
     5
 10
2976.042731174803
 20
-1030.080612333322
 30
0.0
 11
2978.328422905596
 21
-1034.651995794908
 31
0.0
  0
LINE
  5
307
  8
回08-記事
  6
CONTINUOUS
 62
     5
 10
2980.233166014591
 20
-1029.890138022422
 30
0.0
 11
2984.804549476177
 21
-1032.175829753216
 31
0.0
  0
LINE
  5
308
  8
回08-記事
  6
CONTINUOUS
 62
     5
 10
2980.233166014591
 20
-1025.318754560836
 30
0.0
 11
2984.804549476177
 21
-1027.604446291629
 31
0.0
  0
LINE
  5
309
  8
回08-記事
  6
CONTINUOUS
 62
     5
 10
2980.233166014591
 20
-1025.318754560836
 30
0.0
 11
2984.804549476177
 21
-1023.033062830042
 31
0.0
  0
LINE
  5
30A
  8
回08-記事
  6
CONTINUOUS
 62
     5
 10
2980.233166014591
 20
-1029.890138022422
 30
0.0
 11
2984.804549476177
 21
-1027.604446291629
 31
0.0
  0
LINE
  5
30B
  8
回08-記事
  6
CONTINUOUS
 62
     5
 10
2980.233166014591
 20
-1039.032904945596
 30
0.0
 11
2984.804549476177
 21
-1036.747213214802
 31
0.0
  0
LINE
  5
30C
  8
回08-記事
  6
CONTINUOUS
 62
     5
 10
2980.233166014591
 20
-1034.461521484009
 30
0.0
 11
2984.804549476177
 21
-1036.747213214802
 31
0.0
  0
LINE
  5
30D
  8
回08-記事
  6
CONTINUOUS
 62
     5
 10
2980.233166014591
 20
-1034.461521484009
 30
0.0
 11
2984.804549476177
 21
-1032.175829753216
 31
0.0
  0
LINE
  5
30E
  8
回08-記事
  6
CONTINUOUS
 62
     5
 10
2982.518857745384
 20
-1021.890216964646
 30
0.0
 11
2984.804549476177
 21
-1023.033062830042
 31
0.0
  0
LINE
  5
30F
  8
回08-記事
  6
CONTINUOUS
 62
     5
 10
2980.614114636389
 20
-1030.080612333322
 30
0.0
 11
2982.899806367183
 21
-1034.651995794908
 31
0.0
  0
LINE
  5
310
  8
回08-記事
  6
CONTINUOUS
 62
     5
 10
2982.899806367183
 20
-1034.651995794908
 30
0.0
 11
2985.185498097976
 21
-1030.080612333322
 31
0.0
  0
LINE
  5
311
  8
回08-記事
  6
CONTINUOUS
 62
     5
 10
2982.518857745384
 20
-1021.890216964646
 30
0.0
 11
2982.518857745384
 21
-1018.080730746657
 31
0.0
  0
TEXT
  5
312
  8
回08-記事
  6
CONTINUOUS
 62
     5
 10
2961.214279067024
 20
-1031.139487248542
 30
0.0
 40
4.444400587653645
  1
XL
  0
LINE
  5
313
  8
回08-記事
  6
CONTINUOUS
 62
     5
 10
2970.011044662987
 20
-1033.00121843378
 30
0.0
 11
2971.471347713216
 21
-1030.080612333322
 31
0.0
  0
LINE
  5
314
  8
回08-記事
  6
CONTINUOUS
 62
     5
 10
2971.471347713216
 20
-1030.080612333322
 30
0.0
 11
2973.75703944401
 21
-1034.651995794908
 31
0.0
  0
LINE
  5
315
  8
回08-記事
  6
CONTINUOUS
 62
     5
 10
2980.233166014591
 20
-1043.604288407182
 30
0.0
 11
2984.804549476177
 21
-1041.318596676389
 31
0.0
  0
LINE
  5
316
  8
回08-記事
  6
CONTINUOUS
 62
     5
 10
2980.233166014591
 20
-1043.604288407182
 30
0.0
 11
2982.518857745384
 21
-1044.747134272579
 31
0.0
  0
LINE
  5
317
  8
回08-記事
  6
CONTINUOUS
 62
     5
 10
2982.518857745384
 20
-1049.191534860232
 30
0.0
 11
2982.518857745384
 21
-1044.747134272579
 31
0.0
  0
TEXT
  5
318
  8
回08-記事
  6
CONTINUOUS
 62
     5
 10
2970.843654952925
 20
-1047.38115153752
 30
0.0
 40
4.444400587653645
  1
YD
  0
LINE
  5
319
  8
回08-記事
  6
CONTINUOUS
 62
     5
 10
2980.233166014591
 20
-1039.032904945596
 30
0.0
 11
2984.804549476177
 21
-1041.318596676389
 31
0.0
  0
TEXT
  5
31A
  8
回08-記事
  6
CONTINUOUS
 62
     5
 10
2950.88732235305
 20
-1052.029298324049
 30
0.0
 40
5.079314957318453
  1
1
  0
TEXT
  5
31B
  8
回08-記事
  6
CONTINUOUS
 62
     5
 10
2950.497833893077
 20
-1035.888427483001
 30
0.0
 40
5.079314957318453
  1
2
  0
TEXT
  5
31C
  8
回08-記事
  6
CONTINUOUS
 62
     5
 10
2950.690347297515
 20
-1020.461277209209
 30
0.0
 40
5.079314957318453
  1
3
  0
LINE
  5
31D
  8
回08-記事
  6
CONTINUOUS
 62
     5
 10
2955.852454219462
 20
-1018.080730746657
 30
0.0
 11
2982.518857745384
 21
-1018.080730746657
 31
0.0
  0
LINE
  5
31E
  8
回08-記事
  6
CONTINUOUS
 62
     5
 10
2955.852454219462
 20
-1033.00121843378
 30
0.0
 11
2970.011044662987
 21
-1033.00121843378
 31
0.0
  0
TEXT
  5
31F
  8
回08-記事
  6
CONTINUOUS
 62
     5
 10
2983.766106242029
 20
-1016.608662288328
 30
0.0
 40
4.444400587653645
  1
YU
  0
LINE
  5
320
  8
回08-記事
  6
CONTINUOUS
 62
     5
 10
2985.185498097976
 20
-1030.080612333322
 30
0.0
 11
2987.47118982877
 21
-1034.651995794908
 31
0.0
  0
LINE
  5
321
  8
回08-記事
  6
CONTINUOUS
 62
     5
 10
2955.852454219462
 20
-999.9856712112103
 30
0.0
 11
3002.201203204993
 21
-999.9856712112103
 31
0.0
  0
DIMENSION
  5
322
  8
回08-記事
  6
CONTINUOUS
 62
     7
  2
*D36
 10
2337.711102102679
 20
-1194.596363181441
 30
0.0
 11
2334.461102102678
 21
-1212.598331685378
 31
0.0
 70
     0
  1
0.6[0.024]
  3
DMC
 13
2344.149183758218
 23
-1192.19636318144
 33
0.0
 14
2344.149183758218
 24
-1194.59636318144
 34
0.0
 50
90.0
1001
ACAD
1000
DSTYLE
1002
{
1070
   140
1040
5.0
1070
   170
1070
     1
1070
   371
1070
     9
1070
   372
1070
     9
1002
}
  0
LINE
  5
333
  8
回08-記事
  6
CONTINUOUS
 62
     7
 10
2364.149183758218
 20
-1177.39636318144
 30
0.0
 11
2364.149183758218
 21
-1197.396363181441
 31
0.0
  0
DIMENSION
  5
334
  8
回07-寸法
  6
CONTINUOUS
 62
     7
  2
*D35
 10
2328.340922138429
 20
-1189.396363181441
 30
0.0
 11
2328.340922138428
 21
-1210.473943335191
 31
0.0
 70
   128
  1
1[0.039]
  3
DMC
 13
2344.149183758218
 23
-1193.39636318144
 33
0.0
 14
2344.149183758218
 24
-1189.39636318144
 34
0.0
 50
90.0
1001
ACAD
1000
DSTYLE
1002
{
1070
   140
1040
5.0
1070
   170
1070
     1
1070
   371
1070
     9
1070
   372
1070
     9
1002
}
  0
DIMENSION
  5
345
  8
回07-寸法
  6
CONTINUOUS
 62
     7
  2
*D34
 10
2318.570199659717
 20
-1193.396363181441
 30
0.0
 11
2318.570199659717
 21
-1210.311522493754
 31
0.0
 70
   128
  1
3[0.118]
  3
DMC
 13
2344.149183758218
 23
-1181.39636318144
 33
0.0
 14
2344.149183758218
 24
-1193.39636318144
 34
0.0
 50
90.0
1001
ACAD
1000
DSTYLE
1002
{
1070
   140
1040
5.0
1070
   170
1070
     1
1070
   371
1070
     9
1070
   372
1070
     9
1002
}
  0
DIMENSION
  5
356
  8
回07-寸法
  6
CONTINUOUS
 62
     7
  2
*D33
 10
2309.226615350959
 20
-1197.396363181441
 30
0.0
 11
2305.976615350958
 21
-1222.322274007678
 31
0.0
 70
     0
  1
5{\H0.6667x;±0.1}[0.197{\H0.6667x;±0.004}]
  3
DMC
 13
2346.149183758218
 23
-1177.39636318144
 33
0.0
 14
2346.149183758218
 24
-1197.396363181441
 34
0.0
 50
90.0
1001
ACAD
1000
DSTYLE
1002
{
1070
   140
1040
5.0
1070
   170
1070
     1
1070
   371
1070
     9
1070
   372
1070
     9
1002
}
  0
TEXT
  5
367
  8
ACC
  6
CONTINUOUS
 62
     7
 10
2348.790508267905
 20
-1175.798103657486
 30
0.0
 40
5.0
  1
4
 50
90.0
  0
TEXT
  5
36B
  8
ACC
  6
CONTINUOUS
 62
     7
 10
2348.790508267905
 20
-1201.269495795854
 30
0.0
 40
5.0
  1
1
 50
90.0
  0
POLYLINE
  5
36C
  8
ACC
  6
CONTINUOUS
 62
     8
 66
     1
 10
0.0
 20
0.0
 30
0.0
 40
2.399999999999999
 41
2.399999999999999
  0
VERTEX
  5
45F
  8
ACC
  6
CONTINUOUS
 62
     8
 10
2344.149183758218
 20
-1189.39636318144
 30
0.0
  0
VERTEX
  5
461
  8
ACC
  6
CONTINUOUS
 62
     8
 10
2364.149183758218
 20
-1189.39636318144
 30
0.0
  0
SEQEND
  5
460
  8
回08-記事
  6
CONTINUOUS
 62
     7
  0
POLYLINE
  5
36D
  8
ACC
  6
CONTINUOUS
 62
     8
 66
     1
 10
0.0
 20
0.0
 30
0.0
 40
2.399999999999999
 41
2.399999999999999
  0
VERTEX
  5
462
  8
ACC
  6
CONTINUOUS
 62
     8
 10
2344.149183758218
 20
-1193.39636318144
 30
0.0
  0
VERTEX
  5
464
  8
ACC
  6
CONTINUOUS
 62
     8
 10
2364.149183758218
 20
-1193.39636318144
 30
0.0
  0
SEQEND
  5
463
  8
回08-記事
  6
CONTINUOUS
 62
     7
  0
POLYLINE
  5
36E
  8
ACC
  6
CONTINUOUS
 62
     8
 66
     1
 10
0.0
 20
0.0
 30
0.0
 40
2.399999999999999
 41
2.399999999999999
  0
VERTEX
  5
465
  8
ACC
  6
CONTINUOUS
 62
     8
 10
2344.149183758218
 20
-1181.39636318144
 30
0.0
  0
VERTEX
  5
467
  8
ACC
  6
CONTINUOUS
 62
     8
 10
2364.149183758218
 20
-1181.39636318144
 30
0.0
  0
SEQEND
  5
466
  8
回08-記事
  6
CONTINUOUS
 62
     7
  0
POLYLINE
  5
36F
  8
ACC
  6
CONTINUOUS
 62
     8
 66
     1
 10
0.0
 20
0.0
 30
0.0
 40
2.399999999999999
 41
2.399999999999999
  0
VERTEX
  5
468
  8
ACC
  6
CONTINUOUS
 62
     8
 10
2344.149183758218
 20
-1185.39636318144
 30
0.0
  0
VERTEX
  5
46A
  8
ACC
  6
CONTINUOUS
 62
     8
 10
2364.149183758218
 20
-1185.39636318144
 30
0.0
  0
SEQEND
  5
469
  8
回08-記事
  6
CONTINUOUS
 62
     7
  0
LINE
  5
370
  8
ACC
  6
BYBLOCK
 62
     8
 10
2344.149183758218
 20
-1195.39636318144
 30
0.0
 11
2344.149183758218
 21
-1179.39636318144
 31
0.0
  0
ARC
  5
371
  8
ACC
  6
BYBLOCK
 62
     8
 10
2346.149183758218
 20
-1179.39636318144
 30
0.0
 40
2.0
 50
90.0
 51
180.0
  0
ARC
  5
372
  8
ACC
  6
BYBLOCK
 62
     8
 10
2346.149183758218
 20
-1195.39636318144
 30
0.0
 40
2.0
 50
180.0
 51
270.0
  0
LINE
  5
373
  8
ACC
  6
BYBLOCK
 62
     8
 10
2346.149183758218
 20
-1177.39636318144
 30
0.0
 11
2370.137396003749
 21
-1177.39636318144
 31
0.0
  0
LINE
  5
374
  8
ACC
  6
BYBLOCK
 62
     8
 10
2346.149183758218
 20
-1197.396363181441
 30
0.0
 11
2370.137396003749
 21
-1197.396363181441
 31
0.0
  0
TEXT
  5
375
  8
回08-記事
  6
CONTINUOUS
 62
     5
 10
2335.869423714856
 20
-1165.399290054065
 30
0.0
 40
5.0
  1
SECTION A
  0
TEXT
  5
376
  8
回91-枠英1
 10
2969.929044278862
 20
-1384.114773754375
 30
0.0
 40
6.666665
  1
Oct/06/2023
 72
     1
 11
2995.262371278862
 21
-1384.114773754375
 31
0.0
  0
TEXT
  5
37A
  8
回91-枠英1
 10
2988.862372878862
 20
-1372.840948940657
 30
0.0
 40
3.999999
  1
DATE
 72
     1
 11
2995.262371278862
 21
-1372.840948940657
 31
0.0
  0
LINE
  5
37B
  8
回91-枠英1
 10
3036.599248260162
 20
-1387.43728251739
 30
0.0
 11
2949.932603260162
 21
-1387.43728251739
 31
0.0
  0
LINE
  5
37C
  8
回91-枠英1
 10
3036.599248260163
 20
-1367.437287517391
 30
0.0
 11
2949.932603260162
 21
-1367.437287517391
 31
0.0
  0
LINE
  5
37D
  8
回91-枠英1
 10
3036.599248260163
 20
-1374.10395251739
 30
0.0
 11
2949.932603260162
 21
-1374.10395251739
 31
0.0
  0
TEXT
  5
37E
  8
回91-枠英1
 10
3038.003669263823
 20
-914.6485902215314
 30
0.0
 40
4.0
  1
1
  0
TEXT
  5
37F
  8
回91-枠英1
 10
2995.328633565815
 20
-867.0648543913394
 30
0.0
 40
4.0
  1
J
  0
LINE
  5
380
  8
回91-枠英1
 10
3041.599248260164
 20
-957.4372775173905
 30
0.0
 11
3036.599248260163
 21
-957.4372775173905
 31
0.0
  0
TEXT
  5
381
  8
回91-枠英1
 10
3037.70217056052
 20
-1004.648590221531
 30
0.0
 40
4.0
  1
2
  0
LINE
  5
382
  8
回91-枠英1
 10
3041.599248260164
 20
-1047.43727751739
 30
0.0
 11
3036.599248260163
 21
-1047.43727751739
 31
0.0
  0
TEXT
  5
383
  8
回91-枠英1
 10
3037.69668971632
 20
-1094.648590221531
 30
0.0
 40
4.0
  1
3
  0
LINE
  5
384
  8
回91-枠英1
 10
3041.599248260164
 20
-1137.43727751739
 30
0.0
 11
3036.599248260163
 21
-1137.43727751739
 31
0.0
  0
TEXT
  5
385
  8
回91-枠英1
 10
3037.623597596238
 20
-1184.648590221531
 30
0.0
 40
4.0
  1
4
  0
LINE
  5
386
  8
回91-枠英1
 10
2956.599248260163
 20
-862.4372775173906
 30
0.0
 11
2956.599248260163
 21
-867.4372775173905
 31
0.0
  0
TEXT
  5
387
  8
回91-枠英1
 10
2915.328633565815
 20
-867.0648543913394
 30
0.0
 40
4.0
  1
I
  0
LINE
  5
388
  8
回91-枠英1
 10
2876.599248260163
 20
-862.4372775173906
 30
0.0
 11
2876.599248260163
 21
-867.4372775173905
 31
0.0
  0
TEXT
  5
389
  8
回91-枠英1
 10
2835.328633565815
 20
-867.0648543913394
 30
0.0
 40
4.0
  1
H
  0
LINE
  5
38A
  8
回91-枠英1
 10
2796.599248260163
 20
-862.4372775173906
 30
0.0
 11
2796.599248260163
 21
-867.4372775173905
 31
0.0
  0
TEXT
  5
38B
  8
回91-枠英1
 10
2755.328633565815
 20
-867.0648543913394
 30
0.0
 40
4.0
  1
G
  0
LINE
  5
38C
  8
回91-枠英1
 10
3041.599248260164
 20
-1227.43727751739
 30
0.0
 11
3036.599248260163
 21
-1227.43727751739
 31
0.0
  0
TEXT
  5
38D
  8
回91-枠英1
 10
3037.623597596238
 20
-1274.648590221531
 30
0.0
 40
4.0
  1
5
  0
LINE
  5
38E
  8
回91-枠英1
 10
3041.599248260164
 20
-1317.437277517391
 30
0.0
 11
3036.599248260163
 21
-1317.437277517391
 31
0.0
  0
TEXT
  5
38F
  8
回91-枠英1
 10
3037.623597596238
 20
-1364.648590221531
 30
0.0
 40
4.0
  1
6
  0
TEXT
  5
390
  8
回91-枠英1
 10
2995.328633565815
 20
-1412.064854391339
 30
0.0
 40
4.0
  1
J
  0
LINE
  5
391
  8
回91-枠英1
 10
2956.599248260163
 20
-1407.43727751739
 30
0.0
 11
2956.599248260163
 21
-1412.437277517391
 31
0.0
  0
LINE
  5
392
  8
回91-枠英1
 10
2949.932603260162
 20
-1367.437287517391
 30
0.0
 11
2949.932603260162
 21
-1407.43727751739
 31
0.0
  0
TEXT
  5
393
  8
回91-枠英1
 10
2900.199282360162
 20
-1393.11245484583
 30
0.0
 40
3.999999
  1
TYPE
 72
     1
 11
2906.599280760162
 21
-1393.11245484583
 31
0.0
  0
TEXT
  5
394
  8
回91-枠英1
 10
2915.328633565815
 20
-1412.064854391339
 30
0.0
 40
4.0
  1
I
  0
LINE
  5
395
  8
回91-枠英1
 10
2876.599248260163
 20
-1407.43727751739
 30
0.0
 11
2876.599248260163
 21
-1412.437277517391
 31
0.0
  0
LINE
  5
396
  8
回91-枠英1
 10
2863.265958260162
 20
-1367.437287517391
 30
0.0
 11
2863.265958260162
 21
-1407.43727751739
 31
0.0
  0
TEXT
  5
397
  8
回91-枠英1
 10
2876.932621510162
 20
-1384.114773754375
 30
0.0
 40
6.666665
  1
QST-150A075H
 72
     1
 11
2906.599280760162
 21
-1384.114773754375
 31
0.0
  0
LINE
  5
398
  8
回91-枠英1
 10
2867.265957260162
 20
-1400.77061251739
 30
0.0
 11
2945.932604260162
 21
-1400.77061251739
 31
0.0
  0
TEXT
  5
399
  8
回91-枠英1
 10
2875.478501138784
 20
-1399.23723859222
 30
0.0
 40
3.999999
  1
STANDARD TOUCHSCREEN
 72
     1
 11
2906.599280760162
 21
-1399.23723859222
 31
0.0
  0
TEXT
  5
39A
  8
回91-枠英1
 10
2878.799287710162
 20
-1405.90390359222
 30
0.0
 40
3.999999
  1
DIMENSIONAL DRAWING
 72
     1
 11
2906.599280760162
 21
-1405.90390359222
 31
0.0
  0
TEXT
  5
39B
  8
回91-枠英1
 10
2893.999283910162
 20
-1372.840948940657
 30
0.0
 40
3.999999
  1
PART　No.
 72
     1
 11
2906.599280760162
 21
-1372.840948940657
 31
0.0
  0
TEXT
  5
39C
  8
回91-枠英1
 10
2835.328633565815
 20
-1412.064854391339
 30
0.0
 40
4.0
  1
H
  0
LINE
  5
39D
  8
回91-枠英1
 10
2796.599248260163
 20
-1407.43727751739
 30
0.0
 11
2796.599248260163
 21
-1412.437277517391
 31
0.0
  0
TEXT
  5
39E
  8
回91-枠英1
 10
2755.328633565815
 20
-1412.064854391339
 30
0.0
 40
4.0
  1
G
  0
LINE
  5
39F
  8
回91-枠英1
 10
2863.265958260162
 20
-1387.43728251739
 30
0.0
 11
2949.932603260162
 21
-1387.43728251739
 31
0.0
  0
LINE
  5
3A0
  8
回91-枠英1
 10
2863.265958260162
 20
-1394.103947517391
 30
0.0
 11
2949.932603260162
 21
-1394.103947517391
 31
0.0
  0
TEXT
  5
3A1
  8
回91-枠英1
 10
2970.325453246543
 20
-1400.946523775085
 30
0.0
 40
6.666665
  1
DMC Co., Ltd.
 72
     1
 11
2996.825446621543
 21
-1400.946523775085
 31
0.0
  0
LINE
  5
3A2
  8
回91-枠英1
 10
2863.265958260162
 20
-1367.437287517391
 30
0.0
 11
2949.932603260162
 21
-1367.437287517391
 31
0.0
  0
LINE
  5
3A3
  8
回91-枠英1
 10
2863.265958260162
 20
-1374.10395251739
 30
0.0
 11
2949.932603260162
 21
-1374.10395251739
 31
0.0
  0
LINE
  5
3A4
  8
回91-枠英1
 10
3036.599248260163
 20
-867.4372775173905
 30
0.0
 11
3036.599248260163
 21
-1407.43727751739
 31
0.0
  0
LINE
  5
3A5
  8
回91-枠英1
 10
3041.599248260164
 20
-1412.437277517391
 30
0.0
 11
3041.599248260164
 21
-862.4372775173906
 31
0.0
  0
LINE
  5
3A6
  8
回91-枠英1
 10
2716.599248260163
 20
-862.4372775173906
 30
0.0
 11
2716.599248260163
 21
-867.4372775173905
 31
0.0
  0
TEXT
  5
3A7
  8
回91-枠英1
 10
2675.328633565815
 20
-867.0648543913394
 30
0.0
 40
4.0
  1
F
  0
LINE
  5
3A8
  8
回91-枠英1
 10
2636.599248260163
 20
-862.4372775173906
 30
0.0
 11
2636.599248260163
 21
-867.4372775173905
 31
0.0
  0
TEXT
  5
3A9
  8
回91-枠英1
 10
2595.328633565815
 20
-867.0648543913394
 30
0.0
 40
4.0
  1
E
  0
LINE
  5
3AA
  8
回91-枠英1
 10
2556.599248260163
 20
-862.4372775173906
 30
0.0
 11
2556.599248260163
 21
-867.4372775173905
 31
0.0
  0
TEXT
  5
3AB
  8
回91-枠英1
 10
2515.328633565815
 20
-867.0648543913394
 30
0.0
 40
4.0
  1
D
  0
LINE
  5
3AC
  8
回91-枠英1
 10
2476.599248260163
 20
-862.4372775173906
 30
0.0
 11
2476.599248260163
 21
-867.4372775173905
 31
0.0
  0
TEXT
  5
3AD
  8
回91-枠英1
 10
2435.328633565815
 20
-867.0648543913394
 30
0.0
 40
4.0
  1
C
  0
LINE
  5
3AE
  8
回91-枠英1
 10
2396.599248260163
 20
-862.4372775173906
 30
0.0
 11
2396.599248260163
 21
-867.4372775173905
 31
0.0
  0
TEXT
  5
3AF
  8
回91-枠英1
 10
2355.328633565815
 20
-867.0648543913394
 30
0.0
 40
4.0
  1
B
  0
LINE
  5
3B0
  8
回91-枠英1
 10
2316.599248260164
 20
-862.4372775173906
 30
0.0
 11
2316.599248260164
 21
-867.4372775173905
 31
0.0
  0
TEXT
  5
3B1
  8
回91-枠英1
 10
2275.328633565815
 20
-867.0648543913394
 30
0.0
 40
4.0
  1
A
  0
TEXT
  5
3B2
  8
回91-枠英1
 10
2233.003669263823
 20
-914.6485902215314
 30
0.0
 40
4.0
  1
1
  0
LINE
  5
3B3
  8
回91-枠英1
 10
2236.599248260163
 20
-957.4372775173905
 30
0.0
 11
2231.599248260163
 21
-957.4372775173905
 31
0.0
  0
TEXT
  5
3B4
  8
回91-枠英1
 10
2232.70217056052
 20
-1004.648590221531
 30
0.0
 40
4.0
  1
2
  0
LINE
  5
3B5
  8
回91-枠英1
 10
2236.599248260163
 20
-1047.43727751739
 30
0.0
 11
2231.599248260163
 21
-1047.43727751739
 31
0.0
  0
TEXT
  5
3B6
  8
回91-枠英1
 10
2232.696689716319
 20
-1094.648590221531
 30
0.0
 40
4.0
  1
3
  0
LINE
  5
3B7
  8
回91-枠英1
 10
2236.599248260163
 20
-1137.43727751739
 30
0.0
 11
2231.599248260163
 21
-1137.43727751739
 31
0.0
  0
TEXT
  5
3B8
  8
回91-枠英1
 10
2232.623597596238
 20
-1184.648590221531
 30
0.0
 40
4.0
  1
4
  0
LINE
  5
3B9
  8
回91-枠英1
 10
2716.599248260163
 20
-1407.43727751739
 30
0.0
 11
2716.599248260163
 21
-1412.437277517391
 31
0.0
  0
TEXT
  5
3BA
  8
回91-枠英1
 10
2675.328633565815
 20
-1412.064854391339
 30
0.0
 40
4.0
  1
F
  0
LINE
  5
3BB
  8
回91-枠英1
 10
2636.599248260163
 20
-1407.43727751739
 30
0.0
 11
2636.599248260163
 21
-1412.437277517391
 31
0.0
  0
TEXT
  5
3BC
  8
回91-枠英1
 10
2595.328633565815
 20
-1412.064854391339
 30
0.0
 40
4.0
  1
E
  0
LINE
  5
3BD
  8
回91-枠英1
 10
2556.599248260163
 20
-1407.43727751739
 30
0.0
 11
2556.599248260163
 21
-1412.437277517391
 31
0.0
  0
TEXT
  5
3BE
  8
回91-枠英1
 10
2515.328633565815
 20
-1412.064854391339
 30
0.0
 40
4.0
  1
D
  0
LINE
  5
3BF
  8
回91-枠英1
 10
2476.599248260163
 20
-1407.43727751739
 30
0.0
 11
2476.599248260163
 21
-1412.437277517391
 31
0.0
  0
TEXT
  5
3C0
  8
回91-枠英1
 10
2435.328633565815
 20
-1412.064854391339
 30
0.0
 40
4.0
  1
C
  0
LINE
  5
3C1
  8
回91-枠英1
 10
2396.599248260163
 20
-1407.43727751739
 30
0.0
 11
2396.599248260163
 21
-1412.437277517391
 31
0.0
  0
TEXT
  5
3C2
  8
回91-枠英1
 10
2355.328633565815
 20
-1412.064854391339
 30
0.0
 40
4.0
  1
B
  0
LINE
  5
3C3
  8
回91-枠英1
 10
2236.599248260163
 20
-1227.43727751739
 30
0.0
 11
2231.599248260163
 21
-1227.43727751739
 31
0.0
  0
TEXT
  5
3C4
  8
回91-枠英1
 10
2232.623597596238
 20
-1274.648590221531
 30
0.0
 40
4.0
  1
5
  0
LINE
  5
3C5
  8
回91-枠英1
 10
2236.599248260163
 20
-1317.437277517391
 30
0.0
 11
2231.599248260163
 21
-1317.437277517391
 31
0.0
  0
LINE
  5
3C6
  8
回91-枠英1
 10
2316.599248260164
 20
-1407.43727751739
 30
0.0
 11
2316.599248260164
 21
-1412.437277517391
 31
0.0
  0
TEXT
  5
3C7
  8
回91-枠英1
 10
2275.328633565815
 20
-1412.064854391339
 30
0.0
 40
4.0
  1
A
  0
TEXT
  5
3C8
  8
回91-枠英1
 10
2232.623597596238
 20
-1364.648590221531
 30
0.0
 40
4.0
  1
6
  0
LINE
  5
3C9
  8
回91-枠英1
 10
2236.599248260163
 20
-867.4372775173905
 30
0.0
 11
2236.599248260163
 21
-1407.43727751739
 31
0.0
  0
LINE
  5
3CA
  8
回91-枠英1
 10
2231.599248260163
 20
-1412.437277517391
 30
0.0
 11
2231.599248260163
 21
-862.4372775173906
 31
0.0
  0
LINE
  5
3CB
  8
回91-枠英1
 10
2236.599248260163
 20
-1407.43727751739
 30
0.0
 11
3036.599248260163
 21
-1407.43727751739
 31
0.0
  0
LINE
  5
3CC
  8
回91-枠英1
 10
3041.599248260164
 20
-1412.437277517391
 30
0.0
 11
2231.599248260163
 21
-1412.437277517391
 31
0.0
  0
LINE
  5
3CD
  8
回91-枠英1
 10
2236.599248260163
 20
-867.4372775173905
 30
0.0
 11
3036.599248260163
 21
-867.4372775173905
 31
0.0
  0
LINE
  5
3CE
  8
回91-枠英1
 10
3041.599248260164
 20
-862.4372775173906
 30
0.0
 11
2231.599248260163
 21
-862.4372775173906
 31
0.0
  0
ENDSEC
  0
EOF
